1944 2015 SrbSubs DVDRip x264 AAC k2rbseseen

Klikni za povečavo!
31-12-2020 10:30 naložil rado77
Sejalci: 0 / Odjemalci: 0 / Velikost: 2.51 GB / Dokončani: 7
Prenesi torrent Poročaj torrent Opis torrenta
Zvrst: Drama | Vojni | Zgodovinski
Kategorija: FILMI > DVDRip

1944 2015 SrbSubs DVDRip x264 AAC k2rbseseen


1944 (2015)


Direktor: Elmo Nüganen
Pisec: Leo Kunnas
Igrajo: Kaspar Velberg , Kristjan Üksküla , Maiken Pius
Žanri: Drama , Zgodovina , Vojna
Podnapisi: Srbski


Zgodba:

V filmu "1944" režiser Elmo Nüganen prikazuje resnične dogodke na vzhodni fronti v Estoniji leta 1944, od bitke pri Tannenburgu, julijskih spopadov na gričih Sinimäed, do novembra, ko je polotok Sorve že osvojila sovjetska vojska. Vojna je prikazana z očmi udeležencev dogodkov na obeh vojskujočih se straneh - Estoncev, ki so se borili na strani nemške vojske v 20. estonski diviziji Waffen-SS, in kot del 8. estonskega strelskega korpusa sovjetske vojske . Za prebivalce Estonije je bila to vojna, v kateri se vsak sam odloča. S tako težkimi odločitvami se soočajo glavna junaka filma - vojaka nasprotnih strani Carl Tammik in Urey Jogi - pa tudi njihovi tovariši, sorodniki, prijatelji in celo neznanci. Prispeval Ahmed Tanvir


Podrobnosti

Država: Estonija | Finska
Jezik: Estonski | Ruščina | Nemško
Datum izdaje:20. februar 2015 (Estonija)
Lokacije snemanja: Hribi Sinimäed, občina Narva-Jõesuu, okrožje Ida-Viru, Estonija
Izvajanje: 100 min

IMDb: https://www.imdb.com/title/tt3213684


Tehnične specifikacije:

Complete name : 1944 2015 SrbSubs DVDRip x264 AAC k2rbseseen\1944 2015 DVDRip x264 AAC k2rbseseen.mp4
Format : MPEG-4
Format profile : Base Media
Codec ID : isom (isom/iso2/mp41)
File size : 2.51 GiB
Duration : 1 h 36 min
Overall bit rate mode : Variable
Overall bit rate : 3 740 kb/s
Encoded date : UTC 1970-01-01 00:00:00
Tagged date : UTC 1970-01-01 00:00:00
Writing application : Lavf52.104.0

Video
ID : 1
Format : MPEG-4 Visual
Format profile : Simple@L3
Format settings, BVOP : No
Format settings, QPel : No
Format settings, GMC : No warppoints
Format settings, Matrix : Default (H.263)
Codec ID : mp4v-20
Duration : 1 h 36 min
Bit rate : 3 608 kb/s
Width : 1 280 pixels
Height : 720 pixels
Display aspect ratio : 16:9
Frame rate mode : Constant
Frame rate : 25.000 FPS
Color space : YUV
Chroma subsampling : 4:2:0
Bit depth : 8 bits
Scan type : Progressive
Compression mode : Lossy
Bits/(Pixel*Frame) : 0.157
Stream size : 2.42 GiB (96%)
Writing library : XviD 1.2.1 (UTC 2008-12-04)
Language : English
Encoded date : UTC 1970-01-01 00:00:00
Tagged date : UTC 1970-01-01 00:00:00

Audio
ID : 2
Format : AAC LC
Format/Info : Advanced Audio Codec Low Complexity
Codec ID : mp4a-40-2
Duration : 1 h 35 min
Bit rate mode : Variable
Bit rate : 128 kb/s
Channel(s) : 2 channels
Channel layout : L R
Sampling rate : 44.1 kHz
Frame rate : 43.066 FPS (1024 SPF)
Compression mode : Lossy
Stream size : 87.8 MiB (3%)
Language : English
Encoded date : UTC 1970-01-01 00:00:00
Tagged date : UTC 1970-01-01 00:00:00


Uživajte!
Ziva in apathy je to všeč.
Tagi za tale torrent: Drama, Zgodovina, Vojna
Delite na socialnem omrežju
1944 2015 SrbSubs DVDRip x264 AAC k2rbseseen


1944 (2015)


Direktor: Elmo Nüganen
Pisec: Leo Kunnas
Igrajo: Kaspar Velberg , Kristjan Üksküla , Maiken Pius
Žanri: Drama , Zgodovina , Vojna
Podnapisi: Srbski


Zgodba:

V filmu "1944" režiser Elmo Nüganen prikazuje resnične dogodke na vzhodni fronti v Estoniji leta 1944, od bitke pri Tannenburgu, julijskih spopadov na gričih Sinimäed, do novembra, ko je polotok Sorve že osvojila sovjetska vojska. Vojna je prikazana z očmi udeležencev dogodkov na obeh vojskujočih se straneh - Estoncev, ki so se borili na strani nemške vojske v 20. estonski diviziji Waffen-SS, in kot del 8. estonskega strelskega korpusa sovjetske vojske . Za prebivalce Estonije je bila to vojna, v kateri se vsak sam odloča. S tako težkimi odločitvami se soočajo glavna junaka filma - vojaka nasprotnih strani Carl Tammik in Urey Jogi - pa tudi njihovi tovariši, sorodniki, prijatelji in celo neznanci. Prispeval Ahmed Tanvir


Podrobnosti

Država: Estonija | Finska
Jezik: Estonski | Ruščina | Nemško
Datum izdaje:20. februar 2015 (Estonija)
Lokacije snemanja: Hribi Sinimäed, občina Narva-Jõesuu, okrožje Ida-Viru, Estonija
Izvajanje: 100 min

IMDb: https://www.imdb.com/title/tt3213684


Tehnične specifikacije:

Complete name : 1944 2015 SrbSubs DVDRip x264 AAC k2rbseseen\1944 2015 DVDRip x264 AAC k2rbseseen.mp4
Format : MPEG-4
Format profile : Base Media
Codec ID : isom (isom/iso2/mp41)
File size : 2.51 GiB
Duration : 1 h 36 min
Overall bit rate mode : Variable
Overall bit rate : 3 740 kb/s
Encoded date : UTC 1970-01-01 00:00:00
Tagged date : UTC 1970-01-01 00:00:00
Writing application : Lavf52.104.0

Video
ID : 1
Format : MPEG-4 Visual
Format profile : Simple@L3
Format settings, BVOP : No
Format settings, QPel : No
Format settings, GMC : No warppoints
Format settings, Matrix : Default (H.263)
Codec ID : mp4v-20
Duration : 1 h 36 min
Bit rate : 3 608 kb/s
Width : 1 280 pixels
Height : 720 pixels
Display aspect ratio : 16:9
Frame rate mode : Constant
Frame rate : 25.000 FPS
Color space : YUV
Chroma subsampling : 4:2:0
Bit depth : 8 bits
Scan type : Progressive
Compression mode : Lossy
Bits/(Pixel*Frame) : 0.157
Stream size : 2.42 GiB (96%)
Writing library : XviD 1.2.1 (UTC 2008-12-04)
Language : English
Encoded date : UTC 1970-01-01 00:00:00
Tagged date : UTC 1970-01-01 00:00:00

Audio
ID : 2
Format : AAC LC
Format/Info : Advanced Audio Codec Low Complexity
Codec ID : mp4a-40-2
Duration : 1 h 35 min
Bit rate mode : Variable
Bit rate : 128 kb/s
Channel(s) : 2 channels
Channel layout : L R
Sampling rate : 44.1 kHz
Frame rate : 43.066 FPS (1024 SPF)
Compression mode : Lossy
Stream size : 87.8 MiB (3%)
Language : English
Encoded date : UTC 1970-01-01 00:00:00
Tagged date : UTC 1970-01-01 00:00:00


Uživajte!
Trenutno še ni nobenega komentarja.
Nič ni najdeno.