Kampen.om.tungtvannet.S01.SRBSubs.720p.WEB.x264

Klikni za povečavo!
05-01-2021 12:49 naložil System
Sejalci: 1 / Odjemalci: 0 / Velikost: 2.74 GB / Dokončani: 7
Prenesi torrent Poročaj torrent Opis torrenta
Zvrst: Drama | Vojni | Zgodovinski
Kategorija: FILMI > TV - Serija
Anonimen nalagalec

Kampen.om.tungtvannet.S01.SRBSubs.720p.WEB.x264

Kampen om tungtvannet AKA The Saboteurs

TV Serija S01

Vojna s težko vodo



Zgodba o Hitlerjevem načrtu, da bi Nemčija med drugo svetovno vojno dobila atomsko bombo, in močne vodne sabotaže v Rjukanu na Norveškem, gledano s štirih zornih kotov, nemška stran, zavezniki, diverzanti in četa



OPIS DOGAJANJ:

Med drugo svetovno vojno je bil Vemork v Rjukanu v središču proizvodnje težke vode. Vojna s težko vodo je Nemce ustavila pri razvoju atomske bombe.
Če bi Nemci lahko nadaljevali z raziskovanjem težke vode, bi morda lahko zgradili atomsko bombo.
Takšen vtis so imeli zavezniški znanstveniki, medtem ko je bila druga svetovna vojna v polnem razvoju. Zaradi atomske bombe bi lahko zavezniki izgubili vojno.
Zavezniški znanstveniki so si neprestano prizadevali, da bi poskušali ustvariti jedrsko eksplozijo na podlagi drugih načel, vendar jih je čakala še dolga pot. In edini vir težke vode je bil na nemški okupirani Norveški, v Vemorku, v Rjukanu.
Sabotažne akcije, katerih namen je bil preprečiti Nemcem pridobivanje težke vode, so nekatera najbolj drzna in vznemirljiva dejanja druge svetovne vojne.
Vse se je začelo marca 1942, ko je padel samotni padalec, da bi zbral znanje o proizvodnji težke vode. 19. oktobra so v bližini Sognadalena, zahodno od Rjukana, spustili še štiri Norvežane. Vsi so bili lokalni fantje in so dobro poznali okolico. Njihova naloga je bila pripraviti diverzantsko akcijo in poslati radijska sporočila v Anglijo. Skupina je imela kodno ime "Grouse".
Potovanje skupine Grouse do predvidenega sedeža je bilo težko. Že stoletja so bili odrezani od zunanjega sveta, medtem ko so čakali na nove akumulatorje za radijsko postajo.
Mesec dni kasneje, 19. novembra 1942, je bila iz Anglije poslana britanska diverzantska skupina 34 posebej usposobljenih moških. Njihova naloga je bila napasti težko vodno tovarno v Vemorku in jo uničiti. Skupina Grouse naj bi delovala kot sprejemni odbor in pripravila pristanek na Skolandu blizu jezera Møsvatn.
Potem pa je prišlo do katastrofe. Moški so bili prepeljani z jadralnimi letali in eno letalo in jadralno letalo, ki ga je vleklo, je strmoglavilo v goro. Drugo jadralno letalo po izpustu ni uspelo pravilno pristati, pri čemer je nekaj njegovih prebivalcev umrlo, Nemci pa so preživele streljali.
Kljub temu nazadovanju je sestavljala skupina Grouse, čeprav so se spremenili v "Swallow". Zimo so bili prisiljeni preživeti skrite v surovi divjini gorske planote Hardangervidda, jesti, kar je ostalo od njihovih obrokov, in prehranjevati z mesom divjih severnih jelenov. Jedli so celo vsebino želodca severnih jelenov, da so dobili bistvena hranila.
16. februarja 1943 je nova skupina mladih Norvežanov, posebej usposobljenih za misijo, pristala na gorski planoti Hardangervidda. Pristala sta 50 km od predvidenega cilja in stopila naravnost v snežni metež. Trajalo je nekaj dni, preden je 6 članov nove skupine "Gunnerside" lahko združilo moči z nekdanjo skupino Grouse, zdaj preimenovano v Swallow.
27. februarja zvečer so bili diverzanti v Fjøsbudalenu, severno od obrata v Vemorku, in se pripravljali na napad.
Začeli so z nevarnim in izčrpavajočim spustom, prečkali sotesko, ki se je spuščala do obrata za težko vodo, in z ograjo prerezali žico.
Pokrovitelji so zavzeli svoje položaje in diverzantska skupina se je hitro odpravila do cilja.
Na posode za težko vodo so postavili eksplozivne naboje in jih večino uničili. Čudno je, da nobeden od nemških stražarjev ni ničesar opazil, dokler ni konec.
V tistem času pa diverzanti že dolgo niso več hodili po gorah in pospeševali pot po stari delovni cesti pod Krossobanenom. Sneg je ležal globoko in zelo se je temnilo. Bilo je težko potovanje, vendar so se vsi varno vrnili nazaj.
Skupina se je po počitku razdelila v dve skupini. Ena skupina je bila v celoti oborožena in v uniformi in je smučala celo čez Norveško do varnosti na Švedskem.
Druga skupina se je razširila in skrila po celotni gorski planoti Hardangervidda. Tri tisoč Nemcev je obkolilo območje in prečesalo divjino, da bi jih izsledilo, a nobenega od diverzantov ni uspelo ujeti. Radijska postaja je do konca vojne vzdrževala stike z zavezniškim poveljstvom v Londonu.
Nemci pa so obnovili obrat za težko vodo. Američani so to imeli za tako nevarno, da so se odločili bombardirati tovarno. 16. novembra 1943 je 160 letečih trdnjav priletelo nad Rjukan in bombardiralo Vemork, elektrarno in tovarno.
Nemci so bili prisiljeni opustiti načrte za proizvodnjo težke vode, vendar je napad zahteval več kot 20 norveških življenj.
Kasneje so diverzanti ugotovili, da nameravajo Nemci svoje zaloge polpredelane težke vode iz Rjukana preseliti v Nemčijo. Iz Londona so prejeli ukaz, da se pošiljka težke vode za vsako ceno in na kakršen koli način uniči.
Najšibkejši člen v transportni verigi je bil trajekt, ki je vozil vlak čez jezero Tinnsjø. Noč pred plovbo trajekta je diverzantom uspelo na plovilo vstaviti časovni naboj.
V nedeljo, 20. februarja 1944, ko je bil "Hydro" na pol poti čez jezero, je prišlo do eksplozije in trajekt se je v nekaj minutah potopil ter s seboj odnesel vitalno težko vodo, da je počivala na globini 460 metrov. Štirje Nemci in štirinajst Norvežanov so umrli, a bitka za težko vodo je bila na Norveškem končno končana.
Vir : Visitrjukan AS



Mesto tedanjih dogajanj je postalo Norveška priljubljena izletniška točka!




Igrajo:

Andreas Döhler , Robert Hunger-Bühler , Marc Ben Puch , Christoph Bach , Peri Baumeister , Espen Reboli Bjerke , Torstein Bjørklund , Ole Christoffer Ertvaag, Eirik Evjen, Anna Friel , Ragnhild H. Myntevik , Benjamin Helstad , Espen Klouman Høiner , Endre Joner Oftebro Ellefsen , Frank Kjosås , Rolf Kristian Larsen , Mads Sjøgård Pettersen , Søren Pilmark , Christian Rubeck , Maibritt Saerens , Audun Sandem , Tobias Santelmann , Dennis Storhøi , Pip Torrens , Stein Winge , David Zimmerschied , Julia Schacht , Clara Lien Sunde , Elg Elgesem , Corey Johnson , Uwe Preuss , Bjørn Iversen , Glenn Andre Kaada

Žanri:Drama, zgodovina, vojni




Podrobnosti

Država: Norveška | Danska | Združeno kraljestvo | Češka | Švedska
Jezik: Norveški | Angleščina | Nemščina | Danski
Datum izdaje:4. januar 2015 (Norveška)
Poznan tudi kot:Bitka za težko vodo
Lokacije snemanja: Praga, Češka
Izvajanje: 45 min | 267 min (skupni čas delovanja)


Tehnične specifikacije:

Complete name : Kampen.om.tungtvannet.S01.SRBSubs.720p.WEB.x264
Format : MPEG-4
Format profile : Base Media
Codec ID : isom (isom/iso2/avc1/mp41)
File size : 488 MiB
Duration : 44 min 53 s
Overall bit rate : 1 518 kb/s
Writing application : Lavf56.19.100

Video
ID : 1
Format : AVC
Format/Info : Advanced Video Codec
Format profile : High@L3.1
Format settings, CABAC : Yes
Format settings, RefFrames : 4 frames
Codec ID : avc1
Codec ID/Info : Advanced Video Coding
Duration : 44 min 53 s
Bit rate : 1 384 kb/s
Width : 1 280 pixels
Height : 720 pixels
Display aspect ratio : 16:9
Frame rate mode : Constant
Frame rate : 25.000 FPS
Color space : YUV
Chroma subsampling : 4:2:0
Bit depth : 8 bits
Scan type : Progressive
Bits/(Pixel*Frame) : 0.060
Stream size : 445 MiB (91%)
Writing library : x264 core 144 r2525 40bb568

Audio
ID : 2
Format : AAC
Format/Info : Advanced Audio Codec
Format profile : LC
Codec ID : 40
Duration : 44 min 53 s
Bit rate mode : Constant
Bit rate : 128 kb/s
Channel(s) : 2 channels
Channel positions : Front: L R
Sampling rate : 48.0 kHz
Frame rate : 46.875 FPS (1024 SPF)
Compression mode : Lossy
Stream size : 41.1 MiB (8%)
Default : Yes
Alternate group : 1

UŽIVAJTE!
mrvica1973 je to všeč
Tagi za tale torrent: Drama, Zgodovina, Vojni
Delite na socialnem omrežju
Kampen.om.tungtvannet.S01.SRBSubs.720p.WEB.x264

Kampen om tungtvannet AKA The Saboteurs

TV Serija S01

Vojna s težko vodo



Zgodba o Hitlerjevem načrtu, da bi Nemčija med drugo svetovno vojno dobila atomsko bombo, in močne vodne sabotaže v Rjukanu na Norveškem, gledano s štirih zornih kotov, nemška stran, zavezniki, diverzanti in četa



OPIS DOGAJANJ:

Med drugo svetovno vojno je bil Vemork v Rjukanu v središču proizvodnje težke vode. Vojna s težko vodo je Nemce ustavila pri razvoju atomske bombe.
Če bi Nemci lahko nadaljevali z raziskovanjem težke vode, bi morda lahko zgradili atomsko bombo.
Takšen vtis so imeli zavezniški znanstveniki, medtem ko je bila druga svetovna vojna v polnem razvoju. Zaradi atomske bombe bi lahko zavezniki izgubili vojno.
Zavezniški znanstveniki so si neprestano prizadevali, da bi poskušali ustvariti jedrsko eksplozijo na podlagi drugih načel, vendar jih je čakala še dolga pot. In edini vir težke vode je bil na nemški okupirani Norveški, v Vemorku, v Rjukanu.
Sabotažne akcije, katerih namen je bil preprečiti Nemcem pridobivanje težke vode, so nekatera najbolj drzna in vznemirljiva dejanja druge svetovne vojne.
Vse se je začelo marca 1942, ko je padel samotni padalec, da bi zbral znanje o proizvodnji težke vode. 19. oktobra so v bližini Sognadalena, zahodno od Rjukana, spustili še štiri Norvežane. Vsi so bili lokalni fantje in so dobro poznali okolico. Njihova naloga je bila pripraviti diverzantsko akcijo in poslati radijska sporočila v Anglijo. Skupina je imela kodno ime "Grouse".
Potovanje skupine Grouse do predvidenega sedeža je bilo težko. Že stoletja so bili odrezani od zunanjega sveta, medtem ko so čakali na nove akumulatorje za radijsko postajo.
Mesec dni kasneje, 19. novembra 1942, je bila iz Anglije poslana britanska diverzantska skupina 34 posebej usposobljenih moških. Njihova naloga je bila napasti težko vodno tovarno v Vemorku in jo uničiti. Skupina Grouse naj bi delovala kot sprejemni odbor in pripravila pristanek na Skolandu blizu jezera Møsvatn.
Potem pa je prišlo do katastrofe. Moški so bili prepeljani z jadralnimi letali in eno letalo in jadralno letalo, ki ga je vleklo, je strmoglavilo v goro. Drugo jadralno letalo po izpustu ni uspelo pravilno pristati, pri čemer je nekaj njegovih prebivalcev umrlo, Nemci pa so preživele streljali.
Kljub temu nazadovanju je sestavljala skupina Grouse, čeprav so se spremenili v "Swallow". Zimo so bili prisiljeni preživeti skrite v surovi divjini gorske planote Hardangervidda, jesti, kar je ostalo od njihovih obrokov, in prehranjevati z mesom divjih severnih jelenov. Jedli so celo vsebino želodca severnih jelenov, da so dobili bistvena hranila.
16. februarja 1943 je nova skupina mladih Norvežanov, posebej usposobljenih za misijo, pristala na gorski planoti Hardangervidda. Pristala sta 50 km od predvidenega cilja in stopila naravnost v snežni metež. Trajalo je nekaj dni, preden je 6 članov nove skupine "Gunnerside" lahko združilo moči z nekdanjo skupino Grouse, zdaj preimenovano v Swallow.
27. februarja zvečer so bili diverzanti v Fjøsbudalenu, severno od obrata v Vemorku, in se pripravljali na napad.
Začeli so z nevarnim in izčrpavajočim spustom, prečkali sotesko, ki se je spuščala do obrata za težko vodo, in z ograjo prerezali žico.
Pokrovitelji so zavzeli svoje položaje in diverzantska skupina se je hitro odpravila do cilja.
Na posode za težko vodo so postavili eksplozivne naboje in jih večino uničili. Čudno je, da nobeden od nemških stražarjev ni ničesar opazil, dokler ni konec.
V tistem času pa diverzanti že dolgo niso več hodili po gorah in pospeševali pot po stari delovni cesti pod Krossobanenom. Sneg je ležal globoko in zelo se je temnilo. Bilo je težko potovanje, vendar so se vsi varno vrnili nazaj.
Skupina se je po počitku razdelila v dve skupini. Ena skupina je bila v celoti oborožena in v uniformi in je smučala celo čez Norveško do varnosti na Švedskem.
Druga skupina se je razširila in skrila po celotni gorski planoti Hardangervidda. Tri tisoč Nemcev je obkolilo območje in prečesalo divjino, da bi jih izsledilo, a nobenega od diverzantov ni uspelo ujeti. Radijska postaja je do konca vojne vzdrževala stike z zavezniškim poveljstvom v Londonu.
Nemci pa so obnovili obrat za težko vodo. Američani so to imeli za tako nevarno, da so se odločili bombardirati tovarno. 16. novembra 1943 je 160 letečih trdnjav priletelo nad Rjukan in bombardiralo Vemork, elektrarno in tovarno.
Nemci so bili prisiljeni opustiti načrte za proizvodnjo težke vode, vendar je napad zahteval več kot 20 norveških življenj.
Kasneje so diverzanti ugotovili, da nameravajo Nemci svoje zaloge polpredelane težke vode iz Rjukana preseliti v Nemčijo. Iz Londona so prejeli ukaz, da se pošiljka težke vode za vsako ceno in na kakršen koli način uniči.
Najšibkejši člen v transportni verigi je bil trajekt, ki je vozil vlak čez jezero Tinnsjø. Noč pred plovbo trajekta je diverzantom uspelo na plovilo vstaviti časovni naboj.
V nedeljo, 20. februarja 1944, ko je bil "Hydro" na pol poti čez jezero, je prišlo do eksplozije in trajekt se je v nekaj minutah potopil ter s seboj odnesel vitalno težko vodo, da je počivala na globini 460 metrov. Štirje Nemci in štirinajst Norvežanov so umrli, a bitka za težko vodo je bila na Norveškem končno končana.
Vir : Visitrjukan AS



Mesto tedanjih dogajanj je postalo Norveška priljubljena izletniška točka!




Igrajo:

Andreas Döhler , Robert Hunger-Bühler , Marc Ben Puch , Christoph Bach , Peri Baumeister , Espen Reboli Bjerke , Torstein Bjørklund , Ole Christoffer Ertvaag, Eirik Evjen, Anna Friel , Ragnhild H. Myntevik , Benjamin Helstad , Espen Klouman Høiner , Endre Joner Oftebro Ellefsen , Frank Kjosås , Rolf Kristian Larsen , Mads Sjøgård Pettersen , Søren Pilmark , Christian Rubeck , Maibritt Saerens , Audun Sandem , Tobias Santelmann , Dennis Storhøi , Pip Torrens , Stein Winge , David Zimmerschied , Julia Schacht , Clara Lien Sunde , Elg Elgesem , Corey Johnson , Uwe Preuss , Bjørn Iversen , Glenn Andre Kaada

Žanri:Drama, zgodovina, vojni




Podrobnosti

Država: Norveška | Danska | Združeno kraljestvo | Češka | Švedska
Jezik: Norveški | Angleščina | Nemščina | Danski
Datum izdaje:4. januar 2015 (Norveška)
Poznan tudi kot:Bitka za težko vodo
Lokacije snemanja: Praga, Češka
Izvajanje: 45 min | 267 min (skupni čas delovanja)


Tehnične specifikacije:

Complete name : Kampen.om.tungtvannet.S01.SRBSubs.720p.WEB.x264
Format : MPEG-4
Format profile : Base Media
Codec ID : isom (isom/iso2/avc1/mp41)
File size : 488 MiB
Duration : 44 min 53 s
Overall bit rate : 1 518 kb/s
Writing application : Lavf56.19.100

Video
ID : 1
Format : AVC
Format/Info : Advanced Video Codec
Format profile : High@L3.1
Format settings, CABAC : Yes
Format settings, RefFrames : 4 frames
Codec ID : avc1
Codec ID/Info : Advanced Video Coding
Duration : 44 min 53 s
Bit rate : 1 384 kb/s
Width : 1 280 pixels
Height : 720 pixels
Display aspect ratio : 16:9
Frame rate mode : Constant
Frame rate : 25.000 FPS
Color space : YUV
Chroma subsampling : 4:2:0
Bit depth : 8 bits
Scan type : Progressive
Bits/(Pixel*Frame) : 0.060
Stream size : 445 MiB (91%)
Writing library : x264 core 144 r2525 40bb568

Audio
ID : 2
Format : AAC
Format/Info : Advanced Audio Codec
Format profile : LC
Codec ID : 40
Duration : 44 min 53 s
Bit rate mode : Constant
Bit rate : 128 kb/s
Channel(s) : 2 channels
Channel positions : Front: L R
Sampling rate : 48.0 kHz
Frame rate : 46.875 FPS (1024 SPF)
Compression mode : Lossy
Stream size : 41.1 MiB (8%)
Default : Yes
Alternate group : 1

UŽIVAJTE!
Ta serija je res izjemna in prav čudim se, da nima odjemalcev. Ali ste jo res že vsi videli?
rado77 23-01-2021 15:03
bom potegno da vidim, hvala.
kain 23-01-2021 17:33
Nič ni najdeno.