Atlantic.Crossing.aka.Z.druge.strani.Atlanktika.2020.SLOSubsS01.720.HDTVRip.AAC-R77

Klikni za povečavo!
23-01-2021 12:31 naložil System
Sejalci: 1 / Odjemalci: 0 / Velikost: 4.7 GB / Dokončani: 4
Prenesi torrent Poročaj torrent Opis torrenta
Zvrst: Drama | Zgodovinski
Kategorija: FILMI > TV - Serija
Anonimen nalagalec

Atlantic.Crossing.aka.Z.druge.strani.Atlanktika.2020.SLOSubsS01.720.HDTVRip.AAC-R77




Atlantic Crossing 2020
TV Serija

Z DRUGE STRANI ATLANKTIKA
Sezona 01


Opis:
Princ Olaf se vse bolj vdaja pijači. Kralj mu že leta ne dovoli drugega kot opazovati dogajanje, in to ga peha v malodušje. Norveška vlada zato sklene, da mu bo dodelila položaj vrhovnega poveljnika norveških čet. To je razlog, da znova odpotuje v Washington. Ko opazuje svojo družino, se zave, da že dolgo ni več njen del. Marta razmišlja o ločenem življenju, nato pa se vojna konča in Olaf sklene, da bo obrnil nov list in se zazrl v prihodnost. Marta se tako vrne v domovino in z možem se znova povežeta.


Država: Norveška, Nemčija, ZDA, Švedska, Danska
Scenarij: Alexander Eik, Linda May Kallestein
Režija: Alexander Eik, Janic Heen
V glavnih vlogah: Sofia Helin, Kyle MacLachlan, Tobias Santelmann, Harriet Sansom Harris, Daniel Betts, Søren Pilmark, Lucy Russell
Epizode: 8
Žanri: drama, zgodovina
Podnapisi: Slovenski


Tehnićne specifikacije:
Complete name : Z druge strani Atlantika.S01.E02.SLOSubs.R77.mp4
Format : MPEG-4
Format profile : Base Media
Codec ID : isom (isom/iso2/avc1/mp41)
File size : 583 MiB
Duration : 55 min 23 s
Overall bit rate : 1 471 kb/s
Writing application : Lavf58.20.100

Video
ID : 1
Format : AVC
Format/Info : Advanced Video Codec
Format profile : High@L3.1
Format settings : CABAC / 3 Ref Frames
Format settings, CABAC : Yes
Format settings, Reference frames : 3 frames
Codec ID : avc1
Codec ID/Info : Advanced Video Coding
Duration : 55 min 23 s
Bit rate : 1 338 kb/s
Width : 1 280 pixels
Height : 720 pixels
Display aspect ratio : 16:9
Frame rate mode : Constant
Frame rate : 25.000 FPS
Color space : YUV
Chroma subsampling : 4:2:0
Bit depth : 8 bits
Scan type : Progressive
Bits/(Pixel*Frame) : 0.058
Stream size : 530 MiB (91%)
Writing library : x264 core 148

Audio
ID : 2
Format : AAC LC
Format/Info : Advanced Audio Codec Low Complexity
Codec ID : mp4a-40-2
Duration : 55 min 23 s
Bit rate mode : Constant
Bit rate : 128 kb/s
Channel(s) : 2 channels
Channel layout : L R
Sampling rate : 44.1 kHz
Frame rate : 43.066 FPS (1024 SPF)
Compression mode : Lossy
Stream size : 50.7 MiB (9%)
Default : Yes
Alternate group : 1


Veliko užitkov!
synysa je to všeč
Tagi za tale torrent: Drama, Zgodovina
Delite na socialnem omrežju
Atlantic.Crossing.aka.Z.druge.strani.Atlanktika.2020.SLOSubsS01.720.HDTVRip.AAC-R77




Atlantic Crossing 2020
TV Serija

Z DRUGE STRANI ATLANKTIKA
Sezona 01


Opis:
Princ Olaf se vse bolj vdaja pijači. Kralj mu že leta ne dovoli drugega kot opazovati dogajanje, in to ga peha v malodušje. Norveška vlada zato sklene, da mu bo dodelila položaj vrhovnega poveljnika norveških čet. To je razlog, da znova odpotuje v Washington. Ko opazuje svojo družino, se zave, da že dolgo ni več njen del. Marta razmišlja o ločenem življenju, nato pa se vojna konča in Olaf sklene, da bo obrnil nov list in se zazrl v prihodnost. Marta se tako vrne v domovino in z možem se znova povežeta.


Država: Norveška, Nemčija, ZDA, Švedska, Danska
Scenarij: Alexander Eik, Linda May Kallestein
Režija: Alexander Eik, Janic Heen
V glavnih vlogah: Sofia Helin, Kyle MacLachlan, Tobias Santelmann, Harriet Sansom Harris, Daniel Betts, Søren Pilmark, Lucy Russell
Epizode: 8
Žanri: drama, zgodovina
Podnapisi: Slovenski


Tehnićne specifikacije:
Complete name : Z druge strani Atlantika.S01.E02.SLOSubs.R77.mp4
Format : MPEG-4
Format profile : Base Media
Codec ID : isom (isom/iso2/avc1/mp41)
File size : 583 MiB
Duration : 55 min 23 s
Overall bit rate : 1 471 kb/s
Writing application : Lavf58.20.100

Video
ID : 1
Format : AVC
Format/Info : Advanced Video Codec
Format profile : High@L3.1
Format settings : CABAC / 3 Ref Frames
Format settings, CABAC : Yes
Format settings, Reference frames : 3 frames
Codec ID : avc1
Codec ID/Info : Advanced Video Coding
Duration : 55 min 23 s
Bit rate : 1 338 kb/s
Width : 1 280 pixels
Height : 720 pixels
Display aspect ratio : 16:9
Frame rate mode : Constant
Frame rate : 25.000 FPS
Color space : YUV
Chroma subsampling : 4:2:0
Bit depth : 8 bits
Scan type : Progressive
Bits/(Pixel*Frame) : 0.058
Stream size : 530 MiB (91%)
Writing library : x264 core 148

Audio
ID : 2
Format : AAC LC
Format/Info : Advanced Audio Codec Low Complexity
Codec ID : mp4a-40-2
Duration : 55 min 23 s
Bit rate mode : Constant
Bit rate : 128 kb/s
Channel(s) : 2 channels
Channel layout : L R
Sampling rate : 44.1 kHz
Frame rate : 43.066 FPS (1024 SPF)
Compression mode : Lossy
Stream size : 50.7 MiB (9%)
Default : Yes
Alternate group : 1


Veliko užitkov!
Trenutno še ni nobenega komentarja.
Nič ni najdeno.