ABBA.More.GOLD.720p.TVRip.R77

Klikni za povečavo!
13-02-2021 15:16 naložil rado77
Sejalci: 2 / Odjemalci: 0 / Velikost: 1.46 GB / Dokončani: 1
Prenesi torrent Poročaj torrent Opis torrenta
Zvrst: Glasbeni
Kategorija: GLASBA > Video

ABBA.More.GOLD.720p.TVRip.R77


ABBA More GOLD


Žanr: Pop
Slog: Europop , Disco
Leto: 1993

Opombe:
Vključuje avdio in video
Leto glavne izdaje: 1993, 1999 (preoblikovano)


Video formati vključujejo samo 13 skladb, na katerih je 9 skladb, od katerih video obstaja (v enakem vrstnem redu, kot so prikazani v zvočnih formatih), sledijo pa še štirje dodatni videoposnetki: "Bang-A-Boomerang", "One Man, One Woman" , "To sem jaz" in "Srečno novo leto".


Seznam skladb:

Summer Night City3:28
Angeleyes4:16
The Day Before You Came5:47
Eagle4:23
I Do, I Do, I Do, I Do, I Do3:16
So Long3:06
Honey, Honey2:53
The Visitors4:27
Our Last Summer4:19
On And On And On3:38
Ring Ring3:00
I Wonder (Departure)4:34
Lovelight3:18
Head Over Heels3:45
When I Kissed The Teacher3:00
I Am The City4:00
Cassandra4:50
Under Attack3:44
When All Is Said And Done3:16
The Way Old Friends Do2:52


Tehnične specifikacije:

Complete name : ABBA.More.GOLD.720p.TVRip.R77\ABBA More GOLD.mp4
Format : MPEG-4
Format profile : Base Media
Codec ID : isom (isom/iso2/avc1/mp41)
File size : 1.46 GiB
Duration : 50 min 36 s
Overall bit rate : 4 123 kb/s
Writing application : Lavf58.29.100

Video
ID : 1
Format : AVC
Format/Info : Advanced Video Codec
Format profile : High@L3
Format settings : CABAC / 2 Ref Frames
Format settings, CABAC : Yes
Format settings, Reference frames : 2 frames
Codec ID : avc1
Codec ID/Info : Advanced Video Coding
Duration : 50 min 36 s
Bit rate : 3 986 kb/s
Width : 720 pixels
Height : 576 pixels
Display aspect ratio : 5:4
Frame rate mode : Constant
Frame rate : 25.000 FPS
Standard : PAL
Color space : YUV
Chroma subsampling : 4:2:0
Bit depth : 8 bits
Scan type : Progressive
Bits/(Pixel*Frame) : 0.384
Stream size : 1.41 GiB (97%)
Codec configuration box : avcC

Audio
ID : 2
Format : AAC LC
Format/Info : Advanced Audio Codec Low Complexity
Codec ID : mp4a-40-2
Duration : 50 min 36 s
Bit rate mode : Constant
Bit rate : 128 kb/s
Channel(s) : 2 channels
Channel layout : L R
Sampling rate : 44.1 kHz
Frame rate : 43.066 FPS (1024 SPF)
Compression mode : Lossy
Stream size : 46.5 MiB (3%)
Default : Yes
Alternate group : 1


SE NADALJUJE!

Veliko užitkov!
eva je to všeč
Tagi za tale torrent: Glasba, Video
Delite na socialnem omrežju
ABBA.More.GOLD.720p.TVRip.R77


ABBA More GOLD


Žanr: Pop
Slog: Europop , Disco
Leto: 1993

Opombe:
Vključuje avdio in video
Leto glavne izdaje: 1993, 1999 (preoblikovano)


Video formati vključujejo samo 13 skladb, na katerih je 9 skladb, od katerih video obstaja (v enakem vrstnem redu, kot so prikazani v zvočnih formatih), sledijo pa še štirje dodatni videoposnetki: "Bang-A-Boomerang", "One Man, One Woman" , "To sem jaz" in "Srečno novo leto".


Seznam skladb:

Summer Night City3:28
Angeleyes4:16
The Day Before You Came5:47
Eagle4:23
I Do, I Do, I Do, I Do, I Do3:16
So Long3:06
Honey, Honey2:53
The Visitors4:27
Our Last Summer4:19
On And On And On3:38
Ring Ring3:00
I Wonder (Departure)4:34
Lovelight3:18
Head Over Heels3:45
When I Kissed The Teacher3:00
I Am The City4:00
Cassandra4:50
Under Attack3:44
When All Is Said And Done3:16
The Way Old Friends Do2:52


Tehnične specifikacije:

Complete name : ABBA.More.GOLD.720p.TVRip.R77\ABBA More GOLD.mp4
Format : MPEG-4
Format profile : Base Media
Codec ID : isom (isom/iso2/avc1/mp41)
File size : 1.46 GiB
Duration : 50 min 36 s
Overall bit rate : 4 123 kb/s
Writing application : Lavf58.29.100

Video
ID : 1
Format : AVC
Format/Info : Advanced Video Codec
Format profile : High@L3
Format settings : CABAC / 2 Ref Frames
Format settings, CABAC : Yes
Format settings, Reference frames : 2 frames
Codec ID : avc1
Codec ID/Info : Advanced Video Coding
Duration : 50 min 36 s
Bit rate : 3 986 kb/s
Width : 720 pixels
Height : 576 pixels
Display aspect ratio : 5:4
Frame rate mode : Constant
Frame rate : 25.000 FPS
Standard : PAL
Color space : YUV
Chroma subsampling : 4:2:0
Bit depth : 8 bits
Scan type : Progressive
Bits/(Pixel*Frame) : 0.384
Stream size : 1.41 GiB (97%)
Codec configuration box : avcC

Audio
ID : 2
Format : AAC LC
Format/Info : Advanced Audio Codec Low Complexity
Codec ID : mp4a-40-2
Duration : 50 min 36 s
Bit rate mode : Constant
Bit rate : 128 kb/s
Channel(s) : 2 channels
Channel layout : L R
Sampling rate : 44.1 kHz
Frame rate : 43.066 FPS (1024 SPF)
Compression mode : Lossy
Stream size : 46.5 MiB (3%)
Default : Yes
Alternate group : 1


SE NADALJUJE!

Veliko užitkov!
Trenutno še ni nobenega komentarja.
Nič ni najdeno.