ABBA.Music.Videos.Collection.720p.TVRip.R77

Klikni za povečavo!
15-02-2021 12:22 naložil rado77
Sejalci: 2 / Odjemalci: 1 / Velikost: 2.67 GB / Dokončani: 1
Prenesi torrent Poročaj torrent Opis torrenta
Zvrst: Glasbeni
Kategorija: GLASBA > Video

ABBA.Music.Videos.Collection.720p.TVRip.R77


ABBA Music Videos Collection


ABBA video collection.mp4"
Video-spoti: 2h 15min


ABBA - The Day Before You Came 1981.mp4"
ABBA - Chiquitita 1979.mp4"
ABBA - The Name Of The Game 1977.mp4"
ABBA - The Winner Takes It All 1980.mp4"
ABBA - Estoy Sonando (I Have A Dream) 1979.mp4"
ABBA - One Man, One Woman 1977.mp4"
ABBA - Happy New Year 1980.mp4"
ABBA - Felicidad (Happy New Year) 1980.mp4"
ABBA - Fernando 1976.mp4"
ABBA - On And On And On 1980.mp4"
ABBA - Voulez-Vous 1979.mp4"
ABBA - Super Trooper 1980.mp4"
ABBA - Knowing Me, Knowing You 1976.mp4"
ABBA - Take A Chance On Me 1977.mp4"
ABBA - Dancing Queen 1976.mp4"
ABBA - One Of Us 1981.mp4"
ABBA - Eagle 1977.mp4"
ABBA - Under Attack 1982.mp4"
ABBA - Thank You For The Music 1977.mp4"
ABBA - Dancing Queen (Live At The Swedish Royal Opera) 1976.mp4"
ABBA - Head Over Heels 1981.mp4"
ABBA - Summer Night City 1978.mp4"
ABBA - Mamma Mia 1975.mp4"
ABBA - Gimme Gimmie Gimmie (A Man After Midnight) 1979.mp4"
ABBA - No Hay A Quien Culpar (When All Is Said And Done) 1981.mp4"
ABBA - I Do I Do I Do I Do I Do 1975.mp4"
ABBA - SOS 1975.mp4"
ABBA - When All Is Said And Done 1981.mp4"
ABBA - That-s Me 1977.mp4"
ABBA - Money, Money, Money 1976.mp4"
ABBA - Does Your Mother Know 1979.mp4"
ABBA - Ring Ring 1973.mp4"
ABBA - Bang-A-Boomerang 1974.mp4"
ABBA - When I Kissed the Teacher 1976.mp4"
ABBA - Waterloo 1974.mp4"

DODATEK:
ABBA - Video Picture Gallery.mp4"
Video-spoti s slikami: 21 min

DODATEK:
ABBA. Daba Du.Documentary.avi"
Dokumentarni film o skupini


O skupini ABBA:
ABBA je bila švedska pop skupina, ustanovljena v Stockholmu leta 1972, v kateri so bili Agnetha Fältskog, Björn Ulvaeus, Benny Andersson in Anni-Frid Lyngstad. ABBA je kratica prvih črk imen članov skupine in je včasih stilizirana kot registrirana blagovna znamka ABBA. Skupina je postala eno komercialno najuspešnejših zasedb v zgodovini popularne glasbe, ki je bila od leta 1975 do 1982. na lestvici po vsem svetu. Zmagala je tudi na Evroviziji 1974, s čimer je Švedska prvič zmagala v zgodovini tekmovanja in postala najbolj uspešna skupina, ki se je kdaj udeležila tekmovanja.


Tehnične specifikacije:
Complete name : ABBA video collection
Format : MPEG-4
Format profile : Base Media
Codec ID : isom (isom/iso2/avc1/mp41)
File size : 1.62 GiB
Duration : 2 h 15 min
Overall bit rate : 1 708 kb/s

Video
ID : 1
Format : AVC
Format/Info : Advanced Video Codec
Format profile : Main@L3.1
Format settings : CABAC / 1 Ref Frames
Format settings, CABAC : Yes
Format settings, Reference frames : 1 frame
Codec ID : avc1
Codec ID/Info : Advanced Video Coding
Duration : 2 h 15 min
Bit rate : 1 511 kb/s
Width : 768 pixels
Height : 576 pixels
Display aspect ratio : 4:3
Frame rate mode : Variable
Frame rate : 25.000 FPS
Minimum frame rate : 10.000 FPS
Maximum frame rate : 25.000 FPS
Color space : YUV
Chroma subsampling : 4:2:0
Bit depth : 8 bits
Scan type : Progressive
Bits/(Pixel*Frame) : 0.137
Stream size : 1.43 GiB (88%)
Codec configuration box : avcC

Audio
ID : 2
Format : AAC LC
Format/Info : Advanced Audio Codec Low Complexity
Codec ID : mp4a-40-2
Duration : 2 h 15 min
Bit rate mode : Constant
Bit rate : 192 kb/s
Channel(s) : 2 channels
Channel layout : L R
Sampling rate : 48.0 kHz
Frame rate : 46.875 FPS (1024 SPF)
Compression mode : Lossy
Stream size : 190 MiB (11%)
Default : Yes
Alternate group : 1

SE NADALJUJE!

Veliko užitkov!
eva je to všeč
Tagi za tale torrent: Glasba-video
Delite na socialnem omrežju
ABBA.Music.Videos.Collection.720p.TVRip.R77


ABBA Music Videos Collection


ABBA video collection.mp4"
Video-spoti: 2h 15min


ABBA - The Day Before You Came 1981.mp4"
ABBA - Chiquitita 1979.mp4"
ABBA - The Name Of The Game 1977.mp4"
ABBA - The Winner Takes It All 1980.mp4"
ABBA - Estoy Sonando (I Have A Dream) 1979.mp4"
ABBA - One Man, One Woman 1977.mp4"
ABBA - Happy New Year 1980.mp4"
ABBA - Felicidad (Happy New Year) 1980.mp4"
ABBA - Fernando 1976.mp4"
ABBA - On And On And On 1980.mp4"
ABBA - Voulez-Vous 1979.mp4"
ABBA - Super Trooper 1980.mp4"
ABBA - Knowing Me, Knowing You 1976.mp4"
ABBA - Take A Chance On Me 1977.mp4"
ABBA - Dancing Queen 1976.mp4"
ABBA - One Of Us 1981.mp4"
ABBA - Eagle 1977.mp4"
ABBA - Under Attack 1982.mp4"
ABBA - Thank You For The Music 1977.mp4"
ABBA - Dancing Queen (Live At The Swedish Royal Opera) 1976.mp4"
ABBA - Head Over Heels 1981.mp4"
ABBA - Summer Night City 1978.mp4"
ABBA - Mamma Mia 1975.mp4"
ABBA - Gimme Gimmie Gimmie (A Man After Midnight) 1979.mp4"
ABBA - No Hay A Quien Culpar (When All Is Said And Done) 1981.mp4"
ABBA - I Do I Do I Do I Do I Do 1975.mp4"
ABBA - SOS 1975.mp4"
ABBA - When All Is Said And Done 1981.mp4"
ABBA - That-s Me 1977.mp4"
ABBA - Money, Money, Money 1976.mp4"
ABBA - Does Your Mother Know 1979.mp4"
ABBA - Ring Ring 1973.mp4"
ABBA - Bang-A-Boomerang 1974.mp4"
ABBA - When I Kissed the Teacher 1976.mp4"
ABBA - Waterloo 1974.mp4"

DODATEK:
ABBA - Video Picture Gallery.mp4"
Video-spoti s slikami: 21 min

DODATEK:
ABBA. Daba Du.Documentary.avi"
Dokumentarni film o skupini


O skupini ABBA:
ABBA je bila švedska pop skupina, ustanovljena v Stockholmu leta 1972, v kateri so bili Agnetha Fältskog, Björn Ulvaeus, Benny Andersson in Anni-Frid Lyngstad. ABBA je kratica prvih črk imen članov skupine in je včasih stilizirana kot registrirana blagovna znamka ABBA. Skupina je postala eno komercialno najuspešnejših zasedb v zgodovini popularne glasbe, ki je bila od leta 1975 do 1982. na lestvici po vsem svetu. Zmagala je tudi na Evroviziji 1974, s čimer je Švedska prvič zmagala v zgodovini tekmovanja in postala najbolj uspešna skupina, ki se je kdaj udeležila tekmovanja.


Tehnične specifikacije:
Complete name : ABBA video collection
Format : MPEG-4
Format profile : Base Media
Codec ID : isom (isom/iso2/avc1/mp41)
File size : 1.62 GiB
Duration : 2 h 15 min
Overall bit rate : 1 708 kb/s

Video
ID : 1
Format : AVC
Format/Info : Advanced Video Codec
Format profile : Main@L3.1
Format settings : CABAC / 1 Ref Frames
Format settings, CABAC : Yes
Format settings, Reference frames : 1 frame
Codec ID : avc1
Codec ID/Info : Advanced Video Coding
Duration : 2 h 15 min
Bit rate : 1 511 kb/s
Width : 768 pixels
Height : 576 pixels
Display aspect ratio : 4:3
Frame rate mode : Variable
Frame rate : 25.000 FPS
Minimum frame rate : 10.000 FPS
Maximum frame rate : 25.000 FPS
Color space : YUV
Chroma subsampling : 4:2:0
Bit depth : 8 bits
Scan type : Progressive
Bits/(Pixel*Frame) : 0.137
Stream size : 1.43 GiB (88%)
Codec configuration box : avcC

Audio
ID : 2
Format : AAC LC
Format/Info : Advanced Audio Codec Low Complexity
Codec ID : mp4a-40-2
Duration : 2 h 15 min
Bit rate mode : Constant
Bit rate : 192 kb/s
Channel(s) : 2 channels
Channel layout : L R
Sampling rate : 48.0 kHz
Frame rate : 46.875 FPS (1024 SPF)
Compression mode : Lossy
Stream size : 190 MiB (11%)
Default : Yes
Alternate group : 1

SE NADALJUJE!

Veliko užitkov!
Trenutno še ni nobenega komentarja.
Nič ni najdeno.