Still.Alice.2014.SLOSubs.DVDRip.Xvid-R77

Klikni za povečavo!
15-02-2021 15:37 naložil rado77
Sejalci: 1 / Odjemalci: 0 / Velikost: 1.07 GB / Dokončani: 0
Prenesi torrent Poročaj torrent Opis torrenta
Zvrst: Drama
Kategorija: FILMI > DVDRip

Still.Alice.2014.SLOSubs.DVDRip.Xvid-R77


Still Alice 2014

ŠE VEDNO ALICE


Igrajo: Alec Baldwin , Hunter Parrish , Julianne Moore , Kate Bosworth , Kristen Stewart , Seth Gilliam , Shane McRae

Povzetek:
Alice Howland (Julianne Moore), uspešna profesorica jezikoslovja na univerzi Columbia, ki je bila srečno poročena s tremi odraselimi otroki, si prizadeva ohraniti svoj um, potem ko je bila diagnosticirana z zgodnjo alzheimerjevo boleznijo.

Režija: Richard Glatzer in Wash Westmoreland
Žanr (-i): Drama
Čas izvajanja: 101 min
Država: ZDA | Združeno kraljestvo | Francija
Jezik: angleščina
Podnapisi: Slovensčina


Zgodba:

Alice Howland je priznana profesorica jezikoslovja, ki je bila srečno poročena s tremi odraselimi otroki. Vse to se začne spreminjati, ko nenavadno začne pozabljati besede in nato še več. Ko ji zdravnik diagnosticira zgodnjo Alzheimerjevo bolezen, se življenje Alice in njene družine sooča z grozljivim izzivom, saj ta končna degenerativna nevrološka bolezen počasi napreduje do neizogibnega zaključka, ki se ga vsi bojijo. Na tej poti se Alice trudi ne samo, da bi se borila proti notranjemu propadanju, ampak tudi izkoristila preostali čas, da bi našla ljubezen in mir, da bi se preprosto življenje splačalo. Napisal Kenneth Chisholm


Tehnične specifikacije:

Complete name : Still.Alice.2014.SLOSubs.DVDRip.Xvid-R77
Format : MPEG-4
Format profile : Base Media
Codec ID : isom (isom/iso2/avc1/mp41)
File size : 1.07 GiB
Duration : 1 h 41 min
Overall bit rate mode : Variable
Overall bit rate : 1 512 kb/s
Writing application : Lavf58.29.100

Video
ID : 1
Format : AVC
Format/Info : Advanced Video Codec
Format profile : High@L3
Format settings : CABAC / 3 Ref Frames
Format settings, CABAC : Yes
Format settings, Reference frames : 3 frames
Codec ID : avc1
Codec ID/Info : Advanced Video Coding
Duration : 1 h 41 min
Bit rate : 1 168 kb/s
Width : 720 pixels
Height : 384 pixels
Display aspect ratio : 1.85:1
Frame rate mode : Constant
Frame rate : 29.970 (29970/1000) FPS
Color space : YUV
Chroma subsampling : 4:2:0
Bit depth : 8 bits
Scan type : Progressive
Bits/(Pixel*Frame) : 0.141
Stream size : 846 MiB (77%)
Codec configuration box : avcC
Audio
ID : 2
Format : AAC LC
Format/Info : Advanced Audio Codec Low Complexity
Codec ID : mp4a-40-2
Duration : 1 h 41 min
Duration_LastFrame : -11 ms
Bit rate mode : Variable
Bit rate : 336 kb/s
Maximum bit rate : 341 kb/s
Channel(s) : 6 channels
Channel layout : C L R Ls Rs LFE
Sampling rate : 48.0 kHz
Frame rate : 46.875 FPS (1024 SPF)
Compression mode : Lossy
Stream size : 243 MiB (22%)
Default : Yes
Alternate group : 1


Uživajte!
Tagi za tale torrent: Drama
Delite na socialnem omrežju
Still.Alice.2014.SLOSubs.DVDRip.Xvid-R77


Still Alice 2014

ŠE VEDNO ALICE


Igrajo: Alec Baldwin , Hunter Parrish , Julianne Moore , Kate Bosworth , Kristen Stewart , Seth Gilliam , Shane McRae

Povzetek:
Alice Howland (Julianne Moore), uspešna profesorica jezikoslovja na univerzi Columbia, ki je bila srečno poročena s tremi odraselimi otroki, si prizadeva ohraniti svoj um, potem ko je bila diagnosticirana z zgodnjo alzheimerjevo boleznijo.

Režija: Richard Glatzer in Wash Westmoreland
Žanr (-i): Drama
Čas izvajanja: 101 min
Država: ZDA | Združeno kraljestvo | Francija
Jezik: angleščina
Podnapisi: Slovensčina


Zgodba:

Alice Howland je priznana profesorica jezikoslovja, ki je bila srečno poročena s tremi odraselimi otroki. Vse to se začne spreminjati, ko nenavadno začne pozabljati besede in nato še več. Ko ji zdravnik diagnosticira zgodnjo Alzheimerjevo bolezen, se življenje Alice in njene družine sooča z grozljivim izzivom, saj ta končna degenerativna nevrološka bolezen počasi napreduje do neizogibnega zaključka, ki se ga vsi bojijo. Na tej poti se Alice trudi ne samo, da bi se borila proti notranjemu propadanju, ampak tudi izkoristila preostali čas, da bi našla ljubezen in mir, da bi se preprosto življenje splačalo. Napisal Kenneth Chisholm


Tehnične specifikacije:

Complete name : Still.Alice.2014.SLOSubs.DVDRip.Xvid-R77
Format : MPEG-4
Format profile : Base Media
Codec ID : isom (isom/iso2/avc1/mp41)
File size : 1.07 GiB
Duration : 1 h 41 min
Overall bit rate mode : Variable
Overall bit rate : 1 512 kb/s
Writing application : Lavf58.29.100

Video
ID : 1
Format : AVC
Format/Info : Advanced Video Codec
Format profile : High@L3
Format settings : CABAC / 3 Ref Frames
Format settings, CABAC : Yes
Format settings, Reference frames : 3 frames
Codec ID : avc1
Codec ID/Info : Advanced Video Coding
Duration : 1 h 41 min
Bit rate : 1 168 kb/s
Width : 720 pixels
Height : 384 pixels
Display aspect ratio : 1.85:1
Frame rate mode : Constant
Frame rate : 29.970 (29970/1000) FPS
Color space : YUV
Chroma subsampling : 4:2:0
Bit depth : 8 bits
Scan type : Progressive
Bits/(Pixel*Frame) : 0.141
Stream size : 846 MiB (77%)
Codec configuration box : avcC
Audio
ID : 2
Format : AAC LC
Format/Info : Advanced Audio Codec Low Complexity
Codec ID : mp4a-40-2
Duration : 1 h 41 min
Duration_LastFrame : -11 ms
Bit rate mode : Variable
Bit rate : 336 kb/s
Maximum bit rate : 341 kb/s
Channel(s) : 6 channels
Channel layout : C L R Ls Rs LFE
Sampling rate : 48.0 kHz
Frame rate : 46.875 FPS (1024 SPF)
Compression mode : Lossy
Stream size : 243 MiB (22%)
Default : Yes
Alternate group : 1


Uživajte!
Trenutno še ni nobenega komentarja.
Nič ni najdeno.