112.aka.DEN.SKYLDIGE.2018.SLOSubs.HDTVRipx264-R77

Klikni za povečavo!
18-02-2021 14:57 naložil rado77
Sejalci: 2 / Odjemalci: 0 / Velikost: 1.89 GB / Dokončani: 1
Prenesi torrent Poročaj torrent Opis torrenta
Zvrst: Drama | Kriminalka | Triler
Kategorija: FILMI > HDRip

112.aka.DEN.SKYLDIGE.2018.SLOSubs.HDTVRipx264-R77


Den skyldige 2018


Slo naslov: 112'
Drugi naslovi: The Guilty
Država: Danska
Jezik: danščina
Podnapisi: slovenščina
Leto: 2018
Dolžina: 85', Imdb
Žanri: drama, krimi, triler
Režija: Gustav Möller
Scenarij: Gustav Möller, Emil Nygaard Albertsen
Igrajo: Jakob Cedergren, Jessica Dinnage, Omar Shargawi, Johan Olsen


O filmu:

Gustav Möller je navdih našel v resničnem klicu v sili in iz njega razvil napeto zgodbo zgrajeno na prepričljivem nastopu glavnega igralca in telefonskih pogovorih, ki tu nadomestijo klasične detektivske metode. Seveda pomaga, če glavno vlogo v filmu prevzame odlični Jakob Cedergren, ki ga ljubitelji filmov iz skandinavskega govornega obočja poznamo po številnih odličnih vlogah – zainteresiranim toplo priporočam Grozljivo srečen (Frygtelig lykkelig, Henrik Ruben Genz, 2008) in Submarino (Thomas Vinterberg, 2010). Njegova odlična igra je eden ključnih elementov zgodbe, ki nam na poti od zapleta do končne resolucije ponudi nekaj pričakovanih in nekaj manj pričakovanih obratov. Pomemben element je tudi zvočni dizajn – glas ugrabljene ženske in zvoki iz ozadja igrajo važno vlogo pri našem in Asgerjevem razumevanju položaja na drugi strani telefonske linije. Gustav Möller s temi omejenimi sredstvi ustvari prepričljivo rekonstrukcijo dogodka, oziroma dogajanja, ki ga nikoli zares ne vidimo. Gre za pristop, ki spodbuja premislek o percepciji resničnosti in nas pripelje do spoznanja, da ta pogosto temelji na naši subjektivnosti, ne vedno objektivnimi stališči in vprašljivimi domnevami.


Tehnične specifikacije:

Complete name : 112.aka.DEN.SKYLDIGE.2018.SLOSubs.HDTVRipx264-R77
Format : MPEG-4
Format profile : Base Media
Codec ID : isom (isom/iso2/avc1/mp41)
File size : 1.89 GiB
Duration : 1 h 24 min
Overall bit rate mode : Variable
Overall bit rate : 3 194 kb/s
Writing application : Lavf58.29.100
Video
ID : 1
Format : AVC
Format/Info : Advanced Video Codec
Format profile : High@L3.1
Format settings : CABAC / 2 Ref Frames
Format settings, CABAC : Yes
Format settings, Reference frames : 2 frames
Codec ID : avc1
Codec ID/Info : Advanced Video Coding
Duration : 1 h 24 min
Bit rate : 3 065 kb/s
Width : 1 280 pixels
Height : 720 pixels
Display aspect ratio : 16:9
Frame rate mode : Constant
Frame rate : 25.000 FPS
Color space : YUV
Chroma subsampling : 4:2:0
Bit depth : 8 bits
Scan type : Progressive
Bits/(Pixel*Frame) : 0.133
Stream size : 1.81 GiB (96%)
Codec configuration box : avcC
Audio
ID : 2
Format : AAC LC
Format/Info : Advanced Audio Codec Low Complexity
Codec ID : mp4a-40-2
Duration : 1 h 24 min
Bit rate mode : Variable
Bit rate : 123 kb/s
Maximum bit rate : 128 kb/s
Channel(s) : 2 channels
Channel layout : L R
Sampling rate : 48.0 kHz
Frame rate : 46.875 FPS (1024 SPF)
Compression mode : Lossy
Stream size : 74.6 MiB (4%)
Default : Yes
Alternate group : 1


UŽIVAJTE!
Tagi za tale torrent: Drama, Kriminalka, Triler
Delite na socialnem omrežju
112.aka.DEN.SKYLDIGE.2018.SLOSubs.HDTVRipx264-R77


Den skyldige 2018


Slo naslov: 112'
Drugi naslovi: The Guilty
Država: Danska
Jezik: danščina
Podnapisi: slovenščina
Leto: 2018
Dolžina: 85', Imdb
Žanri: drama, krimi, triler
Režija: Gustav Möller
Scenarij: Gustav Möller, Emil Nygaard Albertsen
Igrajo: Jakob Cedergren, Jessica Dinnage, Omar Shargawi, Johan Olsen


O filmu:

Gustav Möller je navdih našel v resničnem klicu v sili in iz njega razvil napeto zgodbo zgrajeno na prepričljivem nastopu glavnega igralca in telefonskih pogovorih, ki tu nadomestijo klasične detektivske metode. Seveda pomaga, če glavno vlogo v filmu prevzame odlični Jakob Cedergren, ki ga ljubitelji filmov iz skandinavskega govornega obočja poznamo po številnih odličnih vlogah – zainteresiranim toplo priporočam Grozljivo srečen (Frygtelig lykkelig, Henrik Ruben Genz, 2008) in Submarino (Thomas Vinterberg, 2010). Njegova odlična igra je eden ključnih elementov zgodbe, ki nam na poti od zapleta do končne resolucije ponudi nekaj pričakovanih in nekaj manj pričakovanih obratov. Pomemben element je tudi zvočni dizajn – glas ugrabljene ženske in zvoki iz ozadja igrajo važno vlogo pri našem in Asgerjevem razumevanju položaja na drugi strani telefonske linije. Gustav Möller s temi omejenimi sredstvi ustvari prepričljivo rekonstrukcijo dogodka, oziroma dogajanja, ki ga nikoli zares ne vidimo. Gre za pristop, ki spodbuja premislek o percepciji resničnosti in nas pripelje do spoznanja, da ta pogosto temelji na naši subjektivnosti, ne vedno objektivnimi stališči in vprašljivimi domnevami.


Tehnične specifikacije:

Complete name : 112.aka.DEN.SKYLDIGE.2018.SLOSubs.HDTVRipx264-R77
Format : MPEG-4
Format profile : Base Media
Codec ID : isom (isom/iso2/avc1/mp41)
File size : 1.89 GiB
Duration : 1 h 24 min
Overall bit rate mode : Variable
Overall bit rate : 3 194 kb/s
Writing application : Lavf58.29.100
Video
ID : 1
Format : AVC
Format/Info : Advanced Video Codec
Format profile : High@L3.1
Format settings : CABAC / 2 Ref Frames
Format settings, CABAC : Yes
Format settings, Reference frames : 2 frames
Codec ID : avc1
Codec ID/Info : Advanced Video Coding
Duration : 1 h 24 min
Bit rate : 3 065 kb/s
Width : 1 280 pixels
Height : 720 pixels
Display aspect ratio : 16:9
Frame rate mode : Constant
Frame rate : 25.000 FPS
Color space : YUV
Chroma subsampling : 4:2:0
Bit depth : 8 bits
Scan type : Progressive
Bits/(Pixel*Frame) : 0.133
Stream size : 1.81 GiB (96%)
Codec configuration box : avcC
Audio
ID : 2
Format : AAC LC
Format/Info : Advanced Audio Codec Low Complexity
Codec ID : mp4a-40-2
Duration : 1 h 24 min
Bit rate mode : Variable
Bit rate : 123 kb/s
Maximum bit rate : 128 kb/s
Channel(s) : 2 channels
Channel layout : L R
Sampling rate : 48.0 kHz
Frame rate : 46.875 FPS (1024 SPF)
Compression mode : Lossy
Stream size : 74.6 MiB (4%)
Default : Yes
Alternate group : 1


UŽIVAJTE!
Trenutno še ni nobenega komentarja.
Nič ni najdeno.