Sjene.aka.Sence.2014.1080p.HDTVx264-R77

Klikni za povečavo!
18-02-2021 15:42 naložil System
Sejalci: 1 / Odjemalci: 0 / Velikost: 354.32 MB / Dokončani: 0
Prenesi torrent Poročaj torrent Opis torrenta
Kategorija: FILMI > HDTV
Anonimen nalagalec

Sjene.aka.Sence.2014.1080p.HDTVx264-R77

Sjene (2014)

Sence

ŽANR: kratki, biografija, drama, zgodovina, vojni
REŽISER: Miloš Ljubomirović
IGRALCI: Aleksandar Radojičić , Nikola Rakočevič , Nebojša Glogovac , Dragan Petrovič-Pele , Luka Mijatović , Lazar Đukič , Nikola Glišič
SCENARIST: Srdjan Banović , Muharem Bazdulj , Miloš Ljubomirovic
PRODUCENT: Masa Čumić , Simon DeKarić , Milos Ljubomirović , Miodrag Milosavljevic
ČAS TRAJANJA: 24 min

POVZETEK:

Sence so film, ki temelji na resničnih dogodkih in prinaša zgodbo o usodi atentatorja nadvojvode Franca Ferdinanda iz Avstrije. Ta atentat je eden najpomembnejših dogodkov v zgodovini človeštva, ker je služil kot domnevni motiv za začetek, kar se bo kasneje izkazalo, največje vojne, ki jo je kdaj videl svet. To je film o mladeničih, ki so njegovo ime v zgodovino vpisali za večnost. Zgodba zajema obdobje po atentatu in je postavljena v češki zapor Terezin, kamor je bil atentator poslan na dvajsetletno kazen. Dogajanje v zaporu razkriva značaj atentatorja, njegovo psihološko stanje, motive, ki so ga gnali, in njegov zagrenjen boj, ne samo s stražarji, ampak tudi s samim seboj. Shadows govori o človeški dobroti, ki jo najdemo kjer koli in ki je nad nacionalnostjo in pripadnostjo eni strani. Film o mladih fantih, ki želijo pomagati svojim ...



TEHNIČNE SPECIFIKACIJE:
Complete name : Sjene.aka.Sence.2014.1080p.HDTVx264-R77
Format : Matroska
Format version : Version 2
File size : 354 MiB
Duration : 26 min 13 s
Overall bit rate : 1 889 kb/s
Encoded date : UTC 2018-05-06 16:19:48
Writing application : mkvmerge v7.7.0 ('Six Voices') 32bit built on Feb 28 2015 23:23:00
Writing library : libebml v1.3.1 + libmatroska v1.4.2
Video
ID : 1
Format : AVC
Format/Info : Advanced Video Codec
Format profile : High@L4.1
Format settings : CABAC / 4 Ref Frames
Format settings, CABAC : Yes
Format settings, Reference frames : 4 frames
Codec ID : V_MPEG4/ISO/AVC
Duration : 26 min 13 s
Bit rate : 1 791 kb/s
Width : 1 280 pixels
Height : 528 pixels
Display aspect ratio : 2.40:1
Frame rate mode : Constant
Frame rate : 25.000 FPS
Color space : YUV
Chroma subsampling : 4:2:0
Bit depth : 8 bits
Scan type : Progressive
Bits/(Pixel*Frame) : 0.106
Stream size : 336 MiB (95%)
Default : Yes
Forced : No
Audio
ID : 2
Format : AAC LC
Format/Info : Advanced Audio Codec Low Complexity
Codec ID : A_AAC-2
Duration : 26 min 13 s
Bit rate : 96.0 kb/s
Channel(s) : 2 channels
Channel layout : L R
Sampling rate : 48.0 kHz
Frame rate : 46.875 FPS (1024 SPF)
Compression mode : Lossy
Delay relative to video : 9 ms
Stream size : 18.0 MiB (5%)
Language : Serbian
Default : Yes
Forced : No

Uživajte!
Ziva je to všeč
Tagi za tale torrent: Kratki, Biografija, Drama, Zgodovina, Vojni
Delite na socialnem omrežju
Sjene.aka.Sence.2014.1080p.HDTVx264-R77

Sjene (2014)

Sence

ŽANR: kratki, biografija, drama, zgodovina, vojni
REŽISER: Miloš Ljubomirović
IGRALCI: Aleksandar Radojičić , Nikola Rakočevič , Nebojša Glogovac , Dragan Petrovič-Pele , Luka Mijatović , Lazar Đukič , Nikola Glišič
SCENARIST: Srdjan Banović , Muharem Bazdulj , Miloš Ljubomirovic
PRODUCENT: Masa Čumić , Simon DeKarić , Milos Ljubomirović , Miodrag Milosavljevic
ČAS TRAJANJA: 24 min

POVZETEK:

Sence so film, ki temelji na resničnih dogodkih in prinaša zgodbo o usodi atentatorja nadvojvode Franca Ferdinanda iz Avstrije. Ta atentat je eden najpomembnejših dogodkov v zgodovini človeštva, ker je služil kot domnevni motiv za začetek, kar se bo kasneje izkazalo, največje vojne, ki jo je kdaj videl svet. To je film o mladeničih, ki so njegovo ime v zgodovino vpisali za večnost. Zgodba zajema obdobje po atentatu in je postavljena v češki zapor Terezin, kamor je bil atentator poslan na dvajsetletno kazen. Dogajanje v zaporu razkriva značaj atentatorja, njegovo psihološko stanje, motive, ki so ga gnali, in njegov zagrenjen boj, ne samo s stražarji, ampak tudi s samim seboj. Shadows govori o človeški dobroti, ki jo najdemo kjer koli in ki je nad nacionalnostjo in pripadnostjo eni strani. Film o mladih fantih, ki želijo pomagati svojim ...



TEHNIČNE SPECIFIKACIJE:
Complete name : Sjene.aka.Sence.2014.1080p.HDTVx264-R77
Format : Matroska
Format version : Version 2
File size : 354 MiB
Duration : 26 min 13 s
Overall bit rate : 1 889 kb/s
Encoded date : UTC 2018-05-06 16:19:48
Writing application : mkvmerge v7.7.0 ('Six Voices') 32bit built on Feb 28 2015 23:23:00
Writing library : libebml v1.3.1 + libmatroska v1.4.2
Video
ID : 1
Format : AVC
Format/Info : Advanced Video Codec
Format profile : High@L4.1
Format settings : CABAC / 4 Ref Frames
Format settings, CABAC : Yes
Format settings, Reference frames : 4 frames
Codec ID : V_MPEG4/ISO/AVC
Duration : 26 min 13 s
Bit rate : 1 791 kb/s
Width : 1 280 pixels
Height : 528 pixels
Display aspect ratio : 2.40:1
Frame rate mode : Constant
Frame rate : 25.000 FPS
Color space : YUV
Chroma subsampling : 4:2:0
Bit depth : 8 bits
Scan type : Progressive
Bits/(Pixel*Frame) : 0.106
Stream size : 336 MiB (95%)
Default : Yes
Forced : No
Audio
ID : 2
Format : AAC LC
Format/Info : Advanced Audio Codec Low Complexity
Codec ID : A_AAC-2
Duration : 26 min 13 s
Bit rate : 96.0 kb/s
Channel(s) : 2 channels
Channel layout : L R
Sampling rate : 48.0 kHz
Frame rate : 46.875 FPS (1024 SPF)
Compression mode : Lossy
Delay relative to video : 9 ms
Stream size : 18.0 MiB (5%)
Language : Serbian
Default : Yes
Forced : No

Uživajte!
Trenutno še ni nobenega komentarja.
Nič ni najdeno.