Needle.Boy.2016.ENGSubs.HDTVRip.1080p-R77

Klikni za povečavo!
19-02-2021 10:51 naložil System
Sejalci: 2 / Odjemalci: 0 / Velikost: 1.53 GB / Dokončani: 1
Prenesi torrent Poročaj torrent Opis torrenta
Zvrst: Drama
Kategorija: FILMI > HDTV
Anonimen nalagalec

Needle.Boy.2016.ENGSubs.HDTVRip.1080p-R77


18+
Needle Boy (2016)

Igelni fant 2016


Director: Alexander Bak Sagmo
Writers: Troels Engelbrecht, Alexander Bak Sagmo
Stars: Nicklas Søderberg Lundstrøm, Marie Tourell Søderberg, Marie Louise Wille

Storyline:

Life has become unbearable for 23-year-old Nick who is convinced that he's an evil person. Consequently, he shows up at the university with a gun in his pocket wanting to shoot his fellow students. But something beats him to the punch; a few hours before his classmates have died in a terrible drowning accident at sea. Nick now stands alone with a gun in his pocket, and he faces 24 dark hours in Aarhus where everyone around him perceives his frustration as grief.

Zgodba:

Življenje je postalo nevzdržno za 23-letnega Nicka, ki je prepričan, da je hudoben človek. Posledično se na univerzi v Aarhusu pojavi s pištolo v žepu in želi ustreliti svoje kolege študente.

Film vsebuje zelo temeljite prizore spolnih odnosov!

Details:

Country: Denmark
Language: Danish
Runtime: 76 min
Sound Mix: Dolby Digital
Release Date: 1 July 2018 (Denmark)
Filming Locations: Aarhus, Denmark
Podnapisi: English


Tehnične specifikacije:

Complete name : Needle.Boy.2016.ENGSubs.HDTVRip-R77
Format : MPEG-4
Format profile : Base Media
Codec ID : isom (isom/iso2/avc1/mp41)
File size : 1.53 GiB
Duration : 1 h 13 min
Overall bit rate : 2 997 kb/s
Writing application : Lavf58.29.100
Video
ID : 1
Format : AVC
Format/Info : Advanced Video Codec
Format profile : High@L4
Format settings : CABAC / 3 Ref Frames
Format settings, CABAC : Yes
Format settings, Reference frames : 3 frames
Codec ID : avc1
Codec ID/Info : Advanced Video Coding
Duration : 1 h 13 min
Bit rate : 2 863 kb/s
Width : 1 920 pixels
Height : 1 080 pixels
Display aspect ratio : 16:9
Frame rate mode : Constant
Frame rate : 25.000 FPS
Color space : YUV
Chroma subsampling : 4:2:0
Bit depth : 8 bits
Scan type : Progressive
Bits/(Pixel*Frame) : 0.055
Stream size : 1.46 GiB (96%)
Codec configuration box : avcC
Audio
ID : 2
Format : AAC LC
Format/Info : Advanced Audio Codec Low Complexity
Codec ID : mp4a-40-2
Duration : 1 h 13 min
Bit rate mode : Constant
Bit rate : 128 kb/s
Channel(s) : 2 channels
Channel layout : L R
Sampling rate : 48.0 kHz
Frame rate : 46.875 FPS (1024 SPF)
Compression mode : Lossy
Stream size : 67.0 MiB (4%)
Default : Yes
Alternate group : 1


ENJOY!
Tagi za tale torrent: Drama, Erotični
Delite na socialnem omrežju
Needle.Boy.2016.ENGSubs.HDTVRip.1080p-R77


18+
Needle Boy (2016)

Igelni fant 2016


Director: Alexander Bak Sagmo
Writers: Troels Engelbrecht, Alexander Bak Sagmo
Stars: Nicklas Søderberg Lundstrøm, Marie Tourell Søderberg, Marie Louise Wille

Storyline:

Life has become unbearable for 23-year-old Nick who is convinced that he's an evil person. Consequently, he shows up at the university with a gun in his pocket wanting to shoot his fellow students. But something beats him to the punch; a few hours before his classmates have died in a terrible drowning accident at sea. Nick now stands alone with a gun in his pocket, and he faces 24 dark hours in Aarhus where everyone around him perceives his frustration as grief.

Zgodba:

Življenje je postalo nevzdržno za 23-letnega Nicka, ki je prepričan, da je hudoben človek. Posledično se na univerzi v Aarhusu pojavi s pištolo v žepu in želi ustreliti svoje kolege študente.

Film vsebuje zelo temeljite prizore spolnih odnosov!

Details:

Country: Denmark
Language: Danish
Runtime: 76 min
Sound Mix: Dolby Digital
Release Date: 1 July 2018 (Denmark)
Filming Locations: Aarhus, Denmark
Podnapisi: English


Tehnične specifikacije:

Complete name : Needle.Boy.2016.ENGSubs.HDTVRip-R77
Format : MPEG-4
Format profile : Base Media
Codec ID : isom (isom/iso2/avc1/mp41)
File size : 1.53 GiB
Duration : 1 h 13 min
Overall bit rate : 2 997 kb/s
Writing application : Lavf58.29.100
Video
ID : 1
Format : AVC
Format/Info : Advanced Video Codec
Format profile : High@L4
Format settings : CABAC / 3 Ref Frames
Format settings, CABAC : Yes
Format settings, Reference frames : 3 frames
Codec ID : avc1
Codec ID/Info : Advanced Video Coding
Duration : 1 h 13 min
Bit rate : 2 863 kb/s
Width : 1 920 pixels
Height : 1 080 pixels
Display aspect ratio : 16:9
Frame rate mode : Constant
Frame rate : 25.000 FPS
Color space : YUV
Chroma subsampling : 4:2:0
Bit depth : 8 bits
Scan type : Progressive
Bits/(Pixel*Frame) : 0.055
Stream size : 1.46 GiB (96%)
Codec configuration box : avcC
Audio
ID : 2
Format : AAC LC
Format/Info : Advanced Audio Codec Low Complexity
Codec ID : mp4a-40-2
Duration : 1 h 13 min
Bit rate mode : Constant
Bit rate : 128 kb/s
Channel(s) : 2 channels
Channel layout : L R
Sampling rate : 48.0 kHz
Frame rate : 46.875 FPS (1024 SPF)
Compression mode : Lossy
Stream size : 67.0 MiB (4%)
Default : Yes
Alternate group : 1


ENJOY!
Trenutno še ni nobenega komentarja.
Nič ni najdeno.