Ansambel Franca Potočarja.izbor.MP3.MP4.R77

Klikni za povečavo!
01-03-2021 10:54 naložil System
Sejalci: 1 / Odjemalci: 0 / Velikost: 409.93 MB / Dokončani: 7
Prenesi torrent Poročaj torrent Opis torrenta
Zvrst: Glasbeni
Kategorija: GLASBA > Video
Anonimen nalagalec

Ansambel Franca Potočarja.izbor.MP3.MP4.R77

Ansambla Franca Potočarja
Želja uporabnika: silvoa
Komponist in dolgoletni vodja Ansambla Franca Potočarja.

Njegova glasbena pot se je začela leta 1960, ko je navdušen oprtal očetovo harmoniko. Vredno je omeniti, da je bil Francev oče, prav tako Franc Potočar, znan dolenjski ohcetni godec in hkrati velik vzornik Lojzetu Slaku.
Čas izvajanja: 1 h 34 min 45 s



Tehnične specifikacije:
MP3:
Audio
Format : MPEG Audio / MP3
Format version : Version 1
Format profile : Layer 3
Format settings : Joint stereo
Bit rate mode : Constant
Bit rate : 160 kb/s
Channel(s) : 2 channels
Sampling rate : 44.1 kHz
Frame rate : 38.281 FPS (1152 SPF)
Compression mode : Lossy
Stream size : Audio
omplete name : Ansambel Franca Potočarja.izbor.MP3.MP4.R77
Format : MPEG-4
Format profile : Base Media / Version 2
Codec ID : mp42 (isom/mp42)
File size : 90.2 MiB
Duration : 1 h 34 min 45 s
Overall bit rate mode : Variable
Overall bit rate : 218 kb/s
Encoded date : UTC 2018-11-12 18:35:33
Tagged date : UTC 2018-11-12 18:35:33
Video
ID : 1
Format : AVC
Format/Info : Advanced Video Codec
Format profile : Baseline@L1.3
Format settings : 1 Ref Frames
Format settings, CABAC : No
Format settings, Reference frames : 1 frame
Format settings, GOP : M=1, N=60
Codec ID : avc1
Codec ID/Info : Advanced Video Coding
Duration : 57 min 45 s
Duration_LastFrame : -1 ms
Bit rate : 120 kb/s
Width : 342 pixels
Height : 224 pixels
Display aspect ratio : 3:2
Frame rate mode : Constant
Frame rate : 29.818 FPS
Color space : YUV
Chroma subsampling : 4:2:0
Bit depth : 8 bits
Scan type : Progressive
Bits/(Pixel*Frame) : 0.052
Stream size : 49.5 MiB (55%)
Title : ISO Media file produced by Google Inc. Created on: 11/12/2018.
Encoded date : UTC 2018-11-12 18:35:33
Tagged date : UTC 2018-11-12 18:35:33
Codec configuration box : avcC
Audio
ID : 2
Format : AAC LC
Format/Info : Advanced Audio Codec Low Complexity
Codec ID : mp4a-40-2
Duration : 1 h 34 min 45 s
Bit rate mode : Variable
Bit rate : 96.0 kb/s
Channel(s) : 2 channels
Channel layout : L R
Sampling rate : 44.1 kHz
Frame rate : 43.066 FPS (1024 SPF)
Compression mode : Lossy
Stream size : 39.7 MiB (44%)
Title : ISO Media file produced by Google Inc. Created on: 11/12/2018.
Encoded date : UTC 2018-11-12 18:35:33
Tagged date : UTC 2018-11-12 18:35:33
Uživajte!
eva je to všeč
Tagi za tale torrent: Glasbeni
Delite na socialnem omrežju
Ansambel Franca Potočarja.izbor.MP3.MP4.R77

Ansambla Franca Potočarja
Želja uporabnika: silvoa
Komponist in dolgoletni vodja Ansambla Franca Potočarja.

Njegova glasbena pot se je začela leta 1960, ko je navdušen oprtal očetovo harmoniko. Vredno je omeniti, da je bil Francev oče, prav tako Franc Potočar, znan dolenjski ohcetni godec in hkrati velik vzornik Lojzetu Slaku.
Čas izvajanja: 1 h 34 min 45 s



Tehnične specifikacije:
MP3:
Audio
Format : MPEG Audio / MP3
Format version : Version 1
Format profile : Layer 3
Format settings : Joint stereo
Bit rate mode : Constant
Bit rate : 160 kb/s
Channel(s) : 2 channels
Sampling rate : 44.1 kHz
Frame rate : 38.281 FPS (1152 SPF)
Compression mode : Lossy
Stream size : Audio
omplete name : Ansambel Franca Potočarja.izbor.MP3.MP4.R77
Format : MPEG-4
Format profile : Base Media / Version 2
Codec ID : mp42 (isom/mp42)
File size : 90.2 MiB
Duration : 1 h 34 min 45 s
Overall bit rate mode : Variable
Overall bit rate : 218 kb/s
Encoded date : UTC 2018-11-12 18:35:33
Tagged date : UTC 2018-11-12 18:35:33
Video
ID : 1
Format : AVC
Format/Info : Advanced Video Codec
Format profile : Baseline@L1.3
Format settings : 1 Ref Frames
Format settings, CABAC : No
Format settings, Reference frames : 1 frame
Format settings, GOP : M=1, N=60
Codec ID : avc1
Codec ID/Info : Advanced Video Coding
Duration : 57 min 45 s
Duration_LastFrame : -1 ms
Bit rate : 120 kb/s
Width : 342 pixels
Height : 224 pixels
Display aspect ratio : 3:2
Frame rate mode : Constant
Frame rate : 29.818 FPS
Color space : YUV
Chroma subsampling : 4:2:0
Bit depth : 8 bits
Scan type : Progressive
Bits/(Pixel*Frame) : 0.052
Stream size : 49.5 MiB (55%)
Title : ISO Media file produced by Google Inc. Created on: 11/12/2018.
Encoded date : UTC 2018-11-12 18:35:33
Tagged date : UTC 2018-11-12 18:35:33
Codec configuration box : avcC
Audio
ID : 2
Format : AAC LC
Format/Info : Advanced Audio Codec Low Complexity
Codec ID : mp4a-40-2
Duration : 1 h 34 min 45 s
Bit rate mode : Variable
Bit rate : 96.0 kb/s
Channel(s) : 2 channels
Channel layout : L R
Sampling rate : 44.1 kHz
Frame rate : 43.066 FPS (1024 SPF)
Compression mode : Lossy
Stream size : 39.7 MiB (44%)
Title : ISO Media file produced by Google Inc. Created on: 11/12/2018.
Encoded date : UTC 2018-11-12 18:35:33
Tagged date : UTC 2018-11-12 18:35:33
Uživajte!
Trenutno še ni nobenega komentarja.
Nič ni najdeno.