A
B
C
D
E
F
G
H
I
J
K
L
M
N
O
P
Q
R
S
T
U
V
W
X
Y
Z
0-9
Kalup.2020..S01.HDTV.720p.h264.R77

Klikni za povečavo!
Včeraj ob 14:56 naložil System
Sejalci: 1 / Odjemalci: 2 / Velikost: 2.22 GB / Dokončani: 0
Prenesi torrent Poročaj torrent Opis torrenta
Zvrst: Drama
Kategorija: FILMI > HDTV
Anonimen nalagalec

Kalup.2020..S01.HDTV.720p.h264.R77


KALUP 2020
TV mini Serija

Režija:Vuk Ršumović
Scenario: Bojana Maljević
Država: Srbija

Vloge:
Milivoje Obradović, Nada Šargin, Saša Torlaković, Ana Maljević, Igor Filipović, Svetlana Bojković, Branislav Zeremski, Dubravko Jovanović, Srđan Miletić, Ana Bretšnajder, Lena Trifunović, Zinaida Dedakin, Draginja Voganjac, Monika Romić, Radoje Čupić, Danica Radulović, Branislav Platiša, Aleksdandra Simić, Dragana Jovanović, Gojko Baletić, Denis Murić, Danjan Kecojevuić, Goran Belančević, Nenad Nenadović, Tanasije Uzuznović, Slobodan Tešić, Olivera Kovačević, Dragan Đorđević, Natalija Vlahović.
Jezik: Srbski
Žanr: Drama


Zgodba:
Ta celovečerna mini serija, narejena v štirih epizodah, temelji na elementih resničnih zgodb iz afere "Pogrešani dojenček". Ta zadeva se je v Srbiji odprla v začetku tega stoletja in zajema obdobje od sedemdesetih let dvajsetega stoletja. Zgodba serije je trenutno postavljena, v kateri nekdanji policist, zdaj pa zasebni preiskovalec Ljubo, na povabilo skupine staršev pogrešanih dojenčkov poskuša ugotoviti resnico.
Ta družbena drama pravi, da resnica ni preprosta, da pa mora država že dolgo storiti veliko več, da bi staršem pomagala doseči resnico, kakršna koli že je. Glede na produkcijo tega dela imajo avtorji kritičen pregled medijev v Srbiji, ki so to temo obravnavali tabloidno, cilj tega projekta pa je poleg kakovostnega dramskega programa ravno ta: pristopiti k tej težki temi na drugačen način in jo ustaviti. nadaljnja tabloidizacija, ki povzroča skoraj vsakodnevne občutke.


Tehnične specifikacije:

Name : Kalup.2020.S01.HDTV.720p.h264.R77
Format : Matroska
Format version : Version 4
File size : 563 MiB
Duration : 49 min 55 s
Overall bit rate : 1 576 kb/s
Movie name : Kalup
Encoded date : UTC 2020-03-22 10:34:18
Writing application : mkvmerge v44.0.0 ('Domino') 64-bit
Writing library : libebml v1.3.10 + libmatroska v1.5.2 / Lavf58.20.100

Video
ID : 1
Format : AVC
Format/Info : Advanced Video Codec
Format profile : High@L3.2
Format settings : CABAC / 4 Ref Frames
Format settings, CABAC : Yes
Format settings, Reference frames : 4 frames
Codec ID : V_MPEG4/ISO/AVC
Duration : 49 min 55 s
Bit rate : 1 382 kb/s
Width : 1 280 pixels
Height : 720 pixels
Display aspect ratio : 16:9
Frame rate mode : Constant
Frame rate : 30.000 FPS
Color space : YUV
Chroma subsampling : 4:2:0
Bit depth : 8 bits
Scan type : Progressive
Bits/(Pixel*Frame) : 0.050
Stream size : 493 MiB (88%)
Writing library : x264 core 146 r2538 121396c
Default : Yes
Forced : No

Audio
ID : 2
Format : AAC LC
Format/Info : Advanced Audio Codec Low Complexity
Codec ID : A_AAC-2
Duration : 49 min 55 s
Bit rate : 192 kb/s
Channel(s) : 2 channels
Channel layout : L R
Sampling rate : 48.0 kHz
Frame rate : 46.875 FPS (1024 SPF)
Compression mode : Lossy
Delay relative to video : 19 ms
Stream size : 68.7 MiB (12%)
Default : Yes
Forced : No

UŽIVAJTE!
The.Wind.That.Shakes.the.Barley.2006.SLOSUB.DVDRip.XviD-remom

Klikni za povečavo!
Včeraj ob 14:43 naložil rado77
Sejalci: 2 / Odjemalci: 0 / Velikost: 1.37 GB / Dokončani: 2
Prenesi torrent Poročaj torrent Opis torrenta
Zvrst: Drama | Vojni | Zgodovinski
Kategorija: FILMI > DVDRip

The.Wind.That.Shakes.the.Barley.2006.SLOSUB.DVDRip.XviD-remom


The Wind That Shakes the Barley 2006

Veter ki trese ječmen


Dolžina : 120 min
Leto : 2006
Država : USA
Žanr : Drama | History | War
iMBD info : http://www.imdb.com/title/tt0460989/
iMDB ocena : 7.6/10 (46,377 glasov)
Zvok : AC3 5.1 English
Podnapisi : Slovenski
Režija : Ken Loach

[
b]Igrajo:[/b]
Cillian Murphy ... Damien
Padraic Delaney ... Teddy
Liam Cunningham ... Dan
Orla Fitzgerald ... Sinead
Mary O'Riordan ... Peggy
Mary Murphy ... Bernadette
Laurence Barry ... Micheail
Damien Kearney ... Finbar
Frank Bourke ... Leo
Myles Horgan ... Rory
Martin Lucey ... Congo
Aidan O'Hare ... Steady Boy
Shane Casey ... Kevin
John Crean ... Chris
Mairtin de Cogain ... Sean


Opis:

Irec Damien se pripravlja na študij medicine v Londonu, med tem ko se
njegov brat bori za samostojnost dežele. Ko Damien vidi grozote, ki jih
izvajajo britanski vojaki, se tudi sam pridruži upornikom, toda kmalu se
ne more več iztrgati iz začaranega kroga krutega nasilja, ki Irsko vodi v
državljansko vojno, v kateri se na nasprotni strani znajde tudi njegov brat.
Film, ki temelji na resničnih dogodkih, je prejel zlato palmo za najboljši
film v Cannesu.


Uživajte!
Atlantic.Crossing.aka.Z.druge.strani.Atlanktika.2020.SLOSubsS01.720.HDTVRip.AAC-R77

Klikni za povečavo!
Včeraj ob 12:31 naložil System
Sejalci: 1 / Odjemalci: 0 / Velikost: 4.7 GB / Dokončani: 0
Prenesi torrent Poročaj torrent Opis torrenta
Zvrst: Drama | Zgodovinski
Kategorija: FILMI > TV - Serija
Anonimen nalagalec

Atlantic.Crossing.aka.Z.druge.strani.Atlanktika.2020.SLOSubsS01.720.HDTVRip.AAC-R77




Atlantic Crossing 2020
TV Serija

Z DRUGE STRANI ATLANKTIKA
Sezona 01


Opis:
Princ Olaf se vse bolj vdaja pijači. Kralj mu že leta ne dovoli drugega kot opazovati dogajanje, in to ga peha v malodušje. Norveška vlada zato sklene, da mu bo dodelila položaj vrhovnega poveljnika norveških čet. To je razlog, da znova odpotuje v Washington. Ko opazuje svojo družino, se zave, da že dolgo ni več njen del. Marta razmišlja o ločenem življenju, nato pa se vojna konča in Olaf sklene, da bo obrnil nov list in se zazrl v prihodnost. Marta se tako vrne v domovino in z možem se znova povežeta.


Država: Norveška, Nemčija, ZDA, Švedska, Danska
Scenarij: Alexander Eik, Linda May Kallestein
Režija: Alexander Eik, Janic Heen
V glavnih vlogah: Sofia Helin, Kyle MacLachlan, Tobias Santelmann, Harriet Sansom Harris, Daniel Betts, Søren Pilmark, Lucy Russell
Epizode: 8
Žanri: drama, zgodovina
Podnapisi: Slovenski


Tehnićne specifikacije:
Complete name : Z druge strani Atlantika.S01.E02.SLOSubs.R77.mp4
Format : MPEG-4
Format profile : Base Media
Codec ID : isom (isom/iso2/avc1/mp41)
File size : 583 MiB
Duration : 55 min 23 s
Overall bit rate : 1 471 kb/s
Writing application : Lavf58.20.100

Video
ID : 1
Format : AVC
Format/Info : Advanced Video Codec
Format profile : High@L3.1
Format settings : CABAC / 3 Ref Frames
Format settings, CABAC : Yes
Format settings, Reference frames : 3 frames
Codec ID : avc1
Codec ID/Info : Advanced Video Coding
Duration : 55 min 23 s
Bit rate : 1 338 kb/s
Width : 1 280 pixels
Height : 720 pixels
Display aspect ratio : 16:9
Frame rate mode : Constant
Frame rate : 25.000 FPS
Color space : YUV
Chroma subsampling : 4:2:0
Bit depth : 8 bits
Scan type : Progressive
Bits/(Pixel*Frame) : 0.058
Stream size : 530 MiB (91%)
Writing library : x264 core 148

Audio
ID : 2
Format : AAC LC
Format/Info : Advanced Audio Codec Low Complexity
Codec ID : mp4a-40-2
Duration : 55 min 23 s
Bit rate mode : Constant
Bit rate : 128 kb/s
Channel(s) : 2 channels
Channel layout : L R
Sampling rate : 44.1 kHz
Frame rate : 43.066 FPS (1024 SPF)
Compression mode : Lossy
Stream size : 50.7 MiB (9%)
Default : Yes
Alternate group : 1


Veliko užitkov!
Bon.voyage.2003.SLOSub.bdrip.x264-R77

Klikni za povečavo!
Včeraj ob 12:19 naložil System
Sejalci: 1 / Odjemalci: 0 / Velikost: 700.04 MB / Dokončani: 0
Prenesi torrent Poročaj torrent Opis torrenta
Kategorija: FILMI >  BRRip
Anonimen nalagalec

Bon.voyage.2003.SLOSub.bdrip.x264-R77
Bon Voyage 2003
LEPO POTOVANJE
Režija: Jean-Paul Rappeneau
Scenarij: Jean-Paul Rappeneau , Patrick Modiano
Igrajo: Isabelle Adjani, Gérard Depardieu, Virginie Ledoyen
Zgodba:
Na začetku druge svetovne vojne usoda svobodnega sveta visi na koncu v luksuznem hotelu Splendide v Bordeauxu. Člani kabineta, novinarji, fiziki in vohuni vseh prepričanj se zberejo, da bi se izognili nacistični okupaciji Pariza. Družbeniki visoke družbe se družijo z zaporniki. Ubijajo spletke, znanstvene skrivnosti in ljubezenske zadeve.
Viviane, slavna igralka stori umor, in njen prijatelj Frédéric Auger, pisatelj, je obsojen. S prijateljem bi pobegnil iz zapora, ko bo nacistična vojska prišla v Pariz. .. Pobegnili bodo do Bordeauxa in spoznali Jean-Etiennea Beauforta, francoskega ministra, ki ga je igral Depardieun in je zaljubljen v igralko. Prav tako bodo morali pomagati Camille (Ledoyen) pri pošiljanju pomembnih del v Anglijo.
Žanri: Komedija, Drama, Skrivnost, Romantični, Triler, Vojna


Podrobnosti:
Država: Francija
Jezik: Francoščina | Nemščina | Angleščina | Italijansko
Datum izdaje:27. maj 2004
Podnapisi: Slovenščina

Tehnične specifikacije:
Izvajanje: 114 min
Zvočna mešanica: DTS | Dolby Digital
Barva: Črno in belo | Barva
Razmerje: 2.35 : 1


VELIKO UŽITKOV!
Aleksi.2018.TVRip.x264-R77

Klikni za povečavo!
Včeraj ob 12:05 naložil System
Sejalci: 2 / Odjemalci: 0 / Velikost: 959.26 MB / Dokončani: 1
Prenesi torrent Poročaj torrent Opis torrenta
Kategorija: FILMI > TVRip
Anonimen nalagalec

Aleksi.2018.TVRip.x264-R77





Aleksi (2018)





REŽIJA: Barbara Vekarić

IGRAJO: Tihana Lazović, Goran Marković, Sebastian Cavazza, Nataša Janjić, Jason Mann, Aljoša Vučović, Neda Arnerić, Leon Lučev
ŽANR: Komedija, drama, romanca

SINOPSIS:

Lik o smešni in nemirni deklici pri dvajsetih letih, prisiljeni se preseliti k svoji prevladujoči družini.



Country : Croatia | Serbia | Serbia and Montenegro

Language : Croatian
Release Date : 14 July 2018 (Croatia)





Zgodba:



Aleksi je težavna 28-letnica, ki po končani fakulteti ni našla službe fotografa in se vrača domov živeti pod streho svojih staršev. Ker ima nekaj možnosti, da prepreči svoj dolgčas, Aleksi ignorira njene nujne naloge, tako da sledi svojim impulzom z različnimi moškimi: Christianom, ameriškim fotografom, s katerim se veže zaradi podobnih interesov; Goran, lokalni glasbenik, ki ga zaradi njegovih tradicionalnih vrednot ne prenese, a s katerim ima močno fizikalno kemijo; in Toni, starejši, bogatejši, očarljivi slovenski playboy, ki jo skuša zvabiti z ekstravagantnostjo jaht, zabav in dragih mamil.






Tehnične specifikacije:


Complete name : Aleksi.2018.TVRip.x264-R77

Format : Matroska
Format version : Version 4
File size : 977 MiB
Duration : 1 h 24 min
Overall bit rate mode : Variable
Overall bit rate : 1 625 kb/s
Encoded date : UTC 2019-03-29 05:48:19
Writing application : TMPGEnc Video Trolling Works 6 Version. 6.2.10.37
Writing library : TMPGEnc Video Trolling Works 6 Version. 6.2.10.37


Video

ID : 2
Format : AVC
Format/Info : Advanced Video Codec
Format profile : High@L3.1
Format settings : CABAC / 16 Ref Frames
Format settings, CABAC : Yes
Format settings, ReFrames : 16 frames
Codec ID : V_MPEG4/ISO/AVC
Duration : 1 h 24 min
Bit rate mode : Variable
Bit rate : 1 465 kb/s
Maximum bit rate : 4 000 kb/s
Width : 720 pixels
Height : 400 pixels
Display aspect ratio : 16:9
Frame rate mode : Constant
Frame rate : 50.000 FPS
Standard : PAL
Color space : YUV
Chroma subsampling : 4:2:0
Bit depth : 8 bits
Scan type : Progressive
Bits/(Pixel*Frame) : 0.102
Stream size : 881 MiB (90%)
Default : Yes
Forced : No
Color range : Limited
Color primaries : BT.709
Transfer characteristics : BT.709
Matrix coefficients : BT.709


Audio

ID : 1
Format : MPEG Audio
Format version : Version 1
Format profile : Layer 2
Codec ID : A_MPEG/L2
Codec ID/Hint : MP2
Duration : 1 h 24 min
Bit rate mode : Constant
Bit rate : 128 kb/s
Channel(s) : 2 channels
Sampling rate : 48.0 kHz
Compression mode : Lossy
Stream size : 76.9 MiB (8%)
Default : Yes
Forced : No





Uživajte!
Poljub.ob.borovem.jezeru.aka.Kiss.at.Pine.Lake.SLOSubs.720p.HDTVRip x264.R77

Klikni za povečavo!
Včeraj ob 11:39 naložil rado77
Sejalci: 1 / Odjemalci: 0 / Velikost: 939.69 MB / Dokončani: 0
Prenesi torrent Poročaj torrent Opis torrenta
Zvrst: Romantični
Kategorija: FILMI > HDRip

Poljub.ob.borovem.jezeru.aka.Kiss.at.Pine.Lake.SLOSubs.720p.HDTVRip x264.R77



Kiss at Pine Lake

Poljub ob borovem jezeru (2012)




O poljubu pri Pine Lakeu:


Petnajst let po poletni romantiki usoda prikliče dva zaljubljena zvezdnika. Zoe in Luke sta si prvi poljub skoraj delila ob jezeru Camp Pine, a sta ju prekinila in njuna najstniška romanca se je končala. Zdaj je Luke (Barry Watson) človekoljubni podjetnik, ki je pred kratkim zaradi sentimentalnih razlogov kupil stric's Camp Pine Lake, le da bi ugotovil, da bi lahko kamp zaprli zaradi kršitev varnostnih pravil. Zoe (Mia Kirshner) je glavna oseba iz podjetja, ki je novega lastnika kampa prepričalo, naj proda svojo zemljo.


Ko pride Zoe, z osuplostjo ugotovi, da je Luka novi lastnik. Zoe se vse spremeni, ko ugotovi, da Luke ne zanima dobiček, ampak želi, da ostane kamp odprt. Ko jo šef zapusti, se strinja, da bo prijateljstvo z Lukom izkoristila sebi v prid. Ali bosta zmogla premagati prevaro, da bi obudila svoj stari plamen in hkrati rešila umik iz otroštva?





Igrajo:

Mia Kirshner (VAMPIRJEV DNEVNIK, 24,
Barry Watson (7.NEBO,OCEANOVIH ENAJST )
Matty Finochio
Victoria Bidewell

Režija: Michael Scott

Država: Kanada
Jezik: angleščina
Podnapisi: slovenščina
Žanr: romantični





Tehnične specifikacije:



Complete name: Poljub.ob.borovem.jezeru.aka.Kiss.at.Pine.Lake.SLOSubs.720p.HDTVRip x264.R77

Format : MPEG-4
Format profile : Base Media
Codec ID : isom (isom/iso2/avc1/mp41)
File size : 940 MiB
Duration : 1 h 24 min
Overall bit rate : 1 546 kb/s
Writing application : Lavf58.29.100


Video

ID : 1
Format : AVC
Format/Info : Advanced Video Codec
Format profile : High@L3
Format settings : CABAC / 2 Ref Frames
Format settings, CABAC : Yes
Format settings, Reference frames : 2 frames
Codec ID : avc1
Codec ID/Info : Advanced Video Coding
Duration : 1 h 24 min
Bit rate : 1 412 kb/s
Width : 720 pixels
Height : 576 pixels
Display aspect ratio : 16:9
Frame rate mode : Constant
Frame rate : 25.000 FPS
Standard : PAL
Color space : YUV
Chroma subsampling : 4:2:0
Bit depth : 8 bits
Scan type : Progressive
Bits/(Pixel*Frame) : 0.136
Stream size : 858 MiB (91%)
Codec configuration box : avcC


Audio

ID : 2
Format : AAC LC
Format/Info : Advanced Audio Codec Low Complexity
Codec ID : mp4a-40-2
Duration : 1 h 24 min
Bit rate mode : Constant
Bit rate : 129 kb/s
Channel(s) : 2 channels
Channel layout : L R
Sampling rate : 44.1 kHz
Frame rate : 43.066 FPS (1024 SPF)
Compression mode : Lossy
Stream size : 78.3 MiB (8%)
Default : Yes
Alternate group : 1





UŽIVAJTE!
Podolskiye Kursanty 2020 SrbSubs 720p WEBRip XviD AC3 Unknown

Klikni za povečavo!
Včeraj ob 10:55 naložil Ziva
Sejalci: 2 / Odjemalci: 0 / Velikost: 4.71 GB / Dokončani: 1
Prenesi torrent Magnet Link Poročaj torrent Opis torrenta NFO
Zvrst: Akcija | Vojni
Kategorija: FILMI > WEBRip-720



Podolskiye Kursanty 2020 720p WEBRip XviD AC3 Unknown
Language(s): Russian
Size: 4.70 GB | Duration: 2hr 16mn | Container: AVI
Audio: AC-3 | 448 Kbps | 6 Channels
Video: XviD | 4488 Kbps | 1280 x 536
Genre: Action | Drama | War


Artyom Gubin, Lubov Konstantinova, Igor Yudin


The film tells the story of the Podolsk cadets' heroic stand outside Moscow in October 1941. Cadets from the Podolsk infantry and artillery schools were sent to the Ilyinsky line of defense, fighting alongside units from the Soviet 43rd Army to hold back the German advance until reinforcements arrived. Hopelessly outnumbered, young men in their teens laid down their lives in a battle lasting almost two weeks to obstruct the far superior German forces advancing towards Moscow. This film is not only about war. It is also about love, true camaraderie, and the path from boyhood to manhood. Around 3,500 cadets and their commanding officers were sent to hold up the last line of defense outside Moscow. Most of them remained there for eternity.



Gli Anni Più Belli 2020 SloSubs 720p BDRip XviD AC3 Unknown

Klikni za povečavo!
Včeraj ob 10:30 naložil Ziva
Sejalci: 2 / Odjemalci: 0 / Velikost: 4.58 GB / Dokončani: 1
Prenesi torrent Poročaj torrent Opis torrenta NFO
Zvrst: Drama
Kategorija: FILMI > BDRip



Gli Anni Più Belli 2020 720p BDRip XviD AC3 Unknown
Language(s): Italian
Size: 4.58 GB | Duration: 2hr 14mn | Container: AVI
Audio: AC-3 | 448 Kbps | 6 Channels
Video: XviD | 4425 Kbps | 1280 x 536
Genre: Drama


Pierfrancesco Favino, Micaela Ramazzotti, Kim Rossi Stuart


The story of Italy, from the 80s to nowadays, told through the life of four friends, Giulio, Gemma, Paolo e Riccardo; during 40 years of loves, aspirations, success and failures.




Dark.Blue.S01-S02.Slosub.TVRip.720p.x264.R77

Klikni za povečavo!
Petek at 16:48 naložil rado77
Sejalci: 1 / Odjemalci: 0 / Velikost: 7.41 GB / Dokončani: 0
Prenesi torrent Poročaj torrent Opis torrenta
Zvrst: Drama
Kategorija: FILMI > TVRip

Dark.Blue.S01-S02.Slosub.TVRip.720p.x264.R77





Dark Blue
TV serija (2009–2010)


TEMNO MODRA





Država: Združene države

Direktor: Danny Cannon (ustvarjalec), Doug Jung (ustvarjalec), Jeffrey G. Hunt





Igralska zasedba:


Dylan McDermott , Omari Hardwick , Logan Marshall-Green , Nicki Aycox , Meta Golding , Tyrees Allen , Noah Bean

Žanr: TV serija , Drama , Triler, Policajski
Jezik: angleščina
Podnapisi: Slovenski


Povzetek:



Temno modra spremlja življenje tajne ekipe policistov iz Los Angelesa tako prikrito, da mnogi njihovi lastni kolegi sploh ne vedo, da so vpleteni. Ekipo nadzira poročnik Carter Shaw (Dylan McDermott), ki s svojimi nadrejenimi pogosto trka v glavo nad tveganji, ki jih je ekipa pripravljena uničiti.






Tehnične specifikacije:



Complete name : Dark.Blue.S01-S02.Slosub.TVRip.720p.x264.R77

Format : Matroska
Format version : Version 2
File size : 406 MiB
Duration : 43 min 47 s
Overall bit rate : 1 295 kb/s
Writing application : Lavf52.94.0
Writing library : Lavf52.94.0


Video

ID : 1
Format : AVC
Format/Info : Advanced Video Codec
Format profile : High@L3
Format settings : CABAC / 2 Ref Frames
Format settings, CABAC : Yes
Format settings, Reference frames : 2 frames
Codec ID : V_MPEG4/ISO/AVC
Duration : 43 min 47 s
Bit rate : 1 100 kb/s
Width : 720 pixels
Height : 408 pixels
Display aspect ratio : 16:9
Frame rate mode : Constant
Frame rate : 25.000 FPS
Color space : YUV
Chroma subsampling : 4:2:0
Bit depth : 8 bits
Scan type : Progressive
Bits/(Pixel*Frame) : 0.150
Stream size : 337 MiB (83%)
Writing library : x264 core 112 r1834 a51816a
Default : Yes
Forced : No


Audio

ID : 2
Format : AC-3
Format/Info : Audio Coding 3
Commercial name : Dolby Digital
Codec ID : A_AC3
Duration : 43 min 47 s
Bit rate mode : Constant
Bit rate : 192 kb/s
Channel(s) : 2 channels
Channel layout : L R
Sampling rate : 48.0 kHz
Frame rate : 31.250 FPS (1536 SPF)
Bit depth : 16 bits
Compression mode : Lossy
Stream size : 60.1 MiB (15%)
Service kind : Complete Main
Default : Yes
Forced : No


Veliko užitkov!
Kolja.1996.SLOSub.SLOSubs.720p.HDTVRip x264.R77

Klikni za povečavo!
Petek at 16:30 naložil rado77
Sejalci: 1 / Odjemalci: 0 / Velikost: 1.56 GB / Dokončani: 0
Prenesi torrent Poročaj torrent Opis torrenta
Zvrst: Drama | Glasbeni | Komedija
Kategorija: FILMI > HDRip

Kolja.1996.SLOSub.SLOSubs.720p.HDTVRip x264.R77





Kolja (1996)





Direktor: Jan Sverák

Pisatelji: Pavel Taussig (zgodba), Zdenek Sverák (scenarij)
Igrajo: Zdeněk Svěrák , Andrey Khalimon , Libuse Safránková


V filmu navdušuje deček z prpričljivo, navdihujočo če ne kar nadpovprečno igro Andrey Khalimon - Kolja.






Zgodba:



Franta Louka je koncertna violončelistka v sovjetsko zasedeni Češkoslovaški, potrjena neženja in ženska. Ko je izgubil mesto v državnem orkestru, se mora preživljati z igranjem na pogrebih in slikanjem nagrobnikov. Toda zadolžil se je velik dolg in ko njegov prijatelj, grobnjak, g. Broz, predlaga shemo za veliko zaslužka s poroko z Rusinjo, da bo lahko dobila češke papirje, se neradi strinja. Situacijo izkoristi za emigriranje v Zahodno Nemčijo, k svojemu ljubimcu; in pusti svojega petletnega sina pri babici; ko babica umre, mora Kolya živeti s svojim očimom - Louko. Napisal Gary Dickerson




Žanri: Komedija | Drama | Glasba

Država: Češka | Združeno kraljestvo | Francija
Jezik: Češčina | Ruščina | Slovaški
Datum izdaje:15. maj 1996 (Češka)
Podnapisi: slovenski





Tehnične specifikacije:



Complete name : Kolja.1996.SLOSub.SLOSubs.720p.HDTVRip x264.R77

Format : MPEG-4
Format profile : Base Media
Codec ID : isom (isom/iso2/avc1/mp41)
File size : 1.56 GiB
Duration : 1 h 46 min
Overall bit rate : 2 098 kb/s
Writing application : Lavf58.29.100


Video

ID : 1
Format : AVC
Format/Info : Advanced Video Codec
Format profile : High@L3.1
Format settings : CABAC / 2 Ref Frames
Format settings, CABAC : Yes
Format settings, Reference frames : 2 frames
Codec ID : avc1
Codec ID/Info : Advanced Video Coding
Duration : 1 h 46 min
Bit rate : 1 963 kb/s
Width : 1 280 pixels
Height : 720 pixels
Display aspect ratio : 16:9
Frame rate mode : Constant
Frame rate : 25.000 FPS
Color space : YUV
Chroma subsampling : 4:2:0
Bit depth : 8 bits
Scan type : Progressive
Bits/(Pixel*Frame) : 0.085
Stream size : 1.46 GiB (94%)
Codec configuration box : avcC


Audio

ID : 2
Format : AAC LC
Format/Info : Advanced Audio Codec Low Complexity
Codec ID : mp4a-40-2
Duration : 1 h 46 min
Bit rate mode : Constant
Bit rate : 129 kb/s
Channel(s) : 2 channels
Channel layout : L R
Sampling rate : 44.1 kHz
Frame rate : 43.066 FPS (1024 SPF)
Compression mode : Lossy
Stream size : 98.4 MiB (6%)
Default : Yes
Alternate group : 1


VELIKO UŽITKOV!
Snayper 2 Tungus S01 SrbSubs 720p HDTV x264 PACK

Klikni za povečavo!
Sreda at 15:26 naložil Ziva
Sejalci: 6 / Odjemalci: 0 / Velikost: 4.55 GB / Dokončani: 5
Prenesi torrent Poročaj torrent Opis torrenta NFO
Zvrst: Vojni
Kategorija: FILMI > HDTV



Mini serija
Snayper 2 Tungus S01 720p HDTV x264 PACK
Language(s): Russian
Size: 4.55 GB | Duration: 4 x 40mn | Container: MKV
Audio: MP-2 | 192 Kbps | 2 Channels
Video: AVC | 3800 Kbps | 1280 x 720
Genre: War
Podnapisi: srbski


World War 2 - Eastern Front: A new batch of raw, inexperienced female Soviet snipers arrive at the front. To bolster them a commander picks a Tungus medic whose people are known for their hunting skills and marksmanship to lead them in battle. Soon a merciless duel with an elite German sniper develops. The main character is based on the top Soviet sniper SEMYON NOMOKONOV who had 367 kills to his credit.



Deep.Impact.1998.MultiSub.PAL.DVDR

Klikni za povečavo!
17-01-2021 12:32 naložil System
Sejalci: 1 / Odjemalci: 0 / Velikost: 4.36 GB / Dokončani: 2
Prenesi torrent Poročaj torrent Opis torrenta
Kategorija: FILMI > DVD
Anonimen nalagalec

Deep Impact (1998)
Zadnji udarec (1998)



-------------

INFO:
-------------
Source..........: DVD
Format..........: 16:9
Standard........: PAL
Release Size....: 4,35 GB
iMDB Link.......: KLIK
iMDB Rating.....: 6,2/10 (164.177)
Genre...........: Action, Drama, Romance, Sci-Fi, Thriller
Country.........: USA
Language........: English/ Russian
Video...........: Untouched
Audio...........: AC3 5.1-ch Russian/ English
Subs............: Russian/ Croatian/ Slovenian/ Serbian
Extras..........: yes
Regija..........: Prosto
Runtime.........: 117 min
Čas predvajanja.: 01:56.10 h

-------------
IGRALCI:
-------------
Robert Duvall ... Spurgeon Tanner
Tea Leoni ... Jenny Lerner
Elijah Wood ... Leo Biederman
Vanessa Redgrave ... Robin Lerner
Morgan Freeman ... President Beck
Maximilian Schell ... Jason Lerner
James Cromwell ... Alan Rittenhouse
Ron Eldard ... Oren Monash
Jon Favreau ... Gus Partenza
Laura Innes ... Beth Stanley
Mary McCormack ... Andrea Baker
Richard Schiff ... Don Biederman
Leelee Sobieski ... Sarah Hotchner
Blair Underwood ... Mark Simon
Dougray Scott ... Eric Vennekor

-------------
OPIS:
-------------
Najstnik Leo Beiderman se pridruži šolskemu astrološkemu krožku v upanju,
da ga bo opazila lepa sošolka Sarah. Še najmanj pričakuje, da bo odkril
nekaj, kar bo pretreslo svet. Fotografija, ki jo posname z malim teleskopom,
prikazuje komet, za katerega znanstveniki zatrjujejo, da bo trčil z Zemljo.
Zdaj vsi upi človeštva ležijo v posebnem vesoljskem plovilu, ki naj bi
pristalo na kometu in ga uničilo, še preden bi prišlo do katastrofe. Toda
bolj ko se bliža usodni dan, bolj napeti so odzivi ljudi...



The.Hitcher.1986.SloSub.DVDRip.XviD-Churchill

Klikni za povečavo!
16-01-2021 13:31 naložil System
Sejalci: 5 / Odjemalci: 0 / Velikost: 1.47 GB / Dokončani: 6
Prenesi torrent Poročaj torrent Opis torrenta
Zvrst: Akcija | Triler
Kategorija: FILMI > XviD
Anonimen nalagalec

The Hitcher (1986)
Avtoštopar (1986)



INFO:
-------------
Codec : XVID
Format : AVI
Size : 1.47 GiB
Bit rate : 1 801 kb/s
Width : 720 pixels
Height : 304 pixels
Aspect ratio : 16/9
Audio 1 : AC-3
Bit rate : 448 kb/s
Channel(s) : 6 channels
Channel positions: L R C LFE Ls Rs
Sampling rate : 48.0 kHz
Genre : Action, Thriller
Country : USA
Language : English/ French
Subtitles : Slovenski
Runtime : 93 min
Čas predvajanja : 1 h 33 min

IMDb user Rating: 7,2/10 (43.498)
IMDb Link: KLIK

IGRALCI:
-------------
Rutger Hauer ... John Ryder
C. Thomas Howell ... Jim Halsey
Jennifer Jason Leigh ... Nash
Jeffrey DeMunn ... Captain Esteridge
John M. Jackson ... Sergeant Starr
Billy Green Bush ... Trooper Donner
Jack Thibeau ... Trooper Prestone
Armin Shimerman ... Interrogation Sergeant
Gene Davis ... Trooper Dodge
Jon Van Ness ... Trooper Hapscomb
Henry Darrow ... Trooper Hancock
Tony Epper ... Trooper Conners
Tom Spratley ... Proprietor
Colin Campbell ... Construction Man

OPIS:
-------------
Zgodba o motenem morilcu in njegovem lovu na mladeniča...


News Of The World 2020 SrbSubs 720p AMZN WEBRip XviD AC3 Unknown

Klikni za povečavo!
16-01-2021 11:55 naložil Ziva
Sejalci: 5 / Odjemalci: 0 / Velikost: 4.03 GB / Dokončani: 8
Prenesi torrent Magnet Link Poročaj torrent Opis torrenta NFO
Kategorija: FILMI > WEBRip-720



News Of The World 2020 720p AMZN WEBRip XviD AC3 Unknown
Language(s): English
Size: 4.02 GB | Duration: 1hr 58mn | Container: AVI
Audio: AC-3 | 448 Kbps | 6 Channels
Video: XviD | 4418 Kbps | 1280 x 536
Genre: Adventure | Drama | Western


Tom Hanks, Steve Boyles, Helena Zengel


A Civil War veteran agrees to deliver a girl, taken by the Kiowa people years ago, to her aunt and uncle, against her will. They travel hundreds of miles and face grave dangers as they search for a place that either can call home.


Spasti.Leningrad.aka.Saving.Leningrad.2019.SLOSubs.BRRip.XviD-DrSi

Klikni za povečavo!
16-01-2021 11:47 naložil Ziva
Sejalci: 1 / Odjemalci: 0 / Velikost: 2.2 GB / Dokončani: 1
Prenesi torrent Poročaj torrent Opis torrenta NFO
Zvrst: Akcija | Drama | Vojni
Kategorija: FILMI >  BRRip



Naziv: Spasti.Leningrad.aka.Saving.Leningrad.2019.SLOSubs.BRRip.XviD-DrSi
Source: Spasti.Leningrad.2019.1080p.Bluray.DTS.5.1.x264-OllandGroup
Leto izida ........: 2019
Velikost ...........: 2,20 GB
Dolžina ............: 97 Minut
Video ...............: 2783 Kbps | 720x304 | 24 fps
Zvok .................: Dolby Digital AC3 5.1 @ 448 Kbps
Kodek.................: XviD
Zvrst………….: Akcija | Vojni | Drama
Država .............: Rusija
Jezik ................: Ruski
Podnapisi .........: Slovenski (custom)
Prevod: denycare –Hvala!
Tehnična obdelava: DVD Rippers Slovenija

Režija.........: Aleksey Kozlov
Scenarij.......: Aleksey Kozlov


Maria Melnikova ... Nastya
Andrey Mironov-Udalov ... Kostya
Gela Meskhi ... Petruchik
Anastasiya Melnikova ... Mariya Nikolayevna
Valeriy Degtyar ... Aleksandr Naumovich
Marina Komarova ... Anastasiya Aleksandrovna
Vitaliy Kishchenko ... Gorelov
Aleksey Shevchenkov ... Yerofeyev


Spremljamo izmišljeno zgodbo ob resničnih dogodkih med 2. sv. vojno,
ko so Nemci oblegali takrat imenovani Leningrad. Kostya je mlad
ruski kadet topništva, ki se s svojim dekletom preko noči namerava
z barko evakuirati iz mesta preko bližnjega jezera Ladoga.
Toda barka povsem razpada, ob enem pa jim iz zraka grozijo
še nemška bojna letala, ki jih ves čas obletavajo.
Tako mora okoli 1500 ljudi na krovu preživeti svojo najdaljšo noč.





Chick Fight 2020 SrbSubs 720p BRRip XviD AC3 XVID

Klikni za povečavo!
16-01-2021 11:30 naložil Ziva
Sejalci: 3 / Odjemalci: 0 / Velikost: 2.89 GB / Dokončani: 4
Prenesi torrent Poročaj torrent Opis torrenta NFO
Zvrst: Akcija | Drama | Komedija
Kategorija: FILMI >  BRRip



Chick Fight 2020 720p BRRip XviD AC3 XVID
Language(s): English
Size: 2.89 GB | Duration: 1hr 37mn | Container: AVI
Audio: AC-3 | 448 Kbps | 6 Channels
Video: XviD | 3797 Kbps | 1280 x 534
Genre: Action | Comedy | Drama


Malin Akerman, Bella Thorne, Dulcé Sloan


When Anna Wyncomb is introduced to an underground, all-female fight club in order to turn the mess of her life around, she discovers she is much more personally connected to the history of the club than she could ever imagine.





Rassvet 2019 SrbSubs 720p BRRip XviD AC3 Unknown

Klikni za povečavo!
15-01-2021 13:15 naložil Ziva
Sejalci: 1 / Odjemalci: 0 / Velikost: 2.7 GB / Dokončani: 1
Prenesi torrent Poročaj torrent Opis torrenta NFO
Zvrst: Grozljivka | Triler
Kategorija: FILMI >  BRRip



Rassvet 2019 720p BRRip XviD AC3 Unknown
Language(s): Russian
Size: 2.69 GB | Duration: 1hr 37mn | Container: AVI
Audio: AC-3 | 448 Kbps | 6 Channels
Video: XviD | 3490 Kbps | 1280 x 536
Genre: Horror | Thriller


Aleksandra Drozdova, Aleksandr Molochnikov, Anna Slyu


In the main character, under mysterious circumstances, the brother dies. The girl begins to pursue realistic nightmares, and she goes to the institute of somnology, where she and other patients are immersed in a joint lucid dream. But after dawn, they will wake up in a completely different reality, which is worse than any nightmare .






Centigrade 2020 SrbSubs 720p BRRip XviD AC3 Unknown

Klikni za povečavo!
15-01-2021 12:18 naložil Ziva
Sejalci: 2 / Odjemalci: 0 / Velikost: 1.19 GB / Dokončani: 5
Prenesi torrent Poročaj torrent Opis torrenta NFO
Zvrst: Drama | Triler
Kategorija: FILMI >  BRRip



Centigrade 2020 720p BRRip XviD AC3 Unknown
Language(s): English
Size: 1.19 GB | Duration: 1hr 29mn | Container: AVI
Audio: AC-3 | 448 Kbps | 6 Channels
Video: XviD | 1449 Kbps | 1280 x 536
Genre: Drama | Thriller


Mavis Simpson-Ernst, Vincent Piazza, Genesis Rodriguez


A married couple find themselves trapped in their frozen vehicle after a blizzard and struggle to survive amid plunging temperatures and unforeseen obstacles.