All torrents are Free between 01-12-2018 - 01-01-2019
A
B
C
D
E
F
G
H
I
J
K
L
M
N
O
P
Q
R
S
T
U
V
W
X
Y
Z
0-9
Vrhunska putovanja

19-05-2018 10:11 naložil System
Sejalci: 0 / Odjemalci: 0 / Velikost: 9.09 GB / Dokončani: 0
Prenesi torrent Poročaj torrent Opis torrenta
Zvrst: Dokumentarni
Kategorija: FILMI > Dokumentarni
Anonimen nalagalec

Serija Vrhunska putovanja puno je više od običnog putopisa. To je vodič za pustolove koji rado skreću s utabane turističke staze jer prikazuje svijet u novom svjetlu: od ledenih dubina Antarktika do nebeskih vrhunaca Čilea, koraljnih džungli Mikronezije, šangajskih nebodera i vijetnamske ture motociklom. Putujemo i u Japan, Las Vegas, London, Norvešku i Filipine. Svaka nam epizoda otkriva bit destinacije - od povijesti i kulture, do kuhinje i životinjskog svijeta.

Epizode:
1. Japan
2. Turska
3. Antarktika
4. London
5. Mallorca
6. Norveška
7. Filipini
8. Šangaj
9. Bocvana
10. Bali
11. Vijetnam
12. Mikronezija
13. Bugarska
14. Las Vegas
15. Čile
16. Maldivi
17. Queensland - Australija
18. Australija - Sjeverni teritorij
19. Kanada
20. Južna Afrika
21. Florida


Hormones And Huffs 2016

Klikni za povečavo!
02-12-2017 16:03 naložil System
Sejalci: 0 / Odjemalci: 0 / Velikost: 532.87 MB / Dokončani: 0
Prenesi torrent Poročaj torrent Opis torrenta
Zvrst: Dokumentarni
Kategorija: FILMI > Dokumentarni
Anonimen nalagalec

General
Complete name : E:\00\Hormones And Huffs 2016.avi
Format : AVI
Format/Info : Audio Video Interleave
File size : 533 MiB
Duration : 52 min 1 s
Overall bit rate : 1 432 kb/s
Writing library : VirtualDub build 35491/release

Video
ID : 0
Format : AVC
Format/Info : Advanced Video Codec
Format profile : High@L4.1
Format settings, CABAC : Yes
Format settings, ReFrames : 4 frames
Codec ID : H264
Duration : 52 min 1 s
Bit rate : 1 366 kb/s
Width : 1 280 pixels
Height : 720 pixels
Display aspect ratio : 16:9
Frame rate : 25.000 FPS
Color space : YUV
Chroma subsampling : 4:2:0
Bit depth : 8 bits
Scan type : Progressive
Bits/(Pixel*Frame) : 0.059
Stream size : 508 MiB (95%)
Writing library : x264 core 148 r2694bm 3b70645
Encoding settings : cabac=1 / ref=3 / deblock=1:0:0 /
Audio
ID : 1
Format : MPEG Audio
Format version : Version 2
Format profile : Layer 3
Mode : Joint stereo
Mode extension : Intensity Stereo + MS Stereo
Codec ID : 55
Codec ID/Hint : MP3
Duration : 52 min 1 s
Bit rate mode : Constant
Bit rate : 56.0 kb/s
Channel(s) : 2 channels
Sampling rate : 22.05 kHz
Compression mode : Lossy
Stream size : 20.7 MiB (4%)
Alignment : Split accross interleaves
Interleave, duration : 40 ms (1.00 video frame)
Interleave, preload duration : 502 ms

Amour et le sexe au Japon SloSubs TvRip 720p H264

Klikni za povečavo!
15-10-2017 12:43 naložil System
Sejalci: 1 / Odjemalci: 0 / Velikost: 1.11 GB / Dokončani: 6
Prenesi torrent Poročaj torrent Opis torrenta
Zvrst: Dokumentarni
Kategorija: FILMI > Dokumentarni
Anonimen nalagalec

Dokumentarec nakazuje, kak bo odnos do ljubezni in spolnosti v prihodnje.
Kriza ljubezni in spolnosti.

Ljubezen in spolnost po japonsko
Četrtina Japoncev med 30 in 40 leti je deviških.
50 % prebivalcev nima rednih spolnih odnosov.
Do leta 2060 naj bi izginilo 30 % Japoncev.
Zato organizirajo tečaje, ki učijo umetnost zapeljevanja.

Video
ID : 0
Format : AVC
Format/Info : Advanced Video Codec
Format profile : High@L4.1
Format settings, CABAC : Yes
Format settings, ReFrames : 4 frames
Codec ID : H264
Duration : 59 min 30 s
Bit rate : 2 606 kb/s
Width : 1 280 pixels
Height : 720 pixels
Display aspect ratio : 16:9
Frame rate : 25.000 FPS
Color space : YUV
Chroma subsampling : 4:2:0
Bit depth : 8 bits
Scan type : Progressive
Bits/(Pixel*Frame) : 0.113
Stream size : 1.08 GiB (98%)
Writing library : x264 core 148 r2694bm 3b70645
Encoding settings : cabac=1 / ref=3 / deblock=1:0:0

Audio
ID : 1
Format : MPEG Audio
Format version : Version 2
Format profile : Layer 3
Mode : Joint stereo
Mode extension : Intensity Stereo + MS Stereo
Codec ID : 55
Codec ID/Hint : MP3
Duration : 59 min 30 s
Bit rate mode : Constant
Bit rate : 56.0 kb/s
Channel(s) : 2 channels
Sampling rate : 22.05 kHz
Compression mode : Lossy
Stream size : 23.7 MiB (2%)
Alignment : Split accross interleaves
Interleave, duration : 40 ms (1.00 video frame)
Interleave, preload duration : 502 ms


Triglav.2007.TVRiP.XviD-PEQ

Klikni za povečavo!
18-04-2017 15:41 naložil Ziva
Sejalci: 0 / Odjemalci: 0 / Velikost: 349.85 MB / Dokončani: 14
Prenesi torrent Poročaj torrent Opis torrenta NFO
Zvrst: Dokumentarni
Kategorija: FILMI > Dokumentarni



TRIGLAV, dokumentarna oddaja, nedelja, 18. 2. ob 16.20 na TVS 2


Dokumentarni film Triglav poskuša z nizanjem pripovedi ponuditi
nekaj odgovorov, zakaj je Triglav tako pomemben za Slovence. Ali
je njegova veličina le v tem, da je najvišja gora naše domovine?
Mit je nastajal postopoma, s prebujanjem narodove zavesti, in se
najmočneje izkazoval, kadar je bila ta ogrožena. Nekoč le najbolj
vztrajnim dostopna gora se je v zadnjih desetletjih spremenila v
množično obiskovano turistično pot, kup skal ob Aljaževem stolpu
je prostor najrazličnejših rekordov. Se s pretiranim čaščenjem
lahko mit poruši? Scenarist, režiser in montažer: Amir Muratović



Planet.Earth.II.2016.S01.720p.BluRay.x264-ROVERS(1)

Klikni za povečavo!
01-12-2016 20:46 naložil ViHaR
Sejalci: 0 / Odjemalci: 0 / Velikost: 15.87 GB / Dokončani: 5
Prenesi torrent Poročaj torrent Opis torrenta NFO
Zvrst: Dokumentarni
Kategorija: FILMI > Dokumentarni



Planet.Earth.II.2016.S01.720p.BluRay.x264-ROVERS
Planet zemlja II (2016)

Date: 29.11.2016
Video: X264 @ 4953Kbps
FPS: 25.000
Resolution: 1280x720
Audio: DTS 1509Kbps 6ch
Language: English
Subtitles: English
Runtime: 60min/ep


SERiES INFORMATION

Genre ....: Documentary
IMDB .....: http://www.imdb.com/title/tt5491994/

David Attenborough returns in this breathtaking documentary
showcasing life on Planet Earth.



Islands

For some, remote islands offer sanctuary away from the mainland: the tiny
pygmy three-toed sloth only survives because of the peaceand safety offered
by its Caribbean island home, while seabirds like albatross thrive in isolation.

Mountains

In this episode we climb high into the world’s great mountain ranges.
Only a few pioneering animals have what it takes to survive up here,
they are amongst the most elusive and mysterious on the planet.

Jungles

From the jungles of Brazil, home to caiman hunting jaguars and strange jungle
dolphins that swim in the tree tops, to Costa Rica where ninja frogs fight huge wasps,
we watch as the animals face life in the most competitive place on Earth.

Deserts

In this episode we visit the world’s deserts, a land of extremes that pushes
life to the limit. Animals here have developed ingenious ways of dealing with
the hostile conditions – giving rise to the most incredible survival stories on Earth.

Grasslands

Grasslands cover one quarter of all land and support the greatest gatherings
of wildlife on Earth. The extraordinary creatures that live here must survive
the most hostile seasons on the planet.

Cities

Cities are growing at a faster rate than any other habitat on Earth. They may
seem an unlikely place for animals to thrive, but for the bold this is a world of
surprising opportunity.


Nova Planica 2016.avi

Klikni za povečavo!
18-03-2016 14:58 naložil Ziva
Sejalci: 0 / Odjemalci: 0 / Velikost: 430.2 MB / Dokončani: 6
Prenesi torrent Poročaj torrent Opis torrenta NFO
Kategorija: FILMI > Dokumentarni



Nova Planica
Dokumentarni / Drugi športi, Slovenija 2016

Dokumentarni film Nova Planica predstavlja zgodovino doline pod Poncami in nastanek novega Nordijskega centra.

To slovensko mitsko lokacijo spoznavamo v podobah bogatega arhivskega gradiva ter v posnetkih gradnje centra in planiške narave. Pogovori z legendami slovenskega športa, arhitekti, novinarji in poznavalci planiške zgodovine odkrivajo doslej še neznana dejstva o Planici in pričajo o njeni izjemnosti. Film dokumentira bogato zgodovino Planice, uspehe slovenskih skakalcev od začetkov dvajsetega stoletja do Petra Prevca in njegovih tovarišev ter predstavlja novo podobo športnih objektov Nordijskega centra Planica, lepoto arhitekture in njene umeščenosti v veličastno naravo ter vrhunske tehnološke rešitve.
Film je himnični slavospev lepotam Planice, slovenskim in drugim športnikom, gledalcem, TV ekipam ter vsem snovalcem Nove Planice. Je film o Planici in njenem pomenu ter čustvih, ki jih vzbuja v vseh, ki jo obiščejo.
Režija: Blaž Završnik


Video
ID : 0
Format : AVC
Format/Info : Advanced Video Codec
Format profile : High@L3.1
Format settings, CABAC : Yes
Format settings, ReFrames : 4 frames
Codec ID : H264
Duration : 50mn 50s
Bit rate : 1 117 Kbps
Width : 1 024 pixels
Height : 576 pixels
Display aspect ratio : 16:9
Frame rate : 25.000 fps
Color space : YUV
Chroma subsampling : 4:2:0
Bit depth : 8 bits
Scan type : Progressive
Bits/(Pixel*Frame) : 0.076
Stream size : 406 MiB (94%)
Writing library : x264 core 130 r2274bm c832fe9
Encoding settings : cabac=1 / ref=3 / deblock=1:0:0 qcomp=0.60 / qpmin=0 / qpmax=69 / qpstep=4 / ip_ratio=1.40 / aq=1:1.00

Audio
ID : 1
Format : MPEG Audio
Format version : Version 2
Format profile : Layer 3
Mode : Joint stereo
Mode extension : Intensity Stereo + MS Stereo
Codec ID : 55
Codec ID/Hint : MP3
Duration : 50mn 50s
Bit rate mode : Constant
Bit rate : 56.0 Kbps
Channel(s) : 2 channels
Sampling rate : 22.05 KHz
Compression mode : Lossy
Stream size : 20.3 MiB (5%)
Alignment : Split accross interleaves
Interleave, duration : 40 ms (1.00 video frame)
Interleave, preload duration : 502 ms





Planet.Earth.8.BBC 2007 SLOSINH.DVDRip.XviD-ugorazd

04-02-2016 12:45 naložil Spartakus
Sejalci: 0 / Odjemalci: 0 / Velikost: 701.62 MB / Dokončani: 10
Prenesi torrent Poročaj torrent Opis torrenta
Zvrst: Dokumentarni
Kategorija: FILMI > Dokumentarni



Planet.Earth.8.BBC.2007.SLOSinh.DVDRip.XviD-ugorazd

PLANET EARTH - JUNGLES
Planet Zemlja - Džungle
VIII. del /XI.
2007
dokumentarec

BBC-jeva dokumentarna serija Planet Zemlja E08/ E11
Leto: 2007
Produkcija: BBC
Jezik: SLO Sinhronizirano

Velikost: 702 MB
Dolžina: 48 min.
Resolucija: 720x384
Video BR: 1 835 Kbps
Kodek: XviD
Audio: AC3 2.0 192 Kbps


Serija Planet Zemlja (Planet Earth) je BBC-jeva ekipa 71 snemalcev snemala 4 leta na 204 lokacijah.
Pogled na živali, ki so pripravljene storiti prav vse, da bi se prilagodile na življenje v morskih globinah, kjer se nahaja veliko bogastvo.
Od pola do pola je Zemlja planet pravih ekstremov. V tej seriji bomo podrobno raziskali te okoljske ekstreme od nenehne teme pozimi na Antarktiki do najvišjih dreves in najglobljih podzemnih jam na svetu, katerih prebivalci nikoli ne uzrejo dnevne svetlobe. Serijo, nagrajeno s številnimi nagradami, so snemali pet let in je ena najdražjih dokumentarnih serij o naravi, ki jih je BBC kdajkoli naročil.

Epizode:
From Pole to Pole
Mountains
Fresh Water
Caves
Deserts
Ice Worlds
Great Plains
Jungles
Shallow Seas
Seasonal Forests
Ocean Deep


David Attenborough, Sigourney Weaver, Huw Cordey






Planet.Earth.7.BBC 2007 SLOSINH.DVDRip.XviD-ugorazd

Klikni za povečavo!
04-02-2016 12:42 naložil Spartakus
Sejalci: 0 / Odjemalci: 0 / Velikost: 701.04 MB / Dokončani: 9
Prenesi torrent Poročaj torrent Opis torrenta
Zvrst: Dokumentarni
Kategorija: FILMI > Dokumentarni



Planet.Earth.7.BBC.2007.SLOSinh.DVDRip.XviD-ugorazd

PLANET EARTH - GREAT PLAINS
Planet Zemlja - Velike Ravnice
VII. del /XI.
2007
dokumentarec

BBC-jeva dokumentarna serija Planet Zemlja E07/ E11
Leto: 2007
Produkcija: BBC
Jezik: SLO Sinhronizirano

Velikost: 701 MB
Dolžina: 48 min.
Resolucija: 720x384
Video BR: 1 838 Kbps
Kodek: XviD
Audio: AC3 2.0 192 Kbps


Serija Planet Zemlja (Planet Earth) je BBC-jeva ekipa 71 snemalcev snemala 4 leta na 204 lokacijah.
Pogled na živali, ki so pripravljene storiti prav vse, da bi se prilagodile na življenje v morskih globinah, kjer se nahaja veliko bogastvo.
Od pola do pola je Zemlja planet pravih ekstremov. V tej seriji bomo podrobno raziskali te okoljske ekstreme od nenehne teme pozimi na Antarktiki do najvišjih dreves in najglobljih podzemnih jam na svetu, katerih prebivalci nikoli ne uzrejo dnevne svetlobe. Serijo, nagrajeno s številnimi nagradami, so snemali pet let in je ena najdražjih dokumentarnih serij o naravi, ki jih je BBC kdajkoli naročil.

Epizode:
From Pole to Pole
Mountains
Fresh Water
Caves
Deserts
Ice Worlds
Great Plains
Jungles
Shallow Seas
Seasonal Forests
Ocean Deep


David Attenborough, Sigourney Weaver, Huw Cordey



U potrazi za Hitlerom (celotna serija)

Klikni za povečavo!
04-01-2016 19:12 naložil Spartakus
Sejalci: 0 / Odjemalci: 1 / Velikost: 3.8 GB / Dokončani: 8
Prenesi torrent Poročaj torrent Opis torrenta
Zvrst: Dokumentarni
Kategorija: FILMI > Dokumentarni


Lov na Hitlerja

Leta 2014.FBI objavi novico, da obstaja možnost, da je Hitler pobegnil v Južno Ameriko.Po objavi zaupnih podatkov, ki odkrivajo nove sledi. Serija ¨u potrazi za Hitlerjem¨ skuša rešiti to uganko.












Planet Earth.6.BBC 2007 SLOSINH.DVDRip.XviD-ugorazd

Klikni za povečavo!
23-12-2015 13:18 naložil Spartakus
Sejalci: 0 / Odjemalci: 1 / Velikost: 701.65 MB / Dokončani: 19
Prenesi torrent Poročaj torrent Opis torrenta
Zvrst: Dokumentarni
Kategorija: FILMI > Dokumentarni



Planet.Earth.6.BBC.2007.SLOSinh.DVDRip.XviD-ugorazd

PLANET EARTH - ICE WORLDS
Planet Zemlja - Kraljestvo Ledu
VI. del /XI.
2007
dokumentarec

BBC-jeva dokumentarna serija Planet Zemlja E06/ E11
Leto: 2007
Produkcija: BBC
Jezik: SLO Sinhronizirano

Velikost: 702 MB
Dolžina: 48 min.
Resolucija: 720x384
Video BR: 1 832 Kbps
Kodek: XviD
Audio: AC3 2.0 192 Kbps


Serija Planet Zemlja (Planet Earth) je BBC-jeva ekipa 71 snemalcev snemala 4 leta na 204 lokacijah.
Pogled na živali, ki so pripravljene storiti prav vse, da bi se prilagodile na življenje v morskih globinah, kjer se nahaja veliko bogastvo.
Od pola do pola je Zemlja planet pravih ekstremov. V tej seriji bomo podrobno raziskali te okoljske ekstreme od nenehne teme pozimi na Antarktiki do najvišjih dreves in najglobljih podzemnih jam na svetu, katerih prebivalci nikoli ne uzrejo dnevne svetlobe. Serijo, nagrajeno s številnimi nagradami, so snemali pet let in je ena najdražjih dokumentarnih serij o naravi, ki jih je BBC kdajkoli naročil.

Epizode:
From Pole to Pole
Mountains
Fresh Water
Caves
Deserts
Ice Worlds
Great Plains
Jungles
Shallow Seas
Seasonal Forests
Ocean Deep


David Attenborough, Sigourney Weaver, Huw Cordey




Planet Earth.5.BBC 2007 SLOSINH.DVDRip.XviD-ugorazd

Klikni za povečavo!
23-12-2015 13:15 naložil Spartakus
Sejalci: 0 / Odjemalci: 0 / Velikost: 701.75 MB / Dokončani: 18
Prenesi torrent Poročaj torrent Opis torrenta
Zvrst: Dokumentarni
Kategorija: FILMI > Dokumentarni



Planet.Earth.5.BBC.2007.SLOSinh.DVDRip.XviD-ugorazd

PLANET EARTH - DESERTS
Planet Zemlja - Puščave
V. del /XI.
2007
dokumentarec

BBC-jeva dokumentarna serija Planet Zemlja E05/ E11
Leto: 2007
Produkcija: BBC
Jezik: SLO Sinhronizirano

Velikost: 702 MB
Dolžina: 48 min.
Resolucija: 720x384
Video BR: 1 845 Kbps
Kodek: XviD
Audio: AC3 2.0 192 Kbps


Serija Planet Zemlja (Planet Earth) je BBC-jeva ekipa 71 snemalcev snemala 4 leta na 204 lokacijah.
Pogled na živali, ki so pripravljene storiti prav vse, da bi se prilagodile na življenje v morskih globinah, kjer se nahaja veliko bogastvo.
Od pola do pola je Zemlja planet pravih ekstremov. V tej seriji bomo podrobno raziskali te okoljske ekstreme od nenehne teme pozimi na Antarktiki do najvišjih dreves in najglobljih podzemnih jam na svetu, katerih prebivalci nikoli ne uzrejo dnevne svetlobe. Serijo, nagrajeno s številnimi nagradami, so snemali pet let in je ena najdražjih dokumentarnih serij o naravi, ki jih je BBC kdajkoli naročil.

Epizode:
From Pole to Pole
Mountains
Fresh Water
Caves
Deserts
Ice Worlds
Great Plains
Jungles
Shallow Seas
Seasonal Forests
Ocean Deep


David Attenborough, Sigourney Weaver, Huw Cordey

Kurt Cobain Montage of Heck (2015) SrbSub [1080p] YIFY

Klikni za povečavo!
19-11-2015 22:51 naložil korado
Sejalci: 0 / Odjemalci: 0 / Velikost: 1.95 GB / Dokončani: 1
Prenesi torrent Poročaj torrent Opis torrenta NFO
Zvrst: Biografija
Kategorija: FILMI > Dokumentarni




Kurt Cobain ... himself
(archive footage)
Dom Cobain ... himself - Kurt's Father
Jenny Cobain ... h
erself - Kurt's Stepmother
Kim Cobain ... h
erself - Kurt's sister
Dave Grohl ... himself (archive footage)
Courtney Love ... herself

Dokumentarec o življenju Kurt Cobaina,od zgodnjih dni v Aberdeen,Washington do začetka ter vrhunca slave ter prezgodnje smrti.





Alaska.Earths.Frozen.Kingdom.S01E03.HDTV.x264.avi

Klikni za povečavo!
21-04-2015 11:32 naložil RoNoN
Sejalci: 0 / Odjemalci: 0 / Velikost: 550.8 MB / Dokončani: 0
Prenesi torrent Poročaj torrent Opis torrenta
Zvrst: Dokumentarni
Kategorija: FILMI > Dokumentarni

Alaska- Earth's Frozen Kingdom (2015) S01 EP3 HDTV x264
Alaska- Earth's Frozen Kingdom (2015)



Žanr Dokumentarac
Jezik EN
Titlovi SR(zaljepljeni)
Stars: Dougray Scott

Aljaska je jedna od najpoznatijih divljina na planeti - poslednja granica Amerike. U ovoj seriji kroz 3 epizode pratimo jednu godinu na Aljasci i otkrivamo kako se ljudi i životinje suočavaju sa godišnjim dobima i kako koriste bogatstva prirode da bi preživeli.









Video
ID : 0
Format : MPEG-4 Visual
Format profile : Advanced Simple@L5
Format settings, BVOP : 2
Format settings, QPel : No
Format settings, GMC : No warppoints
Format settings, Matrix : Default (H.263)
Codec ID : XVID
Codec ID/Hint : XviD
Duration : 58mn 39s
Bit rate : 1 748 Kbps
Width : 728 pixels
Height : 408 pixels
Display aspect ratio : 16:9
Original display aspect ratio : 16:9
Frame rate : 25.000 fps
Color space : YUV
Chroma subsampling : 4:2:0
Bit depth : 8 bits
Scan type : Progressive
Compression mode : Lossy
Bits/(Pixel*Frame) : 0.235
Stream size : 733 MiB (93%)
Writing library : XviD 1.2.1 (UTC 2008-12-04)

Audio
ID : 1
Format : MPEG Audio
Format version : Version 1
Format profile : Layer 3
Mode : Joint stereo
Mode extension : MS Stereo
Codec ID : 55
Codec ID/Hint : MP3
Duration : 58mn 39s
Bit rate mode : Constant
Bit rate : 128 Kbps
Channel(s) : 2 channels
Sampling rate : 44.1 KHz
Compression mode : Lossy
Delay relative to video : 40ms
Stream size : 53.7 MiB (7%)
Alignment : Aligned on interleaves
Interleave, duration : 26 ms (0.65 video frame)
Interleave, preload duration : 522 ms
Alaska.Earths.Frozen.Kingdom.S01E02.HDTV.x264.avi

Klikni za povečavo!
21-04-2015 11:27 naložil RoNoN
Sejalci: 0 / Odjemalci: 0 / Velikost: 778.08 MB / Dokončani: 0
Prenesi torrent Poročaj torrent Opis torrenta
Zvrst: Dokumentarni
Kategorija: FILMI > Dokumentarni

Alaska- Earth's Frozen Kingdom (2015) S01 EP2 HDTV x264
Alaska- Earth's Frozen Kingdom (2015)




Žanr Dokumentarac
Jezik EN
Titlovi SR(zaljepljeni)
Stars: Dougray Scott

Aljaska je jedna od najpoznatijih divljina na planeti - poslednja granica Amerike. U ovoj seriji kroz 3 epizode pratimo jednu godinu na Aljasci i otkrivamo kako se ljudi i životinje suočavaju sa godišnjim dobima i kako koriste bogatstva prirode da bi preživeli.









Video
ID : 0
Format : MPEG-4 Visual
Format profile : Advanced Simple@L5
Format settings, BVOP : 2
Format settings, QPel : No
Format settings, GMC : No warppoints
Format settings, Matrix : Default (H.263)
Codec ID : XVID
Codec ID/Hint : XviD
Duration : 58mn 39s
Bit rate : 1 748 Kbps
Width : 728 pixels
Height : 408 pixels
Display aspect ratio : 16:9
Original display aspect ratio : 16:9
Frame rate : 25.000 fps
Color space : YUV
Chroma subsampling : 4:2:0
Bit depth : 8 bits
Scan type : Progressive
Compression mode : Lossy
Bits/(Pixel*Frame) : 0.235
Stream size : 733 MiB (93%)
Writing library : XviD 1.2.1 (UTC 2008-12-04)

Audio
ID : 1
Format : MPEG Audio
Format version : Version 1
Format profile : Layer 3
Mode : Joint stereo
Mode extension : MS Stereo
Codec ID : 55
Codec ID/Hint : MP3
Duration : 58mn 39s
Bit rate mode : Constant
Bit rate : 128 Kbps
Channel(s) : 2 channels
Sampling rate : 44.1 KHz
Compression mode : Lossy
Delay relative to video : 40ms
Stream size : 53.7 MiB (7%)
Alignment : Aligned on interleaves
Interleave, duration : 26 ms (0.65 video frame)
Interleave, preload duration : 522 ms
Alaska.Earths.Frozen.Kingdom.S01E01.HDTV.x264.avi

Klikni za povečavo!
21-04-2015 11:20 naložil RoNoN
Sejalci: 0 / Odjemalci: 0 / Velikost: 791.99 MB / Dokončani: 0
Prenesi torrent Poročaj torrent Opis torrenta
Zvrst: Dokumentarni
Kategorija: FILMI > Dokumentarni

Alaska- Earth's Frozen Kingdom (2015) S01 EP1 HDTV x264
Alaska- Earth's Frozen Kingdom (2015)



Žanr Dokumentarac
Jezik EN
Titlovi SR(zaljepljeni)
Stars: Dougray Scott

Aljaska je jedna od najpoznatijih divljina na planeti - poslednja granica Amerike. U ovoj seriji kroz 3 epizode pratimo jednu godinu na Aljasci i otkrivamo kako se ljudi i životinje suočavaju sa godišnjim dobima i kako koriste bogatstva prirode da bi preživeli.










Video
ID : 0
Format : MPEG-4 Visual
Format profile : Advanced Simple@L5
Format settings, BVOP : 2
Format settings, QPel : No
Format settings, GMC : No warppoints
Format settings, Matrix : Default (H.263)
Codec ID : XVID
Codec ID/Hint : XviD
Duration : 58mn 39s
Bit rate : 1 748 Kbps
Width : 728 pixels
Height : 408 pixels
Display aspect ratio : 16:9
Original display aspect ratio : 16:9
Frame rate : 25.000 fps
Color space : YUV
Chroma subsampling : 4:2:0
Bit depth : 8 bits
Scan type : Progressive
Compression mode : Lossy
Bits/(Pixel*Frame) : 0.235
Stream size : 733 MiB (93%)
Writing library : XviD 1.2.1 (UTC 2008-12-04)

Audio
ID : 1
Format : MPEG Audio
Format version : Version 1
Format profile : Layer 3
Mode : Joint stereo
Mode extension : MS Stereo
Codec ID : 55
Codec ID/Hint : MP3
Duration : 58mn 39s
Bit rate mode : Constant
Bit rate : 128 Kbps
Channel(s) : 2 channels
Sampling rate : 44.1 KHz
Compression mode : Lossy
Delay relative to video : 40ms
Stream size : 53.7 MiB (7%)
Alignment : Aligned on interleaves
Interleave, duration : 26 ms (0.65 video frame)
Interleave, preload duration : 522 ms
Tibetski budizam.mkv

21-04-2015 11:10 naložil RoNoN
Sejalci: 0 / Odjemalci: 0 / Velikost: 568.16 MB / Dokončani: 0
Prenesi torrent Poročaj torrent Opis torrenta
Zvrst: Dokumentarni
Kategorija: FILMI > Dokumentarni

Na rubu znanosti - Tibetski budizam

Iako se i po vanjskoj formi razlikuje od ostalih religija po načinu odijevanja, ritualima i simbolici, ono što budizam izdvaja od ostalih velikih religija jest što podučava kako je sve što postoji posljedica ne boga-stvoritelja već interakcije nepreglednog broja uzroka i uvjeta. Jedinstven je i po učenju o nepostojanju ega. Na temeljno religijsko i filozofsko pitanje "Tko sam ja" klasičan budistički odgvor glasi: "Ja sam neprekidni proces nastajanja i nestajanja tjelesnih i mentalnih fenomena". Pokušaj da se samostalno uđe u fascinantan svijet tibetskog budizma zaogrnut u simbolizam srednjovjekovne kulture središnje Azije najčešće je osuđen na neuspjeh. Jedini način jest onaj koji su tijekom povijesti koristile generacije učenika - kroz doticaj sa živim učiteljima koji utjelovljuju to zanje. Uz njihovu pomoć počinje se uviđati da se sva ta navodno misteriozna učenja u stvari sustavno bave nečim što je zajedničko svim ljudima u svim vremenima: istraživanjem prirode i potencijala uma.
Tajne.kineskoga.zida.2014

Klikni za povečavo!
02-03-2015 12:35 naložil RoNoN
Sejalci: 0 / Odjemalci: 0 / Velikost: 1.22 GB / Dokončani: 5
Prenesi torrent Poročaj torrent Opis torrenta
Zvrst: Dokumentarni
Kategorija: FILMI > Dokumentarni

1. Tajne kineskoga zida: Postanak carstva - Početci kineskoga zida

Iako se Kineski zid ne vidi s Mjeseca, kao što se često može čuti, ipak je čovjekovo najvažnije graditeljsko ostvarenje. Isprva zamišljen kao strateški zid za obranu od silovitih napada mongolskih nomada, on je također ujedinio carstvo gigantskih proporcija. U svojim najslavnijim danima bio je dug gotovo 6000 kilometara. Premda je ostalo samo oko 20% zida u originalnom obliku, i dalje fantastično svjedoči o povijesti Carstva.

U tri uzbudljiva nastavka puna snimaka iz zraka od kojih zastaje dah, gledatelji će susresti stanovnike sjevernih pokrajina Kine gdje se Zid nalazi. Oni su prilično različiti od običnih stanovnika Kine. Upoznat ćemo te sjevernjake - budiste, taoiste i muslimane - čija je sudbina usko vezana uz ovu bezvremenu građevinu. Oni se rijetko pojavljuju na televiziji i ponose se svojim neobičnim i katkad čudnim običajima i tradicijama koje će vas itekako iznenaditi.
---


1. epizoda:

U prvoj epizodi proučit ćemo početke Carstva koji se točno poklapaju s nastankom Kineskoga zida. Prva dinastija, dinastija Qin, koja je vladala od 221. godine pr. Kr., dokončava bezbrojne ratove između zavađenih kraljevstava i osniva tzv. Središnje kraljevstvo, carstvo gigantskih proporcija. U njegovu središtu nalazi se glavni grad zvan Xi'An gdje je izdan nalog za gradnju zida kako bi se zaštitile granice novoga carstva. Njega su štitila mora na jugu i istoku te Himalaja na zapadu, no bilo je ranjivo na sjeveru. Valjalo je držati mongolske nomade i druge ratoborne narode iz središnje Azije pod kontrolom. Upravo je ovdje, u Xi'Anu, car pokopan i do danas ga štiti slavna vojska ratnika od terakote.

2. Tajne kineskoga zida: Obrtnici vječne Kine - Mijene u carstvu



Epizoda: 2

Kad je dinastija Han naslijedila dinastiju Qin, Carstvo se skrasilo i postalo važan politički igrač u svijetu onoga doba. U usporedbi s afričkim carstvima ili Zapadnim, kojim su u to doba dominirali Rimljani, Kina im je postala prava politička protuteža, ali i postojan trgovački partner stotinama godina. Politička stabilnost koju je Zid osiguravao i jamčio bila je ključni faktor za razvoj cvatućeg Puta svile. Kineski zid gradio se mnogo stoljeća, ali postupno je postao geografski simbol prisutan u svoj komercijalnoj i kulturnoj razmjeni. U to doba nastao je i rastao mit o Središnjem kraljevstvu i, zajedno s njime, želja da se otkriva Kina.

3. Tajne kineskoga zida: Putovima kineske tradicije - Kakvo mjesto zauzima Zid u suvremenoj Kini?


Epizoda: 3

Dolaskom dinastije Ming u 14. stoljeću po našem zapadnjačkom kalendaru, Kineski je zid ponovno postao najvažnije sredstvo obrane. Ova je dinastija ponovno ustoličila Carstvo i popravila brojne dijelove Zida koji su propali. Podigli su garnizone duž Zida, koji su postali goleme, izdužene barake za vojsku u kojima je dotad bilo gotovo milijun vojnika. Unatoč ovom obnovljenom zanimanju za obranu, nekoliko stotina godina poslije, dinastiju Ming srušila je dinastija Qing. Ti su Mandžurci zauzeli Zabranjeni grad i Ljetnu palaču u Pekingu, koji je od tada carska prijestolnica. Međutim, uslijed velikih promjena u 20. stoljeću, car iz dinastije Qing postao je "posljednji kineski car".

Anna Jakuba - suhi post.mkv

Klikni za povečavo!
22-02-2015 22:01 naložil RoNoN
Sejalci: 0 / Odjemalci: 0 / Velikost: 385.41 MB / Dokončani: 0
Prenesi torrent Poročaj torrent Opis torrenta
Zvrst: Dokumentarni
Kategorija: FILMI > Dokumentarni

Na rubu znanosti - Anna Jakuba, suhi post

Povremeno odmaranje organizma od unošenja hrane, obično u trajanju od jednog dana, dio je mnogih ljudskih tradicija. Poznato je pod nazivom - post. Ta je preporuka obično dolazila kroz religijska pravila, ali danas je poznato da post doista ima blagotvorne učinke na organizam, kojem pomaže da privremeno energiju s probave usmjeri u neka druge potrebe organizma te da se detoksicira. I dok je odricanje od hrane prepoznato kao korisna djelatnost, za odricanje od vode to se ne bi moglo reći. Općenito se smatra se da je poželjno ne dovoditi organizam u stanje manjka vode. No, iskustva vezana uz post bez vode, tzv. suhi post, pokazuju da možda baš zato jer je toliki dio nas voda ponekad treba napraviti, kompjutorskim rječnikom, "reset" organizma. To je ono čime se bavi Anna Jakuba iz Ukrajine, voditeljica Škole suhog posta.
http://www.crnaberza.com/slike/65458_0.jpg

Anticke megagradjevine

Klikni za povečavo!
31-01-2015 23:46 naložil RoNoN
Sejalci: 0 / Odjemalci: 0 / Velikost: 2.15 GB / Dokončani: 6
Prenesi torrent Poročaj torrent Opis torrenta
Zvrst: Dokumentarni
Kategorija: FILMI > Dokumentarni


ANCIENT MEGASTRUCTURES

Otkrijte tajne revolucionarnih građevina u drevnim građevinama. Određene značajke tih građevina izazivaju strahopoštovanje suvremenih arhitekata i inženjera diljem svijeta. Postavlja se pitanje kako su njihovi drevni preci bili u stanju izgraditi tako lijepe, svevremenske i revolucionarne građevine bez strojeva i materijala koje danas stoje na raspolaganju modernim inženjerima.

Od snova onih koji su ih osmislili do krvi i znoja onih koji su ih izgradili, pogledajte koja priča stoji iza šest veličanstvenih građevina koja su zauvijek promijenila arhitekturu: Petra, Alhambra, katedrala St.Pavla, Aja Sofija, Machu Picchu i Angkor Wat.


Razotkrivene tajne Machu Picchua.mkv

Klikni za povečavo!
31-01-2015 23:41 naložil RoNoN
Sejalci: 0 / Odjemalci: 0 / Velikost: 461.41 MB / Dokončani: 3
Prenesi torrent Poročaj torrent Opis torrenta
Zvrst: Dokumentarni
Kategorija: FILMI > Dokumentarni

NGS: MACHU PICCHU DECODED

Najpoznatija arheološka ruševina na zapadnoj polutki, ikonički simbol moći i tehničke vještine Inka ostala je zagonetka. Teorije o namjeni te građevine nisu se mnogo promijenile otkako je pronađena; Hiram Bingham prije gotovo stotinu godina ponudio je prvu. Najnovija otkrića, uključujući i kosture koji su na tom lokalitetu pronađeni, prvi put daju precizne odgovore vezane uz Machu Picchu o tome tko ga je izgradio, kako i zašto.

U filmu pratimo rad peruanskog arheologa Fernanda Astetea. Njegov stručni tim došao je do još zanimljivijeg otkrića. Usporedo pratimo nastanak revolucionarnog rada i napore međunarodnog tima znanstvenika i inženjera u napetoj priči koja dostiže vrhunac u najiscrpnijem tumačenju Machu Picchua do danas. Kako je izgrađen? Smješten je na hrptu na 2350 metara nadmorske visine, što se doima kao izrazito nepovoljno mjesto za gradilište. No, Inke su nekako uspjele svladati nevjerojatne prepreke i izgradile su veličanstvenu i kompleksnu građevinu i to bez kotača, pisma, čelika i željeza. Kako to da se građevina u posljednjih pet stoljeća nije odronila s obzirom na 195 centimetara oborina po četvornom metru, koliko u prosjeku godišnje padne?

Hidrolog Kenneth Wright vjeruje da zna odgovor: više od polovine lokaliteta skriveno je pod zemljom. Uz pomoć trodimenzionalne računalne grafike otkrivamo masivne temelje koji grad drže na hrptu. Zanimljivo je i otkriće znanstvenika da Machu Picchu nije dovršen. Tim je otkrio kamene blokove koji su bili pripremljeni za ugradnju, što navodi na zaključak da je Machu Picchu napušten dok je gradnja još bila u tijeku. Bingham je bio uvjeren da je Machu Picchu legendarni izgubljeni grad Vilcabamba u koji su se nakon španjolskog osvajanja sklonili preostali članovi carskog dvora.

Godine 2000. biološki antropolog John Verano iznova je ispitao kosti koje su pohranjene u depou muzeja Peabody pri Sveučilištu Yale i otkrio da su spolno prilično ravnomjerno distribuirani, što je uvelike zasjenilo Binghamovu teoriju. Ako je Bingham bio u krivu, što doista znamo o tom lokalitetu?


Selo jednog covjeka.mkv

Klikni za povečavo!
31-01-2015 23:35 naložil RoNoN
Sejalci: 0 / Odjemalci: 0 / Velikost: 672.19 MB / Dokončani: 0
Prenesi torrent Poročaj torrent Opis torrenta
Zvrst: Dokumentarni
Kategorija: FILMI > Dokumentarni

ONE MAN VILLAGE

Semaan vodi miran život na svom imanju u malom selu Ain al-Halazoun u libanonskim planinama. Seoce je bilo potpuno ispražnjeno i uništeno u borbama tijekom građanskog rata u Libanonu, između 1975. i 1990. godine. Danas, mnogo godina nakon službenog pomirenja, njegovi stanovnici, koji su svi iz jedne obitelji, redovito idu u selo kako bi obrađivali svoju zemlju ili posjetili svoje kuće, ali uvijek odlaze prije zalaska sunca.
U utješnom i duhovitom filmu Simon El Habre promatra život u svojem selu duhova i pokušava prikazati individualne i zajedničke uspomene ljudi u zemlji, koja kao da živi u kolektivnoj amneziji i ranjiva je na mogućnost novog građanskog rata.

Animal.Games.2004.SloSub.DVDRip.XviD-Churchill

Klikni za povečavo!
29-01-2015 18:05 naložil Churchill
Sejalci: 0 / Odjemalci: 0 / Velikost: 934.21 MB / Dokončani: 1
Prenesi torrent Poročaj torrent Opis torrenta
Zvrst: Dokumentarni
Kategorija: FILMI > Dokumentarni

BBC- Animal Games (2004)
ŽIVALSKE OLIMPIJSKE IGRE (2004)



INFO:
-------------
Codec : XVID
Format : AVI
Size : 934 MiB
Bit rate : 2 011 Kbps
Width : 720-pixels
Height : 400-pixels
Aspect ratio : 16/9
Audio 1 : AC-3
Bit rate : 192 Kbps
Channel(s) : 2 channels
Channel positions: L R
Sampling rate : 48.0 KHz
Genre : Documentary
Country : UK
Language : English
Subtitles : Slovenski (Retail- Churchill)
Runtime : 60 mn
Čas predvajanja : 00:59.04

IMDb user Rating : 6,6/10 from 94 users
IMDb Link : KLIK

IGRALCI:
-------------
John Motson ... Commentator (voice)
Jonathan Pearce ... Commentator (voice)

OPIS:
-------------
Kdo so najhitrejša in najmočnejša bitja v kraljestvu živali? Kdo
skoči najdle in kdo strelja najbolj natančno? Na tej neverjetni
olimpiadi na nabito polnem stadionu in ob bučni podpori navijačev
se bodo najboljši predstavniki sesalcev, ptic, žuželk, plazilcev
in rib, pomerili na šestih olimpijskih igrah...


Ebola Exposed (2014)PDTV x264-C4TV-copi

Klikni za povečavo!
14-01-2015 19:51 naložil RoNoN
Sejalci: 0 / Odjemalci: 0 / Velikost: 365.16 MB / Dokončani: 1
Prenesi torrent Poročaj torrent Opis torrenta
Zvrst: Dokumentarni
Kategorija: FILMI > Dokumentarni


Ebola Exposed (2014)






Ebola - najužasnija kuga sveta modernog doba. Nemilosrdni ubica koji udara ponovo i ponovo. Tajna, zamotana u slojeve misterije. Odakle je došla, kako se prenosi? Uz pomoc najboljih svetskih lovaca na viruse, otkricemo eboline tajne.




A.World.Without.Cancer.-.The.story.of.vitamin.B17.1973.TVRip.x264-slavi.mkv

Klikni za povečavo!
13-01-2015 21:15 naložil RoNoN
Sejalci: 0 / Odjemalci: 0 / Velikost: 345.64 MB / Dokončani: 0
Prenesi torrent Poročaj torrent Opis torrenta
Zvrst: Dokumentarni
Kategorija: FILMI > Dokumentarni

Svijet bez raka: Priča vitamina B17 (1973)



Žanr Dokumentarac
Jezik EN
Titlovi SR

U ovom dokumentarcu objašnjava se sa znanstvenog stajališta terapija Laetrileom. Predstavljaju se dokazi kako je rak, poput skorbuta ili pelagre, bolest deficijencije. Govori se kako rak nije uzrokovan prisutnošću nekakvog misterioznog virusa ili x-faktora, već nedostatkom esencijalnog hranjivog faktora koji se povećano uklanja iz prehrane modernog čovjeka. Ispitana je prehrana različitih urođeničkih kultura gdje je rak veoma rijedak slučaj i otkrilo se kako je njihova prehrana 200 puta bogatija tim esencijalnim hranjivim faktorom od prehrane modernog čovjeka.
Nedostajući hranjivi faktor se naziva AMIGDALIN ili VITAMIN B17, a u svojem koncentriranom i pročišćenom obliku specifično razvijenim u svrhu terapije raka, poznat je kao LAETRILE.
Predstavljen je teorijski model fiziološkog djelovanja Laetrilea. Prikazani su i dramatični slučajevi pacijenata s terminalnim stadijem raka koji su preživjeli koristeći terapiju Laetrileom.








Video
ID : 1
Format : AVC
Format/Info : Advanced Video Codec
Format profile : Main@L4.0
Format settings, CABAC : Yes
Format settings, ReFrames : 4 frames
Codec ID : V_MPEG4/ISO/AVC
Duration : 55mn 9s
Nominal bit rate : 768 Kbps
Width : 556 pixels
Height : 320 pixels
Display aspect ratio : 1.737
Original display aspect ratio : 1.738
Frame rate mode : Constant
Frame rate : 23.976 fps
Color space : YUV
Chroma subsampling : 4:2:0
Bit depth : 8 bits
Scan type : Progressive
Bits/(Pixel*Frame) : 0.180
Writing library : x264 core 130 r2273 b3065e6
Language : English
Default : Yes
Forced : No
Color primaries : BT.601 NTSC
Transfer characteristics : BT.709
Matrix coefficients : BT.601

Audio
ID : 2
Format : AAC
Format/Info : Advanced Audio Codec
Format profile : LC
Codec ID : A_AAC
Duration : 55mn 9s
Channel(s) : 2 channels
Channel positions : Front: L R
Sampling rate : 44.1 KHz
Compression mode : Lossy
Default : Yes
Forced : No


Z.Jonathanom.Dimblebyjem.po.Juzni.Ameriki-Cile.in.Bolivija.TVRip.XviD

Klikni za povečavo!
03-01-2015 20:45 naložil RoNoN
Sejalci: 0 / Odjemalci: 0 / Velikost: 600.02 MB / Dokončani: 3
Prenesi torrent Poročaj torrent Opis torrenta NFO
Zvrst: Dokumentarni
Kategorija: FILMI > Dokumentarni

Z Jonathanom Dimblebyjem po Južni Ameriki

Čile in Bolivija

Jonathan Dimbleby je na poti od Andov do Amazonke v živahnih mestih, na pobočjih strmih gora in v deževnem gozdu srečeval ljudi, ki gradijo Južno Ameriko sodobnega časa. Opazoval je vpliv velikih sprememb na življenje v petih državah, ki jih je obiskal. Presunilo ga je, ko je videl, kakšne politične, družbene in ekonomske spremembe so se zgodile, odkar je pred tridesetimi leti prvič obiskal te kraje. Južna Amerika je svetovno finančno krizo prestala bolje kot preostali svet, pospešeno se osvobaja sence ZDA in postaja politična in ekonomska velesila.
V Čilu je našel cvetočo demokracijo, ki je pustila Pinochetovo diktaturo iz preteklosti daleč za seboj. Tudi Bolivija prehaja iz diktature v demokracijo, prvotni prebivalci pospešeno gradijo svojo identiteto.