A
B
C
D
E
F
G
H
I
J
K
L
M
N
O
P
Q
R
S
T
U
V
W
X
Y
Z
0-9
Killer.Asteroid.2004.ExYu.Sub.PAL.DVDR

Klikni za povečavo!
21-06-2020 13:07 naložil System
Sejalci: 1 / Odjemalci: 0 / Velikost: 2.25 GB / Dokončani: 4
Prenesi torrent Poročaj torrent Opis torrenta
Zvrst: Dokumentarni
Kategorija: FILMI > Dokumentarni
Anonimen nalagalec

Killer Asteroid- Naked Science (2004)
UBUJALSKI ASTEROID- Gola znanost (2004)



-------------
INFO:
-------------
Source..........: DVD
Format..........: 4:3
Standard........: PAL
Width...........: 720 pixels
Height..........: 576 pixels
Release Size....: 2,25 GB
iMDB Link.......: KLIK
iMDB Rating.....: 6,8/10 (12)
Genre...........: Documentary, Adventure
Country.........: USA/ UK
Language........: English
Video...........: Untouched
Audio...........: MPEG-1 2-ch English
Subs............: Croatian/ Slovenian/ Serbian
Extras..........: yes
Regija..........: Prosto
Runtime.........: 00:50.22 min
Čas predvajanja.: 00:50.22 min

-------------
IGRALCI:
-------------
Raymond R. Anderson ...
Self - Project Geologist, Iowa Geological Survey
Erik Asphaug ...
Self - Planetary Scientist, Univ. of California, Santa Cruz
Dan Durda ...
Senior Research Scientist, Southwest Research Institute
Jenifer Evans ...
Self - Research Engineer, Lincoln
Monte Henderson ...
Self - Deputy Program Manager 'Deep Impact Mission'
David Levy ...
Self - Comet Discoverer
Jay Melosh ...
Planetary Scientist / University of Arizona / Tucson
Eric Meyers ...
Self - Narrator
Russell Schweickart ...
Self - Apollo 9 Astronaut
Roger Tilling ...
Narrator UK
Brian J. Witzke ...
Self - Geologist, Iowa Geological Survey

-------------
OPIS:
-------------
Štirikrat večja je verjetnost, da boste umrli zaradi udarca asteroida,
kot da bi v vas udarila strela. Gola znanost sledi aktivno tej grožnji.
Ali lahko znanost prepreči svetovno katastrofo? In kar je še pomembneje,
kdaj bo prišel ta dan?



Speed - Auf der Suche nach der verlorenen Zeit 2012.avi

Klikni za povečavo!
26-11-2014 08:22 naložil RoNoN
Sejalci: 0 / Odjemalci: 0 / Velikost: 933.94 MB / Dokončani: 1
Prenesi torrent Poročaj torrent Opis torrenta
Kategorija: FILMI > Dokumentarni

Hitrost: Iskanje izgubljenega časa (Speed - Auf der Suche nach der verlorenen Zeit)



Film / Dokumentarni, Nemčija 2012, IMDB ocena: 6.9
Nimam časa! Zmanjkuje mi ga, čeprav ravnam z njim nadvse preudarno.

Oddaja raziskuje največje paradokse moderne dobe in poskuša priti do dna njeni skrivnostni logiki. Hitrost in učinkovitost sta poglavitna cilja na skoraj vseh področjih življenja. Toda kam je izginil čas, ki smo ga zadnja desetletja prihranili z razvitejšo tehnologijo? Nenehen nemir in občutek, da mu zmanjkuje časa, sta pustila sledove tudi na voditelju oddaje Florianu Opitzu, ki nas bo popeljal na razburljivo in zabavno potovanje. Srečali bomo ljudi in spoznali kraje, ki nas bodo približali rešitvi skrivnosti. Za Opitza so resnični uporniki ljudje, ki so se uprli potrebi po hitrosti in ponovno odkrili počasnost.
Režija: Florian Opitz
Igrajo: Hartmut Rosa, Karlheinz Geißler, Scott Kennedy



General
Complete name : Speed - Auf der Suche nach der verlorenen Zeit 2012.avi
Format : AVI
Format/Info : Audio Video Interleave
File size : 934 MiB
Duration : 1h 37mn
Overall bit rate : 1 343 Kbps
Writing library : VirtualDub build 35390/release

Video
ID : 0
Format : AVC
Format/Info : Advanced Video Codec
Format profile : High@L5.1
Format settings, CABAC : Yes
Format settings, ReFrames : 3 frames
Codec ID : H264
Duration : 1h 37mn
Bit rate : 1 277 Kbps
Width : 896 pixels
Height : 480 pixels
Display aspect ratio : 1.85:1
Frame rate : 25.000 fps
Color space : YUV
Chroma subsampling : 4:2:0
Bit depth : 8 bits
Scan type : Progressive
Bits/(Pixel*Frame) : 0.119
Stream size : 888 MiB (95%)
Writing library : x264 core 130 r2274bm c832fe9
Encoding settings : cabac=1 / ref=3 / deblock=1:-1:-1 /

Audio
ID : 1
Format : MPEG Audio
Format version : Version 2
Format profile : Layer 3
Mode : Joint stereo
Mode extension : Intensity Stereo + MS Stereo
Codec ID : 55
Codec ID/Hint : MP3
Duration : 1h 37mn
Bit rate mode : Constant
Bit rate : 56.0 Kbps
Channel(s) : 2 channels
Sampling rate : 22.05 KHz
Compression mode : Lossy
Stream size : 38.8 MiB (4%)
Alignment : Split accross interleaves
Interleave, duration : 40 ms (1.00 video frame)
Interleave, preload duration : 502 ms