A
B
C
D
E
F
G
H
I
J
K
L
M
N
O
P
Q
R
S
T
U
V
W
X
Y
Z
0-9
Pozdrav iz Krvavih Revirjev 2018 SLOVENiAN 1080p MiXy

Klikni za povečavo!
03-12-2020 14:23 naložil System
Sejalci: 3 / Odjemalci: 0 / Velikost: 1.74 GB / Dokončani: 2
Prenesi torrent Poročaj torrent Opis torrenta
Kategorija: FILMI > Slo
Anonimen nalagalec

Pozdrav iz Krvavih Revirjev 2018 SLOVENiAN 1080p MiXy


Pozdrav iz Krvavih Revirjev (2018)
prva zasavska kriminalna komedija

Zasavsko društvo ljubiteljev filma FUD Loke Studio, ki deluje že dobro desetletje, se je letos lokalnemu občinstvu predstavilo z najnovejšim celovečernim filmom Pozdrav iz Krvavih Revirjev. Gre za prvo zasavsko kriminalko, zabeljeno s pristnim “knapovskim” humorjem in barvito igralsko zasedbo, v kateri med drugim nastopa tudi veliko znanih Zasavčanov, celo župana občin Trbovlje in Zagorje ob Savi. Zgodba filma ni pretirano kompleksna; v Zasavju se zgodi niz okrutnih umorov, katere morata razrešiti ambiciozni in ošabni policijski inšpektor iz Ljubljane in lokalni policist z lastnim razumevanjem črk zakona. Film je zamišljen kot “buddy-buddy” komedija, katere humor po pričakovanjih temelji na izpostavljanju osebnostnih razlik med glavnima junakoma, veliko šal pa je zastavljenih na tak način, da jih bodo najbolj razumeli predvsem Zasavci. Film si s tem resda postavi nekaj omejitev, še posebej pri gledalcih izven regije, toda hkrati je na srečo moč najti dovolj “univerzalnih” šal, ki bodo nasmejale širše občinstvo. Zgodba filma je spodobno razvita z nekaj nepričakovanimi zasuki, liki pa so ravno prav karikaturni, da ne izpadejo preveč nadležno. Izdelku bi lahko očital nekaj tehničnih napak, dolžino in prgišče slabo izpeljanih šal, vendar pa je v okviru neodvisne produkcije zelo soliden, tekoč in predvsem gledljiv. Neškodljivo razvedrilo.

Režiser: Matic Poropatič


Podrobnosti:
General
Complete name : Pozdrav iz Krvavih Revirjev 2018 SLOVENiAN 1080p MiXy
Format : MPEG-4
Format profile : Base Media
Codec ID : isom (isom/iso2/avc1/mp41)
File size : 1.74 GiB
Duration : 1 h 42 min
Overall bit rate : 2 435 kb/s
Writing application : Lavf58.20.100
Video
ID : 1
Format : AVC
Format/Info : Advanced Video Codec
Format profile : High@L4
Format settings : CABAC / 3 Ref Frames
Format settings, CABAC : Yes
Format settings, Reference frames : 3 frames
Codec ID : avc1
Codec ID/Info : Advanced Video Coding
Duration : 1 h 42 min
Duration_FirstFrame : -40 ms
Bit rate : 2 302 kb/s
Width : 1 920 pixels
Height : 1 080 pixels
Display aspect ratio : 16:9
Frame rate mode : Variable
Frame rate : 25.000 FPS
Minimum frame rate : 25.000 FPS
Maximum frame rate : 25.014 FPS
Color space : YUV
Chroma subsampling : 4:2:0
Bit depth : 8 bits
Scan type : Progressive
Bits/(Pixel*Frame) : 0.044
Stream size : 1.64 GiB (95%)
Color range : Limited
Color primaries : BT.709
Transfer characteristics : BT.709
Matrix coefficients : BT.709
Codec configuration box : avcC
Audio
ID : 2
Format : AAC LC
Format/Info : Advanced Audio Codec Low Complexity
Codec ID : mp4a-40-2
Duration : 1 h 42 min
Bit rate mode : Constant
Bit rate : 128 kb/s
Channel(s) : 2 channels
Channel layout : L R
Sampling rate : 44.1 kHz
Frame rate : 43.066 FPS (1024 SPF)
Compression mode : Lossy
Stream size : 93.6 MiB (5%)
Default : Yes
Alternate group : 1
KDOR SEJE TUDI ŽANJE!