A
B
C
D
E
F
G
H
I
J
K
L
M
N
O
P
Q
R
S
T
U
V
W
X
Y
Z
0-9
DJ VIHAR & DJ AJDA - SLO & HR MIX 47

Klikni za povečavo!
14-08-2016 16:30 naložil Ajda
Sejalci: 1 / Odjemalci: 0 / Velikost: 195.51 MB / Dokončani: 97
Prenesi torrent Poročaj torrent Opis torrenta NFO
Kategorija: GLASBA > Glasba






Complete name : DJ VIHAR & DJ AJDA - SLO & HR MIX 47
Format : MPEG Audio
File size : 195 MiB
Duration : 1h 25mn
Overall bit rate mode : Constant
Overall bit rate : 320 Kbps
Encoded by : Lavf52.39.0
Writing library : LAME3.98

Audio
Format : MPEG Audio
Format version : Version 1
Format profile : Layer 3
Mode : Joint stereo
Mode extension : MS Stereo
Duration : 1h 25mn
Bit rate mode : Constant
Bit rate : 320 Kbps
Channel(s) : 2 channels
Sampling rate : 48.0 KHz
Compression mode : Lossy
Stream size : 195 MiB (100%)
Writing library : LAME3.98


1.Saša Lendero - Da ne padem dol
2.Ivan Zak - Meni se s tobom
3.Grupa VIGOR - Ne brine me
4.Jole - S kim to pričaš
5.KOKTELSI - Ljeto nam počinje
6.Karma - Puca Glava
7.Luđaci - Mamurluk
8.VERSI - Luduju svi
9.Šarmeri - Feštaj
10.Tomislav Bralić i klapa Intrade - Ne mogu te prestat jubit
11.MINEA - Doza rizika
12.Dejan Vunjak- Leza tebe
13.SASA KOVACEVIC - Temperatura
14.Minea & Garcia - U malenoj vali
15.ATOMIK HARMONIK - Mornarić
16.MLADEN GRDOVIĆ & KLAPA MUNITA - Ostavljam vas moji najdraži
17.GADI - NE GREM DOMOV
18.RADA MANOJLOVIC FEAT CVIJA & DJ VUJO - Makarena
19.Mejaši feat. Crvena jabuka - Noćima, danima
20.Tanja Žagar - Nevarno
21.Robert Ficker - Slomljeno srce
22.DANIEL POPOVIĆ - Šikibam
23.Severina, Goran Karan, Danijela i Giuliano - Manta me jubav
24.Brendi - Katarina
25.MIŠO KOVAČ - Nek' šute svi



The Official UK Top 40 Singles Chart 8 July 2016 - MP3 320Kbps

Klikni za povečavo!
13-07-2016 19:57 naložil System
Sejalci: 1 / Odjemalci: 0 / Velikost: 338.85 MB / Dokončani: 4
Prenesi torrent Poročaj torrent Opis torrenta NFO
Zvrst: Glasbeni
Kategorija: GLASBA > Glasba
Anonimen nalagalec



---------------------------------------------------------------------
VA - The Official UK Top 40 Singles Chart - 8th July 2016
---------------------------------------------------------------------

Artist...............: Various Artists
Album................: The Official UK Top 40 Singles Chart - 8th July 2016
Genre................:
Source...............: CD
Year.................: 2016
Ripper...............: Advanced Audio CD Ripper 1.047c & Acer 2010A
Codec................: LAME 3.99
Version..............: MPEG 1 Layer III
Quality..............: Extreme, (avg. bitrate: 317kbps)
Channels.............: Stereo / 44100 hz
Tags.................: ID3 v1.1, ID3 v2.3
Information..........:

Ripped by............: Kolbaska on 12.7.2016
Posted by............: Kolbaska on 13.7.2016
News Server..........: news.astraweb.com
News Group(s)........: alt.binaries.sounds.mp3.m

Included.............: NFO

More Information: http://www.bbc.co.uk/radio1/chart/singles
---------------------------------------------------------------------
Tracklisting
---------------------------------------------------------------------

1. Drake - One Dance (feat. Wizkid & Kyla) [02:53]
2. Cookin' On 3 Burners, Kungs - This Girl (Kungs Vs. Cookin' On 3 Burners) (Original Mix)[03:09]
3. Drake - Too Good (feat. Rihanna) [04:19]
4. Calvin Harris (feat. Rihanna) - This Is What You Came For[03:33]
5. Adele - Send My Love (To Your New Lover) [03:42]
6. Justin Timberlake - CAN'T STOP THE FEELING! [03:53]
7. The Chainsmokers - Don't Let Me Down (Dom Da Bomb & Electric Bodega Remix)[03:25]
8. Clean Bandit (feat. Louisa Johnson) - Tears (feat. Louisa Johnson)[03:32]
9. Sia - Cheap Thrills (feat. Sean Paul) [03:40]
10. Calum Scott - Dancing On My Own [04:39]
11. gnash - i hate u, i love u (feat. olivia o'brien) [03:44]
12. Kent Jones - Don't Mind [03:17]
13. Galantis - No Money [03:07]
14. Ariana Grande - Into You [04:04]
15. Dua Lipa - Hotter Than Hell [03:04]
16. 16. Jonas Blue - Perfect Strangers (ft. JP Cooper) [03:27]
17. Cheat Codes x Kriss Kross Amsterdam - Sex [03:47]
18. Mike Posner - I Took a Pill in Ibiza (SeeB Remix) [03:16]
19. Desiigner - Panda [04:04]
20. Shawn Mendes - Treat You Better [03:49]
21. DNCE - Cake By The Ocean [03:27]
22. Coldplay - Hymn for the Weekend [03:56]
23. Fifth Harmony - Work from Home (feat. Ty Dolla $ign) [03:34]
24. Drake - Controlla [04:00]
25. Dj Snake feat. Bipolar Sunshine - Middle [03:36]
26. Sigala - Give Me Your Love (feat. John Newman & Nile Rodgers)[03:24]
27. David Guetta - This One's for You (feat. Zara Larsson) [03:26]
28. Tinie Tempah - Girls Like (feat. Zara Larsson) [03:11]
29. Bastille - Good Grief [03:26]
30. Zara Larsson - Lush Life [03:13]
31. Alan Walker (feat. Iselin Solheim) - Faded [03:27]
32. P!nk - Just Like Fire [03:35]
33. Little Mix - Hair [02:33]
34. Lukas Graham - 7 Years [03:49]
35. Rihanna - Work (feat. Drake) [03:37]
36. Major Lazer - Light It Up (feat. Nyla & Fuse ODG) [Remix][02:43]
37. Jonas Blue - Fast Car (feat. Dakota) [Radio Edit] [03:26]
38. Rihanna - Needed Me [03:10]
39. MK & Becky Hill - [04:49]
40. Twenty One Pilots - Heathens [03:11]

Playing Time.........: 02:22:17
Total Size...........: 338,83 MB
DJ VIHAR & DJ AJDA - SLO & HR MIX 46

Klikni za povečavo!
12-07-2016 16:19 naložil Ajda
Sejalci: 1 / Odjemalci: 0 / Velikost: 227.26 MB / Dokončani: 52
Prenesi torrent Poročaj torrent Opis torrenta NFO
Kategorija: GLASBA > Glasba






General
Complete name : DJ VIHAR & DJ AJDA - SLO & HR MIX 46.mp3
Format : MPEG Audio
File size : 226 MiB
Duration : 1h 38mn
Overall bit rate mode : Constant
Overall bit rate : 320 Kbps
Encoded by : Lavf52.39.0
Writing library : LAME3.98

Audio
Format : MPEG Audio
Format version : Version 1
Format profile : Layer 3
Mode : Joint stereo
Duration : 1h 38mn
Bit rate mode : Constant
Bit rate : 320 Kbps
Channel(s) : 2 channels
Sampling rate : 48.0 KHz
Compression mode : Lossy
Stream size : 226 MiB (100%)
Writing library : LAME3.98


1. MINEA – Doza rizika
2. BELLA – Il me ljubi, il odlazi
3. MARKO MULEC – Pomlad ob tebi
4. DARYAN – Ako odes ti
5. INES ERBUS IN MISO KONTREC – Slovenec in slovenka
6. LEO – U dobrim rukama
7. 058 – Ljeto
8. BOBO – Dim
9. TANJA ZAGAR – Trava
10. DRAZEN ZECIC - Ljeto ide
11. MLADI GAMSI – Dej povej
12. UCITELJICE in TARAPANA BAND – Ako mi se ne spava
13. JOLE – Samac
14. ZDRAVKO SKENDER – Na koljena padam
15. STAVROS in BARABE – Kraljevi zabave
16. KINGSTON – Alle, alle
17. KLAPA GODIMENTI – Ti si za me zena
18. MLADEN BURNAC – Dzaba dzaba
19. TS SLAVONSKI SAN in ZVS DZAKOVCANKE – Poludi sa mnom
20. BOSTJAN KONECNIK – Zakaj me noces
21. MAGAZIN – Ima dana
22. SIMONA WEISS – Nikomur te ne dam
23. VERSI – Vragu malo, meni dosta
24. ZVITA FELTNA – Na zdravje prijatelji
25. VLADO KALEMBER – Pitas, pitas
26. DUSKO LOKIN – Oci pune suza
27. ALEKSANDER JEZ – Le ti si vse kar imam
28.ROCK PARTYZANI in ROCKNBAND – Hey baby
29. GORAN KARAN – Ti si angel ljubljeni
30. CUKI – Lahko noc


The Official UK Top 40 Singles Chart 1st July 2016 MP3 320Kbps

Klikni za povečavo!
02-07-2016 19:29 naložil System
Sejalci: 1 / Odjemalci: 0 / Velikost: 359.56 MB / Dokončani: 4
Prenesi torrent Poročaj torrent Opis torrenta
Kategorija: GLASBA > Glasba
Anonimen nalagalec


---------------------------------------------------------------------
VA - UK Top 40 Singles Chart
---------------------------------------------------------------------

Artist...............: Various Artists
Album................: UK Top 40 Singles Chart
Genre................: Top 40
Source...............: CD
Year.................: 2016
Ripper...............: Advanced Audio CD Ripper 1.047c & Acer 2010A
Codec................: LAME 3.99
Version..............: MPEG 1 Layer III
Quality..............: Insane, (avg. bitrate: 320kbps)
Channels.............: Stereo / 44100 hz
Tags.................: ID3 v1.1, ID3 v2.3
Information..........:

Ripped by............: Kolbaska on 2.7.2016
Posted by............: Kolbaska on 2.7.2016
News Server..........: news.astraweb.com
News Group(s)........: alt.binaries.sounds.mp3.m

Included.............: NFO

More Information: http://www.bbc.co.uk/radio1/chart/singles
---------------------------------------------------------------------
Tracklisting
---------------------------------------------------------------------

1. Drake Feat. Wizkid & Kyla - One Dance [02:39]
2. Kungs vs Cookin' on 3 Burners - This Girl [03:02]
3. Drake - Too Good (feat. Rihanna) [04:08]
4. Calvin Harris Feat. Rihanna - This Is What You Came For [03:25]
5. Justin Timberlake - Can't Stop the Feeling [04:03]
6. Adele - - Send My Love (To Your New Lover) [03:30]
7. Clean Bandit - Tears (Ft. Louisa Johnson) [03:24]
8. Gnash - I Hate U, I Love U (feat. Olivia O'Brien) [03:32]
9. Sia Feat. Sean Paul - Cheap Thrills (Feat. Sean Paul) [03:23]
10. Galantis - No Money [03:51]
11. Cheat Codes x Kris Kross Amsterdam - SEX [04:02]
12. Calum Scott - Dancing On My Own [04:26]
13. Desiigner - Panda [03:35]
14. Mike Posner - In Ibiza (SeeB Remix) [02:58]
15. Dua Lipa - Hotter Than Hell [03:17]
16. The Chainsmokers - 33 The Chainsmokers - Don't Let Me Down (ft. Daya)[03:14]
17. Sigala - Give Me Your Love (ft. John Newman, Nile Rodgers)[03:33]
18. DNCE - Cake By The Ocean [03:23]
19. Coldplay - Hymn For The Weekend [04:03]
20. Fifth Harmony - Work From Home Feat. Ty Dolla $ign [03:19]
21. David Guetta - This One's For You (ft. Zara Larsson ) [03:12]
22. Ariana Grande - Into You [03:49]
23. Drake - Controlla (feat. Beenie Man) [03:50]
24. DJ Snake Feat. Bipolar Sunshine - Middle [03:18]
25. Tinie Tempah Feat. Zara Larsson - Girls Like [03:01]
26. Kent Jones - Kent Jones- Don't mind (clean) [03:04]
27. Zara Larsson - Lush Life [03:03]
28. Bastille - Good Grief [03:12]
29. Shawn Mendes - Treat You Better [03:58]
30. Alan Walker - Faded [03:17]
31. Little Mix - Hair [03:13]
32. Pink - Just Like Fire (Clean) [03:23]
33. Lukas Graham - 7 Years [03:38]
34. Dizzee rascal - Hype (ft Calvin Harris) [03:17]
35. Rihanna Feat. Drake - Work [03:19]
36. Jonas Blue Feat. Dakota - Fast Car [03:16]
37. Twenty One Pilots - Heathens [02:55]
38. Jonas Blue - Perfect Strangers (ft. JP Cooper) [03:12]
39. Major Lazer Feat. Nyla & Fuse ODG - Light It Up [02:33]
40. Christine and the Queens - Tilted [03:43]

Playing Time.........: 02:17:20
Total Size...........: 359,55 MB

NFO generated on.....: 2.7.2016 20:24:24
Elvis Presley with the Royal Philharmonic – If I Can Dream 2015[FLAC]

Klikni za povečavo!
02-07-2016 09:34 naložil andrejap
Sejalci: 2 / Odjemalci: 0 / Velikost: 311.48 MB / Dokončani: 16
Prenesi torrent Poročaj torrent Opis torrenta NFO
Zvrst: Glasbeni
Kategorija: GLASBA > Glasba

---------------------------------------------------------------------
Elvis Presley With The Royal Philharmonic Orchestra - If I Can Dream
---------------------------------------------------------------------
Artist...............: Elvis Presley With The Royal Philharmonic Orchestra
Album................: If I Can Dream
Genre................: Rock
Source...............: CD
Year.................: 2015
Ripper...............: EAC (Secure mode) / LAME 3.92 & Asus CD-S520
Codec................: Free Lossless Audio Codec (FLAC)
Version..............: reference libFLAC 1.3.0 20130526
Quality..............: Lossless, (avg. compression: 62 %)
Channels.............: Stereo / 44100 HZ / 16 Bit
Tags.................: VorbisComment
Information..........:
Ripped by............: andrejap on 2. 07. 2016
Posted by............: andrejap on 2. 07. 2016
News Server..........: news.astraweb.com
News Group(s)........: alt.binaries.sounds.mp3.m
Included.............: NFO
Covers...............: Front Back CD
---------------------------------------------------------------------
Tracklisting
---------------------------------------------------------------------
1. Elvis Presley With The Royal Philharmonic Orchestra - Burning Love[03:29]
2. Elvis Presley With The Royal Philharmonic Orchestra - It's Now Or Never[03:16]
3. Elvis Presley With The Royal Philharmonic Orchestra - Love Me Tender[03:25]
4. Elvis Presley With The Royal Philharmonic Orchestra - Fever[04:24]
5. Elvis Presley With The Royal Philharmonic Orchestra - Bridge Over Troubled Water[04:36]
6. Elvis Presley With The Royal Philharmonic Orchestra - And The Grass Won't Pay No Mind[03:40]
7. Elvis Presley With The Royal Philharmonic Orchestra - You've Lost That Lovin' Feelin'[03:57]
8. Elvis Presley With The Royal Philharmonic Orchestra - There's Always Me[02:20]
9. Elvis Presley With The Royal Philharmonic Orchestra - Can't Help Falling In Love[03:18]
10. Elvis Presley With The Royal Philharmonic Orchestra - In The Ghetto[03:11]
11. Elvis Presley With The Royal Philharmonic Orchestra - How Great Thou Art[03:07]
12. Elvis Presley With The Royal Philharmonic Orchestra - Steamroller Blues[03:08]
13. Elvis Presley With The Royal Philharmonic Orchestra - An American Trilogy[04:32]
14. Elvis Presley With The Royal Philharmonic Orchestra - If I Can Dream[03:11]

Playing Time.........: 49:40
Total Size...........: 311,44 MB

If I Can Dream is a compilation album by American singer Elvis Presley (1935–77). It was released on October 30, 2015 by RCA Records and Legacy Recordings. The album features archival vocal recordings of Elvis accompanied by new orchestral arrangements by the Royal Philharmonic Orchestra. It also features duets with Canadian singer Michael Bublé and Italian trio Il Volo. If I Can Dream was recorded at Abbey Road Studios in London, England, and it was produced by Nick Patrick and Don Reedman.
The album debuted at number one in the United Kingdom, giving Elvis a record-equalling 12th UK number one. On March 15, 2016, the Daily Mail reported that arena shows in the cities of Glasgow, Leeds, Cardiff, Birmingham, London and Manchester have been already organized where the singer's voice, backed by the live accompaniment from Royal Philharmonic Concert Orchestra' will play to an estimated audience of at least 100,000 people. This will follow the extraordinary success of the album which has sold more than a million copies in the UK. This undertaking will also be backed by Priscilla Presley, who will also participate in the proceedings and was co-executive producer of the album.
Serbian Dance Megamix (2016) MP3-gracanica

Klikni za povečavo!
19-06-2016 15:35 naložil System
Sejalci: 0 / Odjemalci: 1 / Velikost: 63.32 MB / Dokončani: 13
Prenesi torrent Poročaj torrent Opis torrenta
Kategorija: GLASBA > Glasba
Anonimen nalagalec

https://i.ytimg.com/vi/7KtFae2_c_Y/hqdefault.jpg

Artist: VA
Album:Serbian Dance Megamix (2016) MP3-gracanica
Genre: Dance
Audio Format: MP3
Audio Bite-rate:128 kbps

Tracklist:
DJ Buka ft Katarina Zivkovic & SHA - Ludo srce
DJ Denial X & SHA feat Mia Borisavljevic - Lepota Balkanska
DJ Erke, E One feat Jelena Gerbec - Na Na Na
DJ MLADJA & ELITNI ODREDI FEAT. NIKOLIJA - ALKOHOLA LITAR (KC BLAZE & DJ EMMPORIO 2015 REMIX)
DJ Shone feat. Anabela & Elitni odredi - Beograd
DJ SNS & DJ Nenno feat Mr.Black & Marko Milutinovic - Zakleo sam se

DJ SNS & Djomla KS Feat. Vanja Zelenski & Marko Milutinovic - Tako Hladno Je
Elitni Odredi - Ima mnogo zena i kafana (Les El Producente Remix)
Elitni Odredi - Kokain (KC Blaze 2011 Remix)
ELITNI ODREDI - NE KOCI
ELITNI ODREDI FEAT. DADO POLUMENTA - LJUBAVI MOJA
Halid Muslimovi_ - Obišo Bi Sve Kafane (House Hunters Remix 2012)
In Vivo ft. Dado Polumenta - Partimanijak (KC Blaze 2011 Remix)
MC STOJAN - U SRCE PUCAJ MI
Mia Borisavljevic feat Elitni Odredi - Nisi s njom
Sinan Sakić---Sve je postalo pepeo i dim
UK Top 100 MP4 - UK Top 40 Singles Chart (16 June 2016)

17-06-2016 08:13 naložil System
Sejalci: 1 / Odjemalci: 0 / Velikost: 5.92 GB / Dokončani: 3
Prenesi torrent Poročaj torrent Opis torrenta
Kategorija: GLASBA
Anonimen nalagalec



---------------------------------------------------------------------
Tracklisting
---------------------------------------------------------------------

Drake - One Dance feat. Kyla & Wizkid (Lyrics)
uporabnika Aldeeb Saleh TOP 5
2:13

CAN'T STOP THE FEELING! (From DreamWorks Animation's "Trolls") (Official Video)
uporabnika justintimberlakeVEVO
4:46

Calvin Harris - This Is What You Came For (Audio Clip) ft. Rihanna
uporabnika CalvinHarrisVEVO
1:31

Akon - Be With You (Nedu Remix)
uporabnika FreshMixes
4:12

Kungs vs Cookin’ on 3 Burners - This Girl
uporabnika KungsVEVO
3:18

Clean Bandit - Tears ft. Louisa Johnson [Official Snippet]
uporabnika Clean Bandit
1:29

Sia - Cheap Thrills (Lyric Video) ft. Sean Paul
uporabnika SiaVEVO
4:22

Timbaland ft. OneRepublic - Apologize (OutaMatic Remix)
uporabnika AxeSound
3:50

gnash - i hate u, i love u (ft. olivia o'brien) [music video]
uporabnika gnash
3:48

Galantis - No Money (Official Video)
uporabnika Galantis
3:22

Mike Posner - I Took A Pill In Ibiza (Seeb Remix) (Explicit)
uporabnika MikePosnerVEVO
3:57

Sia - Chandelier (ViLLAGE Remix)
uporabnika Tan Music
3:58

Cheat Codes x Kris Kross Amsterdam - SEX (Official Music Video)
uporabnika Spinnin' Records
4:18

Desiigner - Panda
uporabnika DesiignerVEVO
4:03

Fifth Harmony - Work from Home ft. Ty Dolla $ign
uporabnika FifthHarmonyVEVO
3:40

2Pac x B.o.B. x Owl City - Smile For Airplanes And Fireflies (Nedu Mix)
uporabnika FreshMixes
5:38

DNCE - Cake By The Ocean
uporabnika DNCEVEVO
4:18

Tinie Tempah - Girls Like ft. Zara Larsson (Official Video)
uporabnika Tinie Tempah
3:23

DJ Snake - Middle (Audio) ft. Bipolar Sunshine
uporabnika DJSnakeVEVO
3:41

Ed Sheeran - Drunk In Love (Davidson Remix)
uporabnika Pirucul
4:14

Zara Larsson - Lush Life
uporabnika ZaraLarssonMusicVEVO
3:22

Little Mix - Hair (Official Video) ft. Sean Paul
uporabnika littlemixVEVO
3:57

P!nk - Just Like Fire (From the Original Motion Picture "Alice Through The Looking Glass")
uporabnika PinkVEVO
3:53

Years & Years - Shine (Jax Jones Remix)
uporabnika Leon James
4:19

Alan Walker - Faded
uporabnika Alan Walker
3:33

Lukas Graham - 7 Years [OFFICIAL MUSIC VIDEO]
uporabnika Lukas Graham
4:00

Travis Scott - Antidote (Free Slice Remix)
uporabnika MitMusic
4:18

Work
uporabnika Rihanna - Topic
3:40

Jonas Blue feat. Dakota - Fast Car (Audio)
uporabnika FreshMixes
3:33

Adele - Send My Love (To Your New Lover)
uporabnika AdeleVEVO
3:46

Calum Scott - "Dancing On My Own" by Robyn COVER (Music Arranged by Jamie Cleaton)
uporabnika Calum Scott
4:41

Major Lazer - Light It Up (feat. Nyla & Fuse ODG) [Remix] (Official Lyric Video)
uporabnika majorlazer
2:47

The Chainsmokers - Don't Let Me Down (Audio) ft. Daya
uporabnika ChainsmokersVEVO
3:30

OneRepublic - Wherever I Go (Audio)
uporabnika OneRepublicVEVO
2:50

Shawn Mendes - Treat You Better
uporabnika Shawn Mendes Handwritten
3:01

Coldplay - Hymn For The Weekend (Official video)
uporabnika Coldplay Official
4:21

twenty one pilots: Stressed Out [OFFICIAL VIDEO]
uporabnika Fueled By Ramen
3:46

Justin Bieber - Sorry (PURPOSE : The Movement)
uporabnika JustinBieberVEVO
3:26

Justin Bieber - Love Yourself (PURPOSE : The Movement)
uporabnika JustinBieberVEVO
4:33

Blonde and Craig David - Nothing Like This (Official Video)
uporabnika Blonde
3:07

Ariana Grande - Dangerous Woman
uporabnika ArianaGrandeVevo
3:56

Shawn Mendes - Stitches Lyrics ¦
uporabnika Phantom Fun¦
3:34

Nick Jonas - Close ft. Tove Lo
uporabnika NickJonasVEVO
3:58

Ariana Grande - Into You
uporabnika ArianaGrandeVevo
4:15

The Chainsmokers - Roses (Audio) ft. ROZES
uporabnika ChainsmokersVEVO
3:49

will.i.am - Boys & Girls ft. Pia Mia
uporabnika williamVEVO
4:05

G-Eazy X Bebe Rexha - Me, Myself & I (Audio)
uporabnika GEazyMusicVEVO
4:15

Dua Lipa - Hotter Than Hell (Official Video)
uporabnika Dua Lipa
3:48

Reggie 'N' Bollie - New Girl (Official Video)
uporabnika ReggieNBollieVEVO
3:45

David Guetta ft. Zara Larsson - This One's For You (Official Audio) (UEFA EURO 2016™ Official Song)
uporabnika David Guetta
3:28

Rihanna - Needed Me
uporabnika RihannaVEVO
3:15

Jonas Blue - Perfect Strangers (Preview) ft. JP Cooper
uporabnika JonasBlueVEVO
1:21

Kygo - Raging ft. Kodaline
uporabnika KygoOfficialVEVO
3:45

Craig David - One More Time (Official Video)
uporabnika CraigDavidVEVO
3:16

MK & Becky Hill - Piece of Me (Official Video)
uporabnika MKVEVO
2:52

Benny Benassi & Chris Brown - Paradise (Official Video)
uporabnika Ultra Music
4:22

Sigala - Say You Do (Official Audio) ft. Imani, DJ Fresh
uporabnika SigalaVEVO
3:23

Sigma ft. Take That - Cry (Official Music Video)
uporabnika 3 Beat
3:29

Jason Derulo - "If It Ain't Love" (Official Music Video)
uporabnika Jason Derulo
4:04

ZAYN - PILLOWTALK
uporabnika ZaynVEVO
3:27

Kiiara - Gold (Official Video)
uporabnika Kiiara
3:38

Coldplay - Adventure Of A Lifetime (Official video)
uporabnika Coldplay Official
5:16

Rihanna - Kiss It Better (Explicit)
uporabnika RihannaVEVO
4:09

Zara Larsson, MNEK - Never Forget You
uporabnika ZaraLarssonMusicVEVO
4:03

Jay Sean - Make My Love Go (Official Video) ft. Sean Paul
uporabnika JaySeanVEVO
3:37

Justin Bieber - What Do You Mean? (Lyric Video)
uporabnika JustinBieberVEVO
3:26

Mike Will Made-It, Rihanna - Nothing Is Promised
uporabnika MikeWillMadeitVEVO
2:50

Meghan Trainor - NO
uporabnika MeghanTrainorVEVO
3:43

Shawn Mendes, Camila Cabello - I Know What You Did Last Summer (Official Video)
uporabnika ShawnMendesVEVO
3:49

Snakehips - All My Friends ft. Tinashe, Chance The Rapper
uporabnika SnakehipsVEVO
3:51

Justin Bieber - Company
uporabnika JustinBieberVEVO
3:28

One Direction - History (Official Video)
uporabnika OneDirectionVEVO
3:16

WALK THE MOON - Shut Up and Dance
uporabnika WalkTheMoonVEVO
4:07

Major Lazer & DJ Snake - Lean On (feat. MO) (Official Music Video)
uporabnika majorlazer
2:59

Years & Years - Desire ft. Tove Lo
uporabnika YearsAndYearsVEVO
3:44

Little Mix - Secret Love Song (Official Video) ft. Jason Derulo
uporabnika littlemixVEVO
4:21

Coldplay - Up&Up (Official video)
uporabnika Coldplay Official
4:11

Disturbed - The Sound Of Silence [Official Music Video]
uporabnika Disturbed
4:20

Drake - Hotline Bling
uporabnika DrakeVEVO
4:56

Tom Odell - Magnetised (Official Video)
uporabnika TomOdellVEVO
4:00

Charlie Puth - One Call Away [Official Video]
uporabnika Charlie Puth
4:02

Selena Gomez - Hands To Myself
uporabnika SelenaGomezVEVO
3:48

Kygo - Stay ft. Maty Noyes (Lyric Video)
uporabnika Ultra Music
4:13

Ed Sheeran - Photograph (Official Music Video)
uporabnika Ed Sheeran
4:35

DJ Kenno - Will Grigg's On Fire - official Single
uporabnika BounceNation
3:36

Kent Jones - Dont Mind (EXPLICIT)
uporabnika Kent Jones
3:19

James Bay - Let It Go
uporabnika JamesBayVEVO
4:19

Adele - Hello
uporabnika AdeleVEVO
6:07

Sia - Chandelier (Official Video)
uporabnika SiaVEVO
3:52

Alicia Keys - In Common
uporabnika aliciakeysVEVO
3:32

The Weeknd - The Hills
uporabnika TheWeekndVEVO
3:55

Sigala - Sweet Lovin' (Official Video) Feat. Bryn Christopher
uporabnika SigalaVEVO
3:35

Alessia Cara - Wild Things
uporabnika AlessiaCaraVEVO
3:57

Sigala - Give Me Your Love (Official Video) ft. John Newman, Nile Rodgers
uporabnika SigalaVEVO
3:49

Alan Walker - Sing Me To Sleep
uporabnika Alan Walker
3:12

Jess Glynne - Take Me Home [Official Video]
uporabnika Jess Glynne
4:33

The Weeknd - Can't Feel My Face
uporabnika TheWeekndVEVO
3:39

Ed Sheeran - Thinking Out Loud [Official Video]
uporabnika Ed Sheeran
4:57

99 Souls - The Girl Is Mine (featuring Destiny's Child & Brandy) [Official Video]
uporabnika 99SoulsVEVO
3:44


Robin Schulz - Sugar (feat. Francesco Yates) (OFFICIAL MUSIC VIDEO)
uporabnika Robin Schulz
3:43




General
Complete name : D:\Gotovi Utorent\UK Top 100 MP4 - UK Top 40 Singles Chart (16 June 2016)\1 Drake - One Dance feat. Kyla & Wizkid (Lyrics).mp4
Format : MPEG-4
Format profile : Base Media
Codec ID : isom (isom/iso2/avc1/mp41)
File size : 8.13 MiB
Duration : 2mn 12s
Overall bit rate : 516 Kbps
Writing application : Lavf54.63.104

Video
ID : 1
Format : AVC
Format/Info : Advanced Video Codec
Format profile : Main@L3.1
Format settings, CABAC : Yes
Format settings, ReFrames : 3 frames
Codec ID : avc1
Codec ID/Info : Advanced Video Coding
Duration : 2mn 12s
Bit rate : 383 Kbps
Width : 1 280 pixels
Height : 720 pixels
Display aspect ratio : 16:9
Frame rate mode : Constant
Frame rate : 30.000 fps
Color space : YUV
Chroma subsampling : 4:2:0
Bit depth : 8 bits
Scan type : Progressive
Bits/(Pixel*Frame) : 0.014
Stream size : 6.03 MiB (74%)
Color range : Limited
Color primaries : BT.709
Transfer characteristics : BT.709
Matrix coefficients : BT.709

Audio
ID : 2
Format : AAC
Format/Info : Advanced Audio Codec
Format profile : LC
Codec ID : 40
Duration : 2mn 12s
Bit rate mode : Constant
Bit rate : 126 Kbps
Channel(s) : 2 channels
Channel positions : Front: L R
Sampling rate : 44.1 KHz
Frame rate : 43.066 fps (1024 spf)
Compression mode : Lossy
Stream size : 1.98 MiB (24%)
Default : Yes
Alternate group : 1

DJ VIHAR & DJ AJDA - SLO & HR MIX 45

Klikni za povečavo!
23-04-2016 15:34 naložil Ajda
Sejalci: 1 / Odjemalci: 0 / Velikost: 235.03 MB / Dokončani: 60
Prenesi torrent Poročaj torrent Opis torrenta NFO
Kategorija: GLASBA > Glasba






Complete name :DJ VIHAR & DJ AJDA - SLO & HR MIX 45.mp3
Format : MPEG Audio
File size : 234 MiB
Duration : 1h 42mn
Overall bit rate mode : Constant
Overall bit rate : 320 Kbps
Encoded by : Lavf52.39.0
Writing library : LAME3.98

Audio
Format : MPEG Audio
Format version : Version 1
Format profile : Layer 3
Mode : Joint stereo
Duration : 1h 42mn
Bit rate mode : Constant
Bit rate : 320 Kbps
Channel(s) : 2 channels
Sampling rate : 48.0 KHz
Compression mode : Lossy
Stream size : 234 MiB (100%)
Writing library : LAME3.98


1.NUSA ROJS - Vzemi me
2.MEJASI - Bubamara
3.SKATER - Cuj ti
4.JOLE - Najgori plan
5.IVANA KOVAC - Bila boja
6.POSKOCNI MUZIKANTI - Cao adijo
7.ELITA - Zezanje
8.CALYPSO - Stokrat
9.GRUPA BUMERANG - Cvijece cvijetu
10-JASMIN STAVROS - Rođendan
11.BUMERANG - Bolje mi je,da me nije
12.GADI - A si kaj nora name
13.ZARATINO - Barka
14.VIKTORIJA KULISIC - Bez tebe bi ljubav umrla
15.TINA & NIKSA - E da mi je
16.WERNER - Evo mene
17.CUKI - Zdaj pa kozarce vsi v zrak
18.MILI - Mlađe je slađe
19.ATOMIK HARMONIK - Ustnice brez poljubov
20.ANS.NARCIS - Ljubezen je roza
21.VLADO KALEMBER - Ako je kraj
22.DOLORES STRUJIC - Putuj daleko
23.VLADO MARINIC - Volim ovaj zivot
24.NEJC KASTELIC - Pijan od srece
25.WEISS & RIJAVEC -Ti in jaz
26.BERNY & TAZ SOLDO - Sad ti kazem zbogom
27.ROBERT FICKER - Okreni drugu stranu
28.MATKO JELAVIC - Gitara romana
29.BEGINI - Iz protesta
30.MILIGRAM - Nista




VA - Symphonic & Opera Metal 2015 MP3

Klikni za povečavo!
17-04-2016 08:18 naložil System
Sejalci: 0 / Odjemalci: 1 / Velikost: 706.63 MB / Dokončani: 2
Prenesi torrent Poročaj torrent Opis torrenta
Kategorija: GLASBA > Glasba
Anonimen nalagalec

http://musicabest.ru/uploads/posts/2016-03/musicabest.ru_symphonic-and-opera-metal-vol-1-2-2015-2016_1.jpeg

Artist (s): VA
Number of disc (s):4
Genre: Gothic Metal / Symphonic Metal / Power Metal
Release Date: 2015
Custom tag: metalofseiya
Format : MP3


http://ecx.images-amazon.com/images/I/81u2EhscYlL._SY355_.jpg
http://s15.postimg.org/kaox19fyj/Back.jpg


http://ecx.images-amazon.com/images/I/61hd4u-1eOL._SX466_.jpg


http://ecx.images-amazon.com/images/I/81wKxQNJEpL._SL1500_.jpg
Tina Turner - All the Best 2004[FLAC]

Klikni za povečavo!
03-04-2016 08:43 naložil andrejap
Sejalci: 1 / Odjemalci: 0 / Velikost: 986.92 MB / Dokončani: 17
Prenesi torrent Poročaj torrent Opis torrenta NFO
Zvrst: Glasbeni
Kategorija: GLASBA > Glasba

---------------------------------------------------------------------
Tina Turner - All The Best
---------------------------------------------------------------------
Artist...............: Tina Turner
Album................: All The Best
Genre................: Pop
Source...............: CD
Year.................: 2004
Ripper...............: EAC (Secure mode) / LAME 3.92 & Asus CD-S520
Codec................: Free Lossless Audio Codec (FLAC)
Version..............: reference libFLAC 1.2.1 20070917
Quality..............: Lossless, (avg. compression: 68 %)
Channels.............: Stereo / 44100 HZ / 16 Bit
Tags.................: VorbisComment
Information..........:
Ripped by............: andrejap on 3. 04. 2016
Posted by............: andrejap on 3. 04. 2016
News Server..........: news.astraweb.com
News Group(s)........: alt.binaries.sounds.mp3.m
Included.............: NFO
Covers...............: Front Back CD

---------------------------------------------------------------------
Tracklisting CD1
---------------------------------------------------------------------
1. Tina Turner - Open Arms [04:03]
2. Tina Turner - Whatever You Need [04:44]
3. Tina Turner - I Cant Stand The Rain [03:43]
4. Tina Turner - Goldeneye [04:43]
5. Tina Turner - I Dont Wanna Lose You [04:20]
6. Tina Turner - Great Spirits [03:58]
7. Tina Turner - Proud Mary [05:26]
8. Tina Turner - Addicted To Love (Live) [05:22]
9. Tina Turner - Nutbush City Limits [02:58]
10. Tina Turner - What You Get Is What You See [04:28]
11. Tina Turner - Missing You [04:39]
12. Tina Turner - The Best [05:30]
13. Tina Turner - River Deep Mountain High [03:41]
14. Tina Turner - When The Heartache Is Over [03:44]
15. Tina Turner - Lets Stay Together [05:18]
16. Tina Turner - I Dont Wanna Fight [04:26]

Playing Time.........: 01:11:11
Total Size...........: 493,31 MB

---------------------------------------------------------------------
Tracklisting CD2
---------------------------------------------------------------------
1. Tina Turner - In Your Wildest Dreams [05:34]
2. Tina Turner - Its Only Love [03:16]
3. Tina Turner - Cose Della Vita [04:50]
4. Tina Turner - Steamy Windows [04:05]
5. Tina Turner - Paradise Is Here [05:00]
6. Tina Turner - Whats Love Got To Do With It [03:48]
7. Tina Turner - Better Be Good To Me [05:11]
8. Tina Turner - Two People [04:09]
9. Tina Turner - Something Beautiful Remains [04:22]
10. Tina Turner - Private Dancer [04:03]
11. Tina Turner - Why Must We Wait Until Tonight [04:29]
12. Tina Turner - Typical Male [04:17]
13. Tina Turner - Tonight [03:45]
14. Tina Turner - Complicated Disaster [03:43]
15. Tina Turner - On Silent Wings [04:20]
16. Tina Turner - Something Special [04:37]
17. Tina Turner - We Dont Need Another Hero (Thunderdome) [04:16]

Playing Time.........: 01:13:54
Total Size...........: 493,24 MB

While not the most thorough survey of Tina Turner's career, All the Best covers most of the bases. From the early years to "River Deep Mountain High" to re-recordings of some of her work with husband Ike to her magnificent and triumphant return to the charts, it's all here in one form or another. There are a few new songs on here that are easily forgettable, and at two discs get a bit bogged down in filler (her cover of Robert Palmer's "Addicted to Love" is a totally unnecessary inclusion) this could have been a powerhouse single disc. These small misgivings aside, all of the major hits are here, including those previously only available on soundtracks or singles, making it a perfect starting point for those looking to get just the hits for their collection.
Cro & Yu (2016) MP3

Klikni za povečavo!
15-03-2016 12:11 naložil System
Sejalci: 0 / Odjemalci: 1 / Velikost: 500.6 MB / Dokončani: 24
Prenesi torrent Poročaj torrent Opis torrenta
Kategorija: GLASBA > Glasba
Anonimen nalagalec

Poster

Playing Time.........: 08:44:47
Total Size...........: 500,59 MB
Format..........................:MP3

Tracklisting
---------------------------------------------------------------------

1. (00:04:07) Alen Vitasovic - Ja Ne Morem Bez Nje
2. (00:04:18) Alka Vujica - Odkad Te Nema
3. (00:04:27) Bajaga - Dvadeseti Vek
4. (00:03:59) Bajaga - Muzika Na Struju
5. (00:05:15) Bajaga - Plavi Safir
6. (00:03:01) Bajaga - Ti Se Ljubis
7. (00:04:39) Bijelo Dugme - Hajdemo U Planine
8. (00:04:05) Bijelo Dugme - Lipe Cvatu
9. (00:02:54) Bijelo Dugme - Napile Se Ulice
10. (00:03:28) Bohemi ft. Igor Stimac - Mare I Kate
11. (00:05:18) Boris Novkovic - U Dobru I Zlu
12. (00:03:46) Boris Novkovic - Plus Pedeset I Minus Dva
13. (00:04:10) Boris Novkovic - Prodala Me Ti
14. (00:04:01) Boris Novkovic - S Tobom I Bez Tebe
15. (00:04:01) Boris Novkovic - Tamara
16. (00:04:46) Boris Novkovic & Severina - Ko Je Kriv
17. (00:04:28) Colonia - Budi Mi Zbogom
18. (00:03:41) Colonia - Deja Vu
19. (00:03:55) Colonia - Korak Do Sna
20. (00:03:41) Colonia - Lady Blue
21. (00:05:03) Colonia - Megamix
22. (00:04:19) Colonia - Oduzimas Mi Dah
23. (00:04:56) Colonia - Sve Oko Mene Je Grijeh
24. (00:03:38) Colonia - Ti Da Bu Di Bu Da
25. (00:02:52) Colonia - U Ritmu Ljubavi
26. (00:04:19) Colonia - Vatra I Led
27. (00:05:12) Colonia - Za Dobra Stara Vremena
28. (00:04:41) Colonia - Za Tvoje Snene Oci
29. (00:03:47) Crvena Jabuka - Zovu Nas Ulice
30. (00:04:25) Cubismo & Gibonni - Tempera
31. (00:03:01) Daniel - Dzuli
32. (00:03:43) Danijela - Cekala Sam Kao Zena
33. (00:03:36) Danijela - Da Je Slade Zaspati
34. (00:03:44) Danijela - Danima, Godinama, Satima
35. (00:03:38) Danijela - Dobro Je
36. (00:03:40) Danijela - Sto Sam Ja, Sto Si Ti
37. (00:03:46) Danijela - Sve Sto Srce Pozeli
38. (00:04:36) Davor Radolfi - Bomba
39. (00:03:07) Davor Radolfi & Ritmo Loco - Me Va
40. (00:05:06) Diavoli - Ivona
41. (00:08:35) Dj Pucko - E.T. Megamix
42. (00:03:28) Doris Dragovic - To
43. (00:03:00) Doris Dragovic - Zeljo Moja
44. (00:04:20) Dr. Iggy - Navika
45. (00:03:08) Dragana Mirkovic, Zeljko Sasic - Oci Pune Tuge
46. (00:04:38) E.T. - Tek Je 12 Sati
47. (00:05:03) E.T. ft. Toni Cetinski - Totalno Sam Lud
48. (00:04:15) Elektricni Orgazam - Igra Rock'n'roll Cela Jugoslavija
49. (00:04:30) Ella - Iza Ponoci
50. (00:04:14) Gibonni - Cinim Pravu Stvar
51. (00:05:32) Gibonni - Libar
52. (00:04:46) Gibonni - Oprosti
53. (00:03:00) I Bee - Hajde Da Ludujemo
54. (00:03:33) Ivana Banfic - Imam Te
55. (00:04:01) Ivana Banfic & Dino Merlin - Godinama
56. (00:03:48) Jasmin Stavros - Dao Bi Sto Amerika
57. (00:03:35) Jasmin Stavros - Dijamanti
58. (00:03:23) Jasmin Stavros - Hej, Da Si Vino
59. (00:02:58) Jasmin Stavros - Ljubio Sam Andzela
60. (00:02:49) Jasmin Stavros - Maro Marice
61. (00:03:38) Jasmin Stavros - Nema Mi Do Tvojih Ociju
62. (00:03:19) Jasmin Stavros - Umoran Sam
63. (00:05:01) Jinx - Na Plazi
64. (00:03:40) Jole - Dusa Od Papira
65. (00:03:27) Jole - Nosi Mi Se Bijela Boja
66. (00:04:27) Karma - Haljina
67. (00:04:33) Kico Slabinac - Zbog Jedne Divne Crne Zene
68. (00:03:24) Latino - Gdje Si Bila Cijelu Noc
69. (00:04:36) Leteci Odred - Sanjao Sam Moju Ruzicu
70. (00:03:48) Luna - Drugarice
71. (00:04:18) Magazin - Briga Me
72. (00:04:15) Magazin - Gutljaj Vina
73. (00:03:23) Magazin - Jos Te Volim
74. (00:03:46) Magazin - Kokolo
75. (00:04:15) Magazin - Opijum
76. (00:03:30) Magazin - Poljubi Me Ti
77. (00:03:33) Magazin - Suze Biserne
78. (00:03:33) Magazin - Sve Bi Seke Ljubile Mornare
79. (00:03:38) Magazin - Ti Si Zelja Mog Zivota
80. (00:03:55) Mambo Kings - Da Bog Da Te Voda Odnjela
81. (00:04:32) Mambo Kings - Daj Mi Vina
82. (00:03:14) Mambo Kings - Godine Ljubavi
83. (00:04:07) Mambo Kings - I Tebe Sam Sit Kafano
84. (00:12:07) Mambo Kings - Ljubavni Mix
85. (00:13:14) Mambo Kings - Party Mix
86. (00:04:37) Moby Dick - Kralj Kokaina
87. (00:03:41) Natasa Bekvalac - Ne Brini
88. (00:03:37) Neki To Vole Vruce - Jeans Generacija
89. (00:03:22) Neki To Vole Vruce - Kakva Noc
90. (00:04:02) Novi Fosili - 7 Dugih Godina
91. (00:03:31) Novi Fosili - Dobre Djevojke
92. (00:02:25) Novi Fosili - Ja Sam Za Ples
93. (00:03:46) Novi Fosili - Milena
94. (00:03:49) Novi Fosili - Plava Kosulja
95. (00:04:26) Novi Fosili - Sasa
96. (00:03:59) Novi Fosili - Za Dobra, Stara Vremena
97. (00:03:58) Oliver Dragojevic - Oprosti Mi Pape
98. (00:04:14) Oliver Dragojevic - Pjesma Mog Zivota
99. (00:03:24) Oliver Dragojevic - U Basku Vodu
100. (00:04:31) Parni Valjak - Jesen U Menu
101. (00:04:14) Parni Valjak - Prokljeta Nedelja
102. (00:04:16) Parni Valjak - To Ni Politican Song
103. (00:04:06) Parni Valjak - Uhvati Ritam
104. (00:03:41) Petar Graso - Ko Nam Brani
105. (00:05:12) Plavi Orkestar - Ako Su To Samo Bile Lazi
106. (00:04:15) Plavi Orkestar - Bolje Biti Pijan Nego Star
107. (00:04:18) Plavi Orkestar - Djevojka Iz Snova
108. (00:03:45) Plavi Orkestar - Goodbye Teens
109. (00:04:12) Plavi Orkestar - Kad Ti Ljubav Ime Prozove
110. (00:03:46) Plavi Orkestar - Odlazim
111. (00:04:52) Prljavo Kazaliste - Mojoj Majci
112. (00:03:53) Psihomodo Pop - Frida
113. (00:03:40) Sajeta - Kosulja Plava
114. (00:03:08) Severina - Ante
115. (00:04:16) Severina - Dalmatinka
116. (00:04:44) Severina - Djevojka Sa Sela
117. (00:03:09) Severina - Dodirni Mi Kolena '99
118. (00:03:41) Severina - Paloma Nera
119. (00:04:18) Severina - Trava Zelena
120. (00:03:19) Tajci - Hajde Da Ludujemo [remix]
121. (00:03:07) Tajci - Moj Mali Je Opasan
122. (00:02:59) Tomislav Ivcic - Veceras Je Nasa Festa
123. (00:03:29) Toni Cetinski - Blago Onom Tko Te Ima
124. (00:03:51) Vesna Pisarovic - Jutro Donosi Kraj
125. (00:03:03) Vesna Pisarovic - Sasvim Sigurna
126. (00:04:34) Vlado Kalember - Vino Na Usnama
127. (00:04:41) Zana - Dodirni Mi Koljena
Def Leppard ‎– Greatest Hits 2010[FLAC]

Klikni za povečavo!
14-03-2016 13:59 naložil andrejap
Sejalci: 1 / Odjemalci: 0 / Velikost: 1.11 GB / Dokončani: 16
Prenesi torrent Poročaj torrent Opis torrenta NFO
Zvrst: Glasbeni
Kategorija: GLASBA > Glasba

---------------------------------------------------------------------
Def Leppard - Def Leppard Greatest Hits
---------------------------------------------------------------------
Artist...............: Def Leppard
Album................: Def Leppard Greatest Hits
Genre................: Hard rock
Source...............: CD
Year.................: 2010
Ripper...............: EAC (Secure mode) / LAME 3.92 & Asus CD-S520
Codec................: Free Lossless Audio Codec (FLAC)
Version..............: Lavf56.30.100
Quality..............: Lossless, (avg. compression: 71 %)
Channels.............: Stereo / 44100 HZ / 16 Bit
Tags.................: VorbisComment
Information..........:
Ripped by............: andrejap on 14. 03. 2016
Posted by............: andrejap on 14. 03. 2016
News Server..........: news.astraweb.com
News Group(s)........: alt.binaries.sounds.mp3.m
Included.............: NFO
Covers...............: Front Back CD

---------------------------------------------------------------------
Tracklisting CD1
---------------------------------------------------------------------
1. Def Leppard - Nine Lives (feat. Tim McGraw) [03:32]
2. Def Leppard - Now [03:59]
3. Def Leppard - Promises [03:59]
4. Def Leppard - Two Steps Behind (Acoustic Version) [04:16]
5. Def Leppard - Slang [02:37]
6. Def Leppard - Rocket [04:07]
7. Def Leppard - Let's Get Rocked [04:56]
8. Def Leppard - Love Bites [05:46]
9. Def Leppard - Photograph [04:08]
10. Def Leppard - Animal [04:04]
11. Def Leppard - Let It Go [04:43]
12. Def Leppard - Goodbye [03:35]
13. Def Leppard - Rock Of Ages [04:08]
14. Def Leppard - Make Love Like A Man [04:15]
15. Def Leppard - When Love & Hate Collide [04:17]
16. Def Leppard - Long Long Way To Go [04:38]
17. Def Leppard - Action [03:40]
18. Def Leppard - Work It Out [04:49]
19. Def Leppard - Love [04:17]

Playing Time.........: 01:19:56
Total Size...........: 573,29 MB

---------------------------------------------------------------------
Tracklisting CD2
---------------------------------------------------------------------
1. Def Leppard - C'mon C'mon [04:11]
2. Def Leppard - No Matter What [02:53]
3. Def Leppard - Everyday [03:10]
4. Def Leppard - Bad Actress [03:05]
5. Def Leppard - Miss You In A Heartbeat [04:06]
6. Def Leppard - Paper Sun [05:29]
7. Def Leppard - All I Want Is Everything [05:22]
8. Def Leppard - Armageddon It [05:25]
9. Def Leppard - High 'n' Dry (Saturday Night) [03:28]
10. Def Leppard - Too Late For Love [04:28]
11. Def Leppard - Pour Some Sugar On Me [04:29]
12. Def Leppard - Heaven Is [03:35]
13. Def Leppard - Foolin' [04:35]
14. Def Leppard - Hysteria [05:56]
15. Def Leppard - Have You Ever Needed Someone So Bad [05:25]
16. Def Leppard - Women [05:45]
17. Def Leppard - Wasted [03:47]
18. Def Leppard - Bringin' On The Heartbreak [04:33]

Playing Time.........: 01:19:50
Total Size...........: 556,24 MB

Def Leppard are an English rock band formed in 1977 in Sheffield as part of the New Wave of British Heavy Metal movement. Since 1992, the band has consisted of Joe Elliott (lead vocals), Rick Savage (bassist, backing vocals), Rick Allen (drums, backing vocals), Phil Collen (guitar, backing vocals), and Vivian Campbell (guitar, backing vocals). This is the band's longest-standing line-up.
The band's strongest commercial success came between the early 1980s and the early 1990s. Their 1981 album, High 'n' Dry, was produced by Robert John "Mutt" Lange, who helped them begin to define their style, and the album's standout track "Bringin' On the Heartbreak" became one of the first rock videos played on MTV in 1982. The band's next studio album, Pyromania in January 1983, with "Photograph" as the lead single, turned Def Leppard into a household name. In the U.S., Pyromania was certified Diamond (10× Platinum). In 2003, the album ranked number 384 on Rolling Stone's 500 Greatest Albums of All Time.
Def Leppard's fourth album Hysteria, released in August 1987, topped the UK and U.S. album charts. As of 2009, it has reached beyond the success of Pyromania, having been certified 12× Platinum for sales of over 12 million in the U.S. and has gone on to sell over 25 million copies worldwide. The album spawned seven hit singles, including the U.S. Billboard Hot 100 number one "Love Bites", alongside "Pour Some Sugar on Me", "Hysteria", "Armageddon It", "Animal", "Rocket", and "Women". Their next studio album, Adrenalize (the first following the death of guitarist Steve Clark), reached number one in the UK and U.S. charts in 1992, and contained several hits, including "Let's Get Rocked" and "Have You Ever Needed Someone So Bad". Their 1993 album, Retro Active, contained the acoustic hit song "Two Steps Behind", while their greatest-hits album Vault, released in 1995, featured the UK hit "When Love & Hate Collide".
As one of the world's best-selling music artists, Def Leppard have sold more than 100 million records worldwide, and have two albums with RIAA Diamond certification, Pyromania and Hysteria. They are one of only five rock bands with two original studio albums selling over 10 million copies in the U.S. The band were ranked No. 31 in VH1's "100 Greatest Artists of Hard Rock" and ranked No. 70 in "100 Greatest Artists of All Time".
Toto Cutugno - Greatest Hits 2002[FLAC]

Klikni za povečavo!
12-03-2016 16:05 naložil andrejap
Sejalci: 1 / Odjemalci: 0 / Velikost: 481.22 MB / Dokončani: 18
Prenesi torrent Poročaj torrent Opis torrenta NFO
Zvrst: Glasbeni
Kategorija: GLASBA > Glasba

---------------------------------------------------------------------
Toto Cutugno - Greatest Hits
---------------------------------------------------------------------
Artist...............: Toto Cutugno
Album................: Greatest Hits
Genre................: Disco
Source...............: CD
Year.................: 2002
Ripper...............: EAC (Secure mode) / LAME 3.92 & Asus CD-S520
Codec................: Free Lossless Audio Codec (FLAC)
Version..............: reference libFLAC 1.2.1 20070917
Quality..............: Lossless, (avg. compression: 64 %)
Channels.............: Stereo / 44100 HZ / 16 Bit
Tags.................: VorbisComment
Information..........:
Ripped by............: andrejap on 12. 03. 2016
Posted by............: andrejap on 12. 03. 2016
News Server..........: news.astraweb.com
News Group(s)........: alt.binaries.sounds.mp3.m
Included.............: NFO
Covers...............: Front Back CD
---------------------------------------------------------------------
Tracklisting
---------------------------------------------------------------------
1. Toto Cutugno - Figli [04:09]
2. Toto Cutugno - Donna Donna Mia [03:00]
3. Toto Cutugno - Flash [03:15]
4. Toto Cutugno - Insieme 1992 [04:27]
5. Toto Cutugno - Viglio L'anima (Monday, Tuesday ...Laissez Moi Danser)[04:02]
6. Toto Cutugno - Mi Piacerebbe... (Andare Al Mare... Al Lunedi')[04:35]
7. Toto Cutugno - Solo Noi [04:03]
8. Toto Cutugno - L'italiano [03:56]
9. Toto Cutugno - Soli [04:03]
10. Toto Cutugno - Viglio Andare A Vivere In Campagna [04:25]
11. Toto Cutugno - Gli Amori [04:18]
12. Toto Cutugno - Il Sognatore [04:28]
13. Toto Cutugno - Africa [03:15]
14. Toto Cutugno - A...rio [03:42]
15. Toto Cutugno - Le Mamme [04:10]
16. Toto Cutugno - Serenata [03:52]
17. Toto Cutugno - Sinfonia [04:37]
18. Toto Cutugno - Canzone D'amore [04:35]

Playing Time.........: 01:12:52
Total Size...........: 466,90 MB

Salvatore "Toto" Cutugno (born 7 July 1943) is an Italian pop singer-songwriter and musician. Cutugno may be best known for his worldwide hit song, "L'Italiano", which was on his hit CD, I Grandi Successi.
DJ VIHAR & DJ AJDA - SLO & HR MIX 44

Klikni za povečavo!
09-03-2016 18:04 naložil Ajda
Sejalci: 1 / Odjemalci: 0 / Velikost: 265.04 MB / Dokončani: 51
Prenesi torrent Poročaj torrent Opis torrenta NFO
Kategorija: GLASBA > Glasba





Complete name : DJ VIHAR & DJ AJDA - SLO & HR MIX 44.mp3
Format : MPEG Audio
File size : 265 MiB
Duration : 1h 55mn
Overall bit rate mode : Constant
Overall bit rate : 320 Kbps
Encoded by : Lavf52.39.0
Writing library : LAME3.98

Audio
Format : MPEG Audio
Format version : Version 1
Format profile : Layer 3
Mode : Joint stereo
Mode extension : MS Stereo
Duration : 1h 55mn
Bit rate mode : Constant
Bit rate : 320 Kbps
Channel(s) : 2 channels
Sampling rate : 48.0 KHz
Compression mode : Lossy
Stream size : 265 MiB (100%)
Writing library : LAME3.98


01. ALAGA GAGIC – Placu, placu moje noci
02. IVO PATTIERA – Trazim te, trebam te
03. TINA & NIKSA – Da je bilo sve po mom
04. JELENA KULIS – Nisu mene slomile daljine
05. SIMPATIZERI – Jer ti mi tak falis
06. TONI CAVAR – Plava zeno
07. TOMISLAV RUBINIC – Mismo za ljubav stvoreni
08. NEJC KASTELIC – Bi sla z menoj
09. GRUPA VIGOR – Zasto me mucis njevero
10. NATASA NADJAR – Ljubim samo tebe
11. STJEPAN JAPARIC – Nek placu violine
12. ANSAMBEL POMLAD – Pustite samo me nocoj
13. MAJA SUPUT – Poljubi me kraj reke
14. DIMNIK NASTJA – Nocoj bi ljubila
15. KUMOVI – Ljubica
16. PERO PANJKOVIC – Suncano je nebo proplakalo
17. SKUPINA ART – Ivana
18. DRAGO JOSAR – Recite ji angeli
19. CRNA MACKA & EVA BOTO – Ce bos stajerca vzela
20. BEREKINI – E mandolino
21. MLADI GAMSI – Moja Rozi
22. JOSKO TOMICIC – Pjesmo moja, moja ljubavi
23. NENAD VETMA – Ostati cu sam do kraja
24. MARIO USIC – Suze su zadnje rijeci
25. BRENDI – Pohorska roza
26. SIMONA WEISS – Tvoja mackica
27. DOLORES – Duga je noc
28. MARIJAN SMODE – A ti spis
29. MACAO BAND – Cekat cu te ja
30. GIANNI RIJAVEC - & SIMONA WEISS – Ti in jaz
31. SASA KOVACEVIC – Slucajno
32. BUCO & SRDZAN – Trazim te trebam te
33. ZELJKO SESVECAN – Kako da te zaboravim
34. DALIBOR BRUN – Pogrijesit cu pa te zvati
35. DORIS DRAGOVIC – Vrijeme za ljubav



Ennio Morricone - The Platinum Collection (3CD) (2007) [FLAC]

Klikni za povečavo!
05-03-2016 20:05 naložil andrejap
Sejalci: 2 / Odjemalci: 0 / Velikost: 1018.97 MB / Dokončani: 15
Prenesi torrent Poročaj torrent Opis torrenta NFO
Zvrst: Glasbeni
Kategorija: GLASBA > Glasba


---------------------------------------------------------------------
Ennio Morricone - The Platinum Collection
---------------------------------------------------------------------
Artist...............: Ennio Morricone
Album................: The Platinum Collection
Genre................: Soundtrack
Source...............: CD
Year.................: 2007
Ripper...............: EAC (Secure mode) / LAME 3.92 & Asus CD-S520
Codec................: Free Lossless Audio Codec (FLAC)
Version..............: reference libFLAC 1.2.1 20070917
Quality..............: Lossless, (avg. compression: 52 %)
Channels.............: Stereo / 44100 HZ / 16 Bit
Tags.................: VorbisComment
Information..........:
Ripped by............: andrejap on 5. 03. 2016
Posted by............: andrejap on 5. 03. 2016
News Server..........: news.astraweb.com
News Group(s)........: alt.binaries.sounds.mp3.m
Included.............: NFO
Covers...............: Front Back CD


---------------------------------------------------------------------
Tracklisting (CD1)
---------------------------------------------------------------------
1. Ennio Morricone - Gabriel's Oboe (The Mission) [02:16]
2. Ennio Morricone - Il Buono, Il Brutto, Il Cattivo (The Good, The Bad, The Ugly)[02:43]
3. Ennio Morricone - C'era Una Volta Il West (Once Upon A Time In The West)[03:45]
4. Ennio Morricone - Metti Una Sera A Cena (Love Circle) [04:33]
5. Ennio Morricone - Nuovo Cinema Paradiso (Cinema Paradiso)[02:34]
6. Ennio Morricone - La Donna Della Domenica (The Sunday Woman)[03:24]
7. Ennio Morricone - Il Clan Dei Siciliani (The Sicilian Clan)[03:39]
8. Ennio Morricone - Addio A Palermo (Corleone) [03:48]
9. Ennio Morricone - Il Mio Nome E Nessuno (My Name Is Nobody)[03:12]
10. Ennio Morricone - Tema D'Amore Disperato (Canone Inverso)[02:09]
11. Ennio Morricone - Speranze Di Liberta (Sacco And Vazetti)[02:30]
12. Ennio Morricone - Paura Sulla Citta (Fear Over The City)[04:11]
13. Ennio Morricone - La Califfa (La Califfa) [02:44]
14. Ennio Morricone - Inseguimento E Fuga (Blood In The Streets)[03:41]
15. Ennio Morricone - Lontano (God With Us) [04:32]
16. Ennio Morricone - Barbablu (Barbablu) [02:57]
17. Ennio Morricone - Tema D'amore (Le Casse) [03:11]
18. Ennio Morricone - Viaggio Con Anita (Lovers And Liars) [02:49]
19. Ennio Morricone - La Moglie Piu Bella (The Most Beautiful Wife)[02:14]
20. Ennio Morricone - Per Un Pugno Di Dollari (A Fistful Of Dollars)[01:49]

Playing Time.........: 01:02:51
Total Size...........: 330,76 MB

---------------------------------------------------------------------
Tracklisting (CD2)
---------------------------------------------------------------------
1. Ennio Morricone - Deborah's Theme (Once Upon A Time In America)[04:27]
2. Ennio Morricone - L'Estasi Dell'Oro (The Good, The Bad And The Ugly)[03:24]
3. Ennio Morricone - The Mission (The Mission) [02:51]
4. Ennio Morricone - Dal Sex Appeal Al Primo Fellini (Cinema Paradiso)[03:29]
5. Ennio Morricone - L'Uomo Dell'Armonica (Once Upon A Time In The West)[03:29]
6. Ennio Morricone - Il Segreto Del Sahara (The Secret Of The Sahara)[04:32]
7. Ennio Morricone - Algeri 1 Novembre 1954 (Battle Of Algiers)[02:27]
8. Ennio Morricone - Forse Basta (Il Giro Del Mondo Degli Innamorati Di Peynet)[03:56]
9. Ennio Morricone - Il Vizietto (Birds Of A Feather) [03:14]
10. Ennio Morricone - Via Mala (Via Mala) [02:38]
11. Ennio Morricone - La Cosa Buffa (La Cosa Buffa) [03:09]
12. Ennio Morricone - Dimenticare Palermo (The Palermo Connection)[04:26]
13. Ennio Morricone - Romanza Quartiere (Quartiere) [03:40]
14. Ennio Morricone - Si Muore D'Amore (For Love One Dies) [03:52]
15. Ennio Morricone - Thieves After Dark (I Ladri Della Notte)[04:45]
16. Ennio Morricone - Estate 1943 (Libera Amore Mio) [04:01]
17. Ennio Morricone - Viva La Revolucion (Blood And Guns) [04:23]
18. Ennio Morricone - Venuta Dal Mare (Ecce Homo) [02:10]
19. Ennio Morricone - Il Vento Il Grido (Joss Il Professionista)[01:52]
20. Ennio Morricone - La Tragedia Di Un Uomo Ridicolo (Tragedy Of A Ridiclous Man)[02:13]

Playing Time.........: 01:09:07
Total Size...........: 365,00 MB

---------------------------------------------------------------------
Tracklisting (CD3)
---------------------------------------------------------------------
1. Ennio Morricone - Giu La Testa (Giu La Testa) [04:18]
2. Ennio Morricone - Indagine (Indagine Su Un Cittadino Al Di Sopra Di Ogni Sospetto)[03:30]
3. Ennio Morricone - Maturita (Nuovo Cinema Paradiso) [02:11]
4. Ennio Morricone - Per Qualche Dollaro In Piu (Per Qualche Dollaro In Piu)[02:54]
5. Ennio Morricone - Romanzo (Novecento) [04:10]
6. Ennio Morricone - The Falls (Mission) [01:56]
7. Ennio Morricone - Questa Specie D'amore (Questa Specie D'amore)[02:37]
8. Ennio Morricone - Titoli (Il Federale) [02:06]
9. Ennio Morricone - Poesia Di Una Donna (Veruschka) [03:17]
10. Ennio Morricone - I Crudeli (I Crudeli) [02:40]
11. Ennio Morricone - Chi Mai (Maddalena) [03:33]
12. Ennio Morricone - Marche En La (Alzati Spia) [03:04]
13. Ennio Morricone - Cockeye's Song (C'era Una Volta In America)[04:24]
14. Ennio Morricone - La Verité Et Le Soleil (I ... Come Icaro)[02:57]
15. Ennio Morricone - Rivoluzione (Che C'entriamo Noi Con La Rivoluzione?)[02:41]
16. Ennio Morricone - L'uomo Proiettile (L'uomo Proiettile) [03:39]
17. Ennio Morricone - Crescete E Moltiplicatevi (Crescete E Moltiplicatevi)[02:22]
18. Ennio Morricone - Tema Di Dunja (Il Fiore Delle Mille E Una Notte)[02:43]
19. Ennio Morricone - La Ballata Di Hank McCain (Gli Intoccabili)[02:12]
20. Ennio Morricone - La Ragion Pura (La Ragion Pura) [06:11]

Playing Time.........: 01:03:33
Total Size...........: 316,96 MB

Personnel:

Of The Platinum Collection: Original Soundtrack:

Ennio Morricone------------Arranger, Composer, Conductor
Bruno Nicolai--------------Conductor
Gianfranco Plenizio--------Conductor
Gheorghe Zamfir------------Flute
Edda Dell'Orso-------------Vocals
Michele Lacerenza----------Trumpet
Andrea MorriconeArranger---Composer
Alessandro Alessandroni----Vocals, Whistle (Human)
Pierluigi Urbini-----------Conductor
Oscar Valdambrini----------Flicorno
Franco Tamponi-------------Conductor
Jackie Lynton--------------Vocals
VA - Chartboxx 2.2016

Klikni za povečavo!
02-03-2016 21:42 naložil System
Sejalci: 0 / Odjemalci: 1 / Velikost: 137.04 MB / Dokončani: 0
Prenesi torrent Poročaj torrent Opis torrenta
Kategorija: GLASBA > Glasba
Anonimen nalagalec

Genre: Pop
Cas trajanja: 75 : 58 min
Quality: Mp3
Bitrate: 247 kbps
Total Size: 137 mb

01. Robin Schulz feat. Francesco Yates - Sugar
02. Matt Simons - Catch And Release (Deepend Remix)
03. Rachel Platten - Fight Song
04. Walk The Moon - Shut Up and Dance
05. Elle King - Ex's And Oh's
06. Omi - Hula Hoop
07. Sigala - Easy Love
08. Gestort aber GeiL feat. Sebastian Hamer - Ich und Du
09. Eva Simons feat. Konshens - Policeman
10. Bushido vs. Shindy - Cla$$Ic
11. Adam Lambert - Ghost Town
12. Kelvin Jones - Call You Home
13. Charlie Puth feat. Meghan Trainor - Marvin Gaye
14. Philipp Dittberner - Das ist dein Leben
15. Kygo feat. Ella Henderson - Here For You
16. John Legend - All Of Me
17. LIZOT & Charming Horses feat. Jason Anousheh - Sonnenmodchen (LIZOT Radio Edit)
18. Mark Ronson feat. Bruno Mars - Uptown Funk
19. Olly Murs - Kiss Me
20. Cro - Melodie (Unplugged Version)
21. Eagles Of Death Metal - Save A Prayer (Bonustrack)


VA - Nostalgia - Vol. 01 - Don t Worry Be Happy

Klikni za povečavo!
18-02-2016 21:44 naložil System
Sejalci: 0 / Odjemalci: 1 / Velikost: 164.82 MB / Dokončani: 2
Prenesi torrent Poročaj torrent Opis torrenta
Zvrst: Glasbeni
Kategorija: GLASBA > Glasba
Anonimen nalagalec

VA - Nostalgia - Vol. 01 - Don t Worry Be Happy
Tracklisting
1. (00:04:50) Bobby Mcferrin - Don't Worry. Be Happy
2. (00:03:28 ) F.R.David - Words
3. (00:03:47) Roxette - Sleeping In My Car
4. (00:04:32) Whitney Houston - I Will Alwais Love You
5. (00:03:37) Eruption - One A Way Ticket
6. (00:04:13) Space - Running In The City
7. (00:03:50) Yaki-Da - I Saw You Dancing
8. (00:03:54) Murray Head - One Night In Bangkok
9. (00:06:58 ) Robert Miles - Children (Dream Version)
10. (00:04:28 ) Sting - Englishman In New York
11. (00:04:43) Mike Oldfield - To France
12. (00:04:18 ) Sade - Smooth Operator
13. (00:03:55) Toto Cutugno - L'italiano
14. (00:02:59) Baccara - Cara Mia
15. (00:03:33) Maywood - Pasadena
16. (00:04:34) Terence Trent D'arby - Sign Your Name
17. (00:04:21) Queen - Show Must Go On
Playing Time.........: 01:12:00
Total Size...........: 164,82 MB
Artist...............: Various Artists
Album................: Nostalgia - Vol. 01 - Don`t Worry, Be Happy
Genre................: pop/rock
Source...............: CD
Year.................: 0000
Ripper...............: EAC (Secure mode) / LAME 3.92 & Asus CD-S520
Codec................: LAME 3.98
Version..............: MPEG 1 Layer III
Quality..............: Insane, (avg. bitrate: 320kbps)
Channels.............:Stereo / 44100 hz
Ljubavni Mix - CMC Hitovi (2016)

Klikni za povečavo!
18-02-2016 18:51 naložil
Sejalci: 0 / Odjemalci: 1 / Velikost: 312.81 MB / Dokončani: 4
Prenesi torrent Poročaj torrent Opis torrenta
Kategorija: GLASBA > Glasba

Ljubavni Mix - CMC Hitovi (2016)

1. Petar Graso - Moje Zlato (4:30)
2. Massimo - Kad Čovjek Voli Ženu (4:04)
3. Dino Dvornik - Ljubav Se Zove Imenom Tvojim (4:33)
4. Sergej Cetkovic - Samo Me Zagrli (4:08)
5. Tony Cetinski - Zbog Nje (4:28)
6. Luka Nizetic - Od Najgorih Najbolji (4:13)
7. Mia Dimšić - Budi Mi Blizu (4:31)
8. Queen Of Sabe - Kuća Za Ptice (3:40)
9. Sane - Ostani (4:35)
10. Daleka Obala - Voli Me (3:26)
11. Film - Doći Ću Ti U Snovima (4:01)
12. Parni Valjak - Dok Je Tebe (5:06)
13. Buđenje - Ljubav Nema Pravila (3:59)
14. Gabi Novak - On Me Voli Na Svoj Način (3:28)
15. Kemal Monteno - Napiši Jednu Ljubavnu (3:53)
16. Arsen Dedic - Bit Ćeš Uvijek Moja (2:21)
17. Josipa Lisac - Da Li Sam Ti Rekla Da Te Volim (3:15)
18. Rade Šerbedžija - Meni Se Dušo Od Tebe Ne Rastaje (3:34)
19. Oliver Dragojevic - Što To Bješe Ljubav (3:10)
20. Klapa Cambi - Split - Ti Si Mi U Krvi (3:51)
21. Opća Opasnost - Tvoje Ime Čuvam (5:42)
22. Crvena Jabuka - To Mi Radi (4:00)
23. Đavoli - A Gdje Si Ti (3:05)
24. Magazin - Ljube Se Dobri, Loši, Zli (4:22)
25. Gibonni - Lipa Moja (4:22)
26. Jacques Houdek - Nov Čovjek (4:14)
27. Džentlmeni - Za Tebe Anđele (3:44)
28. Vranac - Dotakni Me Pogledom (3:33)
29. Agrameri - Ruža Crvena (3:10)
30. Klapa Cambi - Sad Kada Došla Si (3:46)
31. Berny - Moja Ljubav Stara (3:38)
32. Mladen Grdovic - Oči Boje Lavande (3:21)
33. Klapa Iskon - Još Ne Mogu Pristat Volit (4:47)
34. Jasna Zlokic - Tiho Sviraj Pjesmu Ljubavnu (3:34)
35. Miso Kovac - Zbog Tebe, Ljubavi Moja (3:44)
36. Maja Blagdan - Sveta Ljubav (2:59)
37. Ibrica Jusic - Kuća Pored Mora (2:57)
38. Boris - 'ko Je Kriv (4:48)
39. Dino Merlin - Ako Izgovorim Ljubav (4:04)
40. Thompson - Samo Je Ljubav Tajna Dvaju Svjetova (5:49)

Title................: CMC Hitovi (2016)
Artist...............: Ljubavni Mix
Album................: Dj Seba Dee
Year.................: 2016
Genre................: Pop
Number of Songs......: 40
Audio Format.........: MP3
Ripper...............: AudioCD MP3 Studio
Encoder..............: AC3 5.1
Bitrate..............: 320 (VBR)
Hz...................: 44,100
Channels.............: Stereo
Source...............:

Dire Straits - Discography all 11 Albums

Klikni za povečavo!
16-02-2016 11:36 naložil
Sejalci: 0 / Odjemalci: 1 / Velikost: 700.97 MB / Dokončani: 4
Prenesi torrent Poročaj torrent Opis torrenta
Kategorija: GLASBA > Glasba

Dire Straits - Discography all 11 Albums









ALBUMS:



1978 Dire straits
1979 Communique
1980 Making movies
1982 Love over gold
1984 Alchemy
1985 Brothers in arms
1990 Money For Nothing (Greatest Hits)
1991 On Every Street
1993 On the night
1995 Live at BBC
1998 Sultans Of Swing




INFO:



Artist.........: Dire Straits

Title..........: Dire Straits - 11 Albums Discography[MuSi]

Year...........: 1978-1998

Genre..........: Rock / Classic Rock

Type...........: CDrip

No. of songs...: 115

Covers.........: Yes

Total time.....: 11:27:25

Total size.....: 701 mb

Format.........: MP3

Bitrate........: 256 kb/s

Channels.......: Stereo

Hz.............: 44.100

Quality........: Averange
Dj Seba Dee - Slo Narodno Zabavni Mix 2016.mp3

Klikni za povečavo!
13-02-2016 21:19 naložil
Sejalci: 1 / Odjemalci: 0 / Velikost: 138.59 MB / Dokončani: 22
Prenesi torrent Poročaj torrent Opis torrenta
Kategorija: GLASBA > Glasba

Dj Seba Dee - Slo Narodno Zabavni Mix 2016

Title................: Slo Narodno Zabavni Mix 2016
Artist...............: Dj Seba Dee
Year.................: 2016
Genre................: Folk
Number of Songs......: 1
Audio Format.........: MP3
Ripper...............: AudioCD MP3 Studio
Encoder..............: AC3 5.1
Bitrate..............: 320 (VBR)
Hz...................: 44,100
Channels.............:mono,Joint Stereo Stereo

Seznam pesmi:
Ansambel Viža - O gospa (M Dee J Turbo Remix 2016)
Mladi Odmev - Ne Jamram, Iščem Rešitve (Dr.DennieJay Remix 2016)
Ansambel Alpski Kvintet - Mengeska ( Remix )
Ansambel Biseri - Krpanova Polka ( Remix)
Ansambel Bratov Avsenik – Ivanka ( Remix)
Ansambel Donacka - Ljubim Jozico ( Remix)
Ansambel Erazem - V Naši Kantini ( Remix)
Ansambel Franca Miheliča - Ker Sem Veseljak ( Remix)
Ansambel Ivana Ruparja - Radi Imamo Vse Ljudi ( Remix)
Ansambel Nika Zajca - Ljubezen Je Kriva Za Vse ( Remix)
Ansambel Petra Finka - Moj Stari Avto ( Remix)
Ansambel Potep - Ljubiti Tebe (Remix)
Ansambel Vikend – Ko Polko Urežem (Remix)
Fantje Z Vseh Vetrov - Si Rekla Da Ne Smem (Dr.DennieJay Remix 2016)
Navihanke - Študentska Je Težka ( Remix)
Zaka' Pa Ne - Do Poroke ( Remix)
Kvintet Slovenskih Deklet – Ti Znas Ravnati Z Mano (Remix)
Ansambel Bratov Avsenik - Planica Planica (Remix)
Ansambel Donacka - Pridi, Zaplesi (Remix)
Ansambel Ivana Ruparja - Na Soriski Planini ( Remix)
Ansambel Fantje Z Vseh Vetrov - Gaslilska Veselica ( Remix)

Remix-i by Dr.DennieJay .....

Dejan Vunjak - Ponesimo v svet ime slovenije.mp3

Klikni za povečavo!
12-02-2016 16:20 naložil
Sejalci: 1 / Odjemalci: 0 / Velikost: 6.69 MB / Dokončani: 10
Prenesi torrent Poročaj torrent Opis torrenta
Kategorija: GLASBA > Glasba

Title................: Ponesimo v svet ime slovenije
Artist...............: Dejan Vunjak
Album................: Dj Seba Dee
Year.................: 2016
Genre................: Pop
Type.................: Studio
Number of Songs......: 1
Audio Format.........: MP3
Ripper...............: AudioCD MP3 Studio
Encoder..............: AC3 5.1
Bitrate..............: 320 (VBR)
Hz...................: 44,100
Channels.............: Mono
Source...............: Radio

Zlatko Pejakovic - Sedam dana maligana 2016-djsebadee

30-01-2016 08:47 naložil
Sejalci: 0 / Odjemalci: 1 / Velikost: 9.12 MB / Dokončani: 5
Prenesi torrent Poročaj torrent Opis torrenta
Kategorija: GLASBA > Glasba

Title................: Sedam dana maligana
Artist...............: Zlatko Pejakovic
Year.................: 2016
Genre................: Pop
Number of Songs......: 1
Audio Format.........: MP3
Ripper...............: AudioCD MP3 Studio
Encoder..............: AC3 5.1
Bitrate..............: 320 (VBR)
Hz...................: 44,100
Channels.............: Mono

Marko Skugor - Srce juznjacko 2016-dj seba dee

30-01-2016 08:39 naložil
Sejalci: 1 / Odjemalci: 0 / Velikost: 8.89 MB / Dokončani: 12
Prenesi torrent Poročaj torrent Opis torrenta
Kategorija: GLASBA > Glasba

Title................: Srce juznjacko
Artist...............: Marko Skugor
Year.................: 2016
Genre................: Pop
Number of Songs......: 1
Audio Format.........: MP3
Ripper...............: AudioCD MP3 Studio
Encoder..............: AC3 5.1
Bitrate..............: 320 (VBR)
Hz...................: 44,100
Channels.............: Mono

Dj Seba Dee - Cro & Balkan Mix ( 2016 ).mp3

09-01-2016 16:28 naložil
Sejalci: 0 / Odjemalci: 0 / Velikost: 210.5 MB / Dokončani: 24
Prenesi torrent Poročaj torrent Opis torrenta
Kategorija: GLASBA > Glasba

Novi Fosili - Za Dobra Stara Vremena (GoodBoY Rmx 2016),Klapa Šufit - Ne diraj moju ljubav (M Dee J Remix 2016), Jole - Pijanica Nisam,Jasmin Stavros - Rođendan,Grupa Vigor - Zivot je raj,Jelena Rozga - Otrov,Karma - Puca Glava (M Dee J vs Neno Dj Remix2016),Miso Kovac - Ja Nemam Vise Razloga Da Zivim (GoodBoY Remix 2015),Zdravko Skender - Ne Mogu Da Te Zaboravim (GoodBoY Official Remix2015),Matko Jelavic - Majko stara (Podra Remix2015),Berny - Pozdravi Mi Prijatelje ,Juraj Galina ft. Igor Delač - Ne Vjeruj Vinu,Tanja Žagar - Idu idu godine,Dusko Lokin feat. Ivan Di - Fali More Drs Se Zala,Werner-Evo Mene,Magazin - Ti si želja mog života (Podra ft. Coxxx Remix 2015),Baruni - Za tebe sam ljubav čuvao,Colonia - Tragovi,Lana Jurcevic - Neke se noci ne spavaju,Petra Kovacevic - Casanova,Neda Ukraden - Zuto ,Seka Aleksic-Aspirin (Mr.Sanker Bootleg Remix 2016),Slavonia band - Ludo ludice ,Ivan Zak - Ne pitaš za mene (Remix),Tomislav Bralić & Klapa Intrade - Zalutali pogled (Podra Remix)
DJ VIHAR & DJ AJDA - SLO & HR MIX 43

Klikni za povečavo!
06-01-2016 20:35 naložil Ajda
Sejalci: 1 / Odjemalci: 0 / Velikost: 273.17 MB / Dokončani: 55
Prenesi torrent Poročaj torrent Opis torrenta NFO
Kategorija: GLASBA > Glasba






Complete name : DJ VIHAR & DJ AJDA - SLO & HR MIX 43
Format : MPEG Audio
File size : 272 MiB
Duration : 1h 58mn
Overall bit rate mode : Constant
Overall bit rate : 320 Kbps
Encoded by : Lavf52.39.0
Writing library : LAME3.98

Audio
Format : MPEG Audio
Format version : Version 1
Format profile : Layer 3
Mode : Joint stereo
Mode extension : MS Stereo
Duration : 1h 58mn
Bit rate mode : Constant
Bit rate : 320 Kbps
Channel(s) : 2 channels
Sampling rate : 48.0 KHz
Compression mode : Lossy
Stream size : 272 MiB (100%)
Writing library : LAME3.98


1.WERNER - Evo mene
2.ROBERT FICKER - Da odmorim duso
3.BERNY - Oci zelene
4.DUSKO LOKIN - Ti moju tugu ne cujes
5.KATRCA - Supermen
6.VIGOR - Zivot je raj
7.MIROSLAV SKORO - Zadnja zelja
8.ZLATKO DOBRIC - Danica
9.VIKTORIJA - Dve pomladi, dve jeseni
10.MISO KOVAC- Oprosti mi
11.CEBRAJEC CEBO in GRUPA HOLLYWOOD - Zbog tebe placem
12.TANJA ZAGAR - Idu idu godine
13.BARUNI - Za tebe sam ljubav cuvao
14.BARABE - Zene su zakon
15.DZENTELMEN - Kako me nerviras
16.MILIGRAM - Sigurica
17.ZLATKO PEJAKOVIC - Tko ti spava sa desne strane
18.JAN PLESTENJAK - Stara dobra
19.NATASA MADJAR - Daj ljubezen
20.JADRANKA - Dala bi ti dala
21.BERNY FEAT TAZ SOLDO - Zao mi je
22.SIMONA WEISS - Nekje zame luc gori
23.KLAPA AKTUAL - Ti si mi sve
24.JURAJ GALINA IN IGOR DELAC - Ne vjeruj vinu
25.ROKO BAZIKA - Sedam dana
26.JOLE - Bailando solo
27.DALEKA OBALA - Od mora do mora
28.VINKO COCE - Koliko te na rastanku volim
29.DURO - Kazi mi duso iskreno
30.JASMIN STAVROS - Kazi sto mi fali
31.BEREKINI - Viruj ti meni
32.RAZBIJACI CASA - Zasto mi se cesta ljulja
33.ZELJKO SESVECAN - Kako da te zaboravim
34.TRIO RIO - Pozdravi je ptico moja
35.UCITELJICE - Sok