A
B
C
D
E
F
G
H
I
J
K
L
M
N
O
P
Q
R
S
T
U
V
W
X
Y
Z
0-9
Velo.Misto.S01.1980.HDTV.x264-R77

Klikni za povečavo!
03-04-2021 15:11 naložil rado77
Sejalci: 3 / Odjemalci: 0 / Velikost: 9.05 GB / Dokončani: 4
Prenesi torrent Poročaj torrent Opis torrenta
Kategorija: FILMI > TV - Serija

Velo.Misto.S01.1980.HDTV.x264-R77


Velo misto 1980/81


Ustvarjalec:Miljenko Smoje
Jezik/i:Čakavščina , srbohrvaščina , italijanščina , nemščina
Režiser je bil Joakim Marušić, glasbo je napisal Pero Gotovac


O SERIJI:

Osrednji lik je lastnik mestne brivnice Meštar (Boris Dvornik), okoli katere je mreža odnosov drugih protagonistov, kot sta Duje (Mustafa Nadarević), nogometni pionir v Splitu in ustanovitelj Hajduka, in njegovo podjetje "praški študentje" "Pegula (Mladen Barbarić) in Tonči (Milan Štrljić), ter njihovi ženi Violeta (Zdravka Krstulović) in Kate (Mira Furlan).
Spomnimo se tudi proletarskega Ferata (Aljoša Vučković), njegove Marijete (Vlasta Knezović) in sina Papundeka (Duško Valentić), pikaferja (Vjenceslav Kapural) in Škovčana (Špiro Guberina), ki je kot Strikan skupaj s svojim Netjakom (Ivo Gregurević) je ustvaril nepozaben par.
Serija je mešanica komedije in drame, zanjo pa je značilen učinkovito dočaran mediteranski ambient, pristen jezik, bogate kostume in scenografija ter presenetljivi igralski dosežki. Serija je med gledalci izjemno priljubljena že od samega začetka predvajanja, igralci, ki v njej nastopajo, pa so postali resnične televizijske zvezde.


IGRAJO:
Boris Dvornik...Mestar
Zdravka Krstulović...Violeta
Mustafa Nadarević...Duje
Špiro Guberina...Jozo
Mate Ergović...Pucanstvo
Ines Fančović...Mare
Mladen Barbarić...Pegula
Mira Furlan...Kate
Vlasta Knezović...Marjeta
Uglješa Kojadinović...Professor
Milan Štrljić...Tonci
Danko Ljuština...Mijo


EPIZODE: 14 epizod
Praški studenti (1910)
Konfužjun (1911)
Leva (1913-1914)
Morija mori (1917-1920)
Kruva i rada! (1920-1922)
Kriza (1926)
Antikrst (1927)
Simpatizer (1928)
Nikad više kompletni (1932-1935)
No pasaran (1936-1937)
Poveli smo, Meštre (1937-1939)
Okupacija (1941)
Kapitulacija (1942-1943)
Ispunjeno obećanje (1944-1947)


Tehnične specifikacije:

Popolno ime: Velo.Misto.S01.1980.HDTV.x264-R77
Oblika / informacije: Preplet avdio video
Velikost datoteke: 687 MiB
Trajanje: 1 h 20 min
Skupna bitna hitrost: 1 192 kb / s
Knjižnica za pisanje: VirtualDub build 13870 / release

Video
ID: 0
Oblika: MPEG-4 Visual
Nastavitve formata: BVOP
Nastavitve formata, BVOP: Da
Nastavitve formata, QPel: Ne
Nastavitve formata, GMC: Brez bojnih točk
Nastavitve formata, matrica: privzeto (H.263)
ID kodeka: DX50
ID kodeka / namig: DivX 5
Trajanje: 1 h 20 min
Bitna hitrost: 1 022 kb / s
Širina: 640 slikovnih pik
Višina: 480 slikovnih pik
Razmerje zaslona: 4: 3
Hitrost sličic: 25.000 FPS
Barvni prostor: YUV
Podvzorčenje kroma: 4: 2: 0
Globina bitov: 8 bitov
Vrsta optičnega branja: progresivno
Način stiskanja: Lossy
Bit / / (Pixel * Frame): 0,133
Velikost toka: 589 MiB (86%)
Knjižnica za pisanje: DivX 5.0.2 (UTC 16.5.2002)

Zvok
ID: 1
Oblika: MPEG Audio
Različica formata: različica 1
Profil oblike: 3. plast
ID kodeka: 55
ID kodeka / namig: MP3
Trajanje: 1 h 20 min
Način bitne hitrosti: konstantno
Bitna hitrost: 160 kb / s
Kanali: 2 kanala
Hitrost vzorčenja: 44,1 kHz
Način stiskanja: Lossy
Zamuda glede na video: 19 ms
Velikost toka: 92,2 MiB (13%)
Poravnava: razdeljena čez preplete
Preplet, trajanje: 40 ms (1,00 video okvir)
Preplet, trajanje prednalaganja: 499 ms


Uživajte in ne pozabite na sejanje!
Analyze.This.1999.MultiSubs.PAL.DVDR

Klikni za povečavo!
03-04-2021 06:26 naložil System
Sejalci: 0 / Odjemalci: 0 / Velikost: 4.19 GB / Dokončani: 0
Prenesi torrent Poročaj torrent Opis torrenta
Kategorija: FILMI > DVD
Anonimen nalagalec

Analyze This (1999)
Analiza pa taka (1999)


-------------
INFO:
-------------
Source..........: DVD
Format..........: 16:9
Standard........: PAL
Release Size....: 4,19 GB
iMDB Link.......: KLIK
iMDB Rating.....: 6,7/10 (146.470)
Genre...........: Comedy, Crime
Country.........: USA/ Australia
Language........: English
Video...........: /
Audio...........: AC3 5.1-ch English/ Czech/ Polish
................: AC3 2-ch English - Director's Comment
Subs............: English, Czech, Hungarian, Polish,
................: Croatian, Serbian, Slovenian
Extras..........: yes
Regija..........: Prosto
Runtime.........: 100 min
Čas predvajanja.: 01:39.14 h

-------------
IGRALCI:
-------------
Robert De Niro ... Paul Vitti
Billy Crystal ... Dr. Ben Sobel
Lisa Kudrow ... Laura MacNamara Sobel
Chazz Palminteri ... Primo Sidone
Kresh Novakovic ... '50s Gangster
Bart Tangredi ... Young Vitti Sr.
Michael Straka ... Young Dominic Manetta
Joseph Rigano ... Dominic Manetta
Joe Viterelli ... Jelly
Richard C. Castellano ... Jimmy Boots
Molly Shannon ... Caroline
Max Casella ... Nicky Shivers
Frank Pietrangolare ... Tuna
Kyle Sabihy ... Michael Sobel
Bill Macy ... Dr. Isaac Sobel

-------------
OPIS:
-------------
Paul Vitti (Robert De Niro) je eden najvplivnejših newyorških gangsterjev.
Odraščal je med mafijci in njegov drugi oče in mentor Manetta ga je temeljito
pripravil na življenje in naloge, ki ga čakajo (pravega očeta so Paulu namreč
pred leti ustrelili). Toda ko mora prevzeti mesto voditelja svoje mafijske
družine, se nenadoma ne počuti več dobro. Mučijo ga težave z dihanjem, ne more
spati, ob ženi in otrocih se ne zna sprostiti, ljubice si ne želi več. Njegovim
pajdašem je kmalu jasno, da je s šefom nekaj hudo narobe. Toda kako naj Paul Vitti
v takšnem stanju vodi mafijske posle? Kaj bo, če druge mafijske družine izvejo,
da ga mučijo napadi panike? Panika bi morala grabiti kvečjemu druge, ki bi se ga
morali bati, ne pa njega...



Naše.malo.misto.1970.S01.HDTV.x264-R77

Klikni za povečavo!
29-03-2021 08:21 naložil rado77
Sejalci: 1 / Odjemalci: 0 / Velikost: 8.98 GB / Dokončani: 2
Prenesi torrent Poročaj torrent Opis torrenta
Zvrst: Drama | Komedija
Kategorija: FILMI > HDTV

Naše.malo.misto.1970.S01.HDTV.x264-R77


Naše malo misto 1970

TV Serija / 13 epizod (14)


AvtorMiljenko Smoje
DirektorDaniel Marušić
GlasbaPero Gotovac
IgralciKarlo Bulić, Asja Kisić, Boris Dvornik
DržavaHrvaška
Ježik Hrvaški
ProducentŽeljko Slišurić
Trajanje epizode55 minut


O seriji:

Celovečerna TV-serija, prikazana 1970–71. v 13 epizodah. Zanjo so značilne številne šaljive situacije, značilne za sredozemski ambient. Tipizirane situacije in karikaturni liki, postavljeni v neimenovano dalmatinsko mesto od sredine tridesetih do zgodnjih šestdesetih let, so obogateni z igrivimi dialogi, prežetimi s satiro, odličnimi igralskimi predstavami.


Serija dejansko dokumentira in zasmehuje vedenje lokalnega prebivalstva v vsakdanjih življenjskih situacijah in v situacijah, ki so jim naložene - vojna in nov sistem upravljanja.

Posebna zanimivost: Za predvajanje na srbski televiziji so serijo podnaslovili s hrvaškimi podnapisi v latinici in v tej obliki je bila kasneje predvajana tudi na ozemlju Hrvaške. Vse to je verjetno spadalo v takratno cenzuro saj se v seriji uporablja dalmatinščina ki je naj takrat nebi razumeli tako Hrvati kot Srbi.


Serija vsebuje tudi 14. epizodo, ki je bila PREPOVEDANA!


Pol stoletja je biser hrvaškega dramskega programa pokopan v arhivu in je bil pozabljen. In to je posebna 14. epizoda kultne serije Naše malo misto, "Zagrebulje", ki je bila predvajana le enkrat - 31. decembra 1970 - v okviru novoletnega programa nekdanje Televizije Zagreb, in od takrat se ji sledi izgubijo. Potem je bila prepovedana!

Ta epizoda je takrat morala povzročiti precej političnih nemirov. Takratni komunistični politiki zagotovo niso bili zadovoljni s to epizodo, ker so v njej stvari, ki prestopajo mejo satire. Mimogrede, v 'Našem malem mestu' je bilo veliko novih stvari in nikoli predvajanih. Obstaja ena scena, ko sta dr. Luigi in Boris Dvornik lulala iz obale. Ta prizor je takrat ustvaril veliko medijskega hrupa - zakaj in kako si televizija lahko privošči predvajanje česa takega...
Glasba:
Glasbo je napisal kotorski skladatelj in glasbenik Tripo Tomas (1885-1975).Slavno melodijo, ki jo je zapel Boris Dvornik, je skladal in priredil Pero Gotovac po motivih pesmi "Sve se Mare koprcaje", ki jo v prvi epizodi serije poje Roko Prč , ki gre skozi ulice v Vranjici , nosi vesla na rami. Gotovcu sta bila všeč izrazit glas in melodija Dvornika in kmalu je uglasbil pesem z besedilom Tomislava Zuppe "Naše malo misto".
Serija je bila predvajana v dveh sezonah 1970/71 v tem torrentu sta sezoni združrni.
Vir: hr.wikipedia



Tehnične specifikacije:

Popolno ime: Naše.malo.misto.1970.S01.HDTV.x264-R77
Oblika: Matroska
Različica formata: različica 2
Velikost datoteke: 702 MiB
Trajanje: 50 min
Skupna bitna hitrost: 1 801 kb / s
Aplikacija za pisanje: HandBrake 0.9.5
Knjižnica za pisanje: libmkv 0.6.4.1

Video
ID: 1
Oblika: AVC
Format / Info: Napredni video kodek
Profil oblike: Main @ L3
Nastavitve formata: okvirji za referenco CABAC / 4
Nastavitve formata, CABAC: Da
Nastavitve formata, referenčni okviri: 4 sličice
ID kodeka: V_MPEG4 / ISO / AVC
Trajanje: 50 min
Nazivna bitna hitrost: 1.663 kb / s
Širina: 720 slikovnih pik
Višina: 552 slikovnih pik
Razmerje zaslona: 4: 3
Način hitrosti sličic: konstantno
Hitrost sličic: 25.000 FPS
Barvni prostor: YUV
Podvzorčenje kroma: 4: 2: 0
Globina bitov: 8 bitov
Vrsta optičnega branja: progresivno
Bit / / (Pixel * Frame): 0,167
Knjižnica za zapis: jedro x264 112
Privzeto: Da
Prisilno: Ne.
Barvno območje: omejeno
Barvne barve: BT.601 NTSC
Značilnosti prenosa: BT.709
Matrični koeficienti: BT.601

Zvok
ID: 2
Oblika: AAC LC
Oblika / informacije: Napredni avdio kodek nizke zapletenosti
ID kodeka: A_AAC-2
Trajanje: 50 min
Kanali: 2 kanala
Postavitev kanala: L R
Hitrost vzorčenja: 48,0 kHz
Hitrost sličic: 46.875 FPS (1024 SPF)

Uživajte in ne pozabite na sejanje!
Alibi.com.SLOSub.HDTVRip.720p.x264-R77

Klikni za povečavo!
26-03-2021 14:08 naložil rado77
Sejalci: 5 / Odjemalci: 0 / Velikost: 1.53 GB / Dokončani: 15
Prenesi torrent Poročaj torrent Opis torrenta
Zvrst: Komedija
Kategorija: FILMI > HDTV

Alibi.com.SLOSub.HDTVRip.720p.x264-R77


Alibi.com (2017)


Originalni naslov: ALIBI.COM
Leto produkcije: 2017
Država: Francija
Podnapisi: Slovenščina
Žanr: komedija
Režija: Philippe Lacheau
Scenarij: Philippe Lacheau, Julien Arruti in Pierre Dudan
Igrajo: Philippe Lacheau, Tarek Boudali, Elodie Fontan, Nathalie Baye, Didier Bourdon
Trajanje: 1 ur 25 min. 43 s


Opis:

Odbita francoska komedija, ob kateri se boste do solz nasmejali novemu nasledniku De Funesa in Bourvila, priljubljenemu in vsestranskemu Philippu Lacheauju, ki je pred časom navdušil s komedijama Babysitting in Vsi na jug.
Njegova pisana druščina se spet znajde v vrtincu zmešnjav in dvoumnih položajev, iz zagat pa jih (bolj ko ne na videz) rešuje podjetje Alibi.com, nekakšen start up, ki ga ob pomoči sodelavcev Augustina in Medhija vodi premeteni in zapeljivi Greg. Osnovna dejavnost, s katero se fantje, ki so pravi magnet za težave in smešne prigode, ukvarjajo, je, da svojim strankam na vse mogoče načine omogočajo nemoteno dvojno življenje. Tako se vsaj zdi na prvi pogled. Zapletena zgodba se zaplete v neslutene razsežnosti, ko spremljamo, kako se iz nje rešujejo glavni liki filma in kaj vse jih čaka na poti do resnice.



Tehnične specifikacije:

Ime datoteke: Alibi.com.SLOSub.HDTVRip.720p.x264-R77.mp4
Oblika: MP4
Informacije o obliki: QuickTime / MOV
Trajanje: 01: 25: 34,605
Velikost datoteke: 1,53 GB


Video informacije:
Video kodirnik: h264 (h.264 / avc / mpeg-4 avc / mpeg-4 del 10)
Ločljivost: 1280 * 720
Širina: 1280
Višina: 720
Razmerje zaslona: 16: 9
Hitrost sličic: 25 sličic na sekundo
Video bitna hitrost: 2431 kb / s
Barvni prostor: yuv420p

Zvočne informacije:
Zvočni kodirnik: aac (napredno kodiranje zvoka)
Avdio bitna hitrost: 128 kb / s
Hitrost vzorčenja: 44100 Hz
Zvočni kanali: stereo
Jezik: francoski
Trajanje: 01: 25: 34.570


Uživajte in ne pozabite sejati!
Lost in London 2017 SloSubs 1080i HDTV h264-OSR

Klikni za povečavo!
21-03-2021 11:53 naložil Ziva
Sejalci: 3 / Odjemalci: 0 / Velikost: 2.84 GB / Dokončani: 20
Prenesi torrent Poročaj torrent Opis torrenta NFO
Zvrst: Komedija
Kategorija: FILMI > HDTV



Filename.......: Lost in London 2017 SloSubs 1080i HDTV h264-OSR
Format : Matroska
Format version : Version 4

File size : 2.84 GiB
Duration : 1 h 40 min
Width : 1 920 pixels
Height : 1 080 pixels
Display aspect ratio : 16:9
Frame rate mode : Constant
Frame rate : 25.000 FPS
Standard : Component
Stream size : 2.64 GiB (93%)
Default : No
Forced : No
Color range : Limited
Color primaries : BT.709
Transfer characteristics : BT.709
Matrix coefficients : BT.709
Audio
Format : MPEG Audio
Format version : Version 1
Format profile : Layer 2
Codec ID : A_MPEG/L2
Codec ID/Hint : MP2
Duration : 1 h 40 min
Bit rate mode : Constant
Bit rate : 192 kb/s
Channel(s) : 2 channels
Sampling rate : 48.0 kHz
Compression mode : Lossy
Stream size : 138 MiB (5%)
Language : Serbian
Default : Yes
Forced : No
Subtitles
Language.......: Serbian, Slovenski, Croatian, Macedonian
IMDb Ocena ...: 6,2/10
Režija: Woody Harrelson


Daniel Radcliffe, Woody Harrelson, Owen Wilson, Eleanor Matsuura, Naomi Battrick



Prvi film, ki so ga v kinematografih predvajali v živo. Avtobiografska komedija, ki so jo snemali v realnem času in z eno samo kamero, zasleduje Woodyja Harrelsona v eni od najhujših noči njegovega življenja po Londonu, kjer skuša priti domov k svoji družini. Njegovo pot spremljajo spori z kraljevsko družino, starimi prijatelji in paparaci.

Tom.and.Jerry.2021.SLOSubs.720p.WEBRip.800MB.x264-GalaxyRG

Klikni za povečavo!
19-03-2021 09:24 naložil BlackDevil
Sejalci: 5 / Odjemalci: 0 / Velikost: 797.24 MB / Dokončani: 25
Prenesi torrent Magnet Link Poročaj torrent Opis torrenta
Kategorija: FILMI > WEBRip-720



Podatki o filmu:

Naziv: Tom.and.Jerry.2021.SLOSubs.WEBRip.800MB.x264-GalaxyRG
Source: Tom.and.Jerry.2021.1080p.WEB-DL.DD5.1.H.264-EVO
Velikost.........: 797 MB
Dolžina..........: 101 min
Leto...............: 2021
Slika..............: 1280x720 2583kbps 23.976fps
Zvok..............: Dolby Digital AC3 5.1 384kb/s
Kodek............: WEBRip
Država...........: VB | Francija | Nemčija | ZDA
Jezik..............: Angleški
Žanr...............: Animirani | Komedija | Družinski
Podnapisi........: Slovenski (Custom)

IMDb:
Link..........: https://www.imdb.com/title/tt1361336/
Ocena........: 5,3/10 (10.384 glasov)
Režija.........: Tim Story
Scenarij.......: William Hanna, Joseph Barbera



Chloë Grace Moretz ... Kayla
Michael Peña ... Terence
Tom ... Tom
Jerry ... Jerry
Jordan Bolger ... Cameron
Rob Delaney ... Mr Dubros
Patsy Ferran ... Joy the Bell Girl
Pallavi Sharda ... Preeta
Colin Jost ... Ben
Somi De Souza ... Mrs Mehta



Priredba klasične lastnine Hanne-Barbere, ki razkrije,
kako sta se Tom in Jerry prvič spoznala in razvila svoje rivalstvo.
Klan.S01.WEBRip.1080p.x264.R77

Klikni za povečavo!
17-03-2021 12:32 naložil rado77
Sejalci: 2 / Odjemalci: 1 / Velikost: 6.86 GB / Dokončani: 6
Prenesi torrent Poročaj torrent Opis torrenta
Kategorija: FILMI > TV - Serija

Klan.S01E01.WEBRip.1080p.x264.R77[/size]


Klan 2020

TV Serija


O seriji:

Klan je srbska serija, posneta med letoma 2019 in 2020.

Dvema povprečnima tatovoma se kljub številnim oviram s svojimi brezvestnimi in okrutnimi dejanji uspe povzpeti na sam vrh podzemlja. Umor Tigarja, največjega mafijskega šefa v tem delu Evrope, je srbsko podzemlje stresel na dno. Številni želijo zasesti njegovo mesto, karte so spet razdeljene, vsak si želi svoj kos plena in so pripravljeni storiti vse, da ga osvojijo ... Na robu tega sveta, Shock in Pasha, provincialci in ne preveč uspešni drobni tatovi , šele začenjajo svojo kariero, ki jih bo pripeljala do nepredstavljivih višin.
Sodobna akcijska drama, zasnovana kot globok in doslej neviden vpogled v srce kriminalnih združb in njihove številne zadeve, v besnem ritmu spremlja vzpon dveh drobnih kriminalcev v srbskem podzemlju.


Žanr:triler, komedija
Format:Televizijska serija
Scenario:Boban Skerlić
Režija:Boban Skerlić
Kreativni režiser:Boban Jevtić
Skladatelj:Mate Matišić
Država: Srbija
Lokacija:Beograd
Jezik:srpski
Št. sezona:2
Št. epizoda:8+
Čas trajanja:45 minuta


Produkcija:
Izvršni producent:Snežana van Hauvelingen
Producent:Ivana Miković
Supervizor produkcije: Miško Stevanović
Montažer: Đorđe Marković
Scenografija:Kiril Spaseski
Kinematografija:Maja Radošević


Tehnične specifikacije:

Informacije o datoteki
Ime datoteke: Klan.S01E01.WEBRip.1080p.x264.R77.avi
Oblika: AVI
Informacije o formatu: AVI (avdio video prepleteno)
Trajanje: 00: 50: 56.408
Velikost datoteke: 961,44 MB

Video informacije:
Video kodirnik: mpeg4 (mpeg-4 2. del)
Ločljivost: 1920 * 1080
Širina: 1920
Višina: 1080
Razmerje zaslona: 16: 9
Hitrost sličic: 97 sličic na sekundo
Video bitna hitrost: 2498 kb / s
Barvni prostor: yuv420p

Zvočne informacije:
Audio Encoder: mp3 (mpeg audio layer 3)
Avdio bitna hitrost: 128 kb / s
Hitrost vzorčenja: 48000 Hz
Zvočni kanali: stereo
Jezik: und
Trajanje: 00: 50: 56.309


Uživajte!
Wild.Rose.2018.SLOSubs.BRRip.XviD-DrSi

Klikni za povečavo!
17-03-2021 11:06 naložil Ziva
Sejalci: 5 / Odjemalci: 0 / Velikost: 2.31 GB / Dokončani: 13
Prenesi torrent Poročaj torrent Opis torrenta NFO
Zvrst: Drama | Glasbeni | Komedija
Kategorija: FILMI >  BRRip



Naziv: Wild.Rose.2018.SLOSubs.BRRip.XviD-DrSi
Source: Wild.Rose.2018.720p.BluRay.DD5.1.x264-PTer
Leto izida ........: 2018
Velikost ...........: 2,30 GB
Dolžina ............: 100 Minut
Video ...............: 2820 Kbps | 720x304 | 23,976 fps
Zvok .................: Dolby Digital AC3 5.1 @ 448 Kbps
Kodek.................: XviD
Zvrst………….: Drama | Glasbeni | Komedija
Država .............: VB | ZDA | Kanada
Jezik ................: Angleški
Podnapisi…….: Slovenski (RETAiL)
Prevod: Blitz Film
TVRip: Toyan
Za HD priredil: metalcamp
Tehnična obdelava: DVD Rippers Slovenija
IMDb Ocena ...: 7.2/10 (10,970 glasov)
Režija.........: Tom Harper
Scenarij......: Nicole Taylor


Jessie Buckley ... Rose-Lynn
Julie Walters ... Marion
Sophie Okonedo ... Susannah
Maureen Carr ... Eileen
James Harkness ... Elliot
Adam Mitchell ... Lyle
Daisy Littlefield ... Wynonna
Louise Mccarthy ... Amanda
Janey Godley ... Jackie
Craig Parkinson ... Alan


22-letna Rose-Lynn pride po letu dni iz zapora zaradi prekrška , vendar se ni nič
spremenila in želi nadaljevati, kjer je ostala – torej postati country pevka. Nekako
je pozabila, da ima dva otroka, mlajša od 10 let, za katera skrbi njena mama, ali
pa je to dejstvo potlačila v predale “pozneje”. Najprej se želi dobiti z Elliotom,
a dojame, da le prelaga neizbežno in da se mora soočiti z mamo Marion. Ko se končno
srečata, je njun odnos milo rečeno hladen. Rose-Lynn se počuti, kot da je iz enega
zapora prišla v drugega. Mama ji govori, naj se zaposli kot čistilka, Rose pa želi
samo peti. Ji bo uspelo?
Miami.Super.Police.aka.Super.policaja.iz.Miamia.1985.SloSubs.TVRip-R77

Klikni za povečavo!
14-03-2021 11:57 naložil rado77
Sejalci: 3 / Odjemalci: 0 / Velikost: 1.04 GB / Dokončani: 14
Prenesi torrent Poročaj torrent Opis torrenta
Kategorija: FILMI > TVRip

Miami.Super.Police.aka.Super.policaja.iz.Miamia.1985.SloSubs.TVRip-R77


Miami Super Police (1985)
Super policaja iz Miamia


Žanri: Akcija , komedija , kriminalka
Režija:Bruno Corbucci
Scenarij: Bruno Corbucci, Luciano Vincenzoni
Glavne vloge: Terence Hill , Bud Spencer, Ken Ceresne
Glasba avtorja: Carmelo La Bionda, Michelangelo La Bionda
Kinematografija: Silvano Ippoliti
Uredil: Daniele Alabiso
Datum izdaje:11. december 1985 (Milano)
Čas delovanja:96 minut
Država:Italija
Jezik:angleščina
Podnapisi: Slovenski


Zgodba:

Leta 1978 so iz banke v Detroitu ukradli 20 milijonov dolarjev. Enega od roparjev so ujeli, enega našli mrtvega, tretjega pa izginila. Denarja nikoli niso našli. Sedem let pozneje so ujetega roparja izpustili iz zapora. Takoj je odšel v Miami, le da so ga naslednji dan našli mrtvega. Zdaj so agenti FBI Doug Bennet in Steve Forest povabljeni, da raziščejo primer, medtem ko se predstavljajo kot policista v Miamiju. Nekje v Miamiju se skriva tretji ropar s svojimi 20 milijoni dolarjev in ima sedemletno prednost pri oblasti.
To je zadnji film, v katerem nastopa par v 80-ih, Spencer & Hill pa sta se zadnjič združila leta 1994. To je tudi zadnji film, ki ga je par posnel z režiserjem Brunom Corbuccijem.


Tehnične specifikacije:

Informacije o datoteki

Ime datoteke: Miami.Super.Police.aka.Super.policaja.iz.Miamia.1985.SloSubs.TVRip-R77.mp4
Oblika: MP4
Informacije o obliki: QuickTime / MOV
Trajanje: 01: 33: 00.759
Velikost datoteke: 1,04 GB

Video informacije:
Video kodirnik: h264 (h.264 / avc / mpeg-4 avc / mpeg-4 del 10)
Ločljivost: 600 * 480
Širina: 600
Višina: 480
Razmerje zaslona: 5: 4
Hitrost sličic: 25 sličic na sekundo
Video bitna hitrost: 1473 kb / s
Barvni prostor: yuv420p

Zvočne informacije:
Dajalnik zvoka: aac (napredno kodiranje zvoka)
Avdio bitna hitrost: 128 kb / s
Hitrost vzorčenja: 44100 Hz
Zvočni kanali: stereo
Jezik: und
Trajanje: 01: 33: 00.735

Veliko užitkov!
Military.Wives.2019.SLOSubs.BRRip.XviD-DrSi(2)

Klikni za povečavo!
13-03-2021 18:10 naložil Ziva
Sejalci: 1 / Odjemalci: 0 / Velikost: 2.61 GB / Dokončani: 7
Prenesi torrent Poročaj torrent Opis torrenta NFO
Zvrst: Drama | Glasbeni | Komedija
Kategorija: FILMI >  BRRip



Naziv: Military.Wives.2019.SLOSubs.BRRip.XviD-DrSi
Source: Military.Wives.2019.1080p.BluRay.X264-AMIABLE
Leto izida ........: 2019
Velikost ...........: 2,60 GB
Dolžina ............: 118 Minut
Video ...............: 2858 Kbps | 720x304 | 23,976 fps
Zvok .................: Dolby Digital AC3 5.1 @ 448 Kbps
Kodek.................: XviD
Zvrst………….: Drama | Komedija | Glasbeni
Država .............: VB
Jezik ................: Angleški
Podnapisi…….: Slovenski (RETAiL)
Prevod: Blitz Film
TVRip: Toyan
Za HD priredil in uredil: metalcamp
Tehnična obdelava: DVD Rippers Slovenija
IMDb Ocena ...: 6.5/10 (3,521 glasov)
Režija.........: Peter Cattaneo
Scenarij......: Rachel Tunnard, Rosanne Flynn


Kristin Scott Thomas ... Kate
Sharon Horgan ... Lisa
Emma Lowndes ... Annie
Gaby French ... Jess
Lara Rossi ... Ruby
Amy James-Kelly ... Sarah
India Ria Amarteifio ... Frankie
Greg Wise ... Richard
Jason Flemyng ... Crooks
Laura Checkley ... Maz


Navdihujoča zgodba o prijateljstvu, ljubezni in podpori od doma. Skupina žena,
katerih partnerji služijo v Afganistanu, se zberejo in ustanovijo pravi zbor
vojaških žena, kjer si pomagajo skozi najtežje trenutke v življenju in postanejo
medijska senzacija ter globalno gibanje.




Gori.gospodicna.aka.HOŘi.MÁ.PANENKO.1962.SloSubs.TVRip.R77

Klikni za povečavo!
13-03-2021 16:52 naložil rado77
Sejalci: 1 / Odjemalci: 0 / Velikost: 1.6 GB / Dokončani: 3
Prenesi torrent Poročaj torrent Opis torrenta
Zvrst: Drama | Komedija
Kategorija: FILMI > TVRip

Gori.gospodicna.aka.HOŘi.MÁ.PANENKO.1962.SloSubs.TVRip-R77


HOŘi, MÁ PANENKO 1967

Gori, gospodična



Obdelava: Restavrirani film
Žanri: Komedija, drama
Režiser:Miloš Forman
Producent:Rudolf Hájek
Scenarist: Miloš Forman, Jaroslav Papoušek, Ivan Passer, Václav Šašek
Igralci:Jan Vostrčil
Glasba:Karel Mareš
Direktor fotografijeMiroslav Ondříček
MontažaMiroslav Hájek
Datum izida: 15. december 1967
Dolžina: 71 minut
Država:Češkoslovaška
Jezik:češčina
Podnapisi: Slovenski


Biser češkega novega vala, provokativna satira socialistične stvarnosti. Režiser Miloš Forman je moral zaradi filma zapustiti državo. V majhnem kraju gasilsko društvo pripravlja veselico. Na njej bodo podelili častno priznanje nekdanjemu predsedniku, priredili lepotno tekmovanje in odigrali srečelov. Dekleta so preveč sramežljiva, da bi se razkazovala, na odločitev o zmagovalki poskušajo vplivati družinski člani, nagrade za srečelov pa ves čas izginjajo. Za nameček v vasi zagori domačija. In ker so vsi gasilci na veselici, z gašenjem požara začnejo prepozno, zato kmetija zgori do tal. Nekdo ukrade prav vse loterijske dobitke, celo častno gasilsko sekirico, s katero namerava vodstvo gasilcev nagraditi svojega nekdanjega predsednika. Zadnji film Miloša Formana, posnet na Češkoslovaškem, je bil v tej državi od nastanka leta 1967 do leta 1988 prepovedan, leta 1989 pa je obveljal za mojstrovino, brezkompromisno satiro komunistične družbe.


Miloš Forman:


Miloš Forman, ameriški filmski režiser, producent in scenarist češkega rodu, * 18. februar 1932, Časlav, Češkoslovaška, † 13. april 2018, Warren, Connecticut, Združene države Amerike.



Tehnične specifikacije:

Informacije o datoteki
Ime datoteke: Gori.gospodicna.aka.HOŘi.MÁ.PANENKO.1962.SloSubs.TVRip.R77.mp4
Oblika: MP4
Informacije o obliki: QuickTime / MOV
Trajanje: 01: 10: 09.806
Velikost datoteke: 1,60 GB

Video informacije:
Video kodirnik: h264 (h.264 / avc / mpeg-4 avc / mpeg-4 del 10)
Ločljivost: 1280 * 720
Širina: 1280
Višina: 720
Razmerje zaslona: 16: 9
Hitrost sličic: 25 sličic na sekundo
Video bitna hitrost: 3135 kb / s
Barvni prostor: yuv420p

Zvočne informacije:
Dajalnik zvoka: aac (napredno kodiranje zvoka)
Avdio bitna hitrost: 127 kb / s
Hitrost vzorčenja: 44100 Hz
Zvočni kanali: stereo
Jezik: und
Trajanje: 01: 10: 09.782

VELIKO UŽITKOV!
Dobrodošli.pri.Hartmannovih.aka.WILLKOMMEN.BEI.DEN.HARTMANNS.2016.SloSubsHDTVRip.x264-R77

Klikni za povečavo!
13-03-2021 16:42 naložil rado77
Sejalci: 1 / Odjemalci: 0 / Velikost: 1.6 GB / Dokončani: 7
Prenesi torrent Poročaj torrent Opis torrenta
Zvrst: Drama | Komedija
Kategorija: FILMI > HDRip

Dobrodošli.pri.Hartmannovih.aka.WILLKOMMEN.BEI.DEN.HARTMANNS.2016.SloSubsHDTVRip.x264-R77


WILLKOMMEN BEI DEN HARTMANNS

Dobrodošli pri Hartmannovih 2016


Žanri: Komedija , drama
Režija:Simon Verhoeven
Scenarij:Simon Verhoeven
Igralci:Senta Berger, Heiner Lauterbach, Palina Rojinski, Elyas M'Barek, Florian David Fitz, Ulrike Kriener, Uwe Ochsenknecht, Jaymes Butler, Samir Fuchs, Eric Kabongo, Adrian Can, Eisi Gulp, Thilo Prothmann, Marinus Hohmann
Država:Nemčija
Podnapisi: Slovenski

Zgodba:

Družino Hartmann čakajo turbulentni časi, ko se mama Angelika (Senta Berger) po obisku begunskega doma odloči, da sprejme Diallo (Eric Kabongo), enega od prebivalcev, proti želji moža Richarda (Heiner Lauterbach). In kmalu se bo hiša še naprej polnila. Ker se hči Sophie (Palina Rojinski), brezciljna stalna študentka, ki beži pred občudovalcem, in sin, ki je nagnjen k izgorelosti, Philipp (Florian David Fitz) in vnuk Basti (Marinus Hohmann) preselita nazaj domov. Medtem ko so potomci kmalu ugotovili, da je zakonska zveza staršev v hudi stiski, so neznane razmere v njihovi hiši pomenile, da je družina doživela veliko zmede in pretresov - Hartmannovi so podobni preostali državi.


Tehnične specifikacije:

Video informacije:
Video kodirnik: h264 (h.264 / avc / mpeg-4 avc / mpeg-4 del 10)
Ločljivost: 1280 * 720
Širina: 1280
Višina: 720
Razmerje zaslona: 16: 9
Hitrost sličic: 25 sličic na sekundo
Video bitna hitrost: 1917 kb / s
Barvni prostor: yuv420p

Zvočne informacije:
Dajalnik zvoka: aac (napredno kodiranje zvoka)
Avdio bitna hitrost: 128 kb / s
Hitrost vzorčenja: 48000 Hz
Zvočni kanali: stereo
Jezik: Nemški
Trajanje: 01: 51: 33.650
Veliko užitkov!
La.Belle.Epoque.2019.SLOSubs.FRENCH.1080p.BluRay.x264-Ulysse

Klikni za povečavo!
19-02-2021 08:36 naložil Ziva
Sejalci: 1 / Odjemalci: 0 / Velikost: 7.94 GB / Dokončani: 2
Prenesi torrent Magnet Link Poročaj torrent Opis torrenta NFO
Kategorija: FILMI > BluRay-1080



Filename.......: La.Belle.Epoque.2019.FRENCH.1080p.BluRay.x264-Ulysse
Container......: Matroska
Duration.......: 1h 55mn
Size...............: 7,94 GiB

Video
Codec..........: AVC High@L4.1 8 bits
Type...........: Progressive
Resolution.....: 1920x800
Aspect ratio...: 2.40:1
Bit rate.......: 8380 Kbps
Frame rate.....: 24 fps

Audio
Format.........: DTS
Channels.......: 6 channels
Bit rate.......: 1509 Kbps
Language.......: French
Podnapisi .........: Slovenski (RETAiL)
Prevedla: Maja Pavlin
Uredil: metalcamp
Tehnična obdelava: DVD Rippers Slovenija
IMDb Ocena ...: 7.4/10 (10,797 glasov)

Režija.........: Nicolas Bedos
Scenarij.......: Nicolas Bedos


Daniel Auteuil ... Victor Drumond
Guillaume Canet ... Antoine
Doria Tillier ... Margot
Fanny Ardant ... Marianne Drumond
Pierre Arditi ... Pierre
Denis Podalydès ... François
Michaël Cohen ... Maxime Drumond
Jeanne Arènes ... Amélie
Bertrand Poncet ... Adrien
Bruno Raffaelli ... Maurice / Yvon / Hemingway


Francoski filmski zvezdnik Daniel Auteuil igra Victorja, moškega v 60. letih,
katerega poroka z Marianne (Fanny Ardant) je na veliki preizkušnji. Kmalu sreča
Antoina (Guillaume Canet), lastnika podjetja, ki ljudem omogoča izvedbo različice
"potovanja skozi čas". Tako obišče prizorišče, v katerem podjetje ponuja svojim
strankam priložnost, da se potopijo nazaj v dobo po njihovi izbiri. Victor se je
odločil podoživeti najbolj nepozaben teden svojega življenja - tistega, ko je pred
40 leti spoznal svojo veliko ljubezen.

Film je bil premierno prikazan na filmskem festivalu v Cannesu leta 2019.



The Kid Detective 2020 SloSubs 720p BRRip XviD AC3 Unknown

Klikni za povečavo!
19-02-2021 07:55 naložil Ziva
Sejalci: 1 / Odjemalci: 0 / Velikost: 2.51 GB / Dokončani: 4
Prenesi torrent Poročaj torrent Opis torrenta NFO
Kategorija: FILMI >  BRRip



The Kid Detective 2020 720p BRRip XviD AC3 Unknown
Language(s): English
Size: 2.51 GB | Duration: 1hr 39mn | Container: AVI
Audio: AC-3 | 448 Kbps | 6 Channels
Video: XviD | 3141 Kbps | 1280 x 536
Genre: Comedy | Drama | Mystery


Kaitlyn Chalmers-Rizzato, Adam Brody, Kaleb Horn


A once-celebrated kid detective, now 32, continues to solve the same trivial mysteries between hangovers and bouts of self-pity. Until a naive client brings him his first 'adult' case, to find out who brutally murdered her boyfriend.





The.Farewell.2019.SLOSubs.BRRip.XviD-DrSi

Klikni za povečavo!
02-02-2021 16:47 naložil Ziva
Sejalci: 1 / Odjemalci: 0 / Velikost: 2.31 GB / Dokončani: 3
Prenesi torrent Poročaj torrent Opis torrenta NFO
Zvrst: Drama | Komedija
Kategorija: FILMI >  BRRip



Naziv: The.Farewell.2019.SLOSubs.BRRip.XviD-DrSi
Source: The.Farewell.2019.1080p.BluRay.DD+5.1.x264-SbR
Leto izida ........: 2019
Velikost ...........: 2,30 GB
Dolžina ............: 100 Minut
Video ...............: 2850 Kbps | 720x304 | 23,976 fps
Zvok ................: Dolby Digital AC3 5.1 @ 448 kbps
Kodek...............: XviD
Zvrst………….: Komedija | Drama
Država………..: Kitajska | ZDA
Jezik ................: Mandarinščina, Angleški
Podnapisi ........: Slovenski, Hrvaški, Srbski (vsi RETAiL)
Prevod: Mediatranslations
Za HD priredil in uredil: metalcamp
Tehnična obdelava: DVD Rippers Slovenija
IMDb Ocena ...: 7.6/10 (50,544 glasov)
Režija.........: Lulu Wang
Scenarij.......: Lulu Wang


Shuzhen Zhao ... Nai Nai
Awkwafina ... Billi
X Mayo ... Suze
Hong Lu ... Little Nai Nai (as Lu Hong)
Hong Lin ... Doctor Wu (as Lin Hong)
Tzi Ma ... Haiyan
Diana Lin ... Lu Jian
Yang Xuejian ... Mr. Li
Becca Khalil ... Shirley
Yongbo Jiang ... Uncle Haibin


Izjemno hvaljena komična drama o kitajsko-ameriški družini, ki se na zadnjem skupnem
srečanju z obolelo babico odloči, da ji bo zamolčala novico o njeni skorajšnji smrti.
Awkwafina je za vlogo svojeglave vnukinje prejela zlati globus za najboljšo igralko
v komediji.

Svojeglava Američanka kitajskega rodu Billi se vrne v domovino, ko izve, da so pri
njeni ljubljeni babici odkrili raka v zadnjem stadiju. Družina v želji po zadnjem
skupnem druženju na Kitajskem priredi improvizirano poroko, Billi pa se bori z
odločitvijo sorodnikov, da bodo babici zamolčali žalostno novico.
Lahko.dekle.aka.Une.fille.facile.2019.SLOSubs.720p.HDRip-R77

Klikni za povečavo!
01-02-2021 14:36 naložil rado77
Sejalci: 3 / Odjemalci: 0 / Velikost: 1.28 GB / Dokončani: 19
Prenesi torrent Poročaj torrent Opis torrenta
Zvrst: Drama | Komedija
Kategorija: FILMI > HDRip

Lahko.dekle.aka.Une.fille.facile.2019.SLOSubs.720p.HDRip-R77


UNE FILLE FACILE / EASY GIRL 2019
LAHKO DEKLE


Režija: Rebecca Zlotowski
Scenarij: Teddy Lussi-Modeste in Rebecca Zlotowski
Igrajo: Mina Farid, Zahia Dehar, Benoît Magimel, Nuno Lopes, Clotilde Courau


Zgodba:

Šestnajstletna Naima je hči čistilke na Azurni obali. Šolskega leta je konec in Naima se s prijateljico Dodo pripravlja na avdicijo v Cannesu. Tedaj pa jo nepričakovano obišče sestrična Sofia iz Pariza, dvaindvajsetletno dekle, ki sproščeno dojema spolnost in je brez pomislekov pripravljena izkoristiti svoje čare … »Ujemi trenutek« je njeno vodilo, s katerim se predstavi Naimi. Dekleti se skupaj predata sladkostim cannskega življenja; plaže, nočni klubi, jahte … Spoznata bogatega Andresa in njegovega prijatelja, zbiratelja umetnin Philippa, ki ju povabita na svojo jahto. Sofia se v svetu bogatašev dobro znajde in vanj vpelje tudi manj samozavestno Naimo. Pred njima oživi svet blišča, obilja, izjemnih restavracij in razkošnih obmorskih vil … Svet, v katerem se zdi vse mogoče.


Država: Francija
Jezik: Francoščina, Italijanščina, Angleščina
Podnapisi Slovenski
Izvajanje: 92 min
Žanr: Drama, Erotični, Komedija


Tehnične specifikacije:

Complete name : Lahko.dekle.aka.Une.fille.facile.2019.SLOSubs.720p.HDRip-R77
Format : MPEG-4
Format profile : Base Media
Codec ID : isom (isom/iso2/avc1/mp41)
File size : 1.28 GiB
Duration : 1 h 28 min
Overall bit rate : 2 072 kb/s
Writing application : Lavf58.29.100
Video
ID : 1
Format : AVC
Format/Info : Advanced Video Codec
Format profile : High@L3.1
Format settings : CABAC / 2 Ref Frames
Format settings, CABAC : Yes
Format settings, Reference frames : 2 frames
Codec ID : avc1
Codec ID/Info : Advanced Video Coding
Duration : 1 h 28 min
Bit rate : 1 939 kb/s
Width : 1 280 pixels
Height : 720 pixels
Display aspect ratio : 16:9
Frame rate mode : Constant
Frame rate : 25.000 FPS
Color space : YUV
Chroma subsampling : 4:2:0
Bit depth : 8 bits
Scan type : Progressive
Bits/(Pixel*Frame) : 0.084
Stream size : 1.20 GiB (94%)
Codec configuration box : avcC
Audio
ID : 2
Format : AAC LC
Format/Info : Advanced Audio Codec Low Complexity
Codec ID : mp4a-40-2
Duration : 1 h 28 min
Duration_LastFrame : -12 ms
Bit rate mode : Constant
Bit rate : 128 kb/s
Channel(s) : 2 channels
Channel layout : L R
Sampling rate : 44.1 kHz
Frame rate : 43.066 FPS (1024 SPF)
Compression mode : Lossy
Stream size : 81.1 MiB (6%)
Default : Yes
Alternate group : 1


Uživajte!
Chick Fight 2020 SrbSubs 720p BRRip XviD AC3 XVID

Klikni za povečavo!
16-01-2021 11:30 naložil Ziva
Sejalci: 1 / Odjemalci: 0 / Velikost: 2.89 GB / Dokončani: 6
Prenesi torrent Poročaj torrent Opis torrenta NFO
Zvrst: Akcija | Drama | Komedija
Kategorija: FILMI >  BRRip



Chick Fight 2020 720p BRRip XviD AC3 XVID
Language(s): English
Size: 2.89 GB | Duration: 1hr 37mn | Container: AVI
Audio: AC-3 | 448 Kbps | 6 Channels
Video: XviD | 3797 Kbps | 1280 x 534
Genre: Action | Comedy | Drama


Malin Akerman, Bella Thorne, Dulcé Sloan


When Anna Wyncomb is introduced to an underground, all-female fight club in order to turn the mess of her life around, she discovers she is much more personally connected to the history of the club than she could ever imagine.





The.Man.with.One.Red.Shoe.1985.SloSub.DVDRip.XviD-Churchill

Klikni za povečavo!
12-01-2021 15:18 naložil System
Sejalci: 1 / Odjemalci: 0 / Velikost: 1.19 GB / Dokončani: 7
Prenesi torrent Poročaj torrent Opis torrenta
Zvrst: Komedija | Triler
Kategorija: FILMI > XviD
Anonimen nalagalec

The Man with One Red Shoe (1985)
Zaljubljen v vohunko (1985)



INFO:
-------------
Codec : XVID
Format : AVI
Size : 1.19 GiB
Bit rate : 1 724 kb/s
Width : 720 pixels
Height : 384 pixels
Aspect ratio : 16/9
Audio 1 : AC-3
Bit rate : 192 kb/s
Channel(s) : 2 channels
Channel positions: L R
Sampling rate : 48.0 kHz
Genre : Comedy, Thriller
Country : USA
Language : English
Subtitles : Slovenski
Runtime : 88 min
Čas predvajanja : 1 h 28 min

IMDb user Rating: 5,7/10 (14.745)
IMDb Link: KLIK

IGRALCI:
-------------
Tom Hanks ... Richard
Dabney Coleman ... Cooper
Lori Singer ... Maddy
Charles Durning ... Ross
Carrie Fisher ... Paula
Edward Herrmann ... Brown
Jim Belushi ... Morris
Irving Metzman ... Virdon
Tom Noonan ... Reese
Gerrit Graham ... Carson
David L. Lander ... Stemple
Ritch Brinkley ... Hulse
Frank Hamilton ... Edgar
Dortha Duckworth ... Natalie
David Ogden Stiers ... The Conductor

OPIS:
-------------
Človek, naključno izbran iz množice, je tarča nadzora in zasledovanja
Cie...

Dobro pazite kakšne čevlje nosite, če ne želite postati tajni agent,
z rdečim čevljem...



Buddy.Games.2019.SLOSubs.BRRip.XviD-DrSi

Klikni za povečavo!
09-01-2021 12:39 naložil Ziva
Sejalci: 3 / Odjemalci: 0 / Velikost: 2.23 GB / Dokončani: 26
Prenesi torrent Poročaj torrent Opis torrenta NFO
Zvrst: Komedija
Kategorija: FILMI >  BRRip



Naziv: Buddy.Games.2019.SLOSubs.BRRip.XviD-DrSi
Source: Buddy.Games.2020.1080p.Bluray.DTS-HD.MA.5.1.X264-EVO
Leto izida ........: 2019
Velikost ...........: 2,20 GB
Dolžina ............: 96 Minut
Video ...............: 2836 Kbps | 720x304 | 23,976 fps
Zvok .................: Dolby Digital AC3 5.1 @ 448 Kbps
Kodek.................: XviD
Zvrst………….: Komedija
Država .............: ZDA | Kanada
Jezik ................: Angleški
Podnapisi .........: Slovenski (RETAiL)
Prevod: Lidija P. Černe
Uredil: metalcamp
Tehnična obdelava: DVD Rippers Slovenija
Režija.........: Josh Duhamel
Scenarij.......: Josh Duhamel, Bob Schwartz


Dan Bakkedahl ... Shelly
Kevin Dillon ... Doc
Josh Duhamel ... Bobfather
Olivia Munn ... Tiffany
James Roday Rodriguez ... Zane (as James Roday)
Dax Shepard ... Durfy
Nick Swardson ... Bender
Linda Darlow ... Mary Ann
Lucie Guest ... Nikki
Marion Eisman ... Mildred


Skupina prijateljev se ponovno zbere za Vratolomne igre, vrsto absurdnih fizičnih
in mentalnih izzivov. Skozi igre bodo zdravili stare rane, popravili stare napake
in skušali najti bistvo prijateljstva ... ali pa poskušajoč umrli.
(Spisal: metalcamp)