A
B
C
D
E
F
G
H
I
J
K
L
M
N
O
P
Q
R
S
T
U
V
W
X
Y
Z
0-9
The Boss Baby Family Business 2021 SLOSiNH 720p BRRip XviD AC3-johnny80

Klikni za povečavo!
11-05-2022 18:13 naložil johnny80
Sejalci: 4 / Odjemalci: 0 / Velikost: 3.34 GB / Dokončani: 11
Prenesi torrent Poročaj torrent Opis torrenta
Kategorija: FILMI > XviD



Velikost ...........: 3.33 GB
Dolžina ............: 1h 47 Minut
Video ...............: 4000 Kbps | 1280 x 536
Zvok .................: AC-3 | 448 Kbps | 6 Channels
Kodek...............: XviD
Zvrst………….....: Animation | Adventure | Comedy
Jezik ................: Slovenski

V nadaljevanju sta brata Tim in Ted Templeton že odrasla, a sta se odtujila. In mali šef ju bo znova zbližal.

Trailer:
Escape Through Africa 2022 SrbSubs 720p WEBRip XviD AC3-johnny80

Klikni za povečavo!
10-05-2022 15:01 naložil johnny80
Sejalci: 9 / Odjemalci: 0 / Velikost: 3.01 GB / Dokončani: 22
Prenesi torrent Poročaj torrent Opis torrenta
Kategorija: FILMI > XviD



Velikost ...........: 3.01 GB
Dolžina ............: 1h 29 Minut
Video ...............: 4379 Kbps | 1280 x 692
Zvok .................: AC-3 | 448 Kbps | 6 Channels
Kodek...............: XviD
Zvrst………….....: Action | Adventure
Jezik ................: Angleški
Podnapisi.........: Srbski

Eric Roberts , Linn Bjornland , Justin Gordon

In 1914, a British nurse escapes an attack on her outpost in Africa. Hunted by a German-led war party, and with help from local warriors, she embarks on an epic journey to save a neighboring outpost from a massacre.

Trailer:
The Lost City 2022 SrbSubs 720p WEBRip XviD AC3-johnny80

Klikni za povečavo!
10-05-2022 14:19 naložil johnny80
Sejalci: 8 / Odjemalci: 0 / Velikost: 3.75 GB / Dokončani: 18
Prenesi torrent Poročaj torrent Opis torrenta
Kategorija: FILMI > XviD



Velikost ...........: 3.74 GB
Dolžina ............: 1h 51 Minut
Video ...............: 4342 Kbps | 1280 x 720
Zvok .................: AC-3 | 448 Kbps | 6 Channels
Kodek...............: XviD
Zvrst………….....: Action | Adventure | Comedy
Jezik ................: Angleški
Podnapisi.........: Srbski

Sandra Bullock , Channing Tatum , Daniel Radcliffe

Briljantna, a osamljena pisateljica Loretta Sage je v svojih priljubljenih romantično-pustolovskih romanih pisala o eksotičnih krajih s čednim manekenom z naslovnice Alanom, ki je svoje življenje posvetil utelešenju junaka »Dasha«. Med turnejo, kjer z Alanom predstavlja svojo novo knjigo, Loretto ugrabi ekscentrični milijarder Fairfax, ki upa, da ga bo lahko pripeljala do zaklada starodavnega izgubljenega mesta iz njene zadnje zgodbe. Ker pa Alan želi dokazati, da je lahko junak v resničnem življenju in ne le na straneh njenih knjig, se jo odpravi reševat.

Trailer:
Sonic The Hedgehog 2 2022 CroSubs 720p WEBRip x264 AC3-Unknown

Klikni za povečavo!
05-05-2022 21:40 naložil johnny80
Sejalci: 3 / Odjemalci: 0 / Velikost: 3.98 GB / Dokončani: 26
Prenesi torrent Magnet Link Poročaj torrent Opis torrenta
Kategorija: FILMI > WEBRip-720



Velikost ...........: 3.98 GB
Dolžina ............: 2h 02 Minut
Video ...............: 4368 Kbps | 1280 x 720
Zvok .................: AC-3 | 192 Kbps | 2 Channels
Kodek...............: AVC
Zvrst………….....: Action | Adventure | Comedy
Jezik ................: Angleški
Podnapisi.........: Hrvaški

James Marsden , Jim Carrey , Ben Schwartz

Potem ko se je ježek Sonic ustalil v Green Hillsu, si nadvse želi dokazati, da ima vse, kar potrebuje, da postane pravi junak. Ko pa se dr. Robotnik vrne, tokrat z novim partnerjem po imenu Knuckles, in iščeta smaragd, ki ima moč uničiti civilizacijo, bo ježek Sonic na preizkusu. Združil bo moči s partnerjem po imenu Tails in skupaj se odpravita na potovanje po svetu, da bi poiskala smaragd, še preden zaide v napačne roke.

Trailer:
Moon Knight 2022 CroSubs S01 720p WEBRip x264 AC3-PACK

Klikni za povečavo!
05-05-2022 07:09 naložil johnny80
Sejalci: 3 / Odjemalci: 0 / Velikost: 5.21 GB / Dokončani: 21
Prenesi torrent Magnet Link Poročaj torrent Opis torrenta
Kategorija: FILMI > WEBRip-720



Velikost ...........: 5.20 GB
Dolžina ............: 6 x 50 Minut
Video ...............: 2300 Kbps | 1280 x 720
Zvok .................: AC-3 | 192 Kbps | 2 Channels
Kodek...............: AVC
Zvrst………….....: Action | Sci-Fi | Adventure
Jezik ................: Angleški
Podnapisi.........: Hrvaški

Oscar Isaac , Ethan Hawke , May Calamawy

Steven Grant discovers he's been granted the powers of an Egyptian moon god. But he soon finds out that these newfound powers can be both a blessing and a curse to his troubled life.

Trailer:
Mil Colmillos Aka Thousand Fangs 2021 SloSubs S01 720p WEBRip x264 AC3-PACK

Klikni za povečavo!
30-04-2022 21:19 naložil johnny80
Sejalci: 3 / Odjemalci: 0 / Velikost: 6.08 GB / Dokončani: 12
Prenesi torrent Magnet Link Poročaj torrent Opis torrenta
Kategorija: FILMI > WEBRip-720



Velikost ...........: 6.08 GB
Dolžina ............: 7 x 48 Minut
Video ...............: 2300 Kbps | 1280 x 720
Zvok .................: AC-3 | 192 Kbps | 2 Channels
Kodek...............: AVC
Zvrst………….....: Action | Adventure | Mystery
Jezik ................: Španski
Podnapisi.........: Slovenski

Claudio Cataño , Alejandro Buitrago , Jaisson Jeack

Zgodba spremlja skupino elitnih komandosov na vojaški misiji globoko v džungli, kjer naj bi našli in onesposobili vplivnega vodjo gverilcev.

Trailer:
The.Last.Drop.2006.SRBSubs.1080p.BluRay.x265-RARBG

Klikni za povečavo!
26-04-2022 04:07 naložil BlackDevil
Sejalci: 6 / Odjemalci: 0 / Velikost: 1.6 GB / Dokončani: 21
Prenesi torrent Magnet Link Poročaj torrent Opis torrenta
Kategorija: FILMI > BluRay-1080

COVERS.BOX.SK ::: The Last drop (2005) - high quality DVD / Blueray / Movie
Video
ID : 1
Format : HEVC
Format/Info : High Efficiency Video Coding
Format profile : Main 10@L4@Main
Codec ID : hev1
Codec ID/Info : High Efficiency Video Coding
Duration : 1 h 42 min
Bit rate : 1 996 kb/s
Width : 1 920 pixels
Height : 818 pixels
Display aspect ratio : 2.35:1
Frame rate mode : Constant
Frame rate : 23.976

Audio
ID : 2
Format : AAC LC
Format/Info : Advanced Audio Codec Low Complexity
Codec ID : mp4a-40-2
Duration : 1 h 42 min
Bit rate mode : Constant
Bit rate : 224 kb/s
Channel(s) : 6 channels
Channel layout : C L R Ls Rs LFE
Sampling rate : 48.0 kHz
Frame rate : 46.875 FPS (1024 SPF)
Compression mode : Lossy
Stream size : 165 MiB (10%)
Language : English
Default : Yes

GLAVNE ULOGE:
Billy Zane > Flt. Lt. Robert Oates
Coral Beed > Saskia
Agathe de La Boulaye > Katrina
Jack Dee > Warren
Louis Dempsey > Snyder
Tommy Flanagan > Pvt. Dennis Baker
Laurence Fox > SS Maj. Klaus Kessler
Andrew Howard > Capt. Edward Banks
Nick Moran > Pvt. Alan Ives
Neil Newbon > Cpl. Rhys Powell
Sean Pertwee > Sgt. Bill McMillan
Steve Speirs > Gustav Hansfeldt
Shengdi Wang > Benitta
Rafe Spall > Pvt. David Wellings
Neil Jackson > Flt. Sgt. Simkins

Storyline
In a daring attempt to end the war by Christmas, Winston Churchill and the British High Command hatch an extraordinary plan - Operation Market Garden. 35,000 British troops are dropped behind enemy lines in German occupied Holland. In the midst of the largest airborne invasion in history, one small unit of men, codename "Matchbox" has its own agenda. When Matchbox are shot down short of their landing zone, the odds of their success seem hopeless. Seven very different British soldiers find themselves separated from the Allied invasion, on a collision course with three renegade German soldiers who also want to lay claim to the horde
Uncharted 2022 SrbSubs 720p WEBRip XviD AC3-johnny80

Klikni za povečavo!
23-04-2022 13:26 naložil johnny80
Sejalci: 4 / Odjemalci: 0 / Velikost: 4.01 GB / Dokončani: 20
Prenesi torrent Poročaj torrent Opis torrenta
Kategorija: FILMI > XviD



Velikost ...........: 4.00 GB
Dolžina ............: 1h 56 Minut
Video ...............: 4484 Kbps | 1280 x 536
Zvok .................: AC-3 | 448 Kbps | 6 Channels
Kodek...............: XviD
Zvrst………….....: Action | Adventure
Jezik ................: Angleški
Podnapisi.........: Srbski

Tati Gabrielle, Tom Holland, Mark Wahlberg

Scenarij po eni najbolj prodajanih računalniških iger vseh časov. Uncharted pripoveduje zgodbo o Nathanu Draku in njegovi prvi pustolovščini in njegovem rivalskem partnerju Victor "Sully" Sullivan.

Trailer:
Fantastic Beasts The Secrets Of Dumbledore 2022 SrbSubs 720p HDCAM x264 AC3-Unknown

Klikni za povečavo!
17-04-2022 14:25 naložil johnny80
Sejalci: 5 / Odjemalci: 0 / Velikost: 2.76 GB / Dokončani: 33
Prenesi torrent Magnet Link Poročaj torrent Opis torrenta
Kategorija: FILMI > WEBRip-720

MV5-BNWJh-Mm-Q3-NGEt-ZDQ4-NS00-OGUw-LTlj-Njgt-Zjk4-MWNh-Nz-E5-OGQ3-Xk-Ey-Xk-Fqc-Gde-QXVy-MTA3-MDk2-N

Velikost ...........: 2.75 GB
Dolžina ............: 2h 14 Minut
Video ...............: 2691 Kbps | 1280 x 520
Zvok .................: AC-3 | 192 Kbps | 2 Channels
Kodek...............: AVC
Zvrst………….....: Adventure | Fantasy
Jezik ................: Angleški
Podnapisi.........: Srbski

Mads Mikkelsen, Jude Law, Katherine Waterston

Profesor Albus Dumbledore se zaveda, da želi veliki temni čarovnik Gellert Grindelwald prevzeti nadzor nad čarovniškim svetom. Ker ga sam ne more zaustaviti zaupa magizoologu Salamandru Scamandru, da sestavi in vodi neustrašno ekipo čarovnikov, čarovnic in enega pogumnega »ne-maga« na nevarno misijo, kjer naletijo na stare in nove magične živali in zveri ter se spopadejo z naraščajočo legijo Grindelwaldovih privržencev. Vendar pa Dumbledore pri tako velikem tveganju in nevarnosti ne more za dolgo ostati le na stranskem tiru.

Trailer:
Morbius 2022 CroSubs 720p HDCAM x264-C1NEM4

Klikni za povečavo!
04-04-2022 13:07 naložil johnny80
Sejalci: 2 / Odjemalci: 0 / Velikost: 1.79 GB / Dokončani: 89
Prenesi torrent Magnet Link Poročaj torrent Opis torrenta
Kategorija: FILMI > WEBRip-720



Velikost ...........: 1.79 GB
Dolžina ............: 1h 38 Minut
Video ...............: 2500 Kbps | 1280 x 528
Zvok .................: AAC | 2 Channels
Kodek...............: AVC
Zvrst………….....: Action | Sci-Fi | Thriller
Jezik ................: Angleški
Podnapisi.........: Hrvaški

Jared Leto, Matt Smith, Adria Arjona

Morbius pripoveduje o biokemiku Michaelu Morbiusu, dobitniku Nobelove nagrade, ki skuša ozdraviti svojo redko krvno bolezen z eksperimentalnim postopkom, s katerim združuje učinke elektrošokov in netopirjev. Izid je neizbežno katastrofalen in dr. Morbius se spremeni v živega vampirja.

Slike:
Trailer:
Amazon Queen 2021 CroSubs 720p WEBRip XviD AC3-johnny80

Klikni za povečavo!
31-03-2022 08:20 naložil johnny80
Sejalci: 8 / Odjemalci: 0 / Velikost: 2.04 GB / Dokončani: 48
Prenesi torrent Poročaj torrent Opis torrenta
Kategorija: FILMI > XviD



Velikost ...........: 2.03 GB
Dolžina ............: 1h 25 Minut
Video ...............: 2939 Kbps | 1280 x 692
Zvok .................: AC-3 | 448 Kbps | 6 Channels
Kodek...............: XviD
Zvrst………….....: Action | Adventure | Drama
Jezik ................: Angleški
Podnapisi.........: Hrvaški

Carly Diamond Stone , Carson Grant , Nick Dreselly Thomas

A group of tourists joins the Amazon Forest riverboat "Queen" as it ventures upriver, to visit indigenous villages and explore jungle habitats. But a dark cloud of thievery and menace thunders aboard, threatening all with death.

Slike:
Trailer:
Moonfall 2022 CroSubs 720p WEBRip XviD AC3-johnny80

Klikni za povečavo!
30-03-2022 06:42 naložil johnny80
Sejalci: 0 / Odjemalci: 1 / Velikost: 4.02 GB / Dokončani: 20
Prenesi torrent Poročaj torrent Opis torrenta
Zvrst: Akcija | Pustolovski | Z.F.
Kategorija: FILMI > XviD



Velikost ...........: 4.01 GB
Dolžina ............: 2h 10 Minut
Video ...............: 3995 Kbps | 1280 x 720
Zvok .................: AC-3 | 448 Kbps | 6 Channels
Kodek...............: XviD
Zvrst………….....: Action | Adventure | Sci-Fi
Jezik ................: Angleški
Podnapisi.........: Hrvaški

Halle Berry , Patrick Wilson , John Bradley

Skrivnostna sila zbije Luno iz svoje orbite jo pošlje v trk z življenjem, kot ga poznamo. Svet je na robu uničenja. Izvršna direktorica Nase in nekdanja astronavtka Jo Fowler je prepričana, da ve kako rešiti svet, z izjemo enega astronavta, iz svoje preteklosti, Briana Harperja. Neverjetni junaki se bodo odpravili na nemogočo zadnjo misijo v vesolje in za seboj pustili vse, ki jih imajo radi, le da bodo ugotovili, da naša Luna ni to, kar mislimo, da je.

Slike:
Trailer:
The.Wolf.and.the.Lion.2021.SLOSubs.720p.WEBRip.x264-GalaxyRG

Klikni za povečavo!
28-03-2022 16:16 naložil BlackDevil
Sejalci: 1 / Odjemalci: 0 / Velikost: 797.01 MB / Dokončani: 16
Prenesi torrent Magnet Link Poročaj torrent Opis torrenta
Kategorija: FILMI > WEBRip-720

The Wolf and the Lion (2021)
Original: Le loup et le lion
Volk in lev
družinski



MEDIAINFO
Container = Matroska (mkv)
Duration = 01:39:54.475
Filesize = 797 MiB
Overall bitrate = 1 115 kb/s

ViDEO
Codec info = AVC [email protected] | V_MPEG4/ISO/AVC
Resolution = 1280x534
Display AR = 2.394 | 2.40:1
Bitrate = 6 571 kb/s
Framerate = CFR 24.000
Color space = YUV
Chroma subsampling = 4:2:0
Encoder = x264 - core 157

AUDiO
Codec info = AAC | A_AAC-2
Channels = 2
Bitrate = 384 kb/s
Samplerate = 48.0 kHz
Language = English

IMDb:
Link..........: https://www.imdb.com/title/tt10945288/
Ocena........: 6,0/10 (941 glasov)
Režija.........: Gilles de Maistre
Scenarij.......: Gilles de Maistre, Prune de Maistre


Cast:
Graham Greene > Joe
Daniel Brochu > Mr. Mitchell
Brent Radford > Police Captain
Rhys Slack > Rapha
Neige de Maistre > Child
Stella Plante > Alma at child
Mylène Dinh-Robic > Dean at Music Academy
Paula Costain > Doctor
Victor Cornfoot > Jack
Evan Buliung > Allan
Rebecca Croll > Ysae
Molly Kunz > Alma
Charlie Carrick > Eli
Jean Drolet > Alma's Grandfather
Daniel Esteban > Airport Host
Prune de Maistre > Parent
Derek Johns > Charles
Melissa Plante > Receptionist
Plot:
Spremljamo zgodbo o neverjetni navezanosti med volkom in levom.
Alma je osirotela klaviristka, ki se že vse življenje pripravlja na izpit,
ki ji predstavlja vstopnico v svet mednarodno priznane filharmonije.
Zaradi smrti in pogreba dedka se iz New Yorka odpravi v osrčje Kanade,
kjer spozna, da na njegovo posest pogosto zahaja volkulja. Življenje se ji
obrne na glavo, ko ponoči na njenem otoku strmoglavi letalo in ji v roke
pade levji mladič, ob povratku pa ji volkulja v hišo prinese še svojega mladiča.


Black Crab 2022 CroSubs 720p WEBRip XviD AC3-johnny80

Klikni za povečavo!
18-03-2022 14:01 naložil johnny80
Sejalci: 2 / Odjemalci: 0 / Velikost: 2.74 GB / Dokončani: 30
Prenesi torrent Poročaj torrent Opis torrenta
Kategorija: FILMI > XviD



Velikost ...........: 2.73 GB
Dolžina ............: 1h 54 Minut
Video ...............: 2969 Kbps | 1280 x 720
Zvok .................: AC-3 | 448 Kbps | 6 Channels
Kodek...............: XviD
Zvrst………….....: Action | Adventure | Thriller
Jezik ................: Švedski
Podnapisi.........: Hrvaški

Noomi Rapace , Aliette Opheim , Dar Salim

In a post-apocalyptic world, six soldiers on a covert mission must transport a mysterious package across a frozen archipelago.

Slike:
Trailer:
Project Gemini 2022 SrbSubs 720p BRRip XviD AC3-johnny80

Klikni za povečavo!
15-03-2022 22:30 naložil johnny80
Sejalci: 2 / Odjemalci: 0 / Velikost: 2.5 GB / Dokončani: 35
Prenesi torrent Poročaj torrent Opis torrenta
Zvrst: Pustolovski | Triler | Z.F.
Kategorija: FILMI > XviD



Velikost ...........: 2.50 GB
Dolžina ............: 1h 38 Minut
Video ...............: 3186 Kbps | 1280 x 536
Zvok .................: AC-3 | 448 Kbps | 6 Channels
Kodek...............: XviD
Zvrst………….....: Adventure | Sci-Fi | Thriller
Jezik ................: Angleški
Podnapisi.........: Srbski

Egor Koreshkov , Alyona Konstantinova , Samoukov Kostya

A sci-fi thriller about a space mission sent to terraform a distant planet. However, the mission encounters something unknown that has its own plan for the planet.

Slike:
Trailer:
Freaks Out 2021 SrbSubs 720p BRRip XviD AC3-johnny80

Klikni za povečavo!
13-03-2022 08:08 naložil johnny80
Sejalci: 2 / Odjemalci: 0 / Velikost: 4.27 GB / Dokončani: 16
Prenesi torrent Poročaj torrent Opis torrenta
Kategorija: FILMI > XviD



Velikost ...........: 4.27 GB
Dolžina ............: 2h 20 Minut
Video ...............: 3886 Kbps | 1280 x 536
Zvok .................: AC-3 | 448 Kbps | 6 Channels
Kodek...............: XviD
Zvrst………….....: Adventure | Fantasy | War
Jezik ................: Italijanski | Nemški
Podnapisi.........: Srbski

Con Aurora Giovinazzo, Claudio Santamaria, Pietro Castellitto

Rome, 1943: Matilde, Cencio, Fulvio and Mario are the main attractions of the "Mezza Piotta Circus" run by Israel, meanwhile someone start looking for the four freaks with a plan that could change the fate of the whole world.

Slike:
Trailer:
Spider-Man No Way Home 2021 SrbSubs 720p BRRip XviD AC3-johnny80

Klikni za povečavo!
11-03-2022 21:08 naložil johnny80
Sejalci: 2 / Odjemalci: 0 / Velikost: 4.58 GB / Dokončani: 27
Prenesi torrent Poročaj torrent Opis torrenta
Zvrst: Akcija | Pustolovski | Z.F.
Kategorija: FILMI > XviD



Velikost ...........: 4.58 GB
Dolžina ............: 2h 28 Minut
Video ...............: 3969 Kbps | 1280 x 536
Zvok .................: AC-3 | 448 Kbps | 6 Channels
Kodek...............: XviD
Zvrst………….....: Action | Adventure | Sci-Fi
Jezik ................: Angleški
Podnapisi.........: Srbski

Tom Holland , Zendaya , Benedict Cumberbatch

Prvič v Spider Manovi filmski zgodovini je naš prijazni junak iz soseske razkrit in ne more več ločevati vsakdanjega zasebnega življenja od nevarnega življenja superjunaka. Ko zaprosi za pomoč Doktorja Strangea, postane nevarnost še večja, saj bo prisiljen odkriti, kaj resnično pomeni biti Spider Man.

Slike:
Trailer:
The Adam Project 2022 CroSubs 720p WEBRip XviD AC3-johnny80

Klikni za povečavo!
11-03-2022 15:06 naložil johnny80
Sejalci: 4 / Odjemalci: 0 / Velikost: 3.6 GB / Dokončani: 89
Prenesi torrent Poročaj torrent Opis torrenta
Zvrst: Akcija | Pustolovski | Z.F.
Kategorija: FILMI > XviD



Velikost ...........: 3.60 GB
Dolžina ............: 1h 46 Minut
Video ...............: 4379 Kbps | 1280 x 720
Zvok .................: AC-3 | 448 Kbps | 6 Channels
Kodek...............: XviD
Zvrst………….....: Action | Adventure | Sci-Fi
Jezik ................: Angleški
Podnapisi.........: Hrvaški

Ryan Reynolds , Walker Scobell , Mark Ruffalo

A time-traveling pilot teams up with his younger self and his late father to come to terms with his past while saving the future.

Slike:
Trailer:
The First Myth Clash Of Gods 2021 SrbSubs 720p WEBRip XviD AC3-johnny80

Klikni za povečavo!
09-03-2022 08:05 naložil johnny80
Sejalci: 1 / Odjemalci: 0 / Velikost: 3.07 GB / Dokončani: 11
Prenesi torrent Poročaj torrent Opis torrenta
Kategorija: FILMI > XviD



Velikost ...........: 3.06 GB
Dolžina ............: 1h 28 Minut
Video ...............: 4492 Kbps | 1280 x 544
Zvok .................: AC-3 | 448 Kbps | 6 Channels
Kodek...............: XviD
Zvrst………….....: Action | Fantasy | Adventure
Jezik ................: Kitajski
Podnapisi.........: Srbski

Paul Che , Jun Jun , Qinyao Li

During the Battle of Muye, Jiang Ziya led his troops and broke through the defending pass. Shen Gongbao and Tongtian Jiaozhu combined their power and created the Deity Massacre Formation as they try to wipe out the Zhou Dynasty and the deities who are trying to oppose them. Yang Jian, Ne Zha, and the others tried their best to defend against them, defeating Shen Gongbao and Tongtian Jiaozhu, saving the world.

Slike:
Trailer:
Uncharted 2022 SrbSubs 720p HDCAM x264 AC3-Unknown

Klikni za povečavo!
08-03-2022 15:06 naložil johnny80
Sejalci: 3 / Odjemalci: 0 / Velikost: 1.98 GB / Dokončani: 51
Prenesi torrent Magnet Link Poročaj torrent Opis torrenta
Kategorija: FILMI > WEBRip-720



Velikost ...........: 1.97 GB
Dolžina ............: 1h 46 Minut
Video ...............: 2428 Kbps | 1280 x 508
Zvok .................: AC-3 | 192 Kbps | 2 Channels
Kodek...............: AVC
Zvrst………….....: Action | Adventure
Jezik ................: Angleški
Podnapisi.........: Srbski | Angleški

Tati Gabrielle, Tom Holland, Mark Wahlberg

Scenarij po eni najbolj prodajanih računalniških iger vseh časov. Uncharted pripoveduje zgodbo o Nathanu Draku in njegovi prvi pustolovščini in njegovem rivalskem partnerju Victor "Sully" Sullivan.

Slike:
Trailer:
Spider-Man.No.Way.Home.2021.CROSubs.HDTS.XviD.B4ND1T69

Klikni za povečavo!
08-03-2022 11:02 naložil BlackDevil
Sejalci: 2 / Odjemalci: 0 / Velikost: 1.87 GB / Dokončani: 20
Prenesi torrent Poročaj torrent Opis torrenta
Kategorija: FILMI > HDTV

CoverCity - DVD Covers & Labels - Spider-Man: No Way Home (2021)

Director: Jon Watts
Writers: Chris McKenna, Erik Sommers, Stan Lee(based on the Marvel comic book by)
Stars: Tom Holland, Zendaya, Benedict Cumberbatch, Jacob Batalon, Jon Favreau

Plot/Story:
Peter Parker is unmasked and no longer able to separate his normal life from the high-stakes of being a super-hero. When he asks for help from Doctor Strange the stakes become even more dangerous, forcing him to discover what it truly means to be Spider-Man.

General
Complete name : Spider-Man.No.Way.Home.2021.HDTS.XviD.B4ND1T69.avi
Format : AVI
Format/Info : Audio Video Interleave
File size : 1.79 GiB
Duration : 2 h 23 min
Overall bit rate : 1 785 kb/s
Samples : Yes...Included(3)

Video
ID : 0
Format : MPEG-4 Visual
Format profile : Advanced [email protected]
Format settings, BVOP : 2
Format settings, QPel : No
Format settings, GMC : No warppoints
Format settings, Matrix : Default (H.263)
Codec ID : DIVX
Codec ID/Info : Project Mayo
Codec ID/Hint : DivX 4
Duration : 2 h 23 min
Bit rate : 1 643 kb/s
Width : 720 pixels
Height : 352 pixels
Display aspect ratio : 2.045
Frame rate : 30.000 FPS
Color space : YUV
Chroma subsampling : 4:2:0
Bit depth : 8 bits
Scan type : Progressive
Compression mode : Lossy
Bits/(Pixel*Frame) : 0.216
Stream size : 1.65 GiB (92%)
Writing library : XviD 64

Audio
ID : 1
Format : MPEG Audio
Format version : Version 1
Format profile : Layer 3
Mode : Joint stereo
Mode extension : MS Stereo
Codec ID : 55
Codec ID/Hint : MP3
Duration : 1 h 43 min
Source duration : 2 h 23 min
Bit rate mode : Constant
Bit rate : 128 kb/s
Channel(s) : 2 channels
Sampling rate : 48.0 kHz
Compression mode : Lossy
Stream size : 131 MiB (7%)
Alignment : Aligned on interleaves
Interleave, duration : 24 ms (0.72 video frame)


Willem Dafoe > Norman Osborn
Alfred Molina > Dr. Otto Octavius
Marisa Tomei > May Parker
Jamie Foxx > Electro
Jamie Foxx > Max Dillon
Jon Favreau > Happy Hogan
Paula Newsome > MIT Assistant Vice Chancellor
Martin Starr > Mr. Harrington
J.K. Simmons > J. Jonah Jameson
Benedict Wong > Wong
Benedict Cumberbatch > Doctor Strange
J.B. Smoove > Mr. Dell
Arian Moayed > Agent Cleary
Tony Revolori > Flash Thompson
Hannibal Buress > Coach Wilson
Angourie Rice > Betty Brant
Zendaya > MJ
Tom Holland > Peter Parker
Tom Holland > Spider-Man
Jacob Batalon > Ned Leeds

Screenshots:












Please Seed For As Long As Possible
Or At Least 1:1 Ratio...Thanks
Enjoy
PAW Patrol The Movie 2021 SLOSiNH 720p WEBRip XviD AC3-johnny80

Klikni za povečavo!
07-03-2022 15:24 naložil johnny80
Sejalci: 2 / Odjemalci: 0 / Velikost: 2.75 GB / Dokončani: 51
Prenesi torrent Poročaj torrent Opis torrenta
Kategorija: FILMI > XviD



Velikost ...........: 2.75 GB
Dolžina ............: 1h 22 Minut
Video ...............: 4320 Kbps | 1280 x 720
Zvok .................: AC-3 | 448 Kbps | 6 Channels
Kodek...............: XviD
Zvrst………….....: Animation | Adventure | Comedy
Jezik ................: Slovenski

Mesto zabave je v nevarnosti! Župan mesta Humdinger ga namreč želi uničiti, obenem pa ukaže, da so psi v mestu prepovedani. Riki in vsi njegovi pogumni junaki na štirih tačkah - Maršal, Robi, Bron, Rok, Zuma in Sila – bodo brcnili v višjo prestavo, da se bodo lahko soočili z izzivom, ki je pred njimi. Medtem ko se bo eden od kužkov v mestu moral soočiti s svojo preteklostjo, bo ekipi kužkov priskočila na pomoč pametna jazbečarka po imenu Liberty. Oboroženi z novimi pripomočki in opremo se bodo kužki skupaj podali v boj, da rešijo prebivalce sosednjega mesta.

Slike:
Trailer:
Valley Of The Gods 2019 SloSubs 720p BRRip XviD AC3-johnny80

Klikni za povečavo!
05-03-2022 08:33 naložil johnny80
Sejalci: 1 / Odjemalci: 0 / Velikost: 2.62 GB / Dokončani: 23
Prenesi torrent Poročaj torrent Opis torrenta
Kategorija: FILMI > XviD



Velikost ...........: 2.61 GB
Dolžina ............: 2h 07 Minut
Video ...............: 2500 Kbps | 1280 x 536
Zvok .................: AC-3 | 448 Kbps | 6 Channels
Kodek...............: XviD
Zvrst………….....: Drama | Sci-Fi | Thriller
Jezik ................: Angleški
Podnapisi.........: Slovenski

Josh Hartnett , John Malkovich , Bérénice Marlohe

Ločeni pisatelj John Ecas dobi posel napisati biografijo najbogatejšega človeka na svetu, zadržanega Wesa Taurosa. John ne ve, da so tla, po katerih hodi, sveta in da je v sporu med bogatašem Wesom, čigar posest želijo minirati zaradi urana, in borbenim tamkajšnjim indijanskim plemenom Navajo. Taurosovo ravnanje razkrije bitja iz Navajo legend, ki so jih imeli zgolj za mit. Med sporom treh strani postajajo vse pomembnejše vrednote, ko stari bogovi stopijo na bojno pot proti željam sodobnega človeka.

Slike:
Trailer:
Astro Kid (2019) SLOSubs [BluRay] [720p] [YTS.LT]

Klikni za povečavo!
04-03-2022 15:18 naložil BlackDevil
Sejalci: 1 / Odjemalci: 0 / Velikost: 793.9 MB / Dokončani: 9
Prenesi torrent Poročaj torrent Opis torrenta
Kategorija: FILMI > Risanke

Astro Kid (2019)
Original: Terra Willy Planete Inconnue
Vilijev planet
animirana zf pustolovščina



Podatki o filmu:
Naziv: Astro.Kid.2019.720p.BluRay.x264-[YTS.LT]
Velikost.........: 793 MB
Dolžina..........: 90 min
Leto...............: 2019
Slika..............: 1280x534 1099kbps 24fps
Zvok..............: aac 125kb/s
Kodek............: X264
Država...........: Francija
Jezik..............: Angleški
Žanr...............: Animirani | Pustolovski | Komedija | ZF
Podnapisi........: Slovenski (RETAiL)
Prevod........: Majda Oblak


IMDb:
Link..........: https://www.imdb.com/title/tt8329148/
Ocena........: 6,6/10 (1.756 glasov)
Režija.........: Eric Tosti
Scenarij.......: David Alaux, Eric Tosti, Jean-François Tosti


Igrajo:
Landen Beattie ... Willy (voice)
Jason Anthony ... Buck (as Jason Canning)
Laura Post ... Mum (voice)
Keith Silverstein ... Dad / Game Robot (voice)
Susan Myers ... Internal voice of Buck, pad and probe (voice)
Edouard Baer ... Buck (voice)
Guillaume Lebon ... Papa (voice)
Marie-Eugénie Maréchal ... Maman (voice)
Barbara Tissier ... Sonde (voice)
Timothé Vom Dorp ... Willy (voice)


Opis:
Znanstvena fantastika za mlajše: Zabavna celovečerna animirana pustolovščina,
postavljena na čaroben tuj planet. Willy je izjemno srečen deček, saj živi na
vesoljski postaji s starši, ki so astronavti. Ko v njihov vesoljski dom trči
asteroid, se Willy reši s kapsulo, ki ga odnese na neznani planet. Ni pa čisto
sam, saj je v družbi prikupnega robota. Na planetu srečata tudi nenavadnega
vesoljskega psička. Trije prijatelji se podajo na pustolovščino po nikdar
prehojenih poteh, kjer spoznajo osupljivo naravo planeta, polno nenavadnih
živih bitij, čarobnih pojavov in presenečenj. Na planetu pa so tudi strašljiva
bitja, ki so videti kot dinozavri, pred katerimi morajo bežati.
Film je poln posrečenih domislic in magičnih ilustracij, zgodba pa govori o
pustolovskem duhu in prepuščanju domišljiji, o vztrajnosti, domotožju
in prijateljstvu z nenavadnimi bitji, ki so drugačna od nas.