A
B
C
D
E
F
G
H
I
J
K
L
M
N
O
P
Q
R
S
T
U
V
W
X
Y
Z
0-9
The.Wind.That.Shakes.the.Barley.2006.SLOSUB.DVDRip.XviD-remom

Klikni za povečavo!
Včeraj ob 14:43 naložil rado77
Sejalci: 2 / Odjemalci: 0 / Velikost: 1.37 GB / Dokončani: 2
Prenesi torrent Poročaj torrent Opis torrenta
Zvrst: Drama | Vojni | Zgodovinski
Kategorija: FILMI > DVDRip

The.Wind.That.Shakes.the.Barley.2006.SLOSUB.DVDRip.XviD-remom


The Wind That Shakes the Barley 2006

Veter ki trese ječmen


Dolžina : 120 min
Leto : 2006
Država : USA
Žanr : Drama | History | War
iMBD info : http://www.imdb.com/title/tt0460989/
iMDB ocena : 7.6/10 (46,377 glasov)
Zvok : AC3 5.1 English
Podnapisi : Slovenski
Režija : Ken Loach

[
b]Igrajo:[/b]
Cillian Murphy ... Damien
Padraic Delaney ... Teddy
Liam Cunningham ... Dan
Orla Fitzgerald ... Sinead
Mary O'Riordan ... Peggy
Mary Murphy ... Bernadette
Laurence Barry ... Micheail
Damien Kearney ... Finbar
Frank Bourke ... Leo
Myles Horgan ... Rory
Martin Lucey ... Congo
Aidan O'Hare ... Steady Boy
Shane Casey ... Kevin
John Crean ... Chris
Mairtin de Cogain ... Sean


Opis:

Irec Damien se pripravlja na študij medicine v Londonu, med tem ko se
njegov brat bori za samostojnost dežele. Ko Damien vidi grozote, ki jih
izvajajo britanski vojaki, se tudi sam pridruži upornikom, toda kmalu se
ne more več iztrgati iz začaranega kroga krutega nasilja, ki Irsko vodi v
državljansko vojno, v kateri se na nasprotni strani znajde tudi njegov brat.
Film, ki temelji na resničnih dogodkih, je prejel zlato palmo za najboljši
film v Cannesu.


Uživajte!
Atlantic.Crossing.aka.Z.druge.strani.Atlanktika.2020.SLOSubsS01.720.HDTVRip.AAC-R77

Klikni za povečavo!
Včeraj ob 12:31 naložil System
Sejalci: 1 / Odjemalci: 0 / Velikost: 4.7 GB / Dokončani: 0
Prenesi torrent Poročaj torrent Opis torrenta
Zvrst: Drama | Zgodovinski
Kategorija: FILMI > TV - Serija
Anonimen nalagalec

Atlantic.Crossing.aka.Z.druge.strani.Atlanktika.2020.SLOSubsS01.720.HDTVRip.AAC-R77




Atlantic Crossing 2020
TV Serija

Z DRUGE STRANI ATLANKTIKA
Sezona 01


Opis:
Princ Olaf se vse bolj vdaja pijači. Kralj mu že leta ne dovoli drugega kot opazovati dogajanje, in to ga peha v malodušje. Norveška vlada zato sklene, da mu bo dodelila položaj vrhovnega poveljnika norveških čet. To je razlog, da znova odpotuje v Washington. Ko opazuje svojo družino, se zave, da že dolgo ni več njen del. Marta razmišlja o ločenem življenju, nato pa se vojna konča in Olaf sklene, da bo obrnil nov list in se zazrl v prihodnost. Marta se tako vrne v domovino in z možem se znova povežeta.


Država: Norveška, Nemčija, ZDA, Švedska, Danska
Scenarij: Alexander Eik, Linda May Kallestein
Režija: Alexander Eik, Janic Heen
V glavnih vlogah: Sofia Helin, Kyle MacLachlan, Tobias Santelmann, Harriet Sansom Harris, Daniel Betts, Søren Pilmark, Lucy Russell
Epizode: 8
Žanri: drama, zgodovina
Podnapisi: Slovenski


Tehnićne specifikacije:
Complete name : Z druge strani Atlantika.S01.E02.SLOSubs.R77.mp4
Format : MPEG-4
Format profile : Base Media
Codec ID : isom (isom/iso2/avc1/mp41)
File size : 583 MiB
Duration : 55 min 23 s
Overall bit rate : 1 471 kb/s
Writing application : Lavf58.20.100

Video
ID : 1
Format : AVC
Format/Info : Advanced Video Codec
Format profile : High@L3.1
Format settings : CABAC / 3 Ref Frames
Format settings, CABAC : Yes
Format settings, Reference frames : 3 frames
Codec ID : avc1
Codec ID/Info : Advanced Video Coding
Duration : 55 min 23 s
Bit rate : 1 338 kb/s
Width : 1 280 pixels
Height : 720 pixels
Display aspect ratio : 16:9
Frame rate mode : Constant
Frame rate : 25.000 FPS
Color space : YUV
Chroma subsampling : 4:2:0
Bit depth : 8 bits
Scan type : Progressive
Bits/(Pixel*Frame) : 0.058
Stream size : 530 MiB (91%)
Writing library : x264 core 148

Audio
ID : 2
Format : AAC LC
Format/Info : Advanced Audio Codec Low Complexity
Codec ID : mp4a-40-2
Duration : 55 min 23 s
Bit rate mode : Constant
Bit rate : 128 kb/s
Channel(s) : 2 channels
Channel layout : L R
Sampling rate : 44.1 kHz
Frame rate : 43.066 FPS (1024 SPF)
Compression mode : Lossy
Stream size : 50.7 MiB (9%)
Default : Yes
Alternate group : 1


Veliko užitkov!
Legionnaire's Trail 2020 SrbSubs 720p BRRip XviD AC3 XVID

Klikni za povečavo!
13-01-2021 13:05 naložil Ziva
Sejalci: 3 / Odjemalci: 0 / Velikost: 2.63 GB / Dokončani: 9
Prenesi torrent Poročaj torrent Opis torrenta NFO
Kategorija: FILMI >  BRRip



Legionnaire's Trail 2020 720p BRRip XviD AC3 XVID
Language(s): English
Size: 2.62 GB | Duration: 1hr 35mn | Container: AVI
Audio: AC-3 | 640 Kbps | 6 Channels
Video: XviD | 3280 Kbps | 1280 x 536
Genre: Action | Adventure | History


Mark Aaron, Marta Castellví, Joaquim de Almeida


Noreno, a half-Roman, is entrusted with the mission of crossing the snowy mountains of Armenia, swarming with Parthian patrols, to seek help for his slowly dying men.






House.of.Saddam.S01.2008.SLOSubs.WEBRip.x264-R77

Klikni za povečavo!
05-01-2021 15:14 naložil System
Sejalci: 1 / Odjemalci: 0 / Velikost: 2.29 GB / Dokončani: 1
Prenesi torrent Poročaj torrent Opis torrenta
Kategorija: FILMI > TV - Serija
Anonimen nalagalec

House.of.Saddam.S01.2008.SLOSubs.WEBRip.x264-R77


House of Saddam 2008
TV mini Serija
SADAMOVA HIŠA

Mini serija, ki raziskuje delovanje družine Sadama Huseina in njegov odnos z najbližjimi svetovalci.

1. I. del
1. del 4. Biografija iraškega predsednika Sadama Huseina (Igal Naor) zajema njegov vzpon na oblast leta 1979, vojno z Iranom v osemdesetih letih in afero, ki bi dejansko končala njegovo poroko s prvo ženo (Shohreh Aghdashloo). Uday: Philip Arditti.

2.
II.del
2. del 4. Biografija iraškega predsednika Sadama Huseina (Igal Naor) zajema posledice vojne z Iranom konec osemdesetih let, njegov nestanoviten odnos s sinom Udayem (Philip Arditti) in obrambo Kuvajta pod vodstvom ZDA po invazija leta 1990. Qusay: Mounir Margoum. Adnan Khairallah: Said Amadis.

3. III. Del
Tretji del štiridelne biografije iraškega predsednika Sadama Huseina (Igal Naor) se odpre leta 1995, ko je neizpolnjevanje inšpekcijskih pregledov OZN pripeljalo do sankcij, in podrobno opisuje nesrečno prebeg njegovega zeta v Jordanijo ( Amr Waked). Uday: Philip Arditti. Qusay: Mounir Margoum.

4. IV. Del
Zaključek biografije iraškega predsednika Sadama Huseina (Igal Naor) prikazuje njegovo skrivanje ameriškim silam po invaziji marca 2003, ki ga je ločila od njegovih sinov, Udaya in Qusaya, ki sta bila ubita julija. Qusay: Mounir Margoum. Uday: Philip Arditti.



Podrobnosti:

Igrajo: Igal Naor , Shohreh Aghdashloo , Makram Khoury
Žanri: Biografija, drama, zgodovina, vojni
IMDb: https://www.imdb.com/title/tt0936453
Izvajanje: 232 min (4 epizode)
Država: Združeno kraljestvo | ZDA
Jezik: Arabščina | angleščina
Podnapisi: Slovenski




Tehnične specifikacije:

Complete name : House.of.Saddam.S01.2008.SLOSubs.WEBRip.x264-R77
Format : MPEG-4
Format profile : Base Media
Codec ID : isom (isom/iso2/avc1/mp41)
File size : 604 MiB
Duration : 1 h 3 min
Overall bit rate : 1 340 kb/s
Movie name : House.of.Saddam.S01E01.WEBRip.x264-R77
Encoded date : UTC 2019-08-12 14:35:42
Tagged date : UTC 2019-08-12 14:35:42
Writing application : Lavf58.0.101
Comment : House.of.Saddam.S01E01.WEBRip.x264-R77

Video
ID : 1
Format : AVC
Format/Info : Advanced Video Codec
Format profile : High@L3.1
Format settings : CABAC / 5 Ref Frames
Format settings, CABAC : Yes
Format settings, Reference frames : 5 frames
Codec ID : avc1
Codec ID/Info : Advanced Video Coding
Duration : 1 h 3 min
Bit rate : 1 100 kb/s
Width : 720 pixels
Height : 406 pixels
Display aspect ratio : 16:9
Original display aspect ratio : 16:9
Frame rate mode : Constant
Frame rate : 23.976 (24000/1001) FPS
Color space : YUV
Chroma subsampling : 4:2:0
Bit depth : 8 bits
Scan type : Progressive
Bits/(Pixel*Frame) : 0.157
Stream size : 486 MiB (80%)
Title : House.of.Saddam.S01E01.WEBRip.x264-R77
Writing library : x264 core 148 r2795M aaa9aa8
Codec configuration box : avcC

Audio
ID : 2
Format : AAC LC
Format/Info : Advanced Audio Codec Low Complexity
Codec ID : mp4a-40-2
Duration : 1 h 3 min
Bit rate mode : Constant
Bit rate : 256 kb/s
Channel(s) : 2 channels
Channel layout : L R
Sampling rate : 48.0 kHz
Frame rate : 46.875 FPS (1024 SPF)
Compression mode : Lossy
Stream size : 115 MiB (19%)
Title : House.of.Saddam.S01E01.WEBRip.x264-R77
Language : English
Default : Yes
Alternate group : 1
Encoded date : UTC 2019-08-12 14:35:42
Tagged date : UTC 2019-08-12 14:35:42




UŽIVAJTE!
Kampen.om.tungtvannet.S01.SRBSubs.720p.WEB.x264

Klikni za povečavo!
05-01-2021 12:49 naložil System
Sejalci: 5 / Odjemalci: 0 / Velikost: 2.74 GB / Dokončani: 6
Prenesi torrent Poročaj torrent Opis torrenta
Zvrst: Drama | Vojni | Zgodovinski
Kategorija: FILMI > TV - Serija
Anonimen nalagalec

Kampen.om.tungtvannet.S01.SRBSubs.720p.WEB.x264

Kampen om tungtvannet AKA The Saboteurs

TV Serija S01

Vojna s težko vodo



Zgodba o Hitlerjevem načrtu, da bi Nemčija med drugo svetovno vojno dobila atomsko bombo, in močne vodne sabotaže v Rjukanu na Norveškem, gledano s štirih zornih kotov, nemška stran, zavezniki, diverzanti in četa



OPIS DOGAJANJ:

Med drugo svetovno vojno je bil Vemork v Rjukanu v središču proizvodnje težke vode. Vojna s težko vodo je Nemce ustavila pri razvoju atomske bombe.
Če bi Nemci lahko nadaljevali z raziskovanjem težke vode, bi morda lahko zgradili atomsko bombo.
Takšen vtis so imeli zavezniški znanstveniki, medtem ko je bila druga svetovna vojna v polnem razvoju. Zaradi atomske bombe bi lahko zavezniki izgubili vojno.
Zavezniški znanstveniki so si neprestano prizadevali, da bi poskušali ustvariti jedrsko eksplozijo na podlagi drugih načel, vendar jih je čakala še dolga pot. In edini vir težke vode je bil na nemški okupirani Norveški, v Vemorku, v Rjukanu.
Sabotažne akcije, katerih namen je bil preprečiti Nemcem pridobivanje težke vode, so nekatera najbolj drzna in vznemirljiva dejanja druge svetovne vojne.
Vse se je začelo marca 1942, ko je padel samotni padalec, da bi zbral znanje o proizvodnji težke vode. 19. oktobra so v bližini Sognadalena, zahodno od Rjukana, spustili še štiri Norvežane. Vsi so bili lokalni fantje in so dobro poznali okolico. Njihova naloga je bila pripraviti diverzantsko akcijo in poslati radijska sporočila v Anglijo. Skupina je imela kodno ime "Grouse".
Potovanje skupine Grouse do predvidenega sedeža je bilo težko. Že stoletja so bili odrezani od zunanjega sveta, medtem ko so čakali na nove akumulatorje za radijsko postajo.
Mesec dni kasneje, 19. novembra 1942, je bila iz Anglije poslana britanska diverzantska skupina 34 posebej usposobljenih moških. Njihova naloga je bila napasti težko vodno tovarno v Vemorku in jo uničiti. Skupina Grouse naj bi delovala kot sprejemni odbor in pripravila pristanek na Skolandu blizu jezera Møsvatn.
Potem pa je prišlo do katastrofe. Moški so bili prepeljani z jadralnimi letali in eno letalo in jadralno letalo, ki ga je vleklo, je strmoglavilo v goro. Drugo jadralno letalo po izpustu ni uspelo pravilno pristati, pri čemer je nekaj njegovih prebivalcev umrlo, Nemci pa so preživele streljali.
Kljub temu nazadovanju je sestavljala skupina Grouse, čeprav so se spremenili v "Swallow". Zimo so bili prisiljeni preživeti skrite v surovi divjini gorske planote Hardangervidda, jesti, kar je ostalo od njihovih obrokov, in prehranjevati z mesom divjih severnih jelenov. Jedli so celo vsebino želodca severnih jelenov, da so dobili bistvena hranila.
16. februarja 1943 je nova skupina mladih Norvežanov, posebej usposobljenih za misijo, pristala na gorski planoti Hardangervidda. Pristala sta 50 km od predvidenega cilja in stopila naravnost v snežni metež. Trajalo je nekaj dni, preden je 6 članov nove skupine "Gunnerside" lahko združilo moči z nekdanjo skupino Grouse, zdaj preimenovano v Swallow.
27. februarja zvečer so bili diverzanti v Fjøsbudalenu, severno od obrata v Vemorku, in se pripravljali na napad.
Začeli so z nevarnim in izčrpavajočim spustom, prečkali sotesko, ki se je spuščala do obrata za težko vodo, in z ograjo prerezali žico.
Pokrovitelji so zavzeli svoje položaje in diverzantska skupina se je hitro odpravila do cilja.
Na posode za težko vodo so postavili eksplozivne naboje in jih večino uničili. Čudno je, da nobeden od nemških stražarjev ni ničesar opazil, dokler ni konec.
V tistem času pa diverzanti že dolgo niso več hodili po gorah in pospeševali pot po stari delovni cesti pod Krossobanenom. Sneg je ležal globoko in zelo se je temnilo. Bilo je težko potovanje, vendar so se vsi varno vrnili nazaj.
Skupina se je po počitku razdelila v dve skupini. Ena skupina je bila v celoti oborožena in v uniformi in je smučala celo čez Norveško do varnosti na Švedskem.
Druga skupina se je razširila in skrila po celotni gorski planoti Hardangervidda. Tri tisoč Nemcev je obkolilo območje in prečesalo divjino, da bi jih izsledilo, a nobenega od diverzantov ni uspelo ujeti. Radijska postaja je do konca vojne vzdrževala stike z zavezniškim poveljstvom v Londonu.
Nemci pa so obnovili obrat za težko vodo. Američani so to imeli za tako nevarno, da so se odločili bombardirati tovarno. 16. novembra 1943 je 160 letečih trdnjav priletelo nad Rjukan in bombardiralo Vemork, elektrarno in tovarno.
Nemci so bili prisiljeni opustiti načrte za proizvodnjo težke vode, vendar je napad zahteval več kot 20 norveških življenj.
Kasneje so diverzanti ugotovili, da nameravajo Nemci svoje zaloge polpredelane težke vode iz Rjukana preseliti v Nemčijo. Iz Londona so prejeli ukaz, da se pošiljka težke vode za vsako ceno in na kakršen koli način uniči.
Najšibkejši člen v transportni verigi je bil trajekt, ki je vozil vlak čez jezero Tinnsjø. Noč pred plovbo trajekta je diverzantom uspelo na plovilo vstaviti časovni naboj.
V nedeljo, 20. februarja 1944, ko je bil "Hydro" na pol poti čez jezero, je prišlo do eksplozije in trajekt se je v nekaj minutah potopil ter s seboj odnesel vitalno težko vodo, da je počivala na globini 460 metrov. Štirje Nemci in štirinajst Norvežanov so umrli, a bitka za težko vodo je bila na Norveškem končno končana.
Vir : Visitrjukan AS



Mesto tedanjih dogajanj je postalo Norveška priljubljena izletniška točka!




Igrajo:

Andreas Döhler , Robert Hunger-Bühler , Marc Ben Puch , Christoph Bach , Peri Baumeister , Espen Reboli Bjerke , Torstein Bjørklund , Ole Christoffer Ertvaag, Eirik Evjen, Anna Friel , Ragnhild H. Myntevik , Benjamin Helstad , Espen Klouman Høiner , Endre Joner Oftebro Ellefsen , Frank Kjosås , Rolf Kristian Larsen , Mads Sjøgård Pettersen , Søren Pilmark , Christian Rubeck , Maibritt Saerens , Audun Sandem , Tobias Santelmann , Dennis Storhøi , Pip Torrens , Stein Winge , David Zimmerschied , Julia Schacht , Clara Lien Sunde , Elg Elgesem , Corey Johnson , Uwe Preuss , Bjørn Iversen , Glenn Andre Kaada

Žanri:Drama, zgodovina, vojni




Podrobnosti

Država: Norveška | Danska | Združeno kraljestvo | Češka | Švedska
Jezik: Norveški | Angleščina | Nemščina | Danski
Datum izdaje:4. januar 2015 (Norveška)
Poznan tudi kot:Bitka za težko vodo
Lokacije snemanja: Praga, Češka
Izvajanje: 45 min | 267 min (skupni čas delovanja)


Tehnične specifikacije:

Complete name : Kampen.om.tungtvannet.S01.SRBSubs.720p.WEB.x264
Format : MPEG-4
Format profile : Base Media
Codec ID : isom (isom/iso2/avc1/mp41)
File size : 488 MiB
Duration : 44 min 53 s
Overall bit rate : 1 518 kb/s
Writing application : Lavf56.19.100

Video
ID : 1
Format : AVC
Format/Info : Advanced Video Codec
Format profile : High@L3.1
Format settings, CABAC : Yes
Format settings, RefFrames : 4 frames
Codec ID : avc1
Codec ID/Info : Advanced Video Coding
Duration : 44 min 53 s
Bit rate : 1 384 kb/s
Width : 1 280 pixels
Height : 720 pixels
Display aspect ratio : 16:9
Frame rate mode : Constant
Frame rate : 25.000 FPS
Color space : YUV
Chroma subsampling : 4:2:0
Bit depth : 8 bits
Scan type : Progressive
Bits/(Pixel*Frame) : 0.060
Stream size : 445 MiB (91%)
Writing library : x264 core 144 r2525 40bb568

Audio
ID : 2
Format : AAC
Format/Info : Advanced Audio Codec
Format profile : LC
Codec ID : 40
Duration : 44 min 53 s
Bit rate mode : Constant
Bit rate : 128 kb/s
Channel(s) : 2 channels
Channel positions : Front: L R
Sampling rate : 48.0 kHz
Frame rate : 46.875 FPS (1024 SPF)
Compression mode : Lossy
Stream size : 41.1 MiB (8%)
Default : Yes
Alternate group : 1

UŽIVAJTE!
Vremya.pervykh.aka.Spacewalk.2017.SLOSubs.BRRip.XviD-DrSi

Klikni za povečavo!
02-01-2021 13:33 naložil Ziva
Sejalci: 1 / Odjemalci: 0 / Velikost: 3.21 GB / Dokončani: 2
Prenesi torrent Poročaj torrent Opis torrenta NFO
Zvrst: Drama | Zgodovinski
Kategorija: FILMI >  BRRip



Naziv: Vremya.pervykh.aka.Spacewalk.2017.SLOSubs.BRRip.XviD-DrSi
Source: Vremya.pervykh.2017.720p.BluRay.DD5.1.x264-SPEED
Leto izida ........: 2017
Velikost ...........: 3,20 GB
Dolžina ............: 137 Minut
Video ...............: 2892 Kbps | 720x304 | 23,976 fps
Zvok .................: Dolby Digital AC3 5.1 @ 448 Kbps
Kodek.................: XviD
Zvrst………….: Drama | Zgodovinski
Država .............: Rusija
Jezik ................: Ruski
Podnapisi…….: Slovenski (custom)
Prevedel: denycare – Hvala!
Tehnična obdelava: DVD Rippers Slovenija
IMDb Ocena ...: 7,3/10 (5.887 glasov)

Režija.........: Dmitriy Kiselev
Scenarij......: Sergey Kaluzhanov, Yuriy Korotkov


Evgeniy Mironov ... Alexey Leonov
Konstantin Khabenskiy ... Pavel Belyaev
Vladimir Ilin ... Sergey Korolev
Anatoliy Kotenyov ... Nikolay Kamanin
Aleksandra Ursulyak ... Svetlana Leonova
Elena Panova ... Tatyana Belyaeva
Aleksandr Novin ... Evgeny Khrunov
Gennadiy Smirnov ... Konstantin Feoktistov
Yuriy Nifontov ... Boris Rauschenbakh
Yuriy Itskov ... Boris Chertok


Spremljamo film posnet po resničnih dogodkih v času hladne vojne,
kjer se je Sovjetska zveza, v upanju, da prehiti ZDA, odloči predčasno poslati
človeka v vesolje, ki bi prav tako opravil prvi vesoljski sprehod v zgodovini
človeštva. Za ta podvig izberejo dva najboljša pilota in kozmonavta, ki tako
poletita v vesolje. Toda stvari ne gredo niti približno po načrtu, saj se ves čas
soočata z ovirami in smrtno nevarnostjo. Ob vsakem koraku pa ju spremlja ves svet.



1944 2015 SrbSubs DVDRip x264 AAC k2rbseseen

Klikni za povečavo!
31-12-2020 10:30 naložil rado77
Sejalci: 3 / Odjemalci: 0 / Velikost: 2.51 GB / Dokončani: 7
Prenesi torrent Poročaj torrent Opis torrenta
Zvrst: Drama | Vojni | Zgodovinski
Kategorija: FILMI > DVDRip

1944 2015 SrbSubs DVDRip x264 AAC k2rbseseen


1944 (2015)


Direktor: Elmo Nüganen
Pisec: Leo Kunnas
Igrajo: Kaspar Velberg , Kristjan Üksküla , Maiken Pius
Žanri: Drama , Zgodovina , Vojna
Podnapisi: Srbski


Zgodba:

V filmu "1944" režiser Elmo Nüganen prikazuje resnične dogodke na vzhodni fronti v Estoniji leta 1944, od bitke pri Tannenburgu, julijskih spopadov na gričih Sinimäed, do novembra, ko je polotok Sorve že osvojila sovjetska vojska. Vojna je prikazana z očmi udeležencev dogodkov na obeh vojskujočih se straneh - Estoncev, ki so se borili na strani nemške vojske v 20. estonski diviziji Waffen-SS, in kot del 8. estonskega strelskega korpusa sovjetske vojske . Za prebivalce Estonije je bila to vojna, v kateri se vsak sam odloča. S tako težkimi odločitvami se soočajo glavna junaka filma - vojaka nasprotnih strani Carl Tammik in Urey Jogi - pa tudi njihovi tovariši, sorodniki, prijatelji in celo neznanci. Prispeval Ahmed Tanvir


Podrobnosti

Država: Estonija | Finska
Jezik: Estonski | Ruščina | Nemško
Datum izdaje:20. februar 2015 (Estonija)
Lokacije snemanja: Hribi Sinimäed, občina Narva-Jõesuu, okrožje Ida-Viru, Estonija
Izvajanje: 100 min

IMDb: https://www.imdb.com/title/tt3213684


Tehnične specifikacije:

Complete name : 1944 2015 SrbSubs DVDRip x264 AAC k2rbseseen\1944 2015 DVDRip x264 AAC k2rbseseen.mp4
Format : MPEG-4
Format profile : Base Media
Codec ID : isom (isom/iso2/mp41)
File size : 2.51 GiB
Duration : 1 h 36 min
Overall bit rate mode : Variable
Overall bit rate : 3 740 kb/s
Encoded date : UTC 1970-01-01 00:00:00
Tagged date : UTC 1970-01-01 00:00:00
Writing application : Lavf52.104.0

Video
ID : 1
Format : MPEG-4 Visual
Format profile : Simple@L3
Format settings, BVOP : No
Format settings, QPel : No
Format settings, GMC : No warppoints
Format settings, Matrix : Default (H.263)
Codec ID : mp4v-20
Duration : 1 h 36 min
Bit rate : 3 608 kb/s
Width : 1 280 pixels
Height : 720 pixels
Display aspect ratio : 16:9
Frame rate mode : Constant
Frame rate : 25.000 FPS
Color space : YUV
Chroma subsampling : 4:2:0
Bit depth : 8 bits
Scan type : Progressive
Compression mode : Lossy
Bits/(Pixel*Frame) : 0.157
Stream size : 2.42 GiB (96%)
Writing library : XviD 1.2.1 (UTC 2008-12-04)
Language : English
Encoded date : UTC 1970-01-01 00:00:00
Tagged date : UTC 1970-01-01 00:00:00

Audio
ID : 2
Format : AAC LC
Format/Info : Advanced Audio Codec Low Complexity
Codec ID : mp4a-40-2
Duration : 1 h 35 min
Bit rate mode : Variable
Bit rate : 128 kb/s
Channel(s) : 2 channels
Channel layout : L R
Sampling rate : 44.1 kHz
Frame rate : 43.066 FPS (1024 SPF)
Compression mode : Lossy
Stream size : 87.8 MiB (3%)
Language : English
Encoded date : UTC 1970-01-01 00:00:00
Tagged date : UTC 1970-01-01 00:00:00


Uživajte!
The.Zookeepers.Wife.2017.SLOSubs.720p.BRRip.X264.AC3-R77

Klikni za povečavo!
31-12-2020 10:21 naložil rado77
Sejalci: 1 / Odjemalci: 0 / Velikost: 2.77 GB / Dokončani: 0
Prenesi torrent Poročaj torrent Opis torrenta
Kategorija: FILMI >  BRRip

The.Zookeepers.Wife.2017.SLOSubs.720p.BRRip.X264.AC3-R77


The Zookeeper's Wife (2017)

ŽENA ČUVAJA ŽIVALSKEGA VRTA


Direktor: Niki Caro
Pisatelji: Angela Workman (scenarij), Diane Ackerman (po knjigi avtorja)
Igrajo: Jessica Chastain, Johan Heldenbergh, Daniel Brühl
Žanri: Biografija, Drama, Zgodovina, Vojna
Podnapisi: Slovenski


Zgodba:

Ko se vojna leta 1939 konča, in medtem ko življenje še teče, Nemci postopoma občutijo svojo prisotnost, Adolf Hitler pa se na skrivaj pripravlja na invazijo na Poljsko. V teh nestanovitnih okoliščinah par Jan Zabinski in Antonina Zabinskanadaljujte z vsakdanjo rutino kot lastniki varšavskega živalskega vrta; vendar se bodo njihova življenjska dela in mesto pretvorili v pepel, ko bodo grozljivi Stuki Luftwaffeja začeli klati prestolnico. Zdaj, ko je živalski vrt likvidiran zaradi vojnih prizadevanj in številne njegove živali, ki so tragično umrle, je bila nekoč zverinja, zdaj bo služila kot svetišče, kjer bo par veterinarjev lahko na vidnem mestu skril preganjano poljsko-judovsko ljudstvo. To je bil dejansko nevaren načrt dveh altruistov, ki sta se, ne glede na posledice, pred nacistično grožnjo zavrnila in tristo sovražnih moških, žensk in otrok zaščitila pred nosom. Se bo svet spomnil žene čuvarja živalskega vrta? Napisal Nick Riganas
PO RESNIČNIH DOGODKIH!

Podrobnosti:

Država: Češka | Združeno kraljestvo | ZDA
Jezik: Angleščina | Nemščina | Hebrejščina
Datum izdaje:31. marec 2017 (Češka)
Lokacije snemanja: Praga, Češka
Izvajanje: 127 min

Tehnične specifikacije:

Complete name : The.Zookeepers.Wife.2017.SLOSubs.720p.BRRip.X264.AC3-R77\The.Zookeepers.Wife.2017.SLOSubs.720p.BRRip.X264.AC3-R77.mkv
Format : Matroska
Format version : Version 4
File size : 2.77 GiB
Duration : 2 h 6 min
Overall bit rate : 3 131 kb/s
Encoded date : UTC 2017-06-19 22:35:15 / UTC 2017-06-19T22:16:33Z
Writing application : mkvmerge v6.7.0 ('Back to the Ground') 64bit built on Jan 8 2014 15:10:52
Writing library : libebml v1.3.0 + libmatroska v1.4.1 / Lavf55.12.0

Video
ID : 1
Format : AVC
Format/Info : Advanced Video Codec
Format profile : High@L4.1
Format settings : CABAC / 4 Ref Frames
Format settings, CABAC : Yes
Format settings, Reference frames : 4 frames
Codec ID : V_MPEG4/ISO/AVC
Duration : 2 h 6 min
Bit rate : 2 700 kb/s
Width : 1 280 pixels
Height : 536 pixels
Display aspect ratio : 2.40:1
Frame rate mode : Constant
Frame rate : 23.976 (24000/1001) FPS
Color space : YUV
Chroma subsampling : 4:2:0
Bit depth : 8 bits
Scan type : Progressive
Bits/(Pixel*Frame) : 0.164
Stream size : 2.32 GiB (84%)
Writing library : x264 core 142 r2479 dd79a61
Default : Yes
Forced : No
Color range : Limited
Color primaries : BT.709
Transfer characteristics : BT.709
Matrix coefficients : BT.709

Audio
ID : 2
Format : AC-3
Format/Info : Audio Coding 3
Commercial name : Dolby Digital
Codec ID : A_AC3
Duration : 2 h 6 min
Bit rate mode : Constant
Bit rate : 448 kb/s
Channel(s) : 6 channels
Channel layout : L R C LFE Ls Rs
Sampling rate : 48.0 kHz
Frame rate : 31.250 FPS (1536 SPF)
Compression mode : Lossy
Delay relative to video : -5 ms
Stream size : 405 MiB (14%)
Title : Surround
Language : English
Service kind : Complete Main
Default : Yes
Forced : No

UŽIVAJTE!
The Great Alaskan Race 2019 SrbSubs 720p BRRip XviD AC3 Unknown

Klikni za povečavo!
27-12-2020 11:06 naložil Ziva
Sejalci: 2 / Odjemalci: 0 / Velikost: 1.99 GB / Dokončani: 7
Prenesi torrent Poročaj torrent Opis torrenta NFO
Kategorija: FILMI >  BRRip



The Great Alaskan Race 2019 720p BRRip XviD AC3 Unknown
Language(s): English
Size: 1.98 GB | Duration: 1hr 24mn | Container: AVI
Audio: AC-3 | 448 Kbps | 6 Channels
Video: XviD | 2915 Kbps | 1280 x 536
Genre: Adventure | Drama | History


Brian Presley, Treat Williams, Brad Leland


In 1925's historic great race of mercy, a group of brave mushers travel 700 miles to save the small children of Nome, Alaska from a deadly epidemic.



Bozicni.ustanak.S01.Ep.01-09. TVRip.720p.x264.R77

Klikni za povečavo!
25-12-2020 16:27 naložil System
Sejalci: 2 / Odjemalci: 0 / Velikost: 4.7 GB / Dokončani: 5
Prenesi torrent Poročaj torrent Opis torrenta
Zvrst: Drama | Vojni | Zgodovinski
Kategorija: FILMI > TV - Serija
Anonimen nalagalec

Bozicni.ustanak.S01.Ep.01-09. TVRip.720p.x264.R77

Bozićni ustanak

TV serija S01 / 2017

Božični upor


Pristne in zgodovinske serije o državi, ki je izginila s sveta, čeprav je zmagala v 1. svetovni vojni. Resnična zgodba o junaškem črnogorskem boju za dobrobit Srbije, ki jo je kasneje srbska okupacija kaznovala.- napisal: markomr


Zgodba

Serija o koncu prve svetovne vojne, izgubi državnosti in božični vstaji - najbolj tragičnih dogodkih v zgodovini Črne gore. Zgodba je pripovedovana skozi ljubezensko zgodbo in družinske odnose v tistem obdobju v Črni gori.

Žanri: Drama | Zgodovina | Romantični | Vojna
Igrajo: Miodrag Radonjic, Sanja Popovic, Amar Bukvic

Podrobnosti:
Država: Črna gora
Datum izdaje:29. januar 2017 (Črna gora)
IMDb: https://www.imdb.com/title/tt4310408/?ref_=login


Tehnične specifikacije:

Complete name : Bozicni.ustanak.S01.Ep.01-09. TVRip.720p.x264.R77\Bozicni ustanak TVRip.720p.x264.Ep.01.mp4
Format : MPEG-4
Format profile : Base Media / Version 2
Codec ID : mp42 (isom/iso2/avc1/mp41)
File size : 430 MiB
Duration : 42 min 25 s
Overall bit rate mode : Variable
Overall bit rate : 1 416 kb/s
Encoded date : UTC 2017-02-02 13:43:34
Tagged date : UTC 2017-02-02 13:43:34
Writing application : HandBrake 0.10.3 2016012200

Video
ID : 1
Format : AVC
Format/Info : Advanced Video Codec
Format profile : Main@L4
Format settings : CABAC / 9 Ref Frames
Format settings, CABAC : Yes
Format settings, Reference frames : 9 frames
Codec ID : avc1
Codec ID/Info : Advanced Video Coding
Duration : 42 min 25 s
Bit rate : 1 250 kb/s
Width : 1 280 pixels
Height : 720 pixels
Display aspect ratio : 16:9
Frame rate mode : Constant
Frame rate : 25.000 FPS
Color space : YUV
Chroma subsampling : 4:2:0
Bit depth : 8 bits
Scan type : Progressive
Bits/(Pixel*Frame) : 0.054
Stream size : 379 MiB (88%)
Writing library : x264 core 142 r2479 dd79a61
Encoded date : UTC 2017-02-02 13:43:34
Tagged date : UTC 2017-02-02 13:43:34
Color range : Limited
Color primaries : BT.709
Transfer characteristics : BT.709
Matrix coefficients : BT.709
Codec configuration box : avcC
Audio
ID : 2
Format : AAC LC
Format/Info : Advanced Audio Codec Low Complexity
Codec ID : mp4a-40-2
Duration : 42 min 25 s
Bit rate mode : Variable
Bit rate : 160 kb/s
Channel(s) : 2 channels
Channel layout : L R
Sampling rate : 48.0 kHz
Frame rate : 46.875 FPS (1024 SPF)
Compression mode : Lossy
Stream size : 48.7 MiB (11%)
Title : Stereo / Stereo
Default : Yes
Alternate group : 1
Encoded date : UTC 2017-02-02 13:43:34
Tagged date : UTC 2017-02-02 13:43:34

UŽIVAJTE!
Doberdob-roman.upornika.2015.Slovenija.720p.WEBRip.x264-R77

Klikni za povečavo!
23-12-2020 15:54 naložil rado77
Sejalci: 1 / Odjemalci: 0 / Velikost: 1.09 GB / Dokončani: 1
Prenesi torrent Poročaj torrent Opis torrenta
Zvrst: Zgodovinski
Kategorija: FILMI > Dokumentarni

Doberdob-roman.upornika.2015.Slovenija.720p.WEBRip.x264-R77

DOBERDOB-ROMAN UPORNIKA



EKIPA:

Scenarij in režija MARTIN TURK
Producentka IDA WEISS
Direktor fotografije RADOVAN ČOK
Montažer JURIJ MOŠKON
Skladatelj glasbe CHRIS ECKMAN
Avtor ilustracij DAMIJAN STEPANČIČ
Zvok MIHA JARAMAZ, VJEKOSLAV MIKEZ
Scenograf MARCO JURATOVEC
Kostumograf EMIL CERAR
Oblikovalka maske PETRA HARTMAN

Vsebina:

Leta 1930 Cankarjeva založba napove izid vojnega romana „Doberdob“ pisatelja Prežihovega Voranca. Roman bo popisal tragične zgodbe vojakov, ki so se borili na Doberdobski planoti, na kateri je po mnenju zgodovinarjev izkrvavelo največ slovenskih vojakov, ki so se borili v prvi svetovni vojni in na kateri se je bojeval tudi takrat dvaindvajsetletni pisatelj s pravim imenom Lovro Kuhar.
Roman dejansko izide šele leta 1940, pisatelj pa roman v desetih letih od napovedi izida napiše kar trikrat, saj rokopis nekajkrat izgine v nenavadnih okoliščin. Obdobje pisanja romana namreč sovpada z aktivnim političnim življenjem Prežihovega Voranca. Bil je eden prvih komunistov na slovenskem, leta 1937 pa postane celo organizacijski sekretar ter s tem drugi človek jugoslovanske komunistične partije. Bil je agent kominterne, popotnik, ki je govoril 5 jezikov ter bil v stikih z nekaterimi najvidnejšimi politiki tistega časa. Hkrati je ves čas ohranjal osebno skromnost in vero v malega človeka ter vrednote, ki sčasoma niso bile več v duhu vse trše partijske ideologije.
Roman Doberdob je nastajal v obdobju, ki ga je Voranc zaradi aktivnega političnega življenja, večinoma preživel v ilegali in velja za edini slovenski avtobiografski roman na temo prve svetovne vojne.


IGRALCI & SOGOVORNIKI:

SREČKO KERMAVNER (Prežihov Voranc)
ALEŠ VALIČ (Interpretacija odlomkov iz romana "Doberdob, Vojni Roman Slovenskega Naroda")
Sogovorniki:
METKA PETRIČ, vnukinja Prežihovega Voranca
DDr. IGOR GRDINA, zgodovinar in literarni zgodovinar
Mag. Dr. FABIAN HAFNER, slavist
Mag. MARKO ŠTEPEC, zgodovinar
Dr. MIRAN HLADNIK, literarni zgodovinar
DARIO FRANDOLIČ, profesor in ljubiteljski zgodovinar
Mag. VASJA KLAVORA, publicist
Dr. VIDA DEŽELAK BARIČ, zgodovinarka
MIROSLAV OSOJNIK, upokojeni strokovni sodelavec Koroškega prokrajinskega muzeja




PRODUKCIJA:
BELA FILM v koprodukciji z
RTV SLOVENIJA
Vodja projekta: Mateja Erika Smisl
Dokumentarni program
Urednik: Peter Povh
Producent: Jaka Hemler
in
RAI FURLANIJA JULIJSKA KRAJINA
Odgovorna urednica za Slovenski program RAI – Sedež za FJK:
Martina Repinc


TEHNIČNI PODATKI

Dolžina: 74 min.
Format: DCP, barvni
Ratio: 1:1,78 (16:9)
Hitrost: 25fps
Zvok: Stereo
Jezik: Slovenski
Leto produkcije: 2015 (Maj)
Tip projekta: Celovečerni, Dokumentarni

KDOR SEJE TUDI ŽANJE!
Cinema.Komunisto.2010.SLOSubs.720p.WEBRip.x264-R77

Klikni za povečavo!
22-12-2020 14:30 naložil rado77
Sejalci: 2 / Odjemalci: 0 / Velikost: 1.37 GB / Dokončani: 2
Prenesi torrent Poročaj torrent Opis torrenta
Zvrst: Zgodovinski
Kategorija: FILMI > Dokumentarni

Cinema.Komunisto.2010.SLOSubs.720p.WEBRip.x264-R77

Cinema Komunisto (2010)
dokumentarni



Režija Mila Turajlić
Scenarij Mila Turajlić
Fotografija Goran Kovačević
Montaža Aleksandra Milovanović
Glasba Nemanja Mosurović
Producenti Dragan Pešikan, Mila Turajlić, Iva Plemić Divjak, Dejan Petrović, Goran Ješić
Produkcija Dribbling Pictures
Koprodukcija 3K Productions, Intermedia Network
Nastopajo Veljko Bulajić, Velimir Bata Živojinović, Aleksandar Leka Konstatinović, Steva Petrović, Gile Djurić
Trajanje : 01:41:25
SLO PODNAPISI


Vsebina:

SLO
Zgodba o filmskem studiu, kjer je nastajala zgodovina Jugoslavije. Zgodba o človeku, ki je vsak večer obsesivno gledal filme, medtem ko je podnevi vodil državo ter bral in popravljal scenarije bodočih filmov. Zgodba o času, ko je Jugoslavija veljala za Hollywood vzhoda. V zakulisje zlatega obdobja jugoslovanske filmske industrije nas popelje dolgoletni Titov osebni kinooperater Leka Konstantinović, njegov najljubši režiser Veljko Bulajić, zvezda partizanskega filma Bata Živojinović in drugi.
Kolaž prizorov iz pozabljenih jugoslovanskih filmov, arhivskih posnetkov in ekskluzivnih intervjujev pripoveduje zgodbo o vzponu in padcu 'Hollywooda vzhoda' in o ustvarjanju mita o Jugoslaviji na filmskem platnu. Prvenec mlade srbske režiserke je nostalgična, grenko-sladka zgodba o državi, ki ne obstaja več... razen v filmu.
Mila Turajlić, režiserka in scenaristka:
»V to zgodbo sem vstopila kot pripadnica nove generacije jugoslovanskih filmskih ustvarjalcev z zelo nejasnimi spomini na deželo, ki ne obstaja več. Odrasli smo med ruševinami nečesa, kar nostalgično imenujemo 'zlata doba'. Zamudili smo to veliko žurko in prišli ravno ob času, ko je bilo treba plačati račune. /.../ Resnična motivacija za film je bil prvi obisk filmskih studiev Avala filma.
Vstopila sem skozi široka vrata in bilo je, kot bi vstopila v skrivnostni vrt. Pogledala sem za zid in nenadoma se mi je razkril svet, za katerega nisem vedela, da obstaja. Bil je brezmejen, izumrlo mesto zapuščenih in razpadajočih kulis, zastarele opreme, praznih filmskih scen in brezposelnih tehnikov. /.../ Avala film je bil na neki način kraj, kjer se je rojevala iluzija o Jugoslaviji. To je bila moja izhodiščna točka za film, saj sem menila, da lahko porušeni filmski studio razkrije nekaj o razpadu scenografije dežele, v kateri smo živeli. /.../ Želela sem narediti film o tem, kako je mogoče s pomočjo filma napisati zgodbo o neki deželi in ustvariti njeno uradno nacionalno podobo. /.../ Mojo osnovno idejo najbolje povzame citat Jacquesa Rancièra: 'Zgodovina filma je zgodovina moči ustvarjanja zgodovine.'«

SRB-HR
(Filmska priča o Titovu kinooperateru, usponu i padu Avala filma, žanru partizanskog filma i Pulskom festivalu...
Cinema Komunisto nas vodi na putovanje kroz ostatke Titove filmske industrije ispitujući uspon i pad jugoslavenske filmske iluzije. Leka Konstantinović bio je 32 godine Titov osobni kinooperater. U tom periodu prikazao mu je ukupno 8801 film o čemu je vodio uredne zabilješke. Zajedno s redateljemVeljkom Bulajićem, Titovim omiljenim glumcem Batom Živojinovićem i direktorima i zaposlenicima Avala filma Leka govori o tome kako je Maršal Tito koristio filmsku industriju da stvori 'zvanični narativ' nove države - Socijalističke Federativne Republike Jugoslavije. Od natrule scenografije u 'gradu duhova’, u koji se pretvorila moćna Avala, do predsjednikove privatne sale za projekcije, pratimo čovjeka koji je opsesivno svake noći gledao filmove dok je danju, upravljajući zemljom, čitao, pa čak i prepravljao scenarije budućih filmova. Uz pomoć odlomaka iz više od 60 zaboravljenih jugoslavenskih filmova, 'Cinema Komunisto' je priča o Jugoslaviji na način na koji ona nikada nije ispričana na filmskom platnu. Otkrijte tajne pulskog festivala, rušenja mosta na Neretvi, Titove opsesije kinematografijom i opsesije stranih glumaca i redatelja Titom koji su redovito snimali u Jugoslaviji.)


Tehnične specifikacije:

Unique ID : 171512738702936913082549147028703504004 (0x810826E4F64EBBA99B0A576015FD6684)
Complete name : Cinema.Komunisto.2010.SLOSubs.720p.WEBRip.x264-R77\Cinema Komunisto (2010).mkv
Format : Matroska
Format version : Version 4
File size : 1.37 GiB
Duration : 1 h 41 min
Overall bit rate : 1 930 kb/s
Encoded date : UTC 2010-02-22 21:41:31
Writing application : mkvmerge v5.9.0 ('On The Loose') built on Dec 9 2012 15:37:01
Writing library : libebml v1.3.0 + libmatroska v1.4.0
Video
ID : 1
Format : AVC
Format/Info : Advanced Video Codec
Format profile : High@L4.1
Format settings : CABAC / 8 Ref Frames
Format settings, CABAC : Yes
Format settings, Reference frames : 8 frames
Muxing mode : Header stripping
Codec ID : V_MPEG4/ISO/AVC
Duration : 1 h 41 min
Bit rate : 1 735 kb/s
Width : 720 pixels
Height : 576 pixels
Display aspect ratio : 16:9
Frame rate mode : Constant
Frame rate : 25.000 FPS
Standard : PAL
Color space : YUV
Chroma subsampling : 4:2:0
Bit depth : 8 bits
Scan type : Progressive
Bits/(Pixel*Frame) : 0.167
Stream size : 1.20 GiB (88%)
Writing library : x264 core 128
Default : Yes
Forced : No
Color range : Limited
Color primaries : BT.601 PAL
Transfer characteristics : BT.709
Matrix coefficients : BT.601
Audio
ID : 2
Format : AC-3
Format/Info : Audio Coding 3
Commercial name : Dolby Digital
Muxing mode : Header stripping
Codec ID : A_AC3
Duration : 1 h 41 min
Bit rate mode : Constant
Bit rate : 192 kb/s
Channel(s) : 2 channels
Channel layout : L R
Sampling rate : 48.0 kHz
Frame rate : 31.250 FPS (1536 SPF)
Compression mode : Lossy
Stream size : 139 MiB (10%)
Language : Serbian
Service kind : Complete Main
Default : Yes
Forced : No

UŽIVAJTE!
Ballon 2018 SloSubs 1080p BRRip XviD AC3 Unknown

Klikni za povečavo!
22-12-2020 10:40 naložil Ziva
Sejalci: 1 / Odjemalci: 0 / Velikost: 4.78 GB / Dokončani: 2
Prenesi torrent Poročaj torrent Opis torrenta NFO
Kategorija: FILMI >  BRRip



Ballon 2018 1080p BRRip XviD AC3 Unknown
Language(s): German
Size: 4.77 GB | Duration: 2hr 05mn | Container: AVI
Audio: AC-3 | 448 Kbps | 6 Channels
Video: XviD | 4999 Kbps | 1920 x 800
Genre: Drama | History | Thriller


Friedrich Mücke, Karoline Schuch, David Kross


Poleti 1979 sta dve družini v Thüringenu v vzhodni Nemčiji pripravili nor načrt. Obupno želijo zapustiti DDR na zahod in nameravajo pobegniti z domačim balonom z vročim zrakom. Po tednih šivanja in petjenja amaterji opravijo prvi poskus. Nekaj metrov od zahodnonemške meje njihov balon trpi zaradi dežja in nesreč. Na srečo se jim uspe izogniti policiji. Kljub temu najdejo razbitine njihovega poskusa pobega, kar sproži obupan lov na njih. Napetost narašča, ko se družine odločijo, da bodo poskusile znova, in sledi tekma s časom. Po eni strani se oblasti, ki so obupane, da bi izsledile izdajalce, zavedajo, da se načrtuje drugi poskus. Po drugi strani pa morajo morebitni ubežniki, ki se zavedajo, da jim je oblast za petami ...




Bila.so.Titova.mesta.2018.SLOSubs.720p.WEBRip.x264-R77

Klikni za povečavo!
17-12-2020 17:57 naložil System
Sejalci: 1 / Odjemalci: 0 / Velikost: 1.92 GB / Dokončani: 4
Prenesi torrent Poročaj torrent Opis torrenta
Zvrst: Zgodovinski
Kategorija: FILMI > Dokumentarni
Anonimen nalagalec

Bila.so.Titova.mesta.2018.SLOSubs.720p.WEBRip.x264-R77

Bila so Titova mesta

mini dokumrntarna serija
2 epizodi


Opis:
Po smrti Josipa Broza Tita (1892–1980) je v vsaki izmed šestih jugoslovanskih republik in dveh avtonomnih pokrajin po eno mesto nosilo Titovo ime.
Z razpadom države so atribut Titova/Titov/Titovo postopno izgubila. Danes so ta mesta v sedmih državah.
Dokumentarni film v dveh delih Bila so Titova mesta skozi usodo osmih mest nekdanje Jugoslavije spremlja, kako se je v minulih desetletjih preoblikoval ta nekoč naš skupni prostor. Zgodbe mest spoznamo skozi pripoved iskrivih sogovornikov, ki se spominjajo obdobja pod Titovim imenom. Ta mesta so bila pogosto privilegirana, izbrana zaradi levičarskih idej, delavskega značaja, industrializacije, urbanizacije in sodobnosti. Mnoge zgodbe so tragične, saj je malo mest, ki se jih ni dotaknila vojna v nekdanji Jugoslaviji.
V prvem delu je poudarek na štirih mestih: Podgorici, Korenici, Vrbasu in Mitrovici.
Glavno mesto Črne gore Podgorica – nekoč Titograd – se hitro razvija, mladi se ob večerih družijo v središču mesta, pred vladno stavbo pa prevarani delavci gladovno stavkajo.
V hrvaški Korenici, pri Plitviških jezerih, se je začela vojna v Jugoslaviji. Ko je izbruhnila vstaja krajinskih Srbov, so pobegnili Hrvati; med operacijo Nevihta so bežali Srbi. Razkošna Titova vila Izvir je razdejana, mogočna podzemna vojaška baza Željava minirana.
Vrbas je pomembno industrijsko mesto v Vojvodini. Ko so po drugi vojni številni Nemci odšli, so z 'vlaki brez voznega reda' v njihove hiše naselili Črnogorce. V mestu živi več kot 20 narodnosti in med prebivalci je večkulturnost pomembna vrednota.
Kosovsko Mitrovico – Mitrovicë razdvaja reka Ibar. Ena stran je popolnoma albanska, druga pretežno srbska. V srbskem delu je dvojna oblast: tista, ki jo priznava država Kosovo, in tista, ki jo je postavila Srbija, saj ima to ozemlje še vedno za svoje. V rudniku Stari trg so se leta 1989 z gladovno stavko prvi uprli Miloševiću. Za marsikoga je bil to začetek razpada Jugoslavije.
V drugem delu bodo predstavljena mesta Užice, Veles, Drvar in Velenje.
Režija in scenarij:Amir Muratović
Produkcija: Matjaž Ham


TEHNIČNI PODATKI:

Razmerje slike: 1,77:1 // 16:9
Trajanje in dolžina: 102 minuti
Barva: barvni
Zvok: stereo
Prikazovalni format: digitalni datoteka
Podnapisi: Slovenski
KDOR SEJE TUDI ŽANJE!
Franja.2012.SLOVENIJA.720p.WEBRipx2-R77

Klikni za povečavo!
17-12-2020 17:49 naložil System
Sejalci: 0 / Odjemalci: 0 / Velikost: 1.38 GB / Dokončani: 0
Prenesi torrent Poročaj torrent Opis torrenta
Kategorija: FILMI > Dokumentarni
Anonimen nalagalec

Franja.2012.SLOVENIJA.720p.WEBRipx2-R77


Franja

igrano dokumentarni film


Opis:
Franja je film o izjemni in dramatični življenjski zgodbi Franje Bojc Bidovec.
Je film o zgodbi partizanske zdravnice in je film o mladem dekletu Anji, študentki medicine, ki v Franjini intimni izpovedi v pismih sinu , najde navdih in ženskost v vsem presežnem, ki je v svetu, navidez enakih možnosti, izpuhtela. Ta generacijski preskok, skozi niz igranih dramatičnih prizorov, ustvarja vez med žensko, ki se je v najtežjih trenutkih druge svetovne vojne uveljavila kot osebnost in zdravnica in je predvsem s svojo karizmatičnostjo in etiko presegala vse politične in nacionalne delitve, ter med mladim, sodobnim dekletom. Tako povsem igrani film, ki temelji na verificiranih zgodovinskih virih in osebnih pismih zdravnice, postaja intimen filmski dokument obeh časov. Pomen Franje Bojc Bidovec ni zgolj nacionalen in presega politične delitve. Ameriški general, vrhovni poveljnik zavezniških oboroženih sil in kasneje predsednik ZDA Dwight Eisenhower, se je s posebno diplomo in s temi besedami zahvalil upravnici bolnice Franja dr. Franji Bojc Bidovec:"Tega, kar ste storili za nas, ne bomo mogli nikoli poplačati, ne bomo pa tega nikoli pozabili."


Kdo je bila Franja Bojc Bidovec?
Franja Bojc Bidovec je bila legendarna partizanska zdravnica, po kateri se imenuje najbolj znana partizanska bolnica iz 2. svetovne vojne, ki je okupatorji nikoli niso odkrili. Franja Bojc je bila rojena leta 1913 v Nemški vasi pri Ribnici kot tretji od sedmih otrok kmečke družine. Gimnazijo je obiskovala v Ljubljani, kjer so jo zaradi prepisovanja pri pouku verouka izključili iz internata. Življenje v mestu je bilo drago, zato se je preživljala z dajanjem inštrukcij bogatim otrokom. Najprej je študirala v Ljubljani, medicino pa je zaključila leto 1939 v Zagrebu. Njeno prvo službovanje je bilo v Bohinjski Bistrici, ob začetku vojne pa je v domači Ribnici odprla zasebno prakso. Že julija 1941 je začela sodelovati v Osvobodilni fronti in italijanske oblasti so jo trikrat zaprle, tretjič se je rešila iz zapora zaradi italijanske kapitulacije. Med novembrsko nemško ofenzivo na Ribnico leta 1943 je bila skupaj s svojo sestro in dr. Pavlo Jerina zajeta na Travni gori, kamor so se z ranjenci umaknili iz bolnišnice, in tam je doživela pravo kalvarijo: del osebja in ranjencev je bil pobit, del pa jih je sovražnik zajel. Med sojenjem se je Franja skupaj s soobtoženimi sklicevala na zdravniško etiko, ki zavezuje zdravnike k pomoči vsem ljudem. Po izpustitvi sta obe ponovno odšli v partizane, Pavla v Trnovski gozd, Franjo so poslali na Cerkljansko. V Cerkno in v sotesko Pasice je prvič prišla 2. januarja 1944, kar opisuje tudi v svoji knjigi Ni neskončnih poti, pisma sinu.
»Med redkimi drevesi smo se približali gori. Sprejela nas je s strmimi skalnatimi stenami in previsi, ki so oklepali hudournik. Ko sem se ozrla, me je prevzela kotlina za menoj, ki je tonila v vseh odtenkih sivine. Kar stala bi in gledala in poslušala. A sem morala naprej. Dan je bil kratek in čakalo nas je še dosti dela.
Še enkrat smo prečkali hudournik, potem pa se je kmalu odprla pred nami kotlina, obdana z visokimi, strmimi stenami. Na njenem najširšem delu je stala lesena baraka v obliki velike črke L. Tu bo poslej tvoj dom, tu boš delala, je nekam slovesno rekel dr. Volčjak. Ranjenci, bilo jih je kakih deset, so v en glas odgovorili na pozdrav. Doktor Volčjak me je predstavil in jim povedal, da bova poslej skrbela zanje z dr. Klajnom, ki še pride za menoj.
Po obrazih bolničark in ranjencev sem lahko presodila, kako priljubljen je in kakšno veljavo ima med njimi dr. Volčjak. In vedela sem, da se bom morala zelo potruditi, da ga bom dosegla. Najti stik z ljudmi, zbujati zaupanje, pa od vsakega zahtevati, da opravlja svoje dolžnosti, je včasih težko. Doktor Volčjak je to znal. Ko smo oskrbeli ranjence in se sestali z osebjem, so se zbrali okoli njega kot prava družina. Bilo jih je osem, sami kmečki fantje, nekateri med njimi že stari partizani. Z doktorjem Volčjakom jih je še posebej družil spomin na dni, ko so gradili prvo barako v soteski. Zadovoljstvo jim je sijalo z obrazov, ko smo se menili, kako bomo zgradili še eno manjšo barako s prostorom za operacije. Bo meni, drobceni ženski uspelo utrditi podobno veljavo, sem se spraševala. Bom znala voditi vsa ta dela? Bom zmogla kirurške posege pri ranjencih, ko nisem bila za to posebej usposobljena? Bilo me je kar malo strah.«
Ustanovitelj in prvi vodja bolnice Franja je bil dr. Viktor Volčjak, Franja BojcBidovec pa je mesto upravnice prevzela 22. januarja 1944 in jo uspešno vodila vse do osvoboditve. Bolnico je z zadnjimi ranjenci zapustila 5. maja 1945. Takoj po vojni je delala v vojaških bolnišnicah v Gorici, Trstu in Ljubljani, od leta 1954, po opravljenem specialističnem izpitu iz ginekologije in porodništva, pa na ginekološko porodniških klinikah v Beogradu in v Ljubljani. Kot članica raznih organizacij in društev si je stalno prizadevala za ohranitev Partizanske bolnice Franja kot zgodovinskega spomenika. Prejela je številna vojaška in civilna odlikovanja in priznanja, imenovali so jo tudi za častno občanko Idrije in Ribnice. Umrla je na svoj rojstni dan 26. novembra 1985 v Ljubljani.


Igrani film po resničnih dogodkih

Dokumentarno igrani film temelji na preverjenih zgodovinskih virih in osebnih pismih zdravnice in je tako intimen filmski dokument vojnega časa in skozi oči študentke Anje tudi sodobnega časa in dojemanja preteklosti. Scenarij je po zgodovinskih dokumentih napisal Tomaž Letnar, v vlogi Franje pa je zaigrala Ula Furlan. V filmu igrajo še Aljoša Ternovšek, Ana Vipotnik in Matevž Mueller. Film je nastal v koprodukciji Janez Pirc Produkcija in Televizija Slovenija ter v sofinanciranju Ministrstva za kulturo RS in Občine Cerkno.


Globlji namen filma

Film si poleg estetskih in etičnih namenov postavlja še eno zahtevno nalogo: z zgodbo brez ideoloških predznakov želi nagovoriti novo generacijo nosilcev kolektivnega spomina ter ji o znamenjih časa pripovedovati objektivno in obenem čustveno, da bodo lahko razumeli, kaj se je med 2. svetovno vojno dogajalo, in predvsem to, da se kaj takšnega ne bi več zgodilo.
Vir: https://www.rtvslo.si/dostopno/clanki/franja-igrano-dokumentarni-film-z-zvocnim-opisom/508166
Tehnični podatki:
Complete name : Franja.2012.SLOVENIJA.720p.WEBRipx2-R77\Franja.2012.SLOVENIJA.720p.WEBRipx2-R77.ts
Format : MPEG-TS
File size : 1.38 GiB
Duration : 1 h 36 min
Overall bit rate mode : Variable
Overall bit rate : 2 050 kb/s
Video
ID : 256 (0x100)
Menu ID : 1 (0x1)
Format : AVC
Format/Info : Advanced Video Codec
Format profile : High@L3.1
Format settings : CABAC / 4 Ref Frames
Format settings, CABAC : Yes
Format settings, Reference frames : 4 frames
Codec ID : 27
Duration : 1 h 36 min
Nominal bit rate : 1 800 kb/s
Width : 1 280 pixels
Height : 720 pixels
Display aspect ratio : 16:9
Frame rate mode : Variable
Color space : YUV
Chroma subsampling : 4:2:0
Bit depth : 8 bits
Scan type : Progressive
Writing library : x264 core 148 r2638 7599210
Audio
ID : 257 (0x101)
Menu ID : 1 (0x1)
Format : AAC LC
Format/Info : Advanced Audio Codec Low Complexity
Format version : Version 4
Muxing mode : ADTS
Codec ID : 15-2
Duration : 1 h 36 min
Bit rate mode : Variable
Channel(s) : 2 channels
Channel layout : L R
Sampling rate : 48.0 kHz
Frame rate : 46.875 FPS (1024 SPF)
Compression mode : Lossy
Delay relative to video : -80 ms
Veliko užitkov!
The.Cokeville.Miracle.2015.SRBSubs.1080p.BluRay.x264

Klikni za povečavo!
09-12-2020 15:01 naložil Ziva
Sejalci: 1 / Odjemalci: 0 / Velikost: 1.44 GB / Dokončani: 4
Prenesi torrent Magnet Link Poročaj torrent Opis torrenta NFO
Zvrst: Drama | Zgodovinski
Kategorija: FILMI > BluRay-1080



Velikost: 1.44 GB
Leto izida: 2015
Jezik: Angleščina
Trajanje: 1h 34min
Žanr: Drama, Zgodovinski
Podnapisi: Slovenski
Video: MPEG4 Video (H264) 1920x1080 23.976fps 2105kbps
Zvok: AAC 48000Hz stereo 93kbps
Kodek: AVC1
IMDb ratings: 5.2/10 from 2132 users

Režija: T.C. Christensen
Scenarij: T.C. Christensen



Jason Wade … Ron Hartley
Sarah Kent … Claudia Hartley
Nathan Stevens … David Young
Kymberly Mellen … Doris Young
Caitlin E.J. Meyer … Penny Young
Kimball Stinger … Jason Hartley
Alexa Rae … Cindy Hartley
Paul D. Hunt … Cunningham
Grace Hallows … Rachel Walker
Caddis Adams … Katie Walker
Barta Heiner … Verlene Bennion
Koleman Stinger … Travis Walker
Mason D. Davis ... Ben Robbins



16. maja 1986 je v zaspanem mestecu Cokeville v zvezni državi Wyoming norec za talce vzel celo osnovno šolo. Film sledi resnični zgodbi tistega usodnega dne in preiskovalcu dogodka, ki išče dokaze o domnevnem »čudežu«.






Als Hitler Das Rosa Kaninchen Stahl 2019 CroSubs GERMAN 720p BRRip XviD AC3 Unknown

Klikni za povečavo!
01-12-2020 16:40 naložil Ziva
Sejalci: 3 / Odjemalci: 0 / Velikost: 4 GB / Dokončani: 5
Prenesi torrent Poročaj torrent Opis torrenta NFO
Kategorija: FILMI >  BRRip



Als Hitler Das Rosa Kaninchen Stahl 2019 GERMAN 720p BRRip XviD AC3 Unknown
Language(s): German
Size: 3.99 GB | Duration: 1hr 59mn | Container: AVI
Audio: AC-3 | 448 Kbps | 6 Channels
Video: XviD | 4349 Kbps | 1280 x 536 santa
Genre: Drama | Family | History
Podnapisi : hrvaški

Riva Krymalowski, Marinus Hohmann, Carla Juri

Judovska družina je morala pred nacisti pobegniti iz Berlina. Najprej pobegnejo v Zürich. Od tam gre v Pariz in končno v London.




De Gaulle.2020.SLOSubs.720p.HDTVRip x264.R77

Klikni za povečavo!
20-11-2020 13:26 naložil System
Sejalci: 1 / Odjemalci: 0 / Velikost: 1.35 GB / Dokončani: 2
Prenesi torrent Poročaj torrent Opis torrenta
Kategorija: FILMI > HDRip
Anonimen nalagalec

De Gaulle.2020.SLOSubs.720p.HDTVRip x264.R77
DE GAULLE
FRANCOSKI FILM
Opis:
9. novembra 2020 mineva petdeset let od smrti Charlesa de Gaulla, francoskega generala, politika in državnika, ki se je rodil 22. novembra 1890. Film prikazuje krajše obdobje, ki velja za najpomembnejše v njegovem političnem delovanju. Spoznamo tudi njegovo družino, ki sicer ni pogosto prikazana.
Maja leta 1940 je Charles de Gaulle poveljeval francoskemu tankovskemu bataljonu, ki naj bi zaustavil napredovanje Nemcev, a se je bil prisiljen umakniti. Z nemško ofenzivo na Francijo se je vojaški in politični položaj države še poslabšal. De Gaulle se je pridružil vladi v Parizu in bil 6. maja povišan v generala. Tri dni zatem se je v Londonu srečal s Churchillom. Medtem so njegova žena Yvonne ter otroci Philippe, Elisabeth in Anne ostali na severovzhodu Francije. 14. junija 1940 so nemške enote brez boja zasedle Pariz, nato pa vso Francijo. De Gaulle se je umaknil v London, kjer je bil ves čas dejaven, BBC pa mu je omogočil sloviti spodbudni radijski nagovor rojakom, s katerim je postavil temelje svobodne Francije. De Gaulle daljši čas ni imel stikov z družino, nato pa je izvedel, da so zbežali do Bresta, kjer naj bi se vkrcali na eno od treh ladij, od katerih sta po izplutju dve potonili.
Podrobnosti:
Režija: Gabriel Le Bomin
Scenarij: Gabriel Le Bomin, Valérie Ranson-Enguiale
V glavnih vlogah: Lambert Wilson, Isabelle Carré, Olivier Gourmet, Catherine Mouchet, Pierre Hancisse, Sophie Quinton, Gilles Cohen
Leto: 2020
Trajanje: 108 min
Žanri: Življenjepis, Drama, Zgodovina
Država: Francija
Jezik: Francoščina, Angleščina
Podnapisi: Slovenščina
Datum izdaje: 4. marec 2020 (Francija)
Lokacije snemanja: Grad Maillard, Beautheil-Saints, Seine-et-Marne, Francija
Tehnične specifikacije:
KDOR SEJE TUDI ŽANJE!
Spartacus Gods Of The Arena S01 SloSubs 720p HDTV x264 PACK

Klikni za povečavo!
12-11-2020 07:57 naložil Spartakus
Sejalci: 1 / Odjemalci: 0 / Velikost: 8.74 GB / Dokončani: 3
Prenesi torrent Poročaj torrent Opis torrenta NFO
Kategorija: FILMI > HDTV

INFO
Spartacus Gods Of The Arena S01 720p HDTV x264 PACK
Language(s): English
Size: 8.74 GB | Duration: 6 x 55mn | Container: MKV
Audio: AC-3 | 384 Kbps | 6 Channels
Video: AVC | 3400 Kbps | 1280 x 720
Genre: Action | Adventure | History
mini serija

IGRAJO

John Hannah, Manu Bennett, Peter Mensah

VSEBINA
In the time before the arrival of Spartacus, the House of Batiatus faces many challenges from competitors, and within its own household.



Der.Uberlaufer.aka.The.Turncoat.2020.SLOSubs.720p.WEB-DL.H264.AAC-R

Klikni za povečavo!
11-10-2020 14:52 naložil System
Sejalci: 2 / Odjemalci: 0 / Velikost: 3.94 GB / Dokončani: 5
Prenesi torrent Poročaj torrent Opis torrenta NFO
Zvrst: Drama | Vojni | Zgodovinski
Kategorija: FILMI > XviD
Anonimen nalagalec


Der.Uberlaufer.aka.The.Turncoat.2020.SLOSubs.720p.WEB-DL.H264.AAC-R





Der Uberlaufer aka The Turncoat 2020

MINI SERIJA V DVEH DELIH
Prvič je bila predvajana kot štiridelna mini serija na spletu od 1. aprila 2020 v medijski knjižnici ARD





PREBEŽNIK




Zgodba:

Mladi nemški vojak Walter Proska (Jannis Niewöhner) se je zadnje poletje vojne leta 1944 vrnil z domačih počitnic na vzhodno fronto. A vlak, ki naj bi ga peljal na fronto, napadejo partizani. Walter se znajde v skupini raztresenih pripadnikov Wehrmachta, ki so jih ostale čete zapustile in so obkroženi s sovražniki in se bojijo za svoje življenje. V tej obupni situaciji sreča partizanko Wando (Malgorzata Mikolajczak). Ti in Walterjev tovariš Kürschner (Sebastian Urzendowsky) ga dvomita v pravilnost svoje zaveze in prisege ...





Igralska zasedba:

vloga:¸¸¸¸¸¸¸¸¸¸¸¸¸¸¸¸¸¸¸¸¸¸¸¸¸¸¸¸¸¸¸¸¸Igralec:

Walter Proska..........................Jannis Niewöhner
Wanda Zielinski.......................Malgorzata Mikolajczak
Wolfgang Kürschne.................Sebastiana Urzendowskega
Willi vstani...............................Rainer Bock
Ferdinand Ellerbrok "Baffi"......Bjarne punca
Maria Rogalski........................Katharina Schüttler
Kurt Rogalski..........................Shenja se zasmeje
Paul Zacharias........................Florian Lukas
Zwiczosbirski..........................Adam Venhaus
Helmut Poppek.......................Mathias Herrmann
Jakub Zielinski........................Wieslaw Zanowicz
Župnik Jan Kowolski...............Janusz Cichocki
Glasba:Antoni Lazarkiewicz
Kamera:Arthur Reinhart
Scenarij in režija:Bernd Lange, Florian Gallenberger
Direktor:Florian Gallenberger

Žanri: drama, zgodovina, vojna


Podrobnosti:

Država: Nemčija
Jezik: Nemščina, Poljščina, Rusko
Datum izdaje:1. april 2020 (Nemčija)
Podnapisi: Slovenski
Izvajanje: 173 min

IMDb ocena: 6.8/10 ..... link: https://www.imdb.com/title/tt5917226/?ref_=nv_sr_srsg_0





KDOR SEJE TUDI ŽANJE!
The Spy 2019 SrbSubs 720p WEBRip XviD AC3 Unknown

Klikni za povečavo!
07-10-2020 16:42 naložil rado77
Sejalci: 2 / Odjemalci: 0 / Velikost: 2.62 GB / Dokončani: 10
Prenesi torrent Magnet Link Poročaj torrent Opis torrenta NFO
Kategorija: FILMI > WEBRip-720


The Spy 2019 SrbSubs 720p WEBRip XviD AC3 Unknown





The Spy (2019)

Vohun-(ka) ( 2019 )





Direktor: Jens Jonsson
Scenarij: Harald Rosenløw-Eeg , Jan Trygve Røyneland
Igrajo: Ingrid Bolsø Berdal , Rolf Lassgård , Damien Chapelle
Žanri: Biografija, Drama, Triler, Vojni, Zgodovinski





Zgodba:

Sonja Wigert je diva in zvezda v Stockholmu, ko izbruhne 2. svetovna vojna, ki je naglo pritegnila pozornost nacističnega častnika Josefa Terbovena. Nato jo švedska obveščevalna služba rekrutira kot vohunko, vendar jo Terboven vohuni za Švedi.
IMDb: https://www.imdb.com/title/tt8435308/
IMDb ocena je 6.0/10 - 363 glasov, ocene uporabnikov so bistveno višja : 9.8/10
Moja ocena - odličen film!!! Ne bo vam žal niti sekunde ob tem filmu!


Podrobnosti:

Država: Norveška
Jezik: Norveški, Angleščina, Švedščina, Nemško
Datum izdaje:18. oktober 2019 (Norveška)
Podnapisi: Srbski


Tehnične specifikacije:

Izvajanje: 110 min
Barva: Barva
Razmerje: 2.35 : 1





UŽIVAJTE!
The Catcher Was a Spy 2018 SLO-CROSub 720p WEB-DL DD5 1 H264-CMRG R.1

Klikni za povečavo!
06-10-2020 15:48 naložil System
Sejalci: 2 / Odjemalci: 0 / Velikost: 2.92 GB / Dokončani: 7
Prenesi torrent Magnet Link Poročaj torrent Opis torrenta NFO
Kategorija: FILMI > WEBRip-720
Anonimen nalagalec

The Catcher Was a Spy 2018 SLO-CROSub 720p WEB-DL DD5 1 H264-CMRG R


The Catcher Was a Spy (2018)


Lovilec je bil vohun







Moe Berg , nekdanji igralec baseballa , je v času druge svetovne vojne v tajništvu urada za strateške službe, živel dvojno življenje.







Žanr: Biografija , drama , zgodovina, vojni

Direktor: Ben Lewin
Senarij: Robert Rodat , Nicholas Dawidoff (na podlagi knjige: Lovilec je bil vohun: Skrivnostno življenje Moe Berg )
Igralci: Paul Rudd , Pierfrancesco Favino , Tom Wilkinson


Zgodba:


Ta prijeten, nenavadni špijunski triler oživi neverjetno resnično zgodbo Moeja Berga, profesionalnega igralca baseballa, ki je postal vohun druge svetovne vojne. Judovski, večjezični poliglot, ki se izobražuje v Princetonu, za bostonski Red Sox s skrbno varovanim zasebnim življenjem, je bil zagonetni Berg (Paul Rudd) skrivnosten človek, ko je leta 1944 vojna obveščevalna agencija ameriške vlade najela njegove usluge. Njegova naloga: iti za sovražnimi črtami v Evropi, da bi ubil glavnega nacističnega jedrskega znanstvenika, preden Nemci razvijejo atomsko bombo. Berg se mora zanašati na svoj mogočen inteligenten jekleni pas v igri mačk in miši - usoda sveta pa visi na nitki.


Podrobnosti:

Država: ZDA
Jezik: Angleščina, Nemščina, Italijanščina, Japonski, Francoščina, Hebrejščina
Datum izdaje:22. junij 2018 (ZDA)
Poznan tudi kot: Spy Game
Lokacije snemanja: Praga, Češka
IMDb: https://www.imdb.com/title/tt4602066/ ocena: 6.3/10



Tehnične specifikacije:


Izvajanje: 98 min
Barva: Barva
Razmerje: 1.85 : 1







KDOR SEJE TUDI ŽANJE!
The.24th.2020.HDRip.XviD.AC3-EVO

Klikni za povečavo!
02-09-2020 12:35 naložil System
Sejalci: 1 / Odjemalci: 0 / Velikost: 1.32 GB / Dokončani: 25
Prenesi torrent Poročaj torrent Opis torrenta
Zvrst: Drama | Zgodovinski
Kategorija: FILMI > HDRip
Anonimen nalagalec



The.24th.2020.HDRip.XviD.AC3-EVO





Drama,Zgodovinski


Trai Byers, Bashir Salahuddin, Aja Naomi King, Mo McRae, Tosin Morohunfola, Mykelti Williamson, Thomas Haden Church, Lorenzo Yearby, Cuyle Carvin, Jim Klock, Cranston Johnson, Tony Demil, Joseph Lee Anderson, Derek Russo, Tyshon Freeman


24. pripoveduje neverjetno mogočno in pravočasno resnično zgodbo o črnem štiriindvajsetem pehotnem polku Združenih držav Amerike in nemirih v Houstonu iz leta 1917. Nevihte v Houstonu so upor 156 afriško-ameriških vojakov reagirali na brutalno nasilje in zlorabo v roke Houstonskih policistov. Izgred, ki je trajal dve uri, je privedel do smrti devetih civilistov, štirih policistov in dveh vojakov, posledica pa je bil največji proces umorov v zgodovini, ki je skupaj obsodil devetnajst moških na usmrtitev in enainštirideset moških na dosmrtno kazen.


NAPOVEDNIK











Northmen.A.Viking.Saga.2014.SLOSubs.RERiP.BRRip.XviD-DrSi(1)

Klikni za povečavo!
31-08-2020 11:41 naložil ViHaR
Sejalci: 0 / Odjemalci: 0 / Velikost: 2.2 GB / Dokončani: 4
Prenesi torrent Magnet Link Poročaj torrent Opis torrenta NFO
Kategorija:



Naziv: Northmen.A.Viking.Saga.2014.SLOSubs.BRRip.XviD-DrSi
Source: Northmen.A.Viking.Saga.2014.SloSubs.BluRay.1080p.DTS-HD.MA-5.1.x264-DrSi
Leto izida .........: 2014
Velikost ...........: 2,20 GB
Dolžina ............: 97 Minut
Video ...............: 2764 Kbps | 720x304 | 24 fps
Zvok .................: Dolby Digital AC3 5.1 @ 448 Kbps
Kodek.................: XviD
Država .............: Švica | Nemčija | Južna Afrika
Zvrst………….: Akcija | Zgodovinski
Jezik ................: Angleški
Podnapisi .........: Slovenski (RETAiL)
Prevod: BLITZ Film
TVRip: Toyan
Za HD priredil metalcamp
Tehnična obdelava: DVD Rippers Slovenija

IMDb Info .........: https://www.imdb.com/title/tt2290553/

Režija.........: Claudio Fäh
Scenarij.......: Bastian Zach, Matthias Bauer


Ed Skrein ... Hjorr
Ryan Kwanten ... Conall
James Norton ... Bjorn
Tom Hopper ... Asbjorn
Charlie Murphy ... Inghean
Leo Gregory ... Jorund
Ken Duken ... Thorald
Anatole Taubman ... Bovarr
Nic Rasenti ... Gostun
Danny Keogh ... King Dunchaid
Johan Hegg ... Valli


Zgodovinski spektakel, poln napetih prizorov bojev, o skupini neustrašnih Vikingov,
ki se znajdejo na sovražnih tleh in poskušajo pobegniti številčno močnejšemu sovražniku.

Potem ko njihov čoln potone v grozljivem neurju, se skupina Vikingov pod vodstvom mladega
Asbjörna znajde za sovražnikovimi črtami na obali Albe. Če želijo preživeti, se morajo skozi
sovražno in njim nepoznano pokrajino, ki ji vlada okrutni kralj, prebiti do vikinške naselbine
Danelagh. Kralj za njimi pošlje skupino svojih najbolj neustrašnih plačancev, toda Vikingi
na svoji poti spoznajo prijaznega katoliškega meniha, ki pridiga z mečem. Z njim bodo morali
združiti moči in dati vse od sebe, da bi pobegnili številčno močnejšemu sovražniku in preživeli.

Johan Hegg, ki v filmu igra Vallija, je vokalist švedske melodic death metal skupine Amon Amarth.