A
B
C
D
E
F
G
H
I
J
K
L
M
N
O
P
Q
R
S
T
U
V
W
X
Y
Z
0-9
Nepokoreni.Grad.1981.S01.HDTV.x264-R77

Klikni za povečavo!
Včeraj ob 08:50 naložil rado77
Sejalci: 2 / Odjemalci: 0 / Velikost: 13.55 GB / Dokončani: 1
Prenesi torrent Poročaj torrent Opis torrenta
Zvrst: Drama | Vojni | Zgodovinski
Kategorija: FILMI > HDTV

Nepokoreni.Grad.1981.S01.HDTV.x264-R77



Nepokoreni grad

TV Serija (1981–1982)


Neosvojeno mesto


Celovečerna TV-serija, prikazana leta 1982 v 14 epizodah. Vsaka epizoda je bila ločena zgodba o odporniškem gibanju v Zagrebu med drugo svetovno vojno. 2. svetovna vojna, ki združuje bolj znane in manj znane resnične dogodke (taborišče Kerestinec, napad na Glavno pošto, streljanje na pisatelja A. Cesareca, zasledovanje gestapa IL Ribarja, pobeg pisatelja V. Nazorja v partizanih, sabotažne akcije itd.). Serija je zaradi izjemnega dokumentarnega filma ohranila kultni status, replike "In Carlo je vedno lačen" na Karlovem mučilnem prizorišču s pomočjo podgan pa je že dolgo del tudi popularne kulture. Epizode so trajale nestandardno, od 70 minut do dveh ur. V skupini avtorjev scenarijev so bili M. Šećerović, P. Pavličić, M. Matošec, Z. Dirnbach in H. Hitrec, epizode pa je režiral E. Galić (Burevjesnik, Smrt fašizmu - svoboda narodu, neosvojeni, stavkovne skupine, črna usnjena torba, konec vojne ), V. Kljaković ( smrt tajnika, štirje, galeb ), Z. Tadić ( 72-96, Človek v senci ), Lj. Jojić ( igralec ), Ž. Belić ( Čoln na Kupi ) in S. Delic ( Dolgi pobeg ). Glasbo je zložil A. Kabiljo, naslovno pesem pa je na verze B. Brechta zapel D. Mlinarec; režiserji M. Perušina, D. Novak in D. Ruljančić, scenograf Ž. Senečić (1–13 epizod), V. Domitrović (14. epizoda), montaža J. Podvorac, I. Drnić, V. Štefić, Ž. Toplak, V. Štern. Igrajo: M. Nadarević, M. Štrljić, M. Janketić, J. Sablić, M. Brlečić, P. Bogdanović, M. Furlan in drugi.


Tehnične specifikacije:

Ime datoteke: Nepokoreni.Grad.1981.S01.HDTV.x264-R77
Oblika: MP4
Informacije o obliki: QuickTime / MOV
Trajanje: 01: 17: 09.182
Velikost datoteke: 1,09 GB

Video informacije:
Video kodirnik: h264 (h.264 / avc / mpeg-4 avc / mpeg-4 del 10)
Ločljivost: 1920 * 1080
Širina: 1920
Višina: 1080
Razmerje zaslona: 16: 9
Hitrost sličic: 25 sličic na sekundo
Video bitna hitrost: 1886 kb / s
Barvni prostor: yuv420p (tv

Zvočne informacije:
Zvočni kodirnik: aac (napredno kodiranje zvoka)
Avdio bitna hitrost: 128 kb / s
Hitrost vzorčenja: 44100 Hz
Zvočni kanali: stereo
Jezik: und
Trajanje: 01: 17: 09.181



Uživajte in ne pozabite sejati!
Alone.in.Berlin.2016.SrbSubs.HDRip.XviD.AC3-R77

Klikni za povečavo!
Petek at 13:22 naložil rado77
Sejalci: 3 / Odjemalci: 0 / Velikost: 1.33 GB / Dokončani: 4
Prenesi torrent Poročaj torrent Opis torrenta
Zvrst: Drama | Vojni | Zgodovinski
Kategorija: FILMI > HDTV

Alone.in.Berlin.2016.SrbSubs.HDRip.XviD.AC3-R77



Alone in Berlin (2016)

Izvirni naslov: Seul dans Berlin

Sam v Berlinu


Režija:Vincent Perez
Scenarij:Vincent Perez , Achim von Borries
Igralska zasedba:Emma Thompson , Brendan Gleeson , Daniel Brühl
Žanri: Drama, Zgodovina, Vojna
Država: Združeno kraljestvo, Francija, Nemčija
Jezik: angleščina
Podnapisi: Srbski



Zgodba:

Leta 1940 je med francosko kampanjo v akciji umorjen nemški vojak Hans Quangel (Louis Hofmann). Njegovi starši, Otto (Brendan Gleeson) in Anna (Dame Emma Thompson), so zaradi izgube uničeni, njihova žalost pa ni ublažena zaradi vesele histerije ob zmagi Nemčije. Ko se je odločil, da sta za to tragedijo in še veliko več odgovorni Führer Adolf Hitler in njegov nacistični režim, Otto ne more več stati ob strani. Kot tak Otto začne ustvarjati ročno napisane karte, ki obsojajo zlorabe in laži režima, ki jih skrivaj deponira po Berlinu, medtem ko razočarana Anna vztraja, da mu pomaga. Ko se subverzivne karte z leti kopičijo, je policijski detektiv Escherich (Daniel Brühl) zadolžen, da izsledi letaka, medtem ko ga njegov vse bolj nestrpni nadrejeni SS pritiska na aretacijo zaradi te "izdaje", ne glede na dejansko krivdo. Ko se vlogi povečujejo, tudi ko se bliža dan obračuna nacistične Nemčije, sta Otto in Anna odločena širiti resnico ne glede na verjetnost, ...


Tehnične specifikacije:

Ime datoteke: Alone.in.Berlin.2016.SrbSubs.HDRip.XviD.AC3-R77.avi
Oblika: AVI
Informacije o formatu: AVI (avdio video prepleteno)
Trajanje: 01: 43: 01.120
Velikost datoteke: 1,33 GB

Video informacije:
Video kodirnik: mpeg4 (mpeg-4 2. del)
Ločljivost: 720 * 304
Širina: 720
Višina: 304
Razmerje zaslona: 45:19
Hitrost sličic: 24 sličic na sekundo
Video bitna hitrost: 1464 kb / s
Barvni prostor: yuv420p


Zvočne informacije:
Dajalnik zvoka: atsc a / 52a (ac-3)
Avdio bitna hitrost: 384 kb / s
Hitrost vzorčenja: 48000 Hz
Zvočni kanali: 5,1 (stranski)
Jezik: und
Trajanje: 01: 43: 01.120


Uživajte in ne pozabite na sejanje!
Jugoslavija.u.ratu.1941-1945.1991.HDTVRip-R77

Klikni za povečavo!
Petek at 10:21 naložil rado77
Sejalci: 7 / Odjemalci: 0 / Velikost: 8.93 GB / Dokončani: 9
Prenesi torrent Poročaj torrent Opis torrenta
Kategorija: FILMI > Dokumentarni

Jugoslavija.u.ratu.1941-1945.1991.HDTVRip-R77


Jugoslavija u ratu 1941.-1945.

Jugoslavija v vojni 1941-1945

TV serija (1991–1992)


Žanri: Dokumentarni, zgodovina
Režija: Milan Kundaković


O filmu:

Jugoslavija v vojni 1941-1945. druga dokumentarna serija Radiotelevizije Beograd, posneta v obdobju 1991 - 1992 , ki je obravnavala vojne in politične dogodke v Jugoslaviji med drugo svetovno vojno . Zanimivo je, da je v tem obdobju Jugoslavija že močno razpadla in vse boj se dozdeva, da je bila narejena v večji meri, kot propagandni materijal za ohranitev še tistega malega, kar je takrat od Jugoslavije ostalo. Vsi, ki si boste podrobneje pogledali serijo boste neglede na vsa dejstva v njej opazili veliko nacionalizma predvsem na srbski in hrvaški strani ki sta v zgodovini bivše države nosili vedno posebno vlogo. Tega se ne da spregledati.
Jugoslavija v vojni, 1941-1945, je dokumentarna serija s 23 epizodami, prvič predvajana v začetku devetdesetih let. V seriji so udeleženci in pričevalci vojne ter pomembni jugoslovanski, britanski, nemški, ruski in italijanski zgodovinarji, publicisti in novinarji. Poskuša ponuditi več stališč za pomembne dogodke v tem časovnem obdobju.



Demografske izgube Jugoslavije v drugi svetovni vojni:

V uradnem poročilu z dne 26. maja 1945 je demografska izguba Jugoslavije v drugi svetovni vojni znašala 1.685.000 ljudi oziroma 1.706.000 po kasnejšem poročilu. Te številke predstavljajo skupno demografsko izgubo, ki vključuje ljudi vseh narodnosti, umrle ali umrle zaradi vojne.

Število žrtev vojne je bistveno manjše in po Kočovićevih znaša 1.014.000 oziroma po Žerjavićevih 1.027.000.

Demografske izgube Jugoslavije v drugi svetovni vojni so postale predmet polemike v obdobju rasti nacionalizma v SFRJ. Sama Jugoslavija je med svojim obstojem naletela na dve različni številki žrtev, zato to ni pomagalo pri končnem zaključku razprave o številu žrtev med drugo svetovno vojno.

Josip Broz Tito pa je maja 1945 med govorom v Beli Cerkvi izjavil : "V štirih letih smo izgubili milijon in sedemsto tisoč naših prebivalcev"



Spisek epizod in dodatkov:

Jugoslavija u ratu 1941-1945. (123) 27. mart.mp4
Jugoslavija u ratu 1941-1945. (223) 6. april.mp4
Jugoslavija u ratu 1941-1945. (323) 10. travanj.mp4
Jugoslavija u ratu 1941-1945. (423) Srbija proleće.mp4
Jugoslavija u ratu 1941-1945. (523) Srbija leto.mp4
Jugoslavija u ratu 1941-1945. (623) Srbija jesen.mp4
Jugoslavija u ratu 1941-1945. (723) 13. jul.mp4
Jugoslavija u ratu 1941-1945. (823) NDH – ustaška revolucija.mp4
Jugoslavija u ratu 1941-1945. (923) NDH – “Cvijet hrvatstva”.mp4
Jugoslavija u ratu 1941-1945. (1023) Preventivne likvidacije.mp4
Jugoslavija u ratu 1941-1945. (1123) Naličje pacifikacije NDH.mp4
Jugoslavija u ratu 1941-1945. (1223) Umirivanje Srbije.mp4
Jugoslavija u ratu 1941-1945. (1323) Jugoslovenska vlada u izbeglištvu.mp4
Jugoslavija u ratu 1941-1945. (1423) BELO I CRNO.mp4
Jugoslavija u ratu 1941-1945. (1523) Federacije.mp4
Jugoslavija u ratu 1941-1945. (1623) Britanski ulog ili zavera.mp4
Jugoslavija u ratu 1941-1945. (1723) Država pomirenja.mp4
Jugoslavija u ratu 1941-1945. (1823) Britanska završnica.mp4
Jugoslavija u ratu 1941-1945. (1923) Vandeja.mp4
Jugoslavija u ratu 1941-1945. (2023) Selidba.mp4
Jugoslavija u ratu 1941-1945. (2123) Staljinova završnica.mp4
Jugoslavija u ratu 1941-1945. (2223) Maj.mp4
Jugoslavija u ratu 1941-1945. (2323) Ratne priče.mp4
Jugoslavija u ratu 1941-1945. Slovenija.mp4

Serija v resnici vsebuje še dva dela katera pa žal meni nista dosegljiva.


Dodatki:

Stepinac - svetac ili zločinac.mp4
Tito-Staljin, dve nijanse crvene - 1. deo.mp4
Tito-Staljin, dve nijanse crvene - 2. deo.mp4
Tito, medijska ikona.mp4
Titove žene.mp4
Zabranjena istorija.mp4
Tajna Titovih automobila.mp4


Tehnične specifikacije:

Ime datoteke: Jugoslavija.u.ratu.1941-1945.1991.HDTVRip-R77
Oblika: MP4
Informacije o obliki: QuickTime / MOV
Trajanje: 01: 05: 00.354
Velikost datoteke: 231,82 MB

Video informacije:
Video kodirnik: h264 (h.264 / avc / mpeg-4 avc / mpeg-4 del 10)
Ločljivost: 474 * 360
Širina: 474
Višina: 360
Razmerje zaslona: 79:60
Hitrost sličic: 25 sličic na sekundo
Video bitna hitrost: 400 kb / s
Barvni prostor: yuv420p (tv

Zvočne informacije:
Dajalnik zvoka: aac (napredno kodiranje zvoka)
Avdio bitna hitrost: 95 kb / s
Hitrost vzorčenja: 44100 Hz
Zvočni kanali: stereo
Jezik: und
Trajanje: 01: 05: 00.353


Želim vam hiter prenos!
Walking.With.The.Enemy.2013.SloSubs.720p.WEBRip.x264.AAC-R77

Klikni za povečavo!
Torek at 11:47 naložil rado77
Sejalci: 5 / Odjemalci: 0 / Velikost: 1.01 GB / Dokončani: 10
Prenesi torrent Magnet Link Poročaj torrent Opis torrenta
Kategorija: FILMI > WEBRip-720

Walking.With.The.Enemy.2013.SloSubs.720p.WEBRip.x264.AAC-R77


Walking with the Enemy (2013)

SPREHOD S SOVRAŽNIKOM

Režija: Mark Schmidt
Scenarij: Kenny Golde
Žanr (i): Akcija , Drama , Zgodovina , Romanca , Vojna
Čas izvajanja: 124 min
Igrajo: Ben Kingsley , Hannah Tointon , Jonas Armstrong , Simon Dutton , Simon Kunz
Država:ZDA
Jezik:Angleščina
Podnapisi: Slovenščina


Zgodba:

Močan film, ki ga je navdihnila resnična zgodba. Ta značilnost sledi junaškemu življenju svetovnega voditelja in mladeniča, ki je bil zajet v grozotah druge svetovne vojne. Oba sta iz Madžarske - države in nemškega zaveznika, ki sta bila prihranjena grozotam, ki jih je Hitler orkestriral po večjem delu Evrope. Ko je vojna dosegla vrhunec, Nemčija začne dvomiti o lojalnosti madžarskega vodstva, zlasti Regenta Horthyja (dobitnik oskarja Ben Kingsley). Regent poskuša krmariti po svoji državi med naraščajočim terorjem nacistične Nemčije in zatiralsko grožnjo komunistične Rusije. Končno se sooča z odstopom moči drugi politični stranki ali sprejetjem usmrtitve svojega sina. Ko se kriza razvija, je na tisoče njegovih državljanov prisiljenih v podzemlje ali jih spraviti v geta. Eden izmed njih je mladenič Elek Cohen (Jonas Armstrong), ki je ločen od svoje družine in odločen, da jih bo našel. Ob pomoči ženske, ki jo ima rad (Hannah Tointon), se Elek preobleče v nacističnega častnika SS ...


Tehnične specifikacije:
Celotno ime: Walking.With.The.Enemy.2013.SloSubs.720p.WEBRip.x264.AAC-R77
Oblika / niz: MPEG-4
Format_Profile: osnovni medij
CodecID / String: izom (isom / iso2 / avc1 / mp41)
Velikost datoteke / niza: 1,01 GiB
Trajanje / niz: 1 h 53 min
Skupna hitrost / niz: 1 283 kb / s
Kodirana_Aplikacija / niz: Lavf58.35.100
Video
ID / niz: 1
Oblika / niz: AVC
Format / Info: Napredni video kodek
Format_Profile: High@L4.1
Format_Settings: Ref Okvirji CABAC / 4
Format_Settings_CABAC / String: Da
Format_Settings_RefFrames / String: 4 sličice
ID kode: avc1
CodecID / Info: napredno kodiranje videa
Trajanje / niz: 1 h 53 min
BitRate / niz: 1 150 kb / s
Širina / niz: 1 280 slikovnih pik
Višina / niz: 534 slikovnih pik
DisplayAspectRatio / String: 2,40: 1
DisplayAspectRatio_Original / Stri: 2.40: 1
FrameRate_Mode / String: konstantno
Število sličic / niz: 23.976 (24000/1001) FPS
ColorSpace: YUV
ChromaSubsampling / String: 4: 2: 0
BitDepth / niz: 8 bitov
ScanType / String: progresivno
Bit - (Pixel * Frame): 0,070
Velikost / niz niza: 930 MiB (90%)
Kodirana_Knjižnica / niz: jedro x264 158
CodecConfigurationBox: avcC
Zvok
ID / niz: 2
Oblika / niz: AAC LC
Oblika / informacije: Napredni avdio kodek nizke zapletenosti
KodekID: mp4a-40-2
Trajanje / niz: 1 h 53 min
Duration_LastFrame / String: -11 ms
BitRate_Mode / String: konstantno
BitRate / niz: 128 kb / s
Kanal (-i) / niz: 2 kanala
Postavitev kanala: L R
Hitrost vzorčenja / niz: 48,0 kHz
Hitrost / niz: 46.875 sličic na sekundo (1024 SPF)
Način stiskanja / niz: Lossy
Velikost / niz niza: 104 MiB (10%)
Privzeto / niz: Da
Nadomestna skupina / niz: 1


Uživajte in ne pozabite na sejanje!
Ghetto.2006.SloSubs.DVDRip.XviD-R77

Klikni za povečavo!
05-04-2021 07:06 naložil rado77
Sejalci: 4 / Odjemalci: 0 / Velikost: 1.29 GB / Dokončani: 9
Prenesi torrent Poročaj torrent Opis torrenta
Zvrst: Drama | Vojni | Zgodovinski
Kategorija: FILMI > XviD

Ghetto.2006.SloSubs.DVDRip.XviD-R77


Vilniaus getas (2005)

Ghetto

GETO


Žanr: Drama, zgodovina , vojna
Država: Nemčija
Direktor: Audrius Juzenas
Scenarist: Joshua Sobol
Glasba: Anatolijus Senderovas
Igralska zasedba: Sebastian Hülk, Jörg Lamprecht, Heino Ferch, Erika Marozsán
Podnapisi: Slovenski


O filmu:

Leta 1942 so v Vilni nacisti uničili 55.000 Judov in v sedmih blokih geta stisnili 15.000 preživelih. Dvaindvajsetletni sadistični poveljnik Kittel je zadolžen za upravljanje geta v glavnem mestu Litve in postane gospodar življenja ali smrti. Ko ugotovi, da se čudovita Hayyah prikrade z kilogramom fižola, ukradenega nemški vojski, jo obsodi na smrt; ko pa mu sporočijo, da je bila nekdanja uspešna pevka, se odloči aktivirati staro gledališče in promovirati predstave v getu. Judovski šef policije Gens uporablja gledališče in šivalnico, da reši čim več življenj; v svojem dvoumnem položaju ubija Jude, da bi rešil življenja drugih.


Tehnične specifikacije:
File Name:Ghetto.2006.SloSubs.DVDRip.XviD-R77
Format:AVI
Format info: AVI (Audio Video Interleaved)
Duration:01:46:43.325
File size:1,29 GB

Video Information:
Video encoder:mpeg4(mpeg-4 part 2)
Resolution:512 * 288
Width:512
Height:288
Display aspect ratio: 16:9
Frame rate:25 fps
Video bit rate:1532 kb/s
Color space: yuv420p

Audio Information:
Audio Encoder:atsc a/52a (ac-3)
Audio bit rate:192 kb/s
Sample rate:48000 Hz
Audio channels: stereo
Language:und
Duration:01:46:43.325

Uživajte in ne pozabite na sejanje!
Velo.Misto.S01.1980.HDTV.x264-R77

Klikni za povečavo!
03-04-2021 15:11 naložil rado77
Sejalci: 3 / Odjemalci: 0 / Velikost: 9.05 GB / Dokončani: 4
Prenesi torrent Poročaj torrent Opis torrenta
Kategorija: FILMI > TV - Serija

Velo.Misto.S01.1980.HDTV.x264-R77


Velo misto 1980/81


Ustvarjalec:Miljenko Smoje
Jezik/i:Čakavščina , srbohrvaščina , italijanščina , nemščina
Režiser je bil Joakim Marušić, glasbo je napisal Pero Gotovac


O SERIJI:

Osrednji lik je lastnik mestne brivnice Meštar (Boris Dvornik), okoli katere je mreža odnosov drugih protagonistov, kot sta Duje (Mustafa Nadarević), nogometni pionir v Splitu in ustanovitelj Hajduka, in njegovo podjetje "praški študentje" "Pegula (Mladen Barbarić) in Tonči (Milan Štrljić), ter njihovi ženi Violeta (Zdravka Krstulović) in Kate (Mira Furlan).
Spomnimo se tudi proletarskega Ferata (Aljoša Vučković), njegove Marijete (Vlasta Knezović) in sina Papundeka (Duško Valentić), pikaferja (Vjenceslav Kapural) in Škovčana (Špiro Guberina), ki je kot Strikan skupaj s svojim Netjakom (Ivo Gregurević) je ustvaril nepozaben par.
Serija je mešanica komedije in drame, zanjo pa je značilen učinkovito dočaran mediteranski ambient, pristen jezik, bogate kostume in scenografija ter presenetljivi igralski dosežki. Serija je med gledalci izjemno priljubljena že od samega začetka predvajanja, igralci, ki v njej nastopajo, pa so postali resnične televizijske zvezde.


IGRAJO:
Boris Dvornik...Mestar
Zdravka Krstulović...Violeta
Mustafa Nadarević...Duje
Špiro Guberina...Jozo
Mate Ergović...Pucanstvo
Ines Fančović...Mare
Mladen Barbarić...Pegula
Mira Furlan...Kate
Vlasta Knezović...Marjeta
Uglješa Kojadinović...Professor
Milan Štrljić...Tonci
Danko Ljuština...Mijo


EPIZODE: 14 epizod
Praški studenti (1910)
Konfužjun (1911)
Leva (1913-1914)
Morija mori (1917-1920)
Kruva i rada! (1920-1922)
Kriza (1926)
Antikrst (1927)
Simpatizer (1928)
Nikad više kompletni (1932-1935)
No pasaran (1936-1937)
Poveli smo, Meštre (1937-1939)
Okupacija (1941)
Kapitulacija (1942-1943)
Ispunjeno obećanje (1944-1947)


Tehnične specifikacije:

Popolno ime: Velo.Misto.S01.1980.HDTV.x264-R77
Oblika / informacije: Preplet avdio video
Velikost datoteke: 687 MiB
Trajanje: 1 h 20 min
Skupna bitna hitrost: 1 192 kb / s
Knjižnica za pisanje: VirtualDub build 13870 / release

Video
ID: 0
Oblika: MPEG-4 Visual
Nastavitve formata: BVOP
Nastavitve formata, BVOP: Da
Nastavitve formata, QPel: Ne
Nastavitve formata, GMC: Brez bojnih točk
Nastavitve formata, matrica: privzeto (H.263)
ID kodeka: DX50
ID kodeka / namig: DivX 5
Trajanje: 1 h 20 min
Bitna hitrost: 1 022 kb / s
Širina: 640 slikovnih pik
Višina: 480 slikovnih pik
Razmerje zaslona: 4: 3
Hitrost sličic: 25.000 FPS
Barvni prostor: YUV
Podvzorčenje kroma: 4: 2: 0
Globina bitov: 8 bitov
Vrsta optičnega branja: progresivno
Način stiskanja: Lossy
Bit / / (Pixel * Frame): 0,133
Velikost toka: 589 MiB (86%)
Knjižnica za pisanje: DivX 5.0.2 (UTC 16.5.2002)

Zvok
ID: 1
Oblika: MPEG Audio
Različica formata: različica 1
Profil oblike: 3. plast
ID kodeka: 55
ID kodeka / namig: MP3
Trajanje: 1 h 20 min
Način bitne hitrosti: konstantno
Bitna hitrost: 160 kb / s
Kanali: 2 kanala
Hitrost vzorčenja: 44,1 kHz
Način stiskanja: Lossy
Zamuda glede na video: 19 ms
Velikost toka: 92,2 MiB (13%)
Poravnava: razdeljena čez preplete
Preplet, trajanje: 40 ms (1,00 video okvir)
Preplet, trajanje prednalaganja: 499 ms


Uživajte in ne pozabite na sejanje!
The.Alamo.2004.MultiSub.PAL.DVDR

Klikni za povečavo!
14-03-2021 12:26 naložil System
Sejalci: 1 / Odjemalci: 0 / Velikost: 4.36 GB / Dokončani: 2
Prenesi torrent Poročaj torrent Opis torrenta
Kategorija: FILMI > DVD
Anonimen nalagalec

The Alamo (2004)
Alamo (2004)



-------------
INFO:
-------------
Source..........: DVD
Format..........: 16:9
Standard........: PAL
Release Size....: 4,35 GB
iMDB Link.......: KLIK
iMDB Rating.....: 6,0/10 (19.755)
Genre...........: Drama, History, War, Western
Country.........: USA
Language........: English/ Spanish
Video...........: /
Audio...........: AC3 5.1-ch English
Subs............: English/ Italian/ Croatian/ Slovenian
Extras..........: yes
Regija..........: Prosto
Runtime.........: 132 min
Čas predvajanja.: 02:11.05 h

-------------
IGRALCI:
-------------
Dennis Quaid ... Sam Houston
Billy Bob Thornton ... Davy Crockett
Jason Patric ... James Bowie
Patrick Wilson ... William Travis
Emilio Echevarría ... Antonio Lopez de Santa Ana
Jordi Molla ... Juan Seguin
Leon Rippy ... Sgt. William Ward
Tom Davidson ... Colonel Green Jameson
Marc Blucas ... James Bonham
Robert Prentiss ... Albert Grimes
Kevin Page ... Micajah Autry
Joe Stevens ... Mial Scurlock
Stephen Bruton ... Captain Almeron Dickinson
Laura Clifton ... Susanna Dickinson
Ricardo Chavira ... Private Gregorio Esparza

-------------
OPIS:
-------------
Billy Bob Thornton, Dennis Quaid in Jason Patric igrajo v akcijskem epu,
o enem najpomembnejših dogodkov v ameriški zgodovini! To je junaška zgodba
o 200 pogumnih moških, ki so se v imenu svobode žrtvovali in 13 dni branili
majhno trdnjavo v Teksasu pred celo vojsko! Poveljevali so mu trije moški -
podpolkovnik William Travis (Patrick Wilson), James Bowie (Patric) in
David Crockett (Thornton) - njihov pogum v Alamu, ki je nenavaden, bo za vedno
živel kot klic k svobodi in neodvisnosti!



Admiral.2008.SloSubs.720p.BRrip.DD5.1.x264-R77

Klikni za povečavo!
14-03-2021 12:17 naložil rado77
Sejalci: 1 / Odjemalci: 0 / Velikost: 2.15 GB / Dokončani: 6
Prenesi torrent Poročaj torrent Opis torrenta
Kategorija: FILMI >  BRRip

Admiral.2008.SloSubs.720p.BRrip.DD5.1.x264-R771


Admiral (2008)



Admiral ( rusko : Адмиралъ ) je biografija o Alexandru Kolchaku , vice-admiralu ruske mornarice in vodja anti-komunističnega Belega gibanja v času ruske državljanske vojne . Film prikazuje tudi ljubezenski trikotnik med admiralom, njegovo ženo in pesnico Anno Timirjovo .

Iz razširjene različice filma je nastala 10-delna TV-serija.

Zaplet:

Filmski dogodki se odvijajo v obdobju 1915-1920. Kolčakse predstavi, najprej kot admiral v cesarski ruski mornarici med prvo svetovno vojno. Nato doživimo propad ruske revolucije, rusko februarsko in oktobrsko revolucijo in poznejšo državljansko vojno.

Po negotovem premagovanju nemške bojne križarke se Kolčak vrne v mornariško oporišče Kronstadt blizu Sankt Peterburga. Tam ga seznani z Anno Timirevo, ženo enega od njegovih nižjih častnikov. Čeprav sta oba z Anno poročena, sta njuna ljubezen očitna tako njima kot zakoncema.

Kolchak prejme napredovanje za poveljnika črnomorske flote. In tako se z ženo preselita v Sevastopol. Zanj je to srečna poteza, saj ko pride februarska revolucija leta 1917, so vsi častniki v Kronstadtu usmrčeni. Vsi, razen Ane in njenega moža.


Po februarski revoluciji se Kolčak sestane z začasnim šefom ruske vlade Aleksandrom Kerenskim. Čeprav se Kerensky najprej predlaga, da bi Kolchaka imenoval za obrambnega ministra, oba padeta. Kerensky na koncu izžene Kolchaka.

Hitro naprej do leta 1919. Kolčak se je vrnil v Rusijo in zdaj poveljuje preostali ruski regiji, ki jo nadzirajo Belorusi - Sibiriji. Med evakuacijo iz Omska v Irkutsk Kolchak izve, da Anna dela kot medicinska sestra v njegovi bližini. Oba se ponovno združita in poročita.

Kmalu zatem so boljševiki napadli Irkutsk. Ko je mesto očitno izgubljeno, voditelji francoske in češkoslovaške legije Kolčaka predajo boljševikom. Kmalu je usmrčen, njegovo telo pa je vrženo v led.


Direktor: Andreja Kravčuka
Scenarij: Zoya Kudrya , Vladimir Valutskiy
Vodilne vloge: Konstantin Khabenskiy , Elizaveta Boyarskaya , Sergey Bezrukov


Žanri: Biografija , drama , zgodovina
Država: Rusija
Jezik: Ruščina | Francosko
Podnapisi: Slovenščina
Izvajanje: 124 min

ADMIRAL JE NAJDRAŽJI FILM V ZGODOVINI RUSKE KINEMATOGRAFIJE!


Tehnične specifikacije:

Complete name : Admiral.2008.SloSubs.720p.BRrip.DD5.1.x264-R77
Format : MPEG-4
Format profile : Base Media
Codec ID : isom (isom/iso2/avc1/mp41)
File size : 2.15 GiB
Duration : 2 h 4 min
Overall bit rate : 2 476 kb/s
Movie name : Admiral (2008)
Writing application : Lavf58.29.100

Video
ID : 1
Format : AVC
Format/Info : Advanced Video Codec
Format profile : High@L3.1
Format settings : CABAC / 2 Ref Frames
Format settings, CABAC : Yes
Format settings, Reference frames : 2 frames
Codec ID : avc1
Codec ID/Info : Advanced Video Coding
Duration : 2 h 4 min
Bit rate : 2 344 kb/s
Width : 1 280 pixels
Height : 538 pixels
Display aspect ratio : 2.40:1
Frame rate mode : Constant
Frame rate : 23.976 (23976/1000) FPS
Color space : YUV
Chroma subsampling : 4:2:0
Bit depth : 8 bits
Scan type : Progressive
Bits/(Pixel*Frame) : 0.142
Stream size : 2.03 GiB (95%)
Language : Russian
Codec configuration box : avcC

Audio
ID : 2
Format : AAC LC
Format/Info : Advanced Audio Codec Low Complexity
Codec ID : mp4a-40-2
Duration : 2 h 4 min
Bit rate mode : Constant
Bit rate : 129 kb/s
Channel(s) : 2 channels
Channel layout : L R
Sampling rate : 48.0 kHz
Frame rate : 46.875 FPS (1024 SPF)
Compression mode : Lossy
Stream size : 114 MiB (5%)
Language : Russian
Default : Yes
Alternate group : 1


Uživajte!
Sjene.aka.Sence.2014.1080p.HDTVx264-R77

Klikni za povečavo!
18-02-2021 15:42 naložil System
Sejalci: 0 / Odjemalci: 0 / Velikost: 354.32 MB / Dokončani: 0
Prenesi torrent Poročaj torrent Opis torrenta
Kategorija: FILMI > HDTV
Anonimen nalagalec

Sjene.aka.Sence.2014.1080p.HDTVx264-R77

Sjene (2014)

Sence

ŽANR: kratki, biografija, drama, zgodovina, vojni
REŽISER: Miloš Ljubomirović
IGRALCI: Aleksandar Radojičić , Nikola Rakočevič , Nebojša Glogovac , Dragan Petrovič-Pele , Luka Mijatović , Lazar Đukič , Nikola Glišič
SCENARIST: Srdjan Banović , Muharem Bazdulj , Miloš Ljubomirovic
PRODUCENT: Masa Čumić , Simon DeKarić , Milos Ljubomirović , Miodrag Milosavljevic
ČAS TRAJANJA: 24 min

POVZETEK:

Sence so film, ki temelji na resničnih dogodkih in prinaša zgodbo o usodi atentatorja nadvojvode Franca Ferdinanda iz Avstrije. Ta atentat je eden najpomembnejših dogodkov v zgodovini človeštva, ker je služil kot domnevni motiv za začetek, kar se bo kasneje izkazalo, največje vojne, ki jo je kdaj videl svet. To je film o mladeničih, ki so njegovo ime v zgodovino vpisali za večnost. Zgodba zajema obdobje po atentatu in je postavljena v češki zapor Terezin, kamor je bil atentator poslan na dvajsetletno kazen. Dogajanje v zaporu razkriva značaj atentatorja, njegovo psihološko stanje, motive, ki so ga gnali, in njegov zagrenjen boj, ne samo s stražarji, ampak tudi s samim seboj. Shadows govori o človeški dobroti, ki jo najdemo kjer koli in ki je nad nacionalnostjo in pripadnostjo eni strani. Film o mladih fantih, ki želijo pomagati svojim ...



TEHNIČNE SPECIFIKACIJE:
Complete name : Sjene.aka.Sence.2014.1080p.HDTVx264-R77
Format : Matroska
Format version : Version 2
File size : 354 MiB
Duration : 26 min 13 s
Overall bit rate : 1 889 kb/s
Encoded date : UTC 2018-05-06 16:19:48
Writing application : mkvmerge v7.7.0 ('Six Voices') 32bit built on Feb 28 2015 23:23:00
Writing library : libebml v1.3.1 + libmatroska v1.4.2
Video
ID : 1
Format : AVC
Format/Info : Advanced Video Codec
Format profile : High@L4.1
Format settings : CABAC / 4 Ref Frames
Format settings, CABAC : Yes
Format settings, Reference frames : 4 frames
Codec ID : V_MPEG4/ISO/AVC
Duration : 26 min 13 s
Bit rate : 1 791 kb/s
Width : 1 280 pixels
Height : 528 pixels
Display aspect ratio : 2.40:1
Frame rate mode : Constant
Frame rate : 25.000 FPS
Color space : YUV
Chroma subsampling : 4:2:0
Bit depth : 8 bits
Scan type : Progressive
Bits/(Pixel*Frame) : 0.106
Stream size : 336 MiB (95%)
Default : Yes
Forced : No
Audio
ID : 2
Format : AAC LC
Format/Info : Advanced Audio Codec Low Complexity
Codec ID : A_AAC-2
Duration : 26 min 13 s
Bit rate : 96.0 kb/s
Channel(s) : 2 channels
Channel layout : L R
Sampling rate : 48.0 kHz
Frame rate : 46.875 FPS (1024 SPF)
Compression mode : Lossy
Delay relative to video : 9 ms
Stream size : 18.0 MiB (5%)
Language : Serbian
Default : Yes
Forced : No

Uživajte!
Atlantic.Crossing.aka.Z.druge.strani.Atlanktika.2020.SLOSubsS01.720.HDTVRip.AAC-R77

Klikni za povečavo!
23-01-2021 12:31 naložil System
Sejalci: 1 / Odjemalci: 0 / Velikost: 4.7 GB / Dokončani: 4
Prenesi torrent Poročaj torrent Opis torrenta
Zvrst: Drama | Zgodovinski
Kategorija: FILMI > TV - Serija
Anonimen nalagalec

Atlantic.Crossing.aka.Z.druge.strani.Atlanktika.2020.SLOSubsS01.720.HDTVRip.AAC-R77




Atlantic Crossing 2020
TV Serija

Z DRUGE STRANI ATLANKTIKA
Sezona 01


Opis:
Princ Olaf se vse bolj vdaja pijači. Kralj mu že leta ne dovoli drugega kot opazovati dogajanje, in to ga peha v malodušje. Norveška vlada zato sklene, da mu bo dodelila položaj vrhovnega poveljnika norveških čet. To je razlog, da znova odpotuje v Washington. Ko opazuje svojo družino, se zave, da že dolgo ni več njen del. Marta razmišlja o ločenem življenju, nato pa se vojna konča in Olaf sklene, da bo obrnil nov list in se zazrl v prihodnost. Marta se tako vrne v domovino in z možem se znova povežeta.


Država: Norveška, Nemčija, ZDA, Švedska, Danska
Scenarij: Alexander Eik, Linda May Kallestein
Režija: Alexander Eik, Janic Heen
V glavnih vlogah: Sofia Helin, Kyle MacLachlan, Tobias Santelmann, Harriet Sansom Harris, Daniel Betts, Søren Pilmark, Lucy Russell
Epizode: 8
Žanri: drama, zgodovina
Podnapisi: Slovenski


Tehnićne specifikacije:
Complete name : Z druge strani Atlantika.S01.E02.SLOSubs.R77.mp4
Format : MPEG-4
Format profile : Base Media
Codec ID : isom (isom/iso2/avc1/mp41)
File size : 583 MiB
Duration : 55 min 23 s
Overall bit rate : 1 471 kb/s
Writing application : Lavf58.20.100

Video
ID : 1
Format : AVC
Format/Info : Advanced Video Codec
Format profile : High@L3.1
Format settings : CABAC / 3 Ref Frames
Format settings, CABAC : Yes
Format settings, Reference frames : 3 frames
Codec ID : avc1
Codec ID/Info : Advanced Video Coding
Duration : 55 min 23 s
Bit rate : 1 338 kb/s
Width : 1 280 pixels
Height : 720 pixels
Display aspect ratio : 16:9
Frame rate mode : Constant
Frame rate : 25.000 FPS
Color space : YUV
Chroma subsampling : 4:2:0
Bit depth : 8 bits
Scan type : Progressive
Bits/(Pixel*Frame) : 0.058
Stream size : 530 MiB (91%)
Writing library : x264 core 148

Audio
ID : 2
Format : AAC LC
Format/Info : Advanced Audio Codec Low Complexity
Codec ID : mp4a-40-2
Duration : 55 min 23 s
Bit rate mode : Constant
Bit rate : 128 kb/s
Channel(s) : 2 channels
Channel layout : L R
Sampling rate : 44.1 kHz
Frame rate : 43.066 FPS (1024 SPF)
Compression mode : Lossy
Stream size : 50.7 MiB (9%)
Default : Yes
Alternate group : 1


Veliko užitkov!
Legionnaire's Trail 2020 SrbSubs 720p BRRip XviD AC3 XVID

Klikni za povečavo!
13-01-2021 13:05 naložil Ziva
Sejalci: 1 / Odjemalci: 0 / Velikost: 2.63 GB / Dokončani: 12
Prenesi torrent Poročaj torrent Opis torrenta NFO
Kategorija: FILMI >  BRRip



Legionnaire's Trail 2020 720p BRRip XviD AC3 XVID
Language(s): English
Size: 2.62 GB | Duration: 1hr 35mn | Container: AVI
Audio: AC-3 | 640 Kbps | 6 Channels
Video: XviD | 3280 Kbps | 1280 x 536
Genre: Action | Adventure | History


Mark Aaron, Marta Castellví, Joaquim de Almeida


Noreno, a half-Roman, is entrusted with the mission of crossing the snowy mountains of Armenia, swarming with Parthian patrols, to seek help for his slowly dying men.






Kampen.om.tungtvannet.S01.SRBSubs.720p.WEB.x264

Klikni za povečavo!
05-01-2021 12:49 naložil System
Sejalci: 1 / Odjemalci: 0 / Velikost: 2.74 GB / Dokončani: 7
Prenesi torrent Poročaj torrent Opis torrenta
Zvrst: Drama | Vojni | Zgodovinski
Kategorija: FILMI > TV - Serija
Anonimen nalagalec

Kampen.om.tungtvannet.S01.SRBSubs.720p.WEB.x264

Kampen om tungtvannet AKA The Saboteurs

TV Serija S01

Vojna s težko vodo



Zgodba o Hitlerjevem načrtu, da bi Nemčija med drugo svetovno vojno dobila atomsko bombo, in močne vodne sabotaže v Rjukanu na Norveškem, gledano s štirih zornih kotov, nemška stran, zavezniki, diverzanti in četa



OPIS DOGAJANJ:

Med drugo svetovno vojno je bil Vemork v Rjukanu v središču proizvodnje težke vode. Vojna s težko vodo je Nemce ustavila pri razvoju atomske bombe.
Če bi Nemci lahko nadaljevali z raziskovanjem težke vode, bi morda lahko zgradili atomsko bombo.
Takšen vtis so imeli zavezniški znanstveniki, medtem ko je bila druga svetovna vojna v polnem razvoju. Zaradi atomske bombe bi lahko zavezniki izgubili vojno.
Zavezniški znanstveniki so si neprestano prizadevali, da bi poskušali ustvariti jedrsko eksplozijo na podlagi drugih načel, vendar jih je čakala še dolga pot. In edini vir težke vode je bil na nemški okupirani Norveški, v Vemorku, v Rjukanu.
Sabotažne akcije, katerih namen je bil preprečiti Nemcem pridobivanje težke vode, so nekatera najbolj drzna in vznemirljiva dejanja druge svetovne vojne.
Vse se je začelo marca 1942, ko je padel samotni padalec, da bi zbral znanje o proizvodnji težke vode. 19. oktobra so v bližini Sognadalena, zahodno od Rjukana, spustili še štiri Norvežane. Vsi so bili lokalni fantje in so dobro poznali okolico. Njihova naloga je bila pripraviti diverzantsko akcijo in poslati radijska sporočila v Anglijo. Skupina je imela kodno ime "Grouse".
Potovanje skupine Grouse do predvidenega sedeža je bilo težko. Že stoletja so bili odrezani od zunanjega sveta, medtem ko so čakali na nove akumulatorje za radijsko postajo.
Mesec dni kasneje, 19. novembra 1942, je bila iz Anglije poslana britanska diverzantska skupina 34 posebej usposobljenih moških. Njihova naloga je bila napasti težko vodno tovarno v Vemorku in jo uničiti. Skupina Grouse naj bi delovala kot sprejemni odbor in pripravila pristanek na Skolandu blizu jezera Møsvatn.
Potem pa je prišlo do katastrofe. Moški so bili prepeljani z jadralnimi letali in eno letalo in jadralno letalo, ki ga je vleklo, je strmoglavilo v goro. Drugo jadralno letalo po izpustu ni uspelo pravilno pristati, pri čemer je nekaj njegovih prebivalcev umrlo, Nemci pa so preživele streljali.
Kljub temu nazadovanju je sestavljala skupina Grouse, čeprav so se spremenili v "Swallow". Zimo so bili prisiljeni preživeti skrite v surovi divjini gorske planote Hardangervidda, jesti, kar je ostalo od njihovih obrokov, in prehranjevati z mesom divjih severnih jelenov. Jedli so celo vsebino želodca severnih jelenov, da so dobili bistvena hranila.
16. februarja 1943 je nova skupina mladih Norvežanov, posebej usposobljenih za misijo, pristala na gorski planoti Hardangervidda. Pristala sta 50 km od predvidenega cilja in stopila naravnost v snežni metež. Trajalo je nekaj dni, preden je 6 članov nove skupine "Gunnerside" lahko združilo moči z nekdanjo skupino Grouse, zdaj preimenovano v Swallow.
27. februarja zvečer so bili diverzanti v Fjøsbudalenu, severno od obrata v Vemorku, in se pripravljali na napad.
Začeli so z nevarnim in izčrpavajočim spustom, prečkali sotesko, ki se je spuščala do obrata za težko vodo, in z ograjo prerezali žico.
Pokrovitelji so zavzeli svoje položaje in diverzantska skupina se je hitro odpravila do cilja.
Na posode za težko vodo so postavili eksplozivne naboje in jih večino uničili. Čudno je, da nobeden od nemških stražarjev ni ničesar opazil, dokler ni konec.
V tistem času pa diverzanti že dolgo niso več hodili po gorah in pospeševali pot po stari delovni cesti pod Krossobanenom. Sneg je ležal globoko in zelo se je temnilo. Bilo je težko potovanje, vendar so se vsi varno vrnili nazaj.
Skupina se je po počitku razdelila v dve skupini. Ena skupina je bila v celoti oborožena in v uniformi in je smučala celo čez Norveško do varnosti na Švedskem.
Druga skupina se je razširila in skrila po celotni gorski planoti Hardangervidda. Tri tisoč Nemcev je obkolilo območje in prečesalo divjino, da bi jih izsledilo, a nobenega od diverzantov ni uspelo ujeti. Radijska postaja je do konca vojne vzdrževala stike z zavezniškim poveljstvom v Londonu.
Nemci pa so obnovili obrat za težko vodo. Američani so to imeli za tako nevarno, da so se odločili bombardirati tovarno. 16. novembra 1943 je 160 letečih trdnjav priletelo nad Rjukan in bombardiralo Vemork, elektrarno in tovarno.
Nemci so bili prisiljeni opustiti načrte za proizvodnjo težke vode, vendar je napad zahteval več kot 20 norveških življenj.
Kasneje so diverzanti ugotovili, da nameravajo Nemci svoje zaloge polpredelane težke vode iz Rjukana preseliti v Nemčijo. Iz Londona so prejeli ukaz, da se pošiljka težke vode za vsako ceno in na kakršen koli način uniči.
Najšibkejši člen v transportni verigi je bil trajekt, ki je vozil vlak čez jezero Tinnsjø. Noč pred plovbo trajekta je diverzantom uspelo na plovilo vstaviti časovni naboj.
V nedeljo, 20. februarja 1944, ko je bil "Hydro" na pol poti čez jezero, je prišlo do eksplozije in trajekt se je v nekaj minutah potopil ter s seboj odnesel vitalno težko vodo, da je počivala na globini 460 metrov. Štirje Nemci in štirinajst Norvežanov so umrli, a bitka za težko vodo je bila na Norveškem končno končana.
Vir : Visitrjukan AS



Mesto tedanjih dogajanj je postalo Norveška priljubljena izletniška točka!




Igrajo:

Andreas Döhler , Robert Hunger-Bühler , Marc Ben Puch , Christoph Bach , Peri Baumeister , Espen Reboli Bjerke , Torstein Bjørklund , Ole Christoffer Ertvaag, Eirik Evjen, Anna Friel , Ragnhild H. Myntevik , Benjamin Helstad , Espen Klouman Høiner , Endre Joner Oftebro Ellefsen , Frank Kjosås , Rolf Kristian Larsen , Mads Sjøgård Pettersen , Søren Pilmark , Christian Rubeck , Maibritt Saerens , Audun Sandem , Tobias Santelmann , Dennis Storhøi , Pip Torrens , Stein Winge , David Zimmerschied , Julia Schacht , Clara Lien Sunde , Elg Elgesem , Corey Johnson , Uwe Preuss , Bjørn Iversen , Glenn Andre Kaada

Žanri:Drama, zgodovina, vojni




Podrobnosti

Država: Norveška | Danska | Združeno kraljestvo | Češka | Švedska
Jezik: Norveški | Angleščina | Nemščina | Danski
Datum izdaje:4. januar 2015 (Norveška)
Poznan tudi kot:Bitka za težko vodo
Lokacije snemanja: Praga, Češka
Izvajanje: 45 min | 267 min (skupni čas delovanja)


Tehnične specifikacije:

Complete name : Kampen.om.tungtvannet.S01.SRBSubs.720p.WEB.x264
Format : MPEG-4
Format profile : Base Media
Codec ID : isom (isom/iso2/avc1/mp41)
File size : 488 MiB
Duration : 44 min 53 s
Overall bit rate : 1 518 kb/s
Writing application : Lavf56.19.100

Video
ID : 1
Format : AVC
Format/Info : Advanced Video Codec
Format profile : High@L3.1
Format settings, CABAC : Yes
Format settings, RefFrames : 4 frames
Codec ID : avc1
Codec ID/Info : Advanced Video Coding
Duration : 44 min 53 s
Bit rate : 1 384 kb/s
Width : 1 280 pixels
Height : 720 pixels
Display aspect ratio : 16:9
Frame rate mode : Constant
Frame rate : 25.000 FPS
Color space : YUV
Chroma subsampling : 4:2:0
Bit depth : 8 bits
Scan type : Progressive
Bits/(Pixel*Frame) : 0.060
Stream size : 445 MiB (91%)
Writing library : x264 core 144 r2525 40bb568

Audio
ID : 2
Format : AAC
Format/Info : Advanced Audio Codec
Format profile : LC
Codec ID : 40
Duration : 44 min 53 s
Bit rate mode : Constant
Bit rate : 128 kb/s
Channel(s) : 2 channels
Channel positions : Front: L R
Sampling rate : 48.0 kHz
Frame rate : 46.875 FPS (1024 SPF)
Compression mode : Lossy
Stream size : 41.1 MiB (8%)
Default : Yes
Alternate group : 1

UŽIVAJTE!
Vremya.pervykh.aka.Spacewalk.2017.SLOSubs.BRRip.XviD-DrSi

Klikni za povečavo!
02-01-2021 13:33 naložil Ziva
Sejalci: 1 / Odjemalci: 0 / Velikost: 3.21 GB / Dokončani: 4
Prenesi torrent Poročaj torrent Opis torrenta NFO
Zvrst: Drama | Zgodovinski
Kategorija: FILMI >  BRRip



Naziv: Vremya.pervykh.aka.Spacewalk.2017.SLOSubs.BRRip.XviD-DrSi
Source: Vremya.pervykh.2017.720p.BluRay.DD5.1.x264-SPEED
Leto izida ........: 2017
Velikost ...........: 3,20 GB
Dolžina ............: 137 Minut
Video ...............: 2892 Kbps | 720x304 | 23,976 fps
Zvok .................: Dolby Digital AC3 5.1 @ 448 Kbps
Kodek.................: XviD
Zvrst………….: Drama | Zgodovinski
Država .............: Rusija
Jezik ................: Ruski
Podnapisi…….: Slovenski (custom)
Prevedel: denycare – Hvala!
Tehnična obdelava: DVD Rippers Slovenija
IMDb Ocena ...: 7,3/10 (5.887 glasov)

Režija.........: Dmitriy Kiselev
Scenarij......: Sergey Kaluzhanov, Yuriy Korotkov


Evgeniy Mironov ... Alexey Leonov
Konstantin Khabenskiy ... Pavel Belyaev
Vladimir Ilin ... Sergey Korolev
Anatoliy Kotenyov ... Nikolay Kamanin
Aleksandra Ursulyak ... Svetlana Leonova
Elena Panova ... Tatyana Belyaeva
Aleksandr Novin ... Evgeny Khrunov
Gennadiy Smirnov ... Konstantin Feoktistov
Yuriy Nifontov ... Boris Rauschenbakh
Yuriy Itskov ... Boris Chertok


Spremljamo film posnet po resničnih dogodkih v času hladne vojne,
kjer se je Sovjetska zveza, v upanju, da prehiti ZDA, odloči predčasno poslati
človeka v vesolje, ki bi prav tako opravil prvi vesoljski sprehod v zgodovini
človeštva. Za ta podvig izberejo dva najboljša pilota in kozmonavta, ki tako
poletita v vesolje. Toda stvari ne gredo niti približno po načrtu, saj se ves čas
soočata z ovirami in smrtno nevarnostjo. Ob vsakem koraku pa ju spremlja ves svet.



1944 2015 SrbSubs DVDRip x264 AAC k2rbseseen

Klikni za povečavo!
31-12-2020 10:30 naložil rado77
Sejalci: 1 / Odjemalci: 0 / Velikost: 2.51 GB / Dokončani: 7
Prenesi torrent Poročaj torrent Opis torrenta
Zvrst: Drama | Vojni | Zgodovinski
Kategorija: FILMI > DVDRip

1944 2015 SrbSubs DVDRip x264 AAC k2rbseseen


1944 (2015)


Direktor: Elmo Nüganen
Pisec: Leo Kunnas
Igrajo: Kaspar Velberg , Kristjan Üksküla , Maiken Pius
Žanri: Drama , Zgodovina , Vojna
Podnapisi: Srbski


Zgodba:

V filmu "1944" režiser Elmo Nüganen prikazuje resnične dogodke na vzhodni fronti v Estoniji leta 1944, od bitke pri Tannenburgu, julijskih spopadov na gričih Sinimäed, do novembra, ko je polotok Sorve že osvojila sovjetska vojska. Vojna je prikazana z očmi udeležencev dogodkov na obeh vojskujočih se straneh - Estoncev, ki so se borili na strani nemške vojske v 20. estonski diviziji Waffen-SS, in kot del 8. estonskega strelskega korpusa sovjetske vojske . Za prebivalce Estonije je bila to vojna, v kateri se vsak sam odloča. S tako težkimi odločitvami se soočajo glavna junaka filma - vojaka nasprotnih strani Carl Tammik in Urey Jogi - pa tudi njihovi tovariši, sorodniki, prijatelji in celo neznanci. Prispeval Ahmed Tanvir


Podrobnosti

Država: Estonija | Finska
Jezik: Estonski | Ruščina | Nemško
Datum izdaje:20. februar 2015 (Estonija)
Lokacije snemanja: Hribi Sinimäed, občina Narva-Jõesuu, okrožje Ida-Viru, Estonija
Izvajanje: 100 min

IMDb: https://www.imdb.com/title/tt3213684


Tehnične specifikacije:

Complete name : 1944 2015 SrbSubs DVDRip x264 AAC k2rbseseen\1944 2015 DVDRip x264 AAC k2rbseseen.mp4
Format : MPEG-4
Format profile : Base Media
Codec ID : isom (isom/iso2/mp41)
File size : 2.51 GiB
Duration : 1 h 36 min
Overall bit rate mode : Variable
Overall bit rate : 3 740 kb/s
Encoded date : UTC 1970-01-01 00:00:00
Tagged date : UTC 1970-01-01 00:00:00
Writing application : Lavf52.104.0

Video
ID : 1
Format : MPEG-4 Visual
Format profile : Simple@L3
Format settings, BVOP : No
Format settings, QPel : No
Format settings, GMC : No warppoints
Format settings, Matrix : Default (H.263)
Codec ID : mp4v-20
Duration : 1 h 36 min
Bit rate : 3 608 kb/s
Width : 1 280 pixels
Height : 720 pixels
Display aspect ratio : 16:9
Frame rate mode : Constant
Frame rate : 25.000 FPS
Color space : YUV
Chroma subsampling : 4:2:0
Bit depth : 8 bits
Scan type : Progressive
Compression mode : Lossy
Bits/(Pixel*Frame) : 0.157
Stream size : 2.42 GiB (96%)
Writing library : XviD 1.2.1 (UTC 2008-12-04)
Language : English
Encoded date : UTC 1970-01-01 00:00:00
Tagged date : UTC 1970-01-01 00:00:00

Audio
ID : 2
Format : AAC LC
Format/Info : Advanced Audio Codec Low Complexity
Codec ID : mp4a-40-2
Duration : 1 h 35 min
Bit rate mode : Variable
Bit rate : 128 kb/s
Channel(s) : 2 channels
Channel layout : L R
Sampling rate : 44.1 kHz
Frame rate : 43.066 FPS (1024 SPF)
Compression mode : Lossy
Stream size : 87.8 MiB (3%)
Language : English
Encoded date : UTC 1970-01-01 00:00:00
Tagged date : UTC 1970-01-01 00:00:00


Uživajte!
The.Zookeepers.Wife.2017.SLOSubs.720p.BRRip.X264.AC3-R77

Klikni za povečavo!
31-12-2020 10:21 naložil rado77
Sejalci: 1 / Odjemalci: 0 / Velikost: 2.77 GB / Dokončani: 0
Prenesi torrent Poročaj torrent Opis torrenta
Kategorija: FILMI >  BRRip

The.Zookeepers.Wife.2017.SLOSubs.720p.BRRip.X264.AC3-R77


The Zookeeper's Wife (2017)

ŽENA ČUVAJA ŽIVALSKEGA VRTA


Direktor: Niki Caro
Pisatelji: Angela Workman (scenarij), Diane Ackerman (po knjigi avtorja)
Igrajo: Jessica Chastain, Johan Heldenbergh, Daniel Brühl
Žanri: Biografija, Drama, Zgodovina, Vojna
Podnapisi: Slovenski


Zgodba:

Ko se vojna leta 1939 konča, in medtem ko življenje še teče, Nemci postopoma občutijo svojo prisotnost, Adolf Hitler pa se na skrivaj pripravlja na invazijo na Poljsko. V teh nestanovitnih okoliščinah par Jan Zabinski in Antonina Zabinskanadaljujte z vsakdanjo rutino kot lastniki varšavskega živalskega vrta; vendar se bodo njihova življenjska dela in mesto pretvorili v pepel, ko bodo grozljivi Stuki Luftwaffeja začeli klati prestolnico. Zdaj, ko je živalski vrt likvidiran zaradi vojnih prizadevanj in številne njegove živali, ki so tragično umrle, je bila nekoč zverinja, zdaj bo služila kot svetišče, kjer bo par veterinarjev lahko na vidnem mestu skril preganjano poljsko-judovsko ljudstvo. To je bil dejansko nevaren načrt dveh altruistov, ki sta se, ne glede na posledice, pred nacistično grožnjo zavrnila in tristo sovražnih moških, žensk in otrok zaščitila pred nosom. Se bo svet spomnil žene čuvarja živalskega vrta? Napisal Nick Riganas
PO RESNIČNIH DOGODKIH!

Podrobnosti:

Država: Češka | Združeno kraljestvo | ZDA
Jezik: Angleščina | Nemščina | Hebrejščina
Datum izdaje:31. marec 2017 (Češka)
Lokacije snemanja: Praga, Češka
Izvajanje: 127 min

Tehnične specifikacije:

Complete name : The.Zookeepers.Wife.2017.SLOSubs.720p.BRRip.X264.AC3-R77\The.Zookeepers.Wife.2017.SLOSubs.720p.BRRip.X264.AC3-R77.mkv
Format : Matroska
Format version : Version 4
File size : 2.77 GiB
Duration : 2 h 6 min
Overall bit rate : 3 131 kb/s
Encoded date : UTC 2017-06-19 22:35:15 / UTC 2017-06-19T22:16:33Z
Writing application : mkvmerge v6.7.0 ('Back to the Ground') 64bit built on Jan 8 2014 15:10:52
Writing library : libebml v1.3.0 + libmatroska v1.4.1 / Lavf55.12.0

Video
ID : 1
Format : AVC
Format/Info : Advanced Video Codec
Format profile : High@L4.1
Format settings : CABAC / 4 Ref Frames
Format settings, CABAC : Yes
Format settings, Reference frames : 4 frames
Codec ID : V_MPEG4/ISO/AVC
Duration : 2 h 6 min
Bit rate : 2 700 kb/s
Width : 1 280 pixels
Height : 536 pixels
Display aspect ratio : 2.40:1
Frame rate mode : Constant
Frame rate : 23.976 (24000/1001) FPS
Color space : YUV
Chroma subsampling : 4:2:0
Bit depth : 8 bits
Scan type : Progressive
Bits/(Pixel*Frame) : 0.164
Stream size : 2.32 GiB (84%)
Writing library : x264 core 142 r2479 dd79a61
Default : Yes
Forced : No
Color range : Limited
Color primaries : BT.709
Transfer characteristics : BT.709
Matrix coefficients : BT.709

Audio
ID : 2
Format : AC-3
Format/Info : Audio Coding 3
Commercial name : Dolby Digital
Codec ID : A_AC3
Duration : 2 h 6 min
Bit rate mode : Constant
Bit rate : 448 kb/s
Channel(s) : 6 channels
Channel layout : L R C LFE Ls Rs
Sampling rate : 48.0 kHz
Frame rate : 31.250 FPS (1536 SPF)
Compression mode : Lossy
Delay relative to video : -5 ms
Stream size : 405 MiB (14%)
Title : Surround
Language : English
Service kind : Complete Main
Default : Yes
Forced : No

UŽIVAJTE!
The Great Alaskan Race 2019 SrbSubs 720p BRRip XviD AC3 Unknown

Klikni za povečavo!
27-12-2020 11:06 naložil Ziva
Sejalci: 1 / Odjemalci: 0 / Velikost: 1.99 GB / Dokončani: 7
Prenesi torrent Poročaj torrent Opis torrenta NFO
Kategorija: FILMI >  BRRip



The Great Alaskan Race 2019 720p BRRip XviD AC3 Unknown
Language(s): English
Size: 1.98 GB | Duration: 1hr 24mn | Container: AVI
Audio: AC-3 | 448 Kbps | 6 Channels
Video: XviD | 2915 Kbps | 1280 x 536
Genre: Adventure | Drama | History


Brian Presley, Treat Williams, Brad Leland


In 1925's historic great race of mercy, a group of brave mushers travel 700 miles to save the small children of Nome, Alaska from a deadly epidemic.



Bozicni.ustanak.S01.Ep.01-09. TVRip.720p.x264.R77

Klikni za povečavo!
25-12-2020 16:27 naložil System
Sejalci: 1 / Odjemalci: 0 / Velikost: 4.7 GB / Dokončani: 7
Prenesi torrent Poročaj torrent Opis torrenta
Zvrst: Drama | Vojni | Zgodovinski
Kategorija: FILMI > TV - Serija
Anonimen nalagalec

Bozicni.ustanak.S01.Ep.01-09. TVRip.720p.x264.R77

Bozićni ustanak

TV serija S01 / 2017

Božični upor


Pristne in zgodovinske serije o državi, ki je izginila s sveta, čeprav je zmagala v 1. svetovni vojni. Resnična zgodba o junaškem črnogorskem boju za dobrobit Srbije, ki jo je kasneje srbska okupacija kaznovala.- napisal: markomr


Zgodba

Serija o koncu prve svetovne vojne, izgubi državnosti in božični vstaji - najbolj tragičnih dogodkih v zgodovini Črne gore. Zgodba je pripovedovana skozi ljubezensko zgodbo in družinske odnose v tistem obdobju v Črni gori.

Žanri: Drama | Zgodovina | Romantični | Vojna
Igrajo: Miodrag Radonjic, Sanja Popovic, Amar Bukvic

Podrobnosti:
Država: Črna gora
Datum izdaje:29. januar 2017 (Črna gora)
IMDb: https://www.imdb.com/title/tt4310408/?ref_=login


Tehnične specifikacije:

Complete name : Bozicni.ustanak.S01.Ep.01-09. TVRip.720p.x264.R77\Bozicni ustanak TVRip.720p.x264.Ep.01.mp4
Format : MPEG-4
Format profile : Base Media / Version 2
Codec ID : mp42 (isom/iso2/avc1/mp41)
File size : 430 MiB
Duration : 42 min 25 s
Overall bit rate mode : Variable
Overall bit rate : 1 416 kb/s
Encoded date : UTC 2017-02-02 13:43:34
Tagged date : UTC 2017-02-02 13:43:34
Writing application : HandBrake 0.10.3 2016012200

Video
ID : 1
Format : AVC
Format/Info : Advanced Video Codec
Format profile : Main@L4
Format settings : CABAC / 9 Ref Frames
Format settings, CABAC : Yes
Format settings, Reference frames : 9 frames
Codec ID : avc1
Codec ID/Info : Advanced Video Coding
Duration : 42 min 25 s
Bit rate : 1 250 kb/s
Width : 1 280 pixels
Height : 720 pixels
Display aspect ratio : 16:9
Frame rate mode : Constant
Frame rate : 25.000 FPS
Color space : YUV
Chroma subsampling : 4:2:0
Bit depth : 8 bits
Scan type : Progressive
Bits/(Pixel*Frame) : 0.054
Stream size : 379 MiB (88%)
Writing library : x264 core 142 r2479 dd79a61
Encoded date : UTC 2017-02-02 13:43:34
Tagged date : UTC 2017-02-02 13:43:34
Color range : Limited
Color primaries : BT.709
Transfer characteristics : BT.709
Matrix coefficients : BT.709
Codec configuration box : avcC
Audio
ID : 2
Format : AAC LC
Format/Info : Advanced Audio Codec Low Complexity
Codec ID : mp4a-40-2
Duration : 42 min 25 s
Bit rate mode : Variable
Bit rate : 160 kb/s
Channel(s) : 2 channels
Channel layout : L R
Sampling rate : 48.0 kHz
Frame rate : 46.875 FPS (1024 SPF)
Compression mode : Lossy
Stream size : 48.7 MiB (11%)
Title : Stereo / Stereo
Default : Yes
Alternate group : 1
Encoded date : UTC 2017-02-02 13:43:34
Tagged date : UTC 2017-02-02 13:43:34

UŽIVAJTE!
Doberdob-roman.upornika.2015.Slovenija.720p.WEBRip.x264-R77

Klikni za povečavo!
23-12-2020 15:54 naložil rado77
Sejalci: 1 / Odjemalci: 0 / Velikost: 1.09 GB / Dokončani: 2
Prenesi torrent Poročaj torrent Opis torrenta
Zvrst: Zgodovinski
Kategorija: FILMI > Dokumentarni

Doberdob-roman.upornika.2015.Slovenija.720p.WEBRip.x264-R77

DOBERDOB-ROMAN UPORNIKA



EKIPA:

Scenarij in režija MARTIN TURK
Producentka IDA WEISS
Direktor fotografije RADOVAN ČOK
Montažer JURIJ MOŠKON
Skladatelj glasbe CHRIS ECKMAN
Avtor ilustracij DAMIJAN STEPANČIČ
Zvok MIHA JARAMAZ, VJEKOSLAV MIKEZ
Scenograf MARCO JURATOVEC
Kostumograf EMIL CERAR
Oblikovalka maske PETRA HARTMAN

Vsebina:

Leta 1930 Cankarjeva založba napove izid vojnega romana „Doberdob“ pisatelja Prežihovega Voranca. Roman bo popisal tragične zgodbe vojakov, ki so se borili na Doberdobski planoti, na kateri je po mnenju zgodovinarjev izkrvavelo največ slovenskih vojakov, ki so se borili v prvi svetovni vojni in na kateri se je bojeval tudi takrat dvaindvajsetletni pisatelj s pravim imenom Lovro Kuhar.
Roman dejansko izide šele leta 1940, pisatelj pa roman v desetih letih od napovedi izida napiše kar trikrat, saj rokopis nekajkrat izgine v nenavadnih okoliščin. Obdobje pisanja romana namreč sovpada z aktivnim političnim življenjem Prežihovega Voranca. Bil je eden prvih komunistov na slovenskem, leta 1937 pa postane celo organizacijski sekretar ter s tem drugi človek jugoslovanske komunistične partije. Bil je agent kominterne, popotnik, ki je govoril 5 jezikov ter bil v stikih z nekaterimi najvidnejšimi politiki tistega časa. Hkrati je ves čas ohranjal osebno skromnost in vero v malega človeka ter vrednote, ki sčasoma niso bile več v duhu vse trše partijske ideologije.
Roman Doberdob je nastajal v obdobju, ki ga je Voranc zaradi aktivnega političnega življenja, večinoma preživel v ilegali in velja za edini slovenski avtobiografski roman na temo prve svetovne vojne.


IGRALCI & SOGOVORNIKI:

SREČKO KERMAVNER (Prežihov Voranc)
ALEŠ VALIČ (Interpretacija odlomkov iz romana "Doberdob, Vojni Roman Slovenskega Naroda")
Sogovorniki:
METKA PETRIČ, vnukinja Prežihovega Voranca
DDr. IGOR GRDINA, zgodovinar in literarni zgodovinar
Mag. Dr. FABIAN HAFNER, slavist
Mag. MARKO ŠTEPEC, zgodovinar
Dr. MIRAN HLADNIK, literarni zgodovinar
DARIO FRANDOLIČ, profesor in ljubiteljski zgodovinar
Mag. VASJA KLAVORA, publicist
Dr. VIDA DEŽELAK BARIČ, zgodovinarka
MIROSLAV OSOJNIK, upokojeni strokovni sodelavec Koroškega prokrajinskega muzeja




PRODUKCIJA:
BELA FILM v koprodukciji z
RTV SLOVENIJA
Vodja projekta: Mateja Erika Smisl
Dokumentarni program
Urednik: Peter Povh
Producent: Jaka Hemler
in
RAI FURLANIJA JULIJSKA KRAJINA
Odgovorna urednica za Slovenski program RAI – Sedež za FJK:
Martina Repinc


TEHNIČNI PODATKI

Dolžina: 74 min.
Format: DCP, barvni
Ratio: 1:1,78 (16:9)
Hitrost: 25fps
Zvok: Stereo
Jezik: Slovenski
Leto produkcije: 2015 (Maj)
Tip projekta: Celovečerni, Dokumentarni

KDOR SEJE TUDI ŽANJE!
Cinema.Komunisto.2010.SLOSubs.720p.WEBRip.x264-R77

Klikni za povečavo!
22-12-2020 14:30 naložil rado77
Sejalci: 1 / Odjemalci: 0 / Velikost: 1.37 GB / Dokončani: 5
Prenesi torrent Poročaj torrent Opis torrenta
Zvrst: Zgodovinski
Kategorija: FILMI > Dokumentarni

Cinema.Komunisto.2010.SLOSubs.720p.WEBRip.x264-R77

Cinema Komunisto (2010)
dokumentarni



Režija Mila Turajlić
Scenarij Mila Turajlić
Fotografija Goran Kovačević
Montaža Aleksandra Milovanović
Glasba Nemanja Mosurović
Producenti Dragan Pešikan, Mila Turajlić, Iva Plemić Divjak, Dejan Petrović, Goran Ješić
Produkcija Dribbling Pictures
Koprodukcija 3K Productions, Intermedia Network
Nastopajo Veljko Bulajić, Velimir Bata Živojinović, Aleksandar Leka Konstatinović, Steva Petrović, Gile Djurić
Trajanje : 01:41:25
SLO PODNAPISI


Vsebina:

SLO
Zgodba o filmskem studiu, kjer je nastajala zgodovina Jugoslavije. Zgodba o človeku, ki je vsak večer obsesivno gledal filme, medtem ko je podnevi vodil državo ter bral in popravljal scenarije bodočih filmov. Zgodba o času, ko je Jugoslavija veljala za Hollywood vzhoda. V zakulisje zlatega obdobja jugoslovanske filmske industrije nas popelje dolgoletni Titov osebni kinooperater Leka Konstantinović, njegov najljubši režiser Veljko Bulajić, zvezda partizanskega filma Bata Živojinović in drugi.
Kolaž prizorov iz pozabljenih jugoslovanskih filmov, arhivskih posnetkov in ekskluzivnih intervjujev pripoveduje zgodbo o vzponu in padcu 'Hollywooda vzhoda' in o ustvarjanju mita o Jugoslaviji na filmskem platnu. Prvenec mlade srbske režiserke je nostalgična, grenko-sladka zgodba o državi, ki ne obstaja več... razen v filmu.
Mila Turajlić, režiserka in scenaristka:
»V to zgodbo sem vstopila kot pripadnica nove generacije jugoslovanskih filmskih ustvarjalcev z zelo nejasnimi spomini na deželo, ki ne obstaja več. Odrasli smo med ruševinami nečesa, kar nostalgično imenujemo 'zlata doba'. Zamudili smo to veliko žurko in prišli ravno ob času, ko je bilo treba plačati račune. /.../ Resnična motivacija za film je bil prvi obisk filmskih studiev Avala filma.
Vstopila sem skozi široka vrata in bilo je, kot bi vstopila v skrivnostni vrt. Pogledala sem za zid in nenadoma se mi je razkril svet, za katerega nisem vedela, da obstaja. Bil je brezmejen, izumrlo mesto zapuščenih in razpadajočih kulis, zastarele opreme, praznih filmskih scen in brezposelnih tehnikov. /.../ Avala film je bil na neki način kraj, kjer se je rojevala iluzija o Jugoslaviji. To je bila moja izhodiščna točka za film, saj sem menila, da lahko porušeni filmski studio razkrije nekaj o razpadu scenografije dežele, v kateri smo živeli. /.../ Želela sem narediti film o tem, kako je mogoče s pomočjo filma napisati zgodbo o neki deželi in ustvariti njeno uradno nacionalno podobo. /.../ Mojo osnovno idejo najbolje povzame citat Jacquesa Rancièra: 'Zgodovina filma je zgodovina moči ustvarjanja zgodovine.'«

SRB-HR
(Filmska priča o Titovu kinooperateru, usponu i padu Avala filma, žanru partizanskog filma i Pulskom festivalu...
Cinema Komunisto nas vodi na putovanje kroz ostatke Titove filmske industrije ispitujući uspon i pad jugoslavenske filmske iluzije. Leka Konstantinović bio je 32 godine Titov osobni kinooperater. U tom periodu prikazao mu je ukupno 8801 film o čemu je vodio uredne zabilješke. Zajedno s redateljemVeljkom Bulajićem, Titovim omiljenim glumcem Batom Živojinovićem i direktorima i zaposlenicima Avala filma Leka govori o tome kako je Maršal Tito koristio filmsku industriju da stvori 'zvanični narativ' nove države - Socijalističke Federativne Republike Jugoslavije. Od natrule scenografije u 'gradu duhova’, u koji se pretvorila moćna Avala, do predsjednikove privatne sale za projekcije, pratimo čovjeka koji je opsesivno svake noći gledao filmove dok je danju, upravljajući zemljom, čitao, pa čak i prepravljao scenarije budućih filmova. Uz pomoć odlomaka iz više od 60 zaboravljenih jugoslavenskih filmova, 'Cinema Komunisto' je priča o Jugoslaviji na način na koji ona nikada nije ispričana na filmskom platnu. Otkrijte tajne pulskog festivala, rušenja mosta na Neretvi, Titove opsesije kinematografijom i opsesije stranih glumaca i redatelja Titom koji su redovito snimali u Jugoslaviji.)


Tehnične specifikacije:

Unique ID : 171512738702936913082549147028703504004 (0x810826E4F64EBBA99B0A576015FD6684)
Complete name : Cinema.Komunisto.2010.SLOSubs.720p.WEBRip.x264-R77\Cinema Komunisto (2010).mkv
Format : Matroska
Format version : Version 4
File size : 1.37 GiB
Duration : 1 h 41 min
Overall bit rate : 1 930 kb/s
Encoded date : UTC 2010-02-22 21:41:31
Writing application : mkvmerge v5.9.0 ('On The Loose') built on Dec 9 2012 15:37:01
Writing library : libebml v1.3.0 + libmatroska v1.4.0
Video
ID : 1
Format : AVC
Format/Info : Advanced Video Codec
Format profile : High@L4.1
Format settings : CABAC / 8 Ref Frames
Format settings, CABAC : Yes
Format settings, Reference frames : 8 frames
Muxing mode : Header stripping
Codec ID : V_MPEG4/ISO/AVC
Duration : 1 h 41 min
Bit rate : 1 735 kb/s
Width : 720 pixels
Height : 576 pixels
Display aspect ratio : 16:9
Frame rate mode : Constant
Frame rate : 25.000 FPS
Standard : PAL
Color space : YUV
Chroma subsampling : 4:2:0
Bit depth : 8 bits
Scan type : Progressive
Bits/(Pixel*Frame) : 0.167
Stream size : 1.20 GiB (88%)
Writing library : x264 core 128
Default : Yes
Forced : No
Color range : Limited
Color primaries : BT.601 PAL
Transfer characteristics : BT.709
Matrix coefficients : BT.601
Audio
ID : 2
Format : AC-3
Format/Info : Audio Coding 3
Commercial name : Dolby Digital
Muxing mode : Header stripping
Codec ID : A_AC3
Duration : 1 h 41 min
Bit rate mode : Constant
Bit rate : 192 kb/s
Channel(s) : 2 channels
Channel layout : L R
Sampling rate : 48.0 kHz
Frame rate : 31.250 FPS (1536 SPF)
Compression mode : Lossy
Stream size : 139 MiB (10%)
Language : Serbian
Service kind : Complete Main
Default : Yes
Forced : No

UŽIVAJTE!
Ballon 2018 SloSubs 1080p BRRip XviD AC3 Unknown

Klikni za povečavo!
22-12-2020 10:40 naložil Ziva
Sejalci: 1 / Odjemalci: 0 / Velikost: 4.78 GB / Dokončani: 3
Prenesi torrent Poročaj torrent Opis torrenta NFO
Kategorija: FILMI >  BRRip



Ballon 2018 1080p BRRip XviD AC3 Unknown
Language(s): German
Size: 4.77 GB | Duration: 2hr 05mn | Container: AVI
Audio: AC-3 | 448 Kbps | 6 Channels
Video: XviD | 4999 Kbps | 1920 x 800
Genre: Drama | History | Thriller


Friedrich Mücke, Karoline Schuch, David Kross


Poleti 1979 sta dve družini v Thüringenu v vzhodni Nemčiji pripravili nor načrt. Obupno želijo zapustiti DDR na zahod in nameravajo pobegniti z domačim balonom z vročim zrakom. Po tednih šivanja in petjenja amaterji opravijo prvi poskus. Nekaj metrov od zahodnonemške meje njihov balon trpi zaradi dežja in nesreč. Na srečo se jim uspe izogniti policiji. Kljub temu najdejo razbitine njihovega poskusa pobega, kar sproži obupan lov na njih. Napetost narašča, ko se družine odločijo, da bodo poskusile znova, in sledi tekma s časom. Po eni strani se oblasti, ki so obupane, da bi izsledile izdajalce, zavedajo, da se načrtuje drugi poskus. Po drugi strani pa morajo morebitni ubežniki, ki se zavedajo, da jim je oblast za petami ...




Bila.so.Titova.mesta.2018.SLOSubs.720p.WEBRip.x264-R77

Klikni za povečavo!
17-12-2020 17:57 naložil System
Sejalci: 1 / Odjemalci: 0 / Velikost: 1.92 GB / Dokončani: 7
Prenesi torrent Poročaj torrent Opis torrenta
Zvrst: Zgodovinski
Kategorija: FILMI > Dokumentarni
Anonimen nalagalec

Bila.so.Titova.mesta.2018.SLOSubs.720p.WEBRip.x264-R77

Bila so Titova mesta

mini dokumrntarna serija
2 epizodi


Opis:
Po smrti Josipa Broza Tita (1892–1980) je v vsaki izmed šestih jugoslovanskih republik in dveh avtonomnih pokrajin po eno mesto nosilo Titovo ime.
Z razpadom države so atribut Titova/Titov/Titovo postopno izgubila. Danes so ta mesta v sedmih državah.
Dokumentarni film v dveh delih Bila so Titova mesta skozi usodo osmih mest nekdanje Jugoslavije spremlja, kako se je v minulih desetletjih preoblikoval ta nekoč naš skupni prostor. Zgodbe mest spoznamo skozi pripoved iskrivih sogovornikov, ki se spominjajo obdobja pod Titovim imenom. Ta mesta so bila pogosto privilegirana, izbrana zaradi levičarskih idej, delavskega značaja, industrializacije, urbanizacije in sodobnosti. Mnoge zgodbe so tragične, saj je malo mest, ki se jih ni dotaknila vojna v nekdanji Jugoslaviji.
V prvem delu je poudarek na štirih mestih: Podgorici, Korenici, Vrbasu in Mitrovici.
Glavno mesto Črne gore Podgorica – nekoč Titograd – se hitro razvija, mladi se ob večerih družijo v središču mesta, pred vladno stavbo pa prevarani delavci gladovno stavkajo.
V hrvaški Korenici, pri Plitviških jezerih, se je začela vojna v Jugoslaviji. Ko je izbruhnila vstaja krajinskih Srbov, so pobegnili Hrvati; med operacijo Nevihta so bežali Srbi. Razkošna Titova vila Izvir je razdejana, mogočna podzemna vojaška baza Željava minirana.
Vrbas je pomembno industrijsko mesto v Vojvodini. Ko so po drugi vojni številni Nemci odšli, so z 'vlaki brez voznega reda' v njihove hiše naselili Črnogorce. V mestu živi več kot 20 narodnosti in med prebivalci je večkulturnost pomembna vrednota.
Kosovsko Mitrovico – Mitrovicë razdvaja reka Ibar. Ena stran je popolnoma albanska, druga pretežno srbska. V srbskem delu je dvojna oblast: tista, ki jo priznava država Kosovo, in tista, ki jo je postavila Srbija, saj ima to ozemlje še vedno za svoje. V rudniku Stari trg so se leta 1989 z gladovno stavko prvi uprli Miloševiću. Za marsikoga je bil to začetek razpada Jugoslavije.
V drugem delu bodo predstavljena mesta Užice, Veles, Drvar in Velenje.
Režija in scenarij:Amir Muratović
Produkcija: Matjaž Ham


TEHNIČNI PODATKI:

Razmerje slike: 1,77:1 // 16:9
Trajanje in dolžina: 102 minuti
Barva: barvni
Zvok: stereo
Prikazovalni format: digitalni datoteka
Podnapisi: Slovenski
KDOR SEJE TUDI ŽANJE!