A
B
C
D
E
F
G
H
I
J
K
L
M
N
O
P
Q
R
S
T
U
V
W
X
Y
Z
0-9
SLOVENSKI.ZAKLAD.NARODNO.ZABAVNE.GLASBE.izbor.2.del..720p.TVRip-R77

Klikni za povečavo!
25-02-2021 16:34 naložil rado77
Sejalci: 1 / Odjemalci: 0 / Velikost: 1.51 GB / Dokončani: 7
Prenesi torrent Poročaj torrent Opis torrenta
Zvrst: Glasbeni
Kategorija: GLASBA > Video

SLOVENSKI.ZAKLAD.NARODNO.ZABAVNE.GLASBE.izbor.2.del..720p.TVRip-R77


SLOVENSKI ZAKLAD
NARODNOZABAVNE GLASBE

izbor 2.del


Narodno-zabavna glasba je pomemben segment popularne glasbe v slovenskem in širšem
alpskem prostoru in s tem tudi del popularne kulture, ki preko medijev vpliva na percepcijo
samoprepoznavnosti in identitete nekega, v tem primeru slovenskega naroda.
Vir: Torkar Klemen -diplomska

Narodnozabavna glasba (avtor imena: Janez Bitenc) je glasbena zvrst, za katero so značilne ljudsko (etnično) obarvane pesmi. Razširjena je predvsem v Sloveniji, Avstriji, Švici in Nemčiji, pa tudi na Češkem ter v Italiji (južna Tirolska). Na Slovenskem je znana in razširjena še najbolj po zaslugi številnih narodnozabavnih ansamblov. Tovrstna glasba je pogosto prisotna na veselicah, porokah, njej pa je posvečenih tudi kar nekaj festivalov in tekmovanj. Nekateri ji slabšalno pravijo goveja muska ali kar govedna, to pa zato, ker naj bi ta glasba, kakor meni poznavalec Ivan Sivec, verjetno sodila zraven nedeljske goveje juhe. S to glasbo je tesno povezan tudi njen najznačilnejši instrument, to je diatonična harmonika (pogovorno frajtonerica), ki je v našem prostoru dobro zastopana na račun okoli 65 izdelovalcev.


Izvajalci:
1.Ans. Franca Miheliča - Danes mi praznujemo 1984.mp4
2.Fantje s vseh vetrov - Na zdravje muzikant 1987.mp4
3.Ansambel Henček - Polka, valček, rock & roll.mp4
4.Avsenik - Za kratek čas.mp4
5.Slovenski muzikanti_Oberkrainer Sextett & Regenbogen.mp4
6.Veseli Hribovci - polka.mp4
7.Ansambel bratov Avsenik - Čez zelene trate.mp4
8.Ansambel Lojzeta Slaka - Deželica sonca in grozdja.mp4
9.Ansambel Vilija Petriča - Dolina Drave.mp4
10.Ansambel bratov Avsenik - Po klančku gor po klančku dol.mp4
11.Ans. Lojzeta Slaka - Med brajdami.mp4
12.Veseli planšarji - Na saneh.mp4
13.Štirje Kovači - Mala solzica.mp4
14.Ansambel Lojzeta Slaka - Krka sanjava.mp4
15.Avsenik - Slalom polka.mp4
16.Ansambel Vilija Petriča - Še en liter.mp4
17.Trio Lojze Slak - Znana polka.mp4
18.Beneški fantje - Oj božime.mp4
19.Ansambel Lojzeta Slaka - Na ohceti.mp4
20.Štirje Kovači - Danes je nedelja.mp4
21.Ansambel Lojzeta Slaka - Med cvetlicami po logu.mp4
22.Veseli Planšarji - Tiha je Loka.mp4
23.Beneški fantje - Kdor je dobre volje.mp4
24.Ansambel Vilija Petriča - Na šank.mp4
25.Ansambel Lojzeta Slaka - Pri dobri kapljici.mp4
26.Štirje Kovači - Na paure.mp4
28.Ansambel Vilija Petriča - Vem zakaj1994.mp4
29.Avsenik v Postojnski jami.mp4
30.Slovenski intrumentalni kvintet, Danica FIlipič Vsak dan pa bajta stoji.mp4
31.ANSAMBEL MIHE DOVŽANA - SRNE.mp4
32.Ans. Rudija Bardorferja - Starka ZimaZimska.mp4
33.Ansambel bratov Avsenik - Veselje klarinetov (1967).mp4
34.Ansambel Janeza Kalška - Moj fantič je prijezdil.mp4
35.Ansambel bratov Avsenik - Srečno pot (1967).mp4
36.Ansambel Slavka in Vilka Avsenika 1967, Avsenik Oberkrainer 1967, Avseniki.mp4
37.Franc Delčnjak - čreda v galopu.mp4
38.Ansambel bratov Avsenik - Igrajoči klarineti (1967).mp4
39.Ansambel bratov Avsenik - Jesenska (1967).mp4
40.Fantje treh dolin - Mladost na vasi.mp4
41.Ansambel bratov Avsenik - Veseli svatjeLustige Hochzeit (1967).mp4
42.Avsenik - Horoskop.mp4
43.Fantje treh dolin - Na Naravskih ledinah.mp4
44.MIHA DOVZAN Muhasta plavolaska TVL 30 10 1966.mp4
45.Ansambel Toneta Kmetca - Je leto naokoli.mp4
46.Fantje treh dolin - Na steleraji.mp4
47.Ansambel bratov Avsenik - Pod Grintovcem (1967).mp4
48.Ansambel Mihe Dovžana - Ne joči dekle ob slovesu.mp4
49.Ansambel Ludvika Lesjaka - Pozdrav s Katarine.mp4
50.Fantje treh dolin - Na rosnih tratah.mp4
51.Slovenski instrumentalni kvintet - Na Gorenjskem je fletno.mp4
52.Ansambel bratov Avsenik - Viničarska.mp4
53.Rafko Irgolic & Stanka Kovacic - Dober dan, sonce.mp4
54.Vokalni kvintet Gorenjci in Miha Dovžan - Moravška dolina.mp4
55.Slavko Avsenik - Z Bohinja.mp4
56.Slovenski inštr kvintet - Moje dekle.mp4
57.Slavko Avsenik - Lisička in Marička SV.mp4
58.Slavko Avsenik - Iz Bohinja SV.mp4
59.Slavko Avsenik - V postojnski jami.mp4
60.MIHA DOVZAN Ujemi me 1969.mp4
61.Ansambel bratov Avsenik - Ja, ja, k' je luštno (1967).mp4
62.Slavko Avsenik - Vlak drvi.mp4
63.Ansambel bratov Avsenik - Proti jutru(1967).mp4
64.Ansambel bratov Avsenik - Lepe ste ve Karavanke (1967).mp4
65.Ansambel bratov Avsenik - Otoček sredi jezera (1967).mp4
66.Ansambel bratov Avsenik - Pastirček (1967).mp4
67.Avsenik - Die Lustigen Oberkrainer Musikanten - Sirenen Polka 1960.mp4
68.Z Avseniki v novo leto - Prav fletno se imamo- 1986 (Cro subtitles).mp4
69.Z Avseniki v novo leto - Na Golici-1986 (Cro subtitles).mp4
70.Ansambel bratov Avsenik - Proti jutru-Sirenen Polka (1967).mp4


Tehnične specifikacije:

Complete name : SLOVENSKI ZAKLAD NARODNOZABAVNE GLASBE-izbor 2.del
Format : MPEG-4
Format profile : Base Media
Codec ID : isom (isom/iso2/avc1/mp41)
File size : 1.51 GiB
Duration : 3 h 25 min
Overall bit rate : 1 055 kb/s

Video
ID : 1
Format : AVC
Format/Info : Advanced Video Codec
Format profile : Main@L3.1
Format settings : CABAC / 1 Ref Frames
Format settings, CABAC : Yes
Format settings, Reference frames : 1 frame
Codec ID : avc1
Codec ID/Info : Advanced Video Coding
Duration : 3 h 25 min
Source duration : 3 h 25 min
Bit rate : 860 kb/s
Width : 500 pixels
Height : 500 pixels
Display aspect ratio : 1.000
Frame rate mode : Variable
Frame rate : 26.820 FPS
Minimum frame rate : 10.000 FPS
Maximum frame rate : 45.534 FPS
Color space : YUV
Chroma subsampling : 4:2:0
Bit depth : 8 bits
Scan type : Progressive
Bits/(Pixel*Frame) : 0.128
Stream size : 1.23 GiB (82%)
Source stream size : 1.23 GiB (82%)
Codec configuration box : avcC

Audio
ID : 2
Format : AAC LC
Format/Info : Advanced Audio Codec Low Complexity
Codec ID : mp4a-40-2
Duration : 3 h 25 min
Bit rate mode : Constant
Bit rate : 192 kb/s
Channel(s) : 2 channels
Channel layout : L R
Sampling rate : 44.1 kHz
Frame rate : 43.066 FPS (1024 SPF)
Compression mode : Lossy
Stream size : 281 MiB (18%)
Default : Yes
Alternate group : 1

Veliko užitkov!
ABBA_Live.At.Wembley.Arena.720p.HDTVRip-R77

Klikni za povečavo!
24-02-2021 15:18 naložil rado77
Sejalci: 2 / Odjemalci: 0 / Velikost: 2.28 GB / Dokončani: 7
Prenesi torrent Poročaj torrent Opis torrenta
Zvrst: Glasbeni
Kategorija: GLASBA > Video

ABBA_Live.At.Wembley.Arena.720p.HDTVRip-R77


ABBA Live At Wembley Arena


"V živo na areni Wembley"
Kako je skupina ABBA z nastopom v živo presegla vsa pričakovanja


Če pogledamo nazaj, se zdi, da je za sedež na enem od šestih londonskih koncertov ABBA, na njihovi turneji leta 1979, popolna zlata vvstopnica. Tudi takrat je bilo povpraševanje več kot preseženo, vendar nihče ne bi mogel uganiti, da bo to zadnja priložnost oboževalcev, da švedsko superskupino ujamejo v živo v Veliki Britaniji. Za tiste, ki so ga zamudili, album Live At Wembley Arena , ki je bil prvotno izdan v Evropi 29. septembra 2014, ponuja vse dokaze, ki jih potrebujete za dokaz, da je ABBA v svojih najboljših letih na zalost vseh praktično izginila iz javnosti!
Znameniti švedski pop kvartet perfekcionistov je bil vedno raje v snemalnem studiu, da pričara njihov slavni zvok, in z nastopi v živo ni bil nikoli povsem zadovoljen. ABBA pa je popustila s to izdajo albuma v živo, ki prihaja 35 let po začetku druge, zadnje svetovne turneje, ki zajema Severno Ameriko, Evropo in Japonsko.
Nekaj posnetkov je bilo predvajanih že v prejšnjih zbirkah video-spotov. Verjemite vse kar sem vam naložil do sedaj je bil le uvod v spektakelj, ki je pred vami!
Prepričan sem , da si ga boste ogledali večkrat!
Datum koncerta: 10. novembra 1979

Tehnične specifikacije:

Complete name : ABBA_Live At Wembley Arena_R77
Format : MPEG-4
Format profile : Base Media
Codec ID : isom (mp41)
File size : 2.28 GiB
Duration : 1 h 18 min
Overall bit rate mode : Variable
Overall bit rate : 4 161 kb/s
Encoded date : UTC 2014-08-28 04:15:00
Tagged date : UTC 2014-08-28 04:15:00
Video
ID : 2
Format : AVC
Format/Info : Advanced Video Codec
Format profile : Baseline@L3.1
Format settings : 1 Ref Frames
Format settings, CABAC : No
Format settings, Reference frames : 1 frame
Format settings, GOP : M=1, N=29
Muxing mode : Container profile=Baseline@3.0
Codec ID : avc1
Codec ID/Info : Advanced Video Coding
Duration : 1 h 18 min
Bit rate mode : Variable
Bit rate : 4 004 kb/s
Maximum bit rate : 4 800 kb/s
Width : 1 280 pixels
Height : 720 pixels
Display aspect ratio : 16:9
Frame rate mode : Constant
Frame rate : 29.970 (30000/1001) FPS
Color space : YUV
Chroma subsampling : 4:2:0
Bit depth : 8 bits
Scan type : Progressive
Bits/(Pixel*Frame) : 0.145
Stream size : 2.19 GiB (96%)
Language : English
Codec configuration box : avcC
Audio
ID : 1
Format : AAC LC
Format/Info : Advanced Audio Codec Low Complexity
Codec ID : mp4a-40-2
Duration : 1 h 18 min
Bit rate mode : Constant
Bit rate : 152 kb/s
Channel(s) : 2 channels
Channel layout : L R
Sampling rate : 44.1 kHz
Frame rate : 43.066 FPS (1024 SPF)
Compression mode : Lossy
Stream size : 85.1 MiB (4%)
Language : English


UŽIVAJTE !
Dara.Iz.Jasenovca.2020.1080p.HDTV.x264

Klikni za povečavo!
22-02-2021 15:29 naložil rado77
Sejalci: 7 / Odjemalci: 0 / Velikost: 3.51 GB / Dokončani: 23
Prenesi torrent Poročaj torrent Opis torrenta
Zvrst: Drama | Vojni
Kategorija: FILMI > HDTV

Dara.Iz.Jasenovca.2020.1080p.HDTV.x264


DARA IZ JASENOVCA (2020)


Zgodba:
Zgodba teče okoli mladega dekleta po imenu Dara, ki je bila poslana v najhujše koncentracijsko taborišče na balkanu: Jasenovac.
Film je postavljen v Ustaško državo NDH (Neodvisna Država Hrvaška) med drugo svetovno vojno. Predstavljen je skozi oči dekleta Dare. Prikazuje koncentracijsko taborišče Jasenovac, pod vodstvom sadističnega poveljnika Vjekoslava "Maksa" Luburića.
To je prvi moderni film o drugi svetovni vojni, ki se dogaja in prikazuje taborišča pod nadzorom NDH.










Igrajo:
Igor Đorđević ... Ante Vrban
Marko Janketić ... Vjekoslav "Maks" Luburić
Biljana Cekić ... Dara
Nataša Drakulić ... Jovanka Konča in drugi


Leto izdaje ... 2021
Dolžina ... 130 minut
Velikost ... 3.50 GB
Rezolucija ... 1920 x 1080
Država ... Srbija
Jezik ... Srbski, Hrvaški, Nemški


TO NI LE FILM - TO JE OPOMIN!
Đorđe Balašević - The best of (1998) MP3

Klikni za povečavo!
21-02-2021 11:51 naložil System
Sejalci: 3 / Odjemalci: 0 / Velikost: 267.23 MB / Dokončani: 17
Prenesi torrent Poročaj torrent Opis torrenta NFO
Zvrst: Glasbeni
Kategorija: GLASBA > Glasba
Anonimen nalagalec

---------------------------------------------------------------------
Đorđe Balašević - The Best Of
---------------------------------------------------------------------
Artist...............: Đorđe Balašević
Album................: The Best Of
Genre................: Pop
Source...............: CD
Year.................: 1998
Ripper...............: EAC (Secure mode) / LAME 3.92 & Asus CD-S520
Codec................: LAME 3.99
Version..............: MPEG 1 Layer III
Quality..............: Insane, (avg. bitrate: 320kbps)
Channels.............: Joint Stereo / 44100 hz
T
News Server..........: news.astraweb.com
News Group(s)........: alt.binaries.pl.mp3
Included.............: NFO
---------------------------------------------------------------------
Tracklisting
---------------------------------------------------------------------
1. Đorđe Balašević - Sve Je Otišlo U Honduras [03:50]
2. Đorđe Balašević - Ne Volim Januar [04:05]
3. Đorđe Balašević - Jednom Su Sadili Lipu [04:40]
4. Đorđe Balašević - Čekajući Montenegro Express [03:33]
5. Đorđe Balašević - Nemam Ništa S Tim [05:32]
6. Đorđe Balašević - Još Jedna Pesma O Maloj Garavoj [03:13]
7. Đorđe Balašević - Remorker [03:48]
8. Đorđe Balašević - Slow Motion [05:51]
9. Đorđe Balašević - Saputnik [04:50]
10. Đorđe Balašević - Kad Odem... [05:53]
11. Đorđe Balašević - Devojka Sa ''čardaš'' Nogama [03:21]
12. Đorđe Balašević - Ćaletova Pesma [04:47]
13. Đorđe Balašević - Bezdan [04:26]
14. Đorđe Balašević - Ne Lomite Mi Bagrenje [05:33]
15. Đorđe Balašević - Starim [06:07]
Playing Time.........: 01:09:35
Total Size...........: 164,21 MB
Primeri.inspektorja.Vrenka.2020.S01E04.SLOVENiAN.1080p.HDTV.x264-N33D3R

Klikni za povečavo!
21-02-2021 10:33 naložil Spartakus
Sejalci: 1 / Odjemalci: 0 / Velikost: 3.52 GB / Dokončani: 16
Prenesi torrent Poročaj torrent Opis torrenta NFO
Zvrst: Kriminalka
Kategorija: FILMI > HDTV


Naziv: Primeri.inspektorja.Vrenka.2020.S01E04.SLOVENiAN.1080p.HDTV.x264-N33D3R
Source: DVB-C HD
Velikost ...........: 3.52 GB
Dolžina ............: 50 Minut
Video ...............: 9895 Kbps | 1920x1080 | 25 fps
Zvok .................: MP2 @192 kbps 2.0 Ch
Kodek...............: AVC
Zvrst………….....: Kriminalni
Jezik ................: Slovenski

Režija.........: Slobodan Maksimović, Boris Jurjaševič
Scenarij......: Avgust Demšar

Igrajo:
Dario Varga, Jurij Drevenšek, Lotos Šparovec, Janez Hočevar-Rifle, Katarina Čas, Barbara Lapajne Predin in drugi

Opis:
Šestdelna nadaljevanka je nastala po prvih treh romanih Avgusta Demšarja.
V središču dogajanja je seveda inšpektor Martin Vrenko (Dario Varga), ki se v Mariboru srečuje s preiskovanjem kriminalističnih primerov in temnih skrivnosti – pa tudi strasti –, ki usodno posegajo v življenja posameznikov.
Naslovni protagonist pa ima ob zahtevni službi opravka še s svojim ne prav preprostim zasebnim življenjem. Po materini smrti mora skrbeti za odtujenega očeta Borisa (Janez Hočevar – Rifle), z lastnico džezovskega lokala Mojco (Katarina Čas) pa razvija prijateljski odnos, iz katerega bo nemara zraslo kaj večjega.
Kriminalistično ekipo ob Vrenku sestavljata Marko Breznik (Jurij Drevenšek) in Oskar Brajdič (Lotos Šparovec), v preostalih vlogah pa se pojavlja več prepoznavnih igralk in igralcev.

Režijo nadaljevanke podpisujeta Slobodan Maksimović in Boris Jurjaševič, njeno avtorsko jedro pa sestavljajo še direktor fotografije Vladan G. Janković, scenografka Mateja Medvedić, kostumografka Katarina Šavs, oblikovalka maske Eva Uršič in montažer Jurij Moškon.

4.del:
Po krutem umoru v galeriji inšpektor Vrenko vedno močneje sumi, da se motiv za umore skriva v zapuščini slikarja Korenike. Čeprav se izkaže, da si je Silvan z svojim nebrzdanim življenjskim slogom nakopal veliko sovražnikov, pa je inšpektor Vrenko vse bolj prepričan, da se motiv za umore nahaja v Korenikini zapuščini. V pogovoru s poznavalcem slikarstva Liebmannom Vrenko pride do odkritja, ki dvigne vrednost zapuščine na povsem nov nivo. Sedaj mora Vrenko najti le še odgovor na na eno vprašanje – čigavo oko je opazilo dragocenost v zapuščini in jo zaželelo zadržati le zase.
Primeri.inspektorja.Vrenka.2020.S01E03.SLOVENiAN.1080p.HDTV.x264-N33D3R

Klikni za povečavo!
21-02-2021 10:30 naložil Spartakus
Sejalci: 1 / Odjemalci: 0 / Velikost: 3.34 GB / Dokončani: 15
Prenesi torrent Poročaj torrent Opis torrenta NFO
Zvrst: Kriminalka
Kategorija: FILMI > HDTV


Naziv: Primeri.inspektorja.Vrenka.2020.S01E03.SLOVENiAN.1080p.HDTV.x264-N33D3R
Source: DVB-C HD
Velikost ...........: 3.34 GB
Dolžina ............: 48 Minut
Video ...............: 9793 Kbps | 1920x1080 | 25 fps
Zvok .................: MP2 @192 kbps 2.0 Ch
Kodek...............: AVC
Zvrst………….....: Kriminalni
Jezik ................: Slovenski

Režija.........: Slobodan Maksimović, Boris Jurjaševič
Scenarij......: Avgust Demšar

Igrajo:
Dario Varga, Jurij Drevenšek, Lotos Šparovec, Janez Hočevar-Rifle, Katarina Čas, Barbara Lapajne Predin in drugi

Opis:
Šestdelna nadaljevanka je nastala po prvih treh romanih Avgusta Demšarja.
V središču dogajanja je seveda inšpektor Martin Vrenko (Dario Varga), ki se v Mariboru srečuje s preiskovanjem kriminalističnih primerov in temnih skrivnosti – pa tudi strasti –, ki usodno posegajo v življenja posameznikov.
Naslovni protagonist pa ima ob zahtevni službi opravka še s svojim ne prav preprostim zasebnim življenjem. Po materini smrti mora skrbeti za odtujenega očeta Borisa (Janez Hočevar – Rifle), z lastnico džezovskega lokala Mojco (Katarina Čas) pa razvija prijateljski odnos, iz katerega bo nemara zraslo kaj večjega.
Kriminalistično ekipo ob Vrenku sestavljata Marko Breznik (Jurij Drevenšek) in Oskar Brajdič (Lotos Šparovec), v preostalih vlogah pa se pojavlja več prepoznavnih igralk in igralcev.

Režijo nadaljevanke podpisujeta Slobodan Maksimović in Boris Jurjaševič, njeno avtorsko jedro pa sestavljajo še direktor fotografije Vladan G. Janković, scenografka Mateja Medvedić, kostumografka Katarina Šavs, oblikovalka maske Eva Uršič in montažer Jurij Moškon.

3.del:
Na otvoritvi retrospektive priznanega mariborskega slikarja Karola Korenike se zgodi umor. Žrtev je umetnikov sin, morilsko orodje pa del razstavljene umetnine – granitna kocka. Ko nekaj dni za tem umre še en član družine, se inšpektor Vrenko znajde pred posebno težko nalogo.

Primeri.inspektorja.Vrenka.2020.S01E02.SLOVENiAN.1080p.HDTV.x264-N33D3R

Klikni za povečavo!
21-02-2021 10:28 naložil Spartakus
Sejalci: 1 / Odjemalci: 0 / Velikost: 3.1 GB / Dokončani: 15
Prenesi torrent Poročaj torrent Opis torrenta NFO
Zvrst: Kriminalka
Kategorija: FILMI > HDTV



Naziv: Primeri.inspektorja.Vrenka.2020.S01E02.SLOVENiAN.1080p.HDTV.x264-N33D3R
Source: DVB-C HD
Velikost ...........: 3.10 GB
Dolžina ............: 47 Minut
Video ...............: 9310 Kbps | 1920x1080 | 25 fps
Zvok .................: MP2 @192 kbps 2.0 Ch
Kodek...............: AVC
Zvrst………….....: Kriminalni
Jezik ................: Slovenski

Režija.........: Slobodan Maksimović, Boris Jurjaševič
Scenarij......: Avgust Demšar

Igrajo:
Dario Varga, Jurij Drevenšek, Lotos Šparovec, Janez Hočevar-Rifle, Katarina Čas, Barbara Lapajne Predin in drugi

Opis:
Šestdelna nadaljevanka je nastala po prvih treh romanih Avgusta Demšarja.
V središču dogajanja je seveda inšpektor Martin Vrenko (Dario Varga), ki se v Mariboru srečuje s preiskovanjem kriminalističnih primerov in temnih skrivnosti – pa tudi strasti –, ki usodno posegajo v življenja posameznikov.
Naslovni protagonist pa ima ob zahtevni službi opravka še s svojim ne prav preprostim zasebnim življenjem. Po materini smrti mora skrbeti za odtujenega očeta Borisa (Janez Hočevar – Rifle), z lastnico džezovskega lokala Mojco (Katarina Čas) pa razvija prijateljski odnos, iz katerega bo nemara zraslo kaj večjega.
Kriminalistično ekipo ob Vrenku sestavljata Marko Breznik (Jurij Drevenšek) in Oskar Brajdič (Lotos Šparovec), v preostalih vlogah pa se pojavlja več prepoznavnih igralk in igralcev.

Režijo nadaljevanke podpisujeta Slobodan Maksimović in Boris Jurjaševič, njeno avtorsko jedro pa sestavljajo še direktor fotografije Vladan G. Janković, scenografka Mateja Medvedić, kostumografka Katarina Šavs, oblikovalka maske Eva Uršič in montažer Jurij Moškon.

2.del:
Ključ odklene skrbno varovano skrivnost nesrečnega zdravnika. Odkrita Pandorina skrinjica pa med sosedi sproži učinek domin in na plano druga za drugo pridejo skrivnosti ostalih stanovalcev. Izkaže se, da sta blišč in uglajenost zgolj fasada, za katero se skrivajo temne plasti človeške narave. Na videz nepovezano izginotje enega izmed sosedov pripelje inšpektorja Vrenka do morilca.



Needle.Boy.2016.ENGSubs.HDTVRip.1080p-R77

Klikni za povečavo!
19-02-2021 10:51 naložil System
Sejalci: 1 / Odjemalci: 0 / Velikost: 1.53 GB / Dokončani: 8
Prenesi torrent Poročaj torrent Opis torrenta
Zvrst: Drama
Kategorija: FILMI > HDTV
Anonimen nalagalec

Needle.Boy.2016.ENGSubs.HDTVRip.1080p-R77


18+
Needle Boy (2016)

Igelni fant 2016


Director: Alexander Bak Sagmo
Writers: Troels Engelbrecht, Alexander Bak Sagmo
Stars: Nicklas Søderberg Lundstrøm, Marie Tourell Søderberg, Marie Louise Wille

Storyline:

Life has become unbearable for 23-year-old Nick who is convinced that he's an evil person. Consequently, he shows up at the university with a gun in his pocket wanting to shoot his fellow students. But something beats him to the punch; a few hours before his classmates have died in a terrible drowning accident at sea. Nick now stands alone with a gun in his pocket, and he faces 24 dark hours in Aarhus where everyone around him perceives his frustration as grief.

Zgodba:

Življenje je postalo nevzdržno za 23-letnega Nicka, ki je prepričan, da je hudoben človek. Posledično se na univerzi v Aarhusu pojavi s pištolo v žepu in želi ustreliti svoje kolege študente.

Film vsebuje zelo temeljite prizore spolnih odnosov!

Details:

Country: Denmark
Language: Danish
Runtime: 76 min
Sound Mix: Dolby Digital
Release Date: 1 July 2018 (Denmark)
Filming Locations: Aarhus, Denmark
Podnapisi: English


Tehnične specifikacije:

Complete name : Needle.Boy.2016.ENGSubs.HDTVRip-R77
Format : MPEG-4
Format profile : Base Media
Codec ID : isom (isom/iso2/avc1/mp41)
File size : 1.53 GiB
Duration : 1 h 13 min
Overall bit rate : 2 997 kb/s
Writing application : Lavf58.29.100
Video
ID : 1
Format : AVC
Format/Info : Advanced Video Codec
Format profile : High@L4
Format settings : CABAC / 3 Ref Frames
Format settings, CABAC : Yes
Format settings, Reference frames : 3 frames
Codec ID : avc1
Codec ID/Info : Advanced Video Coding
Duration : 1 h 13 min
Bit rate : 2 863 kb/s
Width : 1 920 pixels
Height : 1 080 pixels
Display aspect ratio : 16:9
Frame rate mode : Constant
Frame rate : 25.000 FPS
Color space : YUV
Chroma subsampling : 4:2:0
Bit depth : 8 bits
Scan type : Progressive
Bits/(Pixel*Frame) : 0.055
Stream size : 1.46 GiB (96%)
Codec configuration box : avcC
Audio
ID : 2
Format : AAC LC
Format/Info : Advanced Audio Codec Low Complexity
Codec ID : mp4a-40-2
Duration : 1 h 13 min
Bit rate mode : Constant
Bit rate : 128 kb/s
Channel(s) : 2 channels
Channel layout : L R
Sampling rate : 48.0 kHz
Frame rate : 46.875 FPS (1024 SPF)
Compression mode : Lossy
Stream size : 67.0 MiB (4%)
Default : Yes
Alternate group : 1


ENJOY!
Midnighters 2017 CroSubs 720p BRRip XviD AC3 Unknown

Klikni za povečavo!
19-02-2021 08:43 naložil Ziva
Sejalci: 1 / Odjemalci: 0 / Velikost: 1.57 GB / Dokončani: 8
Prenesi torrent Poročaj torrent Opis torrenta NFO
Kategorija: FILMI >  BRRip



Midnighters 2017 720p BRRip XviD AC3 Unknown
Language(s): English
Size: 1.57 GB | Duration: 1hr 33mn | Container: AVI
Audio: AC-3 | 448 Kbps | 6 Channels
Video: XviD | 1948 Kbps | 1280 x 720
Genre: Crime | Mystery | Thriller


Alex Essoe, Perla Haney-Jardine, Dylan McTee


Their marriage was already in trouble. Then came the accident and bad decisions. Their troubles just got so much worse.






La.Belle.Epoque.2019.SLOSubs.FRENCH.1080p.BluRay.x264-Ulysse

Klikni za povečavo!
19-02-2021 08:36 naložil Ziva
Sejalci: 1 / Odjemalci: 0 / Velikost: 7.94 GB / Dokončani: 2
Prenesi torrent Magnet Link Poročaj torrent Opis torrenta NFO
Kategorija: FILMI > BluRay-1080



Filename.......: La.Belle.Epoque.2019.FRENCH.1080p.BluRay.x264-Ulysse
Container......: Matroska
Duration.......: 1h 55mn
Size...............: 7,94 GiB

Video
Codec..........: AVC High@L4.1 8 bits
Type...........: Progressive
Resolution.....: 1920x800
Aspect ratio...: 2.40:1
Bit rate.......: 8380 Kbps
Frame rate.....: 24 fps

Audio
Format.........: DTS
Channels.......: 6 channels
Bit rate.......: 1509 Kbps
Language.......: French
Podnapisi .........: Slovenski (RETAiL)
Prevedla: Maja Pavlin
Uredil: metalcamp
Tehnična obdelava: DVD Rippers Slovenija
IMDb Ocena ...: 7.4/10 (10,797 glasov)

Režija.........: Nicolas Bedos
Scenarij.......: Nicolas Bedos


Daniel Auteuil ... Victor Drumond
Guillaume Canet ... Antoine
Doria Tillier ... Margot
Fanny Ardant ... Marianne Drumond
Pierre Arditi ... Pierre
Denis Podalydès ... François
Michaël Cohen ... Maxime Drumond
Jeanne Arènes ... Amélie
Bertrand Poncet ... Adrien
Bruno Raffaelli ... Maurice / Yvon / Hemingway


Francoski filmski zvezdnik Daniel Auteuil igra Victorja, moškega v 60. letih,
katerega poroka z Marianne (Fanny Ardant) je na veliki preizkušnji. Kmalu sreča
Antoina (Guillaume Canet), lastnika podjetja, ki ljudem omogoča izvedbo različice
"potovanja skozi čas". Tako obišče prizorišče, v katerem podjetje ponuja svojim
strankam priložnost, da se potopijo nazaj v dobo po njihovi izbiri. Victor se je
odločil podoživeti najbolj nepozaben teden svojega življenja - tistega, ko je pred
40 leti spoznal svojo veliko ljubezen.

Film je bil premierno prikazan na filmskem festivalu v Cannesu leta 2019.



Saint Maud 2019 SrbSubs 720p BRRip XviD AC3 XVID

Klikni za povečavo!
19-02-2021 08:25 naložil Ziva
Sejalci: 0 / Odjemalci: 0 / Velikost: 2.36 GB / Dokončani: 4
Prenesi torrent Poročaj torrent Opis torrenta NFO
Kategorija: FILMI >  BRRip



Saint Maud 2019 720p BRRip XviD AC3 XVID
Language(s): English
Size: 2.35 GB | Duration: 1hr 24mn | Container: AVI
Audio: AC-3 | 640 Kbps | 6 Channels
Video: XviD | 3346 Kbps | 1280 x 536
Genre: Drama | Horror | Mystery


Morfydd Clark, Jennifer Ehle, Lily Knight


Follows a pious nurse who becomes dangerously obsessed with saving the soul of her dying patient.





The Kid Detective 2020 SloSubs 720p BRRip XviD AC3 Unknown

Klikni za povečavo!
19-02-2021 07:55 naložil Ziva
Sejalci: 1 / Odjemalci: 0 / Velikost: 2.51 GB / Dokončani: 4
Prenesi torrent Poročaj torrent Opis torrenta NFO
Kategorija: FILMI >  BRRip



The Kid Detective 2020 720p BRRip XviD AC3 Unknown
Language(s): English
Size: 2.51 GB | Duration: 1hr 39mn | Container: AVI
Audio: AC-3 | 448 Kbps | 6 Channels
Video: XviD | 3141 Kbps | 1280 x 536
Genre: Comedy | Drama | Mystery


Kaitlyn Chalmers-Rizzato, Adam Brody, Kaleb Horn


A once-celebrated kid detective, now 32, continues to solve the same trivial mysteries between hangovers and bouts of self-pity. Until a naive client brings him his first 'adult' case, to find out who brutally murdered her boyfriend.





Sjene.aka.Sence.2014.1080p.HDTVx264-R77

Klikni za povečavo!
18-02-2021 15:42 naložil System
Sejalci: 0 / Odjemalci: 0 / Velikost: 354.32 MB / Dokončani: 0
Prenesi torrent Poročaj torrent Opis torrenta
Kategorija: FILMI > HDTV
Anonimen nalagalec

Sjene.aka.Sence.2014.1080p.HDTVx264-R77

Sjene (2014)

Sence

ŽANR: kratki, biografija, drama, zgodovina, vojni
REŽISER: Miloš Ljubomirović
IGRALCI: Aleksandar Radojičić , Nikola Rakočevič , Nebojša Glogovac , Dragan Petrovič-Pele , Luka Mijatović , Lazar Đukič , Nikola Glišič
SCENARIST: Srdjan Banović , Muharem Bazdulj , Miloš Ljubomirovic
PRODUCENT: Masa Čumić , Simon DeKarić , Milos Ljubomirović , Miodrag Milosavljevic
ČAS TRAJANJA: 24 min

POVZETEK:

Sence so film, ki temelji na resničnih dogodkih in prinaša zgodbo o usodi atentatorja nadvojvode Franca Ferdinanda iz Avstrije. Ta atentat je eden najpomembnejših dogodkov v zgodovini človeštva, ker je služil kot domnevni motiv za začetek, kar se bo kasneje izkazalo, največje vojne, ki jo je kdaj videl svet. To je film o mladeničih, ki so njegovo ime v zgodovino vpisali za večnost. Zgodba zajema obdobje po atentatu in je postavljena v češki zapor Terezin, kamor je bil atentator poslan na dvajsetletno kazen. Dogajanje v zaporu razkriva značaj atentatorja, njegovo psihološko stanje, motive, ki so ga gnali, in njegov zagrenjen boj, ne samo s stražarji, ampak tudi s samim seboj. Shadows govori o človeški dobroti, ki jo najdemo kjer koli in ki je nad nacionalnostjo in pripadnostjo eni strani. Film o mladih fantih, ki želijo pomagati svojim ...



TEHNIČNE SPECIFIKACIJE:
Complete name : Sjene.aka.Sence.2014.1080p.HDTVx264-R77
Format : Matroska
Format version : Version 2
File size : 354 MiB
Duration : 26 min 13 s
Overall bit rate : 1 889 kb/s
Encoded date : UTC 2018-05-06 16:19:48
Writing application : mkvmerge v7.7.0 ('Six Voices') 32bit built on Feb 28 2015 23:23:00
Writing library : libebml v1.3.1 + libmatroska v1.4.2
Video
ID : 1
Format : AVC
Format/Info : Advanced Video Codec
Format profile : High@L4.1
Format settings : CABAC / 4 Ref Frames
Format settings, CABAC : Yes
Format settings, Reference frames : 4 frames
Codec ID : V_MPEG4/ISO/AVC
Duration : 26 min 13 s
Bit rate : 1 791 kb/s
Width : 1 280 pixels
Height : 528 pixels
Display aspect ratio : 2.40:1
Frame rate mode : Constant
Frame rate : 25.000 FPS
Color space : YUV
Chroma subsampling : 4:2:0
Bit depth : 8 bits
Scan type : Progressive
Bits/(Pixel*Frame) : 0.106
Stream size : 336 MiB (95%)
Default : Yes
Forced : No
Audio
ID : 2
Format : AAC LC
Format/Info : Advanced Audio Codec Low Complexity
Codec ID : A_AAC-2
Duration : 26 min 13 s
Bit rate : 96.0 kb/s
Channel(s) : 2 channels
Channel layout : L R
Sampling rate : 48.0 kHz
Frame rate : 46.875 FPS (1024 SPF)
Compression mode : Lossy
Delay relative to video : 9 ms
Stream size : 18.0 MiB (5%)
Language : Serbian
Default : Yes
Forced : No

Uživajte!
112.aka.DEN.SKYLDIGE.2018.SLOSubs.HDTVRipx264-R77

Klikni za povečavo!
18-02-2021 14:57 naložil rado77
Sejalci: 1 / Odjemalci: 0 / Velikost: 1.89 GB / Dokončani: 2
Prenesi torrent Poročaj torrent Opis torrenta
Zvrst: Drama | Kriminalka | Triler
Kategorija: FILMI > HDRip

112.aka.DEN.SKYLDIGE.2018.SLOSubs.HDTVRipx264-R77


Den skyldige 2018


Slo naslov: 112'
Drugi naslovi: The Guilty
Država: Danska
Jezik: danščina
Podnapisi: slovenščina
Leto: 2018
Dolžina: 85', Imdb
Žanri: drama, krimi, triler
Režija: Gustav Möller
Scenarij: Gustav Möller, Emil Nygaard Albertsen
Igrajo: Jakob Cedergren, Jessica Dinnage, Omar Shargawi, Johan Olsen


O filmu:

Gustav Möller je navdih našel v resničnem klicu v sili in iz njega razvil napeto zgodbo zgrajeno na prepričljivem nastopu glavnega igralca in telefonskih pogovorih, ki tu nadomestijo klasične detektivske metode. Seveda pomaga, če glavno vlogo v filmu prevzame odlični Jakob Cedergren, ki ga ljubitelji filmov iz skandinavskega govornega obočja poznamo po številnih odličnih vlogah – zainteresiranim toplo priporočam Grozljivo srečen (Frygtelig lykkelig, Henrik Ruben Genz, 2008) in Submarino (Thomas Vinterberg, 2010). Njegova odlična igra je eden ključnih elementov zgodbe, ki nam na poti od zapleta do končne resolucije ponudi nekaj pričakovanih in nekaj manj pričakovanih obratov. Pomemben element je tudi zvočni dizajn – glas ugrabljene ženske in zvoki iz ozadja igrajo važno vlogo pri našem in Asgerjevem razumevanju položaja na drugi strani telefonske linije. Gustav Möller s temi omejenimi sredstvi ustvari prepričljivo rekonstrukcijo dogodka, oziroma dogajanja, ki ga nikoli zares ne vidimo. Gre za pristop, ki spodbuja premislek o percepciji resničnosti in nas pripelje do spoznanja, da ta pogosto temelji na naši subjektivnosti, ne vedno objektivnimi stališči in vprašljivimi domnevami.


Tehnične specifikacije:

Complete name : 112.aka.DEN.SKYLDIGE.2018.SLOSubs.HDTVRipx264-R77
Format : MPEG-4
Format profile : Base Media
Codec ID : isom (isom/iso2/avc1/mp41)
File size : 1.89 GiB
Duration : 1 h 24 min
Overall bit rate mode : Variable
Overall bit rate : 3 194 kb/s
Writing application : Lavf58.29.100
Video
ID : 1
Format : AVC
Format/Info : Advanced Video Codec
Format profile : High@L3.1
Format settings : CABAC / 2 Ref Frames
Format settings, CABAC : Yes
Format settings, Reference frames : 2 frames
Codec ID : avc1
Codec ID/Info : Advanced Video Coding
Duration : 1 h 24 min
Bit rate : 3 065 kb/s
Width : 1 280 pixels
Height : 720 pixels
Display aspect ratio : 16:9
Frame rate mode : Constant
Frame rate : 25.000 FPS
Color space : YUV
Chroma subsampling : 4:2:0
Bit depth : 8 bits
Scan type : Progressive
Bits/(Pixel*Frame) : 0.133
Stream size : 1.81 GiB (96%)
Codec configuration box : avcC
Audio
ID : 2
Format : AAC LC
Format/Info : Advanced Audio Codec Low Complexity
Codec ID : mp4a-40-2
Duration : 1 h 24 min
Bit rate mode : Variable
Bit rate : 123 kb/s
Maximum bit rate : 128 kb/s
Channel(s) : 2 channels
Channel layout : L R
Sampling rate : 48.0 kHz
Frame rate : 46.875 FPS (1024 SPF)
Compression mode : Lossy
Stream size : 74.6 MiB (4%)
Default : Yes
Alternate group : 1


UŽIVAJTE!
Still.Alice.2014.SLOSubs.DVDRip.Xvid-R77

Klikni za povečavo!
15-02-2021 15:37 naložil rado77
Sejalci: 0 / Odjemalci: 0 / Velikost: 1.07 GB / Dokončani: 0
Prenesi torrent Poročaj torrent Opis torrenta
Zvrst: Drama
Kategorija: FILMI > DVDRip

Still.Alice.2014.SLOSubs.DVDRip.Xvid-R77


Still Alice 2014

ŠE VEDNO ALICE


Igrajo: Alec Baldwin , Hunter Parrish , Julianne Moore , Kate Bosworth , Kristen Stewart , Seth Gilliam , Shane McRae

Povzetek:
Alice Howland (Julianne Moore), uspešna profesorica jezikoslovja na univerzi Columbia, ki je bila srečno poročena s tremi odraselimi otroki, si prizadeva ohraniti svoj um, potem ko je bila diagnosticirana z zgodnjo alzheimerjevo boleznijo.

Režija: Richard Glatzer in Wash Westmoreland
Žanr (-i): Drama
Čas izvajanja: 101 min
Država: ZDA | Združeno kraljestvo | Francija
Jezik: angleščina
Podnapisi: Slovensčina


Zgodba:

Alice Howland je priznana profesorica jezikoslovja, ki je bila srečno poročena s tremi odraselimi otroki. Vse to se začne spreminjati, ko nenavadno začne pozabljati besede in nato še več. Ko ji zdravnik diagnosticira zgodnjo Alzheimerjevo bolezen, se življenje Alice in njene družine sooča z grozljivim izzivom, saj ta končna degenerativna nevrološka bolezen počasi napreduje do neizogibnega zaključka, ki se ga vsi bojijo. Na tej poti se Alice trudi ne samo, da bi se borila proti notranjemu propadanju, ampak tudi izkoristila preostali čas, da bi našla ljubezen in mir, da bi se preprosto življenje splačalo. Napisal Kenneth Chisholm


Tehnične specifikacije:

Complete name : Still.Alice.2014.SLOSubs.DVDRip.Xvid-R77
Format : MPEG-4
Format profile : Base Media
Codec ID : isom (isom/iso2/avc1/mp41)
File size : 1.07 GiB
Duration : 1 h 41 min
Overall bit rate mode : Variable
Overall bit rate : 1 512 kb/s
Writing application : Lavf58.29.100

Video
ID : 1
Format : AVC
Format/Info : Advanced Video Codec
Format profile : High@L3
Format settings : CABAC / 3 Ref Frames
Format settings, CABAC : Yes
Format settings, Reference frames : 3 frames
Codec ID : avc1
Codec ID/Info : Advanced Video Coding
Duration : 1 h 41 min
Bit rate : 1 168 kb/s
Width : 720 pixels
Height : 384 pixels
Display aspect ratio : 1.85:1
Frame rate mode : Constant
Frame rate : 29.970 (29970/1000) FPS
Color space : YUV
Chroma subsampling : 4:2:0
Bit depth : 8 bits
Scan type : Progressive
Bits/(Pixel*Frame) : 0.141
Stream size : 846 MiB (77%)
Codec configuration box : avcC
Audio
ID : 2
Format : AAC LC
Format/Info : Advanced Audio Codec Low Complexity
Codec ID : mp4a-40-2
Duration : 1 h 41 min
Duration_LastFrame : -11 ms
Bit rate mode : Variable
Bit rate : 336 kb/s
Maximum bit rate : 341 kb/s
Channel(s) : 6 channels
Channel layout : C L R Ls Rs LFE
Sampling rate : 48.0 kHz
Frame rate : 46.875 FPS (1024 SPF)
Compression mode : Lossy
Stream size : 243 MiB (22%)
Default : Yes
Alternate group : 1


Uživajte!
ABBA.Music.Videos.Collection.720p.TVRip.R77

Klikni za povečavo!
15-02-2021 12:22 naložil rado77
Sejalci: 1 / Odjemalci: 1 / Velikost: 2.67 GB / Dokončani: 4
Prenesi torrent Poročaj torrent Opis torrenta
Zvrst: Glasbeni
Kategorija: GLASBA > Video

ABBA.Music.Videos.Collection.720p.TVRip.R77


ABBA Music Videos Collection


ABBA video collection.mp4"
Video-spoti: 2h 15min


ABBA - The Day Before You Came 1981.mp4"
ABBA - Chiquitita 1979.mp4"
ABBA - The Name Of The Game 1977.mp4"
ABBA - The Winner Takes It All 1980.mp4"
ABBA - Estoy Sonando (I Have A Dream) 1979.mp4"
ABBA - One Man, One Woman 1977.mp4"
ABBA - Happy New Year 1980.mp4"
ABBA - Felicidad (Happy New Year) 1980.mp4"
ABBA - Fernando 1976.mp4"
ABBA - On And On And On 1980.mp4"
ABBA - Voulez-Vous 1979.mp4"
ABBA - Super Trooper 1980.mp4"
ABBA - Knowing Me, Knowing You 1976.mp4"
ABBA - Take A Chance On Me 1977.mp4"
ABBA - Dancing Queen 1976.mp4"
ABBA - One Of Us 1981.mp4"
ABBA - Eagle 1977.mp4"
ABBA - Under Attack 1982.mp4"
ABBA - Thank You For The Music 1977.mp4"
ABBA - Dancing Queen (Live At The Swedish Royal Opera) 1976.mp4"
ABBA - Head Over Heels 1981.mp4"
ABBA - Summer Night City 1978.mp4"
ABBA - Mamma Mia 1975.mp4"
ABBA - Gimme Gimmie Gimmie (A Man After Midnight) 1979.mp4"
ABBA - No Hay A Quien Culpar (When All Is Said And Done) 1981.mp4"
ABBA - I Do I Do I Do I Do I Do 1975.mp4"
ABBA - SOS 1975.mp4"
ABBA - When All Is Said And Done 1981.mp4"
ABBA - That-s Me 1977.mp4"
ABBA - Money, Money, Money 1976.mp4"
ABBA - Does Your Mother Know 1979.mp4"
ABBA - Ring Ring 1973.mp4"
ABBA - Bang-A-Boomerang 1974.mp4"
ABBA - When I Kissed the Teacher 1976.mp4"
ABBA - Waterloo 1974.mp4"

DODATEK:
ABBA - Video Picture Gallery.mp4"
Video-spoti s slikami: 21 min

DODATEK:
ABBA. Daba Du.Documentary.avi"
Dokumentarni film o skupini


O skupini ABBA:
ABBA je bila švedska pop skupina, ustanovljena v Stockholmu leta 1972, v kateri so bili Agnetha Fältskog, Björn Ulvaeus, Benny Andersson in Anni-Frid Lyngstad. ABBA je kratica prvih črk imen članov skupine in je včasih stilizirana kot registrirana blagovna znamka ABBA. Skupina je postala eno komercialno najuspešnejših zasedb v zgodovini popularne glasbe, ki je bila od leta 1975 do 1982. na lestvici po vsem svetu. Zmagala je tudi na Evroviziji 1974, s čimer je Švedska prvič zmagala v zgodovini tekmovanja in postala najbolj uspešna skupina, ki se je kdaj udeležila tekmovanja.


Tehnične specifikacije:
Complete name : ABBA video collection
Format : MPEG-4
Format profile : Base Media
Codec ID : isom (isom/iso2/avc1/mp41)
File size : 1.62 GiB
Duration : 2 h 15 min
Overall bit rate : 1 708 kb/s

Video
ID : 1
Format : AVC
Format/Info : Advanced Video Codec
Format profile : Main@L3.1
Format settings : CABAC / 1 Ref Frames
Format settings, CABAC : Yes
Format settings, Reference frames : 1 frame
Codec ID : avc1
Codec ID/Info : Advanced Video Coding
Duration : 2 h 15 min
Bit rate : 1 511 kb/s
Width : 768 pixels
Height : 576 pixels
Display aspect ratio : 4:3
Frame rate mode : Variable
Frame rate : 25.000 FPS
Minimum frame rate : 10.000 FPS
Maximum frame rate : 25.000 FPS
Color space : YUV
Chroma subsampling : 4:2:0
Bit depth : 8 bits
Scan type : Progressive
Bits/(Pixel*Frame) : 0.137
Stream size : 1.43 GiB (88%)
Codec configuration box : avcC

Audio
ID : 2
Format : AAC LC
Format/Info : Advanced Audio Codec Low Complexity
Codec ID : mp4a-40-2
Duration : 2 h 15 min
Bit rate mode : Constant
Bit rate : 192 kb/s
Channel(s) : 2 channels
Channel layout : L R
Sampling rate : 48.0 kHz
Frame rate : 46.875 FPS (1024 SPF)
Compression mode : Lossy
Stream size : 190 MiB (11%)
Default : Yes
Alternate group : 1

SE NADALJUJE!

Veliko užitkov!
Le.Vieux.Fusil.1975.aka.Stara.pistola.SRBSubs.DVDRip-R77

Klikni za povečavo!
14-02-2021 15:22 naložil rado77
Sejalci: 0 / Odjemalci: 0 / Velikost: 1.09 GB / Dokončani: 1
Prenesi torrent Poročaj torrent Opis torrenta
Zvrst: Drama | Triler | Vojni
Kategorija: FILMI > DVDRip

Le.Vieux.Fusil.1975.aka.Stara.pistola.SRBSubs.DVDRip-R77


Le VIEUX FUSIL (1975)
Stara pištola

Podrobnosti o filmu:

Igrajo:Philippe Noiret Romy Schneider Jean Bouise
Direktor:Robert Enrico
Države:Francija, Zvezna republika Nemčija
Leto:1975
Žanr:Drama, triler, vojni
Izvajanje: 103 min
Jezik: Francoščina , Nemško
Podnapisi: Srbski


Zgodba:

V Montaubanu leta 1944 Julien Dandieu kot kirurg v lokalni bolnišnici. Prestrašen zaradi nemške vojske, ki je vstopila v Montauban, prosi prijatelja Francoisa, naj odpelje njegovo ženo in hčerko v vasico, kjer ima Julien star grad. Teden dni kasneje se je Julien odločil, da se nato srečata za konec tedna, toda Nemci že zasedajo vas.


Film prikazuje grozodejstva ki so jih storili nemški vojaki, med drugimi tudi umor otroka...


Tehnične specifikacije:

Format: MKV
Ločljivost: 674 x 574
Video Kodek: H264
Velikost: 1,08 GB
avdio kodek: AC-3
Taxa de Biltrate: 192 Kbps
Ocena IMDB: 7,7


TO JE LE FILM VREDEN OGLEDA!
Mia Borisavljević - Jedna ja (2019) MP3

Klikni za povečavo!
14-02-2021 08:43 naložil System
Sejalci: 1 / Odjemalci: 0 / Velikost: 71.17 MB / Dokončani: 7
Prenesi torrent Poročaj torrent Opis torrenta NFO
Zvrst: Glasbeni
Kategorija: GLASBA > Glasba
Anonimen nalagalec

---------------------------------------------------------------------
Mia Borisavljević - Jedna Ja
------------------------------------------------------------------
Artist...............: Mia Borisavljević
Album................: Jedna Ja
Genre................: Pop
Source...............: CD
Year.................: 2019
Ripper...............: EAC (Secure mode) / LAME 3.92 & Asus CD-S520
Codec................: LAME 3.98
Version..............: MPEG 1 Layer III
Quality..............: Insane, (avg. bitrate: 320kbps)
Channels.............: Stereo / 44100 hz
News Server..........: news.astraweb.com
News Group(s)........: alt.binaries.pl.mp3
Included.............: NFO
---------------------------------------------------------------------
Tracklisting
---------------------------------------------------------------------
1. Mia Borisavljević - Pričaju Po Gradu [03:11]
2. Mia Borisavljević - Skandal [03:14]
3. Mia Borisavljević - Ave Cezare [03:02]
4. Mia Borisavljević - Dođi Juče [02:54]
5. Mia Borisavljević - Campari [02:56]
6. Mia Borisavljević - Zaljubljiva [02:59]
7. Mia Borisavljević - Nije Ljubav Luda [03:35]
8. Mia Borisavljević - Beograd Noću [02:55]
9. Mia Borisavljević - Jedna Ja [03:20]
Playing Time.........: 28:10
Total Size...........: 70,82 MB
ABBA.More.GOLD.720p.TVRip.R77

Klikni za povečavo!
13-02-2021 15:16 naložil rado77
Sejalci: 1 / Odjemalci: 0 / Velikost: 1.46 GB / Dokončani: 3
Prenesi torrent Poročaj torrent Opis torrenta
Zvrst: Glasbeni
Kategorija: GLASBA > Video

ABBA.More.GOLD.720p.TVRip.R77


ABBA More GOLD


Žanr: Pop
Slog: Europop , Disco
Leto: 1993

Opombe:
Vključuje avdio in video
Leto glavne izdaje: 1993, 1999 (preoblikovano)


Video formati vključujejo samo 13 skladb, na katerih je 9 skladb, od katerih video obstaja (v enakem vrstnem redu, kot so prikazani v zvočnih formatih), sledijo pa še štirje dodatni videoposnetki: "Bang-A-Boomerang", "One Man, One Woman" , "To sem jaz" in "Srečno novo leto".


Seznam skladb:

Summer Night City3:28
Angeleyes4:16
The Day Before You Came5:47
Eagle4:23
I Do, I Do, I Do, I Do, I Do3:16
So Long3:06
Honey, Honey2:53
The Visitors4:27
Our Last Summer4:19
On And On And On3:38
Ring Ring3:00
I Wonder (Departure)4:34
Lovelight3:18
Head Over Heels3:45
When I Kissed The Teacher3:00
I Am The City4:00
Cassandra4:50
Under Attack3:44
When All Is Said And Done3:16
The Way Old Friends Do2:52


Tehnične specifikacije:

Complete name : ABBA.More.GOLD.720p.TVRip.R77\ABBA More GOLD.mp4
Format : MPEG-4
Format profile : Base Media
Codec ID : isom (isom/iso2/avc1/mp41)
File size : 1.46 GiB
Duration : 50 min 36 s
Overall bit rate : 4 123 kb/s
Writing application : Lavf58.29.100

Video
ID : 1
Format : AVC
Format/Info : Advanced Video Codec
Format profile : High@L3
Format settings : CABAC / 2 Ref Frames
Format settings, CABAC : Yes
Format settings, Reference frames : 2 frames
Codec ID : avc1
Codec ID/Info : Advanced Video Coding
Duration : 50 min 36 s
Bit rate : 3 986 kb/s
Width : 720 pixels
Height : 576 pixels
Display aspect ratio : 5:4
Frame rate mode : Constant
Frame rate : 25.000 FPS
Standard : PAL
Color space : YUV
Chroma subsampling : 4:2:0
Bit depth : 8 bits
Scan type : Progressive
Bits/(Pixel*Frame) : 0.384
Stream size : 1.41 GiB (97%)
Codec configuration box : avcC

Audio
ID : 2
Format : AAC LC
Format/Info : Advanced Audio Codec Low Complexity
Codec ID : mp4a-40-2
Duration : 50 min 36 s
Bit rate mode : Constant
Bit rate : 128 kb/s
Channel(s) : 2 channels
Channel layout : L R
Sampling rate : 44.1 kHz
Frame rate : 43.066 FPS (1024 SPF)
Compression mode : Lossy
Stream size : 46.5 MiB (3%)
Default : Yes
Alternate group : 1


SE NADALJUJE!

Veliko užitkov!
Massimo Savic - 1 dan ljubavi (2015) MP3

Klikni za povečavo!
12-02-2021 14:57 naložil System
Sejalci: 1 / Odjemalci: 0 / Velikost: 123.66 MB / Dokončani: 8
Prenesi torrent Poročaj torrent Opis torrenta NFO
Zvrst: Glasbeni
Kategorija: GLASBA > Glasba
Anonimen nalagalec

---------------------------------------------------------------------
Massimo Savic - 1 dan ljubavi
---------------------------------------------------------------------
Artist...............: Massimo Savic
Album................: 1 dan ljubavi
Genre................: Pop Rock
Source...............: CD
Year.................: 2015
Ripper...............: EAC (Secure mode) / LAME 3.92 & Asus CD-S520
Codec................: LAME 3.99
Version..............: MPEG 1 Layer III
Quality..............: Insane, (avg. bitrate: 320kbps)
Channels.............: Joint Stereo / 44100 hz
News Server..........: news.astraweb.com
News Group(s)........: alt.binaries.pl.mp3
Included.............: NFO
---------------------------------------------------------------------
Tracklisting
---------------------------------------------------------------------
1. Massimo Savic - Ne dam grijehu na tebe [03:59]
2. Massimo Savic - Kladim se na nas [03:38]
3. Massimo Savic - Pirova pobjeda [03:50]
4. Massimo Savic - Zemlja zove oblake [04:51]
5. Massimo Savic - 1 dan ljubavi [03:49]
6. Massimo Savic - Cuvam te (feat. B. Navojec) [04:10]
7. Massimo Savic - Ispod nekog drugog neba [05:55]
8. Massimo Savic - Slamka spasa [04:02]
9. Massimo Savic - Suze nam stale na put [05:18]
10. Massimo Savic - Ostani tu [04:45]
11. Massimo Savic - Gdje poljupci krote lava [03:54]
12. Massimo Savic - Pirova pobjeda (Instrumental) [03:51]
Playing Time.........: 52:07
Total Size...........: 123,49 MB
Colonia - Gold edition [2CD] (2005) MP3

Klikni za povečavo!
12-02-2021 14:42 naložil System
Sejalci: 3 / Odjemalci: 0 / Velikost: 339.67 MB / Dokončani: 14
Prenesi torrent Poročaj torrent Opis torrenta NFO
Zvrst: Glasbeni
Kategorija: GLASBA > Glasba
Anonimen nalagalec

---------------------------------------------------------------------
Colonia - Gold Edition
---------------------------------------------------------------------
Artist...............: Colonia
Album................: Gold Edition
Genre................: Eurodance
Source...............: CD
Year.................: 2005
Ripper...............: EAC (Secure mode) / LAME 3.92 & Asus CD-S520
Codec................: LAME 3.98
Version..............: MPEG 1 Layer III
Quality..............: Insane, (avg. bitrate: 320kbps)
Channels.............: Stereo / 44100 hz
News Server..........: news.astraweb.com
News Group(s)........: alt.binaries.pl.mp3
Included.............: NFO
---------------------------------------------------------------------
Tracklisting CD1
---------------------------------------------------------------------
1. Colonia - Sve Oko Mene Je Grijeh [04:49]
2. Colonia - Njeno Ime Ne Zovi U Snu [03:58]
3. Colonia - Deja Vu [03:36]
4. Colonia - Za Tvoje Snene Oči (Feat. Neno Dj) [04:37]
5. Colonia - Svijet Voli Pobjednike [04:03]
6. Colonia - Nikad Više (Feat. Jacques Houdek) [04:10]
7. Colonia - Takvi Kao Ti [04:20]
8. Colonia - Nevjera [04:27]
9. Colonia - Oduzimaš mi dah [04:19]
10. Colonia - Svjetla Grada [04:41]
11. Colonia - Na Tvojoj Strani Postelje [03:46]
12. Colonia - Zadnji Let Za Pariz [04:36]
13. Colonia - C'est La Vie [04:06]
14. Colonia - Plamen Od Ljubavi [03:58]
15. Colonia - Luda Za Tobom [04:24]
16. Colonia - Ljeto 80 I Neke [05:32]
17. Colonia - Običan Dan [04:02]
18. Colonia - Prvi Poljubac [04:16]
Playing Time.........: 01:17:47
Total Size...........: 179,63 MB
---------------------------------------------------------------------
Tracklisting CD2
---------------------------------------------------------------------
1. Colonia - U Ritmu Ljubavi (Summer Extended Rmx) [04:13]
2. Colonia - Dok Je Tebe I Ljubavi (Unreleased Extended Rmx)[04:09]
3. Colonia - Ti Da Bu Di Bu Da (Goblin Extended Rmx) [04:36]
4. Colonia - Božićna Noć (Remix) [03:54]
5. Colonia - Prvi I Zadnji (Lp Extended Rmx) [06:24]
6. Colonia - Takvi Kao Ti (Lp Extended Rmx) [06:53]
7. Colonia - Još Jednom Za Kraj (Lp Extended Rmx) [05:51]
8. Colonia - Svijet Voli Pobjednike (Feat. Neno Dj) (Lp Extended Rmx)[04:53]
9. Colonia - Za Tvoje Snene Oči (Lp Extended Rmx) [07:52]
10. Colonia - Oduzimaš Mi Dah (Acapella Dub Mix) [03:50]
11. Colonia - C'est La Vie (Pop Carousel Mix) [03:26]
12. Colonia - Običan Dan (Motiwwwo Remix) [06:43]
13. Colonia - Medley Hit Mix 2005 (Vatra I Led - Sve Oko Mene Je Grijeh - Dio Nje)[06:33]
Playing Time.........: 01:09:24
Total Size...........: 159,99 MB
Severina - The Best Of Collection (2020) MP3

Klikni za povečavo!
12-02-2021 12:24 naložil System
Sejalci: 3 / Odjemalci: 0 / Velikost: 197.32 MB / Dokončani: 18
Prenesi torrent Poročaj torrent Opis torrenta NFO
Zvrst: Glasbeni
Kategorija: GLASBA > Glasba
Anonimen nalagalec

---------------------------------------------------------------------
Severina - The Best Of Collection
---------------------------------------------------------------------
Artist...............: Severina
Album................: The Best Of Collection
Genre................: Pop
Source...............: CD
Year.................: 2020
Ripper...............: EAC (Secure mode) / LAME 3.92 & Asus CD-S520
Codec................: LAME 3.99
Version..............: MPEG 1 Layer III
Quality..............: Insane, (avg. bitrate: 320kbps)
Channels.............: Stereo / 44100 hz
T
News Server..........: news.astraweb.com
News Group(s)........: alt.binaries.pl.mp3
Included.............: NFO
---------------------------------------------------------------------
Tracklisting
---------------------------------------------------------------------
1. Severina - Dalmatinka [03:57]
2. Severina - Covjek Kojeg Volim [03:55]
3. Severina - Paloma Nera [03:21]
4. Severina - Ti Si Srce Moje [03:52]
5. Severina - Tvoja Prva Djevojka [04:32]
6. Severina - Prijateljice [03:16]
7. Severina - Djevojka Sa Sela [04:25]
8. Severina - Rastajem Se Od Zivota [02:57]
9. Severina - Trava Zelena [03:58]
10. Severina - Ante [02:48]
11. Severina - Mala Je Dala [03:34]
12. Severina - Ja Samo Pjevam [03:20]
13. Severina - Da Si Moj [03:22]
14. Severina - Krivi Spoj [03:08]
15. Severina - Kreni [03:16]
16. Severina - Ajde, Ajde Zlato Moje [03:22]
17. Severina - 'ko Je Kriv [04:30]
18. Severina - Mili Moj [03:58]
19. Severina - Pogled Ispod Obrva [04:12]
20. Severina - Virujen U Te [04:12]
Playing Time.........: 01:14:07
Total Size...........: 196,64 MB