A
B
C
D
E
F
G
H
I
J
K
L
M
N
O
P
Q
R
S
T
U
V
W
X
Y
Z
0-9
Luka Basi - Luka Basi (2019) MP3

Klikni za povečavo!
12-02-2021 12:09 naložil System
Sejalci: 4 / Odjemalci: 0 / Velikost: 102.33 MB / Dokončani: 11
Prenesi torrent Poročaj torrent Opis torrenta NFO
Zvrst: Glasbeni
Kategorija: GLASBA > Glasba
Anonimen nalagalec

---------------------------------------------------------------------
Luka Basi - Luka Basi
---------------------------------------------------------------------
Artist...............: Luka Basi
Album................: Luka Basi
Genre................: Pop
Source...............: CD
Year.................: 2019
Ripper...............: EAC (Secure mode) / LAME 3.92 & Asus CD-S520
Codec................: LAME 3.99
Version..............: MPEG 1 Layer III
Quality..............: Insane, (avg. bitrate: 320kbps)
Channels.............: Stereo / 44100 hz
Tags.................: ID3 v1.1, ID3 v2.3
News Server..........: news.astraweb.com
News Group(s)........: alt.binaries.pl.mp3
Included.............: NFO
---------------------------------------------------------------------
Tracklisting
---------------------------------------------------------------------
1. Luka Basi - Sedam Noci [03:24]
2. Luka Basi - Ruzo Bila (Feat. Marko Skugor) [03:12]
3. Luka Basi - Istrijanko Ruzo Moja [03:16]
4. Luka Basi - U Bijelom [03:13]
5. Luka Basi - Meta [03:18]
6. Luka Basi - Solo (Feat. Lidija Bacic) [04:04]
7. Luka Basi - Moja (Feat. Ljubavnici) [03:41]
8. Luka Basi - Kad Vidin Boga - Uzivo [03:28]
9. Luka Basi - Nisam Ja Od Jucer (Feat. Jole) [03:53]
10. Luka Basi - Upalimo Ljubav (Feat. Lana Jurcevic) [03:15]
11. Luka Basi - Seko Moja [04:20]
12. Luka Basi - Kombinacija [03:41]
Playing Time.........: 42:49
Total Size...........: 101,85 MB
Viki Ašič z ansamblom in prijatelji

Klikni za povečavo!
12-02-2021 10:58 naložil rado77
Sejalci: 1 / Odjemalci: 0 / Velikost: 536.21 MB / Dokončani: 3
Prenesi torrent Poročaj torrent Opis torrenta
Zvrst: Glasbeni
Kategorija: GLASBA > Video

Viki Ašič z ansamblom in prijatelji

Želja uporabnika: silvoa

Ansambel Vikija Ašiča
Osrednja osebnost v ansamblu je VIki Ašič, doma iz Celja. Ansambel je nastopal kot trio in kot prvi kvintet z diatonično harmoniko, še posebej pa je znan Viki Ašič kot odličen solist s harmoniko.
Svoj prvi ansambel je ustanovil na pobudo dveh odličnih glasbenikov, bratov Ivana in Slavka Lipovška, leta 1970. V prvi zasedbi so nastopali poleg Vikija še klarinetist Ivan Lipovšek, trobentar Slavko Lipovšek, kitarist Maks Kramer, basist Nande Reberšak ter pevski kvartet Franc Jurkovnik, Jože Brežnik, Franc Pekošak ter Ivo Knez, ki je kvartet tudi vodil.
Na ptujskem festivalu leta 1971 je ansambel Vikija Ašiča dobil nagrado kot najboljši debitant, isto leto pa je posnel tudi malo ploščo z naslovom Rompompom. Naslovno skladbo je napisal Ivo Knez, dve skladbi pa Viki Ašič. Istega leta je ansambel nastopil tudi v priljubljeni radijski oddaji Koncert iz naših krajev.
Ansambel Vikija Ašiča - vmes se je imenoval tudi Kvintet Vikija Ašiča - je imel kar precej kadrovskih zamenjav. Harmoniko je, seveda, ves čas igral Viki Ašič, sestava iz leta 1984 pa je bila: trobentar Tone Videc, klarinet Emil Jarmšek in Jože Leskovšek, kitara Silvo Gorenšek, Ivo Korošec in Maks Kramer, bas Alojz Pavlič, peli pa so Cveto Konec, Maks Kramer, Slavica Kramer in Marija Volasko.
Od leta 1980 naprej je trobento igral Milan Djakušič-Rojnik, klarinet Franc Jerič-Jera, kitaro Karl Zorman, Tone Mohar in Stane Čanžek, bas pa Stano Hergamas, Albert Kolbl, Vlado Čuvan in tudi Rajko Laznik.
V letu 1995 je Viki Ašič prešel na trio, z njim pa je prepeval oktet Studenček.
Ansambel Vikija Ašiča je leta 1972 dobil na ptujskem festivalu prvo nagrado za instrumentalno izvedbo, na Števerjanskem pa prvo nagrado občinstva. Večkrat je gostoval tudi v Avstriji in Nemčiji.
Ansambel Vikija Ašiča je posnel štiri velike in štiri male plošče ter šest kaset, v Avstriji pa eno veliko ploščo in eno zgoščenko.
Besedila za ansambel Vikija Ašiča so pisali Meta Rainer, Franc Jurkovnik, Marjan Stare in Ivan Sivec.







DISKOGRAFIJA:
LP (velike plošče):
Razigrana harmonika (1978)
Haloze sončne (1972)
EP (male plošče) in singli:
Rom pom pom polka (1971)
Za materin praznik/Ptuju v čast (1978)
Kje si moj sin
Viri: Vsi najboljši muzikanti I, 1998
Video vsebina:





Veliko užitkov!
System.Crasher.2019.SLOSubs.BRRip.XviD-DrSi

Klikni za povečavo!
09-02-2021 14:50 naložil Ziva
Sejalci: 2 / Odjemalci: 0 / Velikost: 2.8 GB / Dokončani: 9
Prenesi torrent Poročaj torrent Opis torrenta NFO
Zvrst: Drama
Kategorija: FILMI >  BRRip



Naziv: System.Crasher.2019.SLOSubs.BRRip.XviD-DrSi
Source: System.Crasher.2019.720p.BluRay.DD5.1.x264-DON
Leto izida ........: 2019
Velikost ...........: 2,80 GB
Dolžina ............: 120 Minut
Video ...............: 2888 Kbps | 720x388 | 25 fps
Zvok .................: Dolby Digital AC3 5.1 @ 448 Kbps
Kodek.................: XviD
Zvrst………….: Drama
Država .............: Nemčija
Jezik ................: Nemški
Podnapisi .........: Slovenski (RETAiL-DrSi)
Prevedla Maja Prevolnik
HC SubRip: ugorazd –Hvala!!
Tehnična obdelava: DVD Rippers Slovenija
IMDb Ocena ...: 7.8/10 (9,350 glasov)

Režija.........: Nora Fingscheidt
Scenarij.......: Nora Fingscheidt


Helena Zengel ... Bernadette 'Benni' Klaaß
lbrecht Schuch ... Michael 'Micha' Heller
Gabriela Maria Schmeide ... Frau Bafané
Lisa Hagmeister ... Bianca Klaaß, Bennis Mutter
Melanie Straub ... Dr. Schönemann
Victoria Trauttmansdorff ... Pflegemutter Silvia
Maryam Zaree ... Elli Heller
Tedros Teclebrhan ... Erzieher Robert
Matthias Brenner ... Erzieher Wolfgang
Louis von Klipstein ... Praktikant Dennis


Zgodba o neukrotljivi deklici, ki ne najde svojega mesta v družbi. Film, ki tako kot
njegova junakinja prekipeva od čustev in energije, je režiserki prinesel srebrnega
medveda na lanskem Berlinalu in postal nepričakovana arthouse uspešnica v Nemčiji.

Devetletna Benni je glasna, divja in nepredvidljiva. S svojo nebrzdano energijo
spravlja vse okoli sebe v obup. Rejniška družina, mladinski dom ali šola – kamorkoli
pride, takoj spet leti ven. Pri tem pa si želi le eno: nazaj domov k svoji mami.





Tommaso 2019 CroSubs 720p BRRip XviD AC3 Unknown

Klikni za povečavo!
09-02-2021 14:32 naložil Ziva
Sejalci: 1 / Odjemalci: 0 / Velikost: 2.84 GB / Dokončani: 0
Prenesi torrent Poročaj torrent Opis torrenta NFO
Zvrst: Drama
Kategorija: FILMI >  BRRip



Tommaso 2019 720p BRRip XviD AC3 Unknown
Language(s): English | Italian
Size: 2.84 GB | Duration: 1hr 57mn | Container: AVI
Audio: AC-3 | 448 Kbps | 6 Channels
Video: XviD | 2998 Kbps | 1280 x 536
Genre: Drama

Willem Dafoe, Cristina Chiriac, Anna Ferrara


The story of an American artist living in Rome with his young European wife Nikki and their 3-year-old daughter, Dee Dee.





Na.putu.2010.Bosnian.720p.HDRip-R77

Klikni za povečavo!
08-02-2021 15:14 naložil rado77
Sejalci: 0 / Odjemalci: 0 / Velikost: 648.91 MB / Dokončani: 5
Prenesi torrent Poročaj torrent Opis torrenta
Zvrst: Drama
Kategorija: FILMI > HDRip

Na.putu.2010.Bosnian.720p.HDRip-R77


Na putu [2010]
NA CESTI (poti)
On the Path 2010

O filmu:
Luna in Amar sta v vojni izgubila starša, a sta zdaj v srečni zvezi. Skupaj skušata za seboj zapustiti bolečo preteklost in si ustvariti družino. Amar, kontrolor leta, ima težave z alkoholom. Ko ga najdejo pijanega v službi, ga suspendirajo. Vse se začne spreminjati, ko Amar sreča starega vojnega kolega, ki je popolnoma predan muslimanski veri. Amar sprva zavrača duhovni nasvet kolega, a ko je v mošeji zaslišal pridigo, se njegov odnos do religije začne spreminjati. Amarjeva novoodkrita vera bo postavila na preizkušnjo njegovo razmerje z Luno.
Režija: Jasmila Žbanić
- (1974) se je rodila v Bosni in Hercegovini. Diplomirala je na Akademiji za likovno umetnost v Sarajevu, oddelek za gledališko in filmsko režijo. Delala je kot lutkarka v gledališču Kruh in lutke v Vermontu in kot klovna v delavnici Lee De Long. Po ustanovitvi umetniškega združenja Deblokada leta 1997 je režisersko pot začela z snemanjem več dokumentarnih, kratkih filmov in video del. Prvi celovečerni film Grbavica je posnela leta 2006, za kar je bila nagrajena z zlatim medvedom na prestižnem Berlinaleu.
Scenarij: Jasmila Žbanić
Kamera: Christine A. Maier
Montaža: Niki Mossbock
Scenografija: Lada Maglajlic, Amir Vuk
Kostumografija: Lejla HodžićGlasbaBranko Jakubović
Zvočno oblikovanje: Igor Čamo, Lars Ginzel
Vloge: Zrinka Cvitešič, Leon Lučev, Ermin Bravo, Mirjana Karanovič, Nina Violič, Izudin Bajrović, Marija Kohn
Žanr: Drama
Država: Bosna in Hercegovina | Avstrija | Nemčija | Hrvaška
Jezik: Bosanski
Izvajanje: 100 min
Zvočna mešanica: Dolby
Tehnične specifikacije:
Complete name : Na.putu.2010.Bosnian.720p.HDRip-R77
Format : Matroska
Format version : Version 2
File size : 649 MiB
Duration : 1 h 36 min
Overall bit rate : 940 kb/s
Writing application : HandBrake 0.9.4
Video
ID : 1
Format : AVC
Format/Info : Advanced Video Codec
Format profile : Main@L3
Format settings : CABAC / 2 Ref Frames
Format settings, CABAC : Yes
Format settings, Reference frames : 2 frames
Codec ID : V_MPEG4/ISO/AVC
Duration : 1 h 36 min
Nominal bit rate : 850 kb/s
Width : 698 pixels
Height : 414 pixels
Display aspect ratio : 1.85:1
Original display aspect ratio : 1.85:1
Frame rate mode : Constant
Frame rate : 25.000 FPS
Color space : YUV
Chroma subsampling : 4:2:0
Bit depth : 8 bits
Scan type : Progressive
Bits/(Pixel*Frame) : 0.118
Default : Yes
Forced : No
Color range : Limited
Color primaries : BT.601 NTSC
Transfer characteristics : BT.709
Matrix coefficients : BT.601
Audio
ID : 2
Format : AAC LC
Format/Info : Advanced Audio Codec Low Complexity
Codec ID : A_AAC-2
Duration : 1 h 36 min
Channel(s) : 1 channel
Channel layout : C
Sampling rate : 48.0 kHz
Frame rate : 46.875 FPS (1024 SPF)
Compression mode : Lossy
Default : Yes
Forced
Uživajte!
SPOMINI.Aleksandra.Kornhauser.Frazer.720p.HDTVRipx264.R77

Klikni za povečavo!
07-02-2021 15:44 naložil rado77
Sejalci: 1 / Odjemalci: 0 / Velikost: 7.04 GB / Dokončani: 1
Prenesi torrent Poročaj torrent Opis torrenta
Zvrst: Biografija
Kategorija: FILMI > Dokumentarni

SPOMINI.Aleksandra.Kornhauser.Frazer.720p.HDTVRipx264.R77


PROF. DR. ALEKSANDRA KORNHAUSER FRAZER
MEDNARODNO UVELJAVLJENA STROKOVNJAKINJA
NA PODROČJU KEMIJE, PEDAGOGINJA IN ZNANSTVENICA

SPOMINI

TV dokumentarna serija
Dodatek: TV prispevek in intervju
Kemičarka in pedagoginja prof. dr. Aleksandra Kornhauser Frazer je bila rojena kot Aleksandra Caleari leta 1926 v Virmašah pri Škofji Loki, kjer je bil njen oče lesni veletrgovec. Po bankrotu očetovega podjetja v času velike svetovne krize, je leta 1929 prej premožna družina čez noč padla v revščino. Kot deklica je Aleksandra občutila lakoto, drugačnost in odrinjenost. Z otroškim delom je pomagala družini pri preživetju. Mladostne sanje je izrinila vojna z doživetji nasilja, morij in taborišča. Aleksandra se je vključila v narodnoosvobodilni odpor. Drobno dekletce iz majhnega predmestja majhne dežele je z odločnostjo, vztrajnostjo in pokončnostjo zraslo v veliko svetovljanko in humanistko, v znanstvenico in pedagoginjo svetovnega slovesa, ki nikoli ni sprejela kakršne koli podrejenosti, ki se ni ustrašila tudi najtežjih naporov, ki je ljubila izzive in živela za ustvarjalnost. Njeni dosežki so zapisani
v tridesetih knjigah in v stotinah člankov in s predavanji je gostovala v najuglednejših dvoranah sveta. Opravljala je številne visoke funkcije in po vsem svetu vodila velike mednarodne projekte za kemijsko izobraževanje,
varovanje okolja in trajnostni razvoj. Tik pred smrtjo, pri 94-ih letih, je pisala dve novi knjigi. Za svoje delo je prejela mnoga izjemna odlikovanja in visoka mednarodna priznanja. Sprejeta je bila v najuglednejše svetovne znanstvene akademije.
Najvišja priznanja ji je podelila tudi domača dežela, čeprav ne brez kančka pelina zavisti. Nihče ni prerok v svoji domovini.
Menim, da ji Slovenija za čas njenega življenja ni namenila prave pozornosti in časti za vse kar je doprinesla v svetovnem merilu znanosti!
Aleksandra Kornhauser Frazer se je rodila 26. septembra 1926 v Škofji Loki.
Po končani osnovni šoli v Škofji Loki je leta 1942 vstopila v mladinsko gibanje med NOB. Po vojni je končala učiteljišče, nato pa začela poučevati na osnovnih in srednjih šolah. Leta 1963 je ob delu diplomirala iz kemije na Fakulteti za naravoslovje in tehnologijo v Ljubljani, kjer je dve leti pozneje tudi doktorirala. Podiplomsko se je izpopolnjevala v Švici in Angliji ter kot dobitnica Fulbrightove štipendije v ZDA.
Po letu 1965 je poučevala organsko kemijo na Pedagoški akademiji v Ljubljani in bila v letih 1966 do 1969 tudi dekanja. Po tem letu je bila izvoljena za izredno in 1976 za redno profesorico kemije na Fakulteti za naravoslovje in tehnologijo. Od leta 1980 dalje je povezovala kemijo z informatiko in razvijala informacijske metode za kemijsko raziskovanje in izobraževanje.
Leta 1981 je postala direktorica Mednarodnega centra UNESCA za kemijske študije, na strokovnem področju pa je opravljala številne funkcije v domačih in tujih inštitucijah in organizacijah. V letih 1974 do 1980 je bila predsednica Raziskovalne skupnosti Slovenije in od 1979 do 1990 jugoslovanskega odbora za znanost pri UNESCU. Bila je predsednica Skupščine jugoslovanskega združenja za napredek znanosti, predsednica Komiteja za kemijsko izobraževanje pri federaciji evropskih kemijskih združenj.
Leta 1988 je bila izbrana za eno prvih članic Evropske akademije v Londonu (Academia Europaea) med 100 ustanovnimi člani. Leta 1989 je bila izvoljena v svet te akademije in v Svetovno akademijo znanosti v Stockholmu.
Njeno raziskovalno področje je kemija naravnih spojin, v osemdesetih letih pa je poučevala zlasti informacijsko metodologijo z aplikacijami v raziskovanju, izobraževanju in razvoju v industriji.
Vodila je številne domače in mednarodne projekte za kemijsko izobraževanje, varovanje okolja in trajnostni razvoj, zlasti v okviru EU, Agencije ZDA za varovanje okolja ter mednarodne projekte UNESCA UNIDO, UNDB in Svetovne banke ter bilaterarne projekte, zlasti z ZDA in Italijo. Kot ugledna osebnost je predavala na plenarnih zasedanjih in kongresih. Je tudi članica Svetovne akademije znanosti in umetnosti ter Akademije znanosti tretjega sveta.
Njeni dosežki so zapisani v 30 knjigah, objavila je več sto strokovnih in znanstvenih člankov za domače in tuje strokovne revije, več knjig ter dvajset učbenikov in monografij s področja kemije in kemijske informatike.
Kot aktivna znanstvena publicistka je postala članica mednarodnih uredniških odborov strokovnih revij.
Vir: RTV-SLO


17. maja 2020 je prof. dr. Aleksandra Kornhauser Frazer preminila.


Tehnične specifikacije:

Complete name : SPOMINI.Aleksandra.Kornhauser.Frazer.720p.HDTVRipx264.R77
Format : MPEG-TS
File size : 1.57 GiB
Duration : 1 h 46 min
Overall bit rate mode : Variable
Overall bit rate : 2 110 kb/s

Video
ID : 256 (0x100)
Menu ID : 1 (0x1)
Format : AVC
Format/Info : Advanced Video Codec
Format profile : High@L4
Format settings : CABAC / 4 Ref Frames
Format settings, CABAC : Yes
Format settings, Reference frames : 4 frames
Format settings, GOP : M=3, N=60
Codec ID : 27
Duration : 1 h 46 min
Bit rate mode : Constant
Nominal bit rate : 1 800 kb/s
Width : 1 280 pixels
Height : 720 pixels
Display aspect ratio : 16:9
Frame rate : 25.000 FPS
Standard : PAL
Color space : YUV
Chroma subsampling : 4:2:0
Bit depth : 8 bits
Scan type : Progressive
Bits/(Pixel*Frame) : 0.078
Color range : Limited
Color primaries : BT.709
Transfer characteristics : BT.709
Matrix coefficients : BT.709

Audio
ID : 257 (0x101)
Menu ID : 1 (0x1)
Format : AAC LC
Format/Info : Advanced Audio Codec Low Complexity
Format version : Version 4
Muxing mode : ADTS
Codec ID : 15-2
Duration : 1 h 46 min
Bit rate mode : Variable
Channel(s) : 2 channels
Channel layout : L R
Sampling rate : 44.1 kHz
Frame rate : 43.066 FPS (1024 SPF)
Compression mode : Lossy
Delay relative to video : -40 ms

Menu
ID : 4096 (0x1000)
Menu ID : 1 (0x1)
Duration : 1 h 46 min
List : 256 (0x100) (AVC) / 257 (0x101) (AAC)
Service name : Service01
Service provider : FFmpeg
Service type : digital television


NAJ OSTANE V TRAJNEM SPOMINU!
Južni.vetar.2020.S01.HDTV.1080p.R77

Klikni za povečavo!
07-02-2021 09:54 naložil rado77
Sejalci: 1 / Odjemalci: 0 / Velikost: 13.67 GB / Dokončani: 8
Prenesi torrent Poročaj torrent Opis torrenta
Zvrst: Drama | Kriminalka | Triler
Kategorija: FILMI > TV - Serija

Južni.vetar.2020.S01.HDTV.1080p-R77


Južni vetar

TV Serija


O seriji:
Vznemirljiv kriminalni triler, posnet po scenariju Petra Mihajlovića in Miloša Avramovića, ki je tudi režiser filma, je spremenjen v 4 epizode, ki jim bo sledilo 10 novih.
"Južni veter" prikazuje sodobni Beograd skozi perspektivo določenega dela njegove populacije. Gre za poloblo, člane t.i. "underground", ki pripovedujejo eno, resnično zgodbo o vrsti neuspehov "malega" človeka v surovem okolju. Pravijo, da je poučna zgodba, namenjena mladim v Srbiji, pripovedovana skozi prepletene usode vrstnikov in vseh, ki so se v želji po boljšem življenju napačno odločili.


Igrajo:

Miloš Bikovič, Miodrag Radonjić, Dragan Bjelogrlič, Jovana Stojiljković, Nebojša Glogovac, Srđan Todorović, Miloš Timotijević, Jasna Đuričić, Bogdan Diklič, Hristo Šopov, Ivajlo Zahariev, Luka Grbič, Miloš Trojpec Petrovič, Aleksandar Gligorič, Slaviša, Slaviša, Slaviša, Slaviša Aleksandar Berček.

Ustvarjalec: Miloš Avramovic
Država: Srbija
Jezik: Srbski
Žanri: Drama, kriminalka, triler


Tehnične specifikacije:

Video
ID : 1
Format : AVC
Bit rate : 5 513 kb/s
Width : 1 920 pixels
Height : 1 080 pixels
Display aspect ratio : 16:9
Frame rate : 25.000 FPS
Color space : YUV
Audio
ID : 2
Format : AAC
Bit rate : 96.0 kb/s
Channel(s) : 2 channels
Channel positions : Front: L R
Sampling rate : 48.0 kHz

UŽIVAJTE!
Operation.Red.Sea.2018.SLOSubs.720p.BRRip.H265-DrSi

Klikni za povečavo!
06-02-2021 11:25 naložil Ziva
Sejalci: 5 / Odjemalci: 0 / Velikost: 3.62 GB / Dokončani: 16
Prenesi torrent Poročaj torrent Opis torrenta NFO
Zvrst: Akcija | Triler | Vojni
Kategorija: FILMI >  BRRip



Naziv: Operation.Red.Sea.2018.SLOSubs.720p.BRRip.H265-DrSi
Leto..........: 2018
Velikost......: 3,60 GB
Dolžina.......: 138 min.
Video.........: 3 280 Kbps | 1280x536 | 24 fps | H265
Zvok..........: Dolby Digital AC3 5.1 @ 448 Kbps
Jezik.........: Mandarinski | Angleški | Arabski
Žanr..........: Vojni | Triler | Akcija
Država .......: Kitajska | Hong Kong
Podnapisi.....: Slovenski (RETAiL)
Prevod........:
Priredil in uredil: HrBt
Tehnična obdelava DVD Rippers Slovenija

IMDb Ocena....: 6,7/10
Režija........: Dante Lam
Scenarij......: Zhuzhu Chen, Ji Feng
Produkcija....: Bona Film Group, The P.L.A Navy Government TV Art Central of China, Star Dream Studio Media


Yi Zhang as Yang Rui
Johnny Huang as Gu Shun
Hai-Qing as Xia Nan
Jiang Du as Xu Hong
Luxia Jiang as Tong Li
Sanâa Alaoui as Ina
Fang Yin as Li Dong
Yutian Wang as Zhang Tiande
Jiahao Guo as Lu Chen
Henry Prince Mak as Zhuang Yu


Skupina za posebne naloge kitajske mornarice je znana
po svojih spretnostih in učinkovitosti. Po uspešnem
prevzemu tovorne ladje, ki so jo pirati ugrabili v bližini
somalijske obale, je skupina zaupana še bolj tvegani misiji.
Po politični revoluciji v eni od severnoafriških republik
je življenje kitajskih prebivalcev v nevarnosti.



La.Unidad.2020.SloSubs S01.720p WEBRip x264 AC3-R77

Klikni za povečavo!
05-02-2021 15:15 naložil System
Sejalci: 0 / Odjemalci: 1 / Velikost: 8.98 GB / Dokončani: 1
Prenesi torrent Poročaj torrent Opis torrenta
Zvrst: Akcija | Drama | Triler
Kategorija: FILMI > TV - Serija
Anonimen nalagalec

La.Unidad.2020.SloSubs S01.720p WEBRip x264 AC3-R77


La Unidad 2020

ENOTA
Izvirna serija S01

"La Unidad 'je ena najboljših španskih serij v zadnjem času"


O seriji:
La Unidad (tv-serija) , prevedena kot The Unit , je španska kriminalistična drama, ki se ne ukvarja samo s preganjanjem in tekom med policijo in teroristi, temveč tudi podrobno namiguje / vizualizira pritožbe obeh strani. La Unidad (tv serija), strukturiran v uravnoteženi pripovedi, noče zavzeti nobene strani. Predstavlja le potrebne korake, potrebne za nadzor ali zaustavitev prelivanja krvi.
Serija se začne z dvema obveščevalcema, ki bdita nad hišo v Melilli (špansko mesto). Kmalu napad pod krinko sproži La Unidad (enoto) pod nadzorom dveh višjih policistov, Marcosa ( Michel Noher ) in Sergia ( Luis Zahera ). V uspešni operaciji La Unidad ujame Salaha Al Garheeba, najbolj iskanega terorista na svetu.
La Unidad (tv-serija) nadalje raziskuje dilemo policistov "Enote", ki poskušajo rešiti manjkajočo uganko, zakaj je Al Garheeb prišel v Melillo sam, brez kakršne koli varnosti. Marcos in Sergio zaslišujeta Al Garheeba, a vse zaman, ker noče govoriti. Zaradi pritiska združenja za človekove pravice policisti niso mogli izvajati skrajnih ukrepov.
Ko novica o zajetju Al Garheeba prispe v Sirijo, njegov sin z vso močjo poveča teror v Španiji. Sem spada tolpa treh moških, ki načrtujejo napade s človeškimi bombami v Španiji. Konflikt enote je ugotoviti namen Al Garheeba in ustaviti pošastni napad, ki ga načrtuje, kar je raziskano v nadaljnjih epizodah serije.


Žanri: akcija , drama, triler
Ustvarjalci: Dani de la Torre , Alberto Marini
Igrajo: Nathalie Poza , Michel Noher , Marian Álvarez
Država: Španija
Jezik: španski
Datum izdaje:15. maj 2020
Podnapisi: Slovenščina


Tehnične specifikacije:

Complete name : La.Unidad.2020.SloSubs S01.720p WEBRip x264 AC3-R77
Format : Matroska
Format version : Version 4
File size : 1.54 GiB
Duration : 53 min 13 s
Overall bit rate : 4 136 kb/s
Movie name : La.Unidad.S01E01.1080p.WEB-DL.DD5.1.H.264-ROCCaT
Writing application : Lavf56.40.101
Writing library : Lavf56.40.101
ARTIST : WinX HD Video Converter Deluxe
Video
ID : 1
Format : AVC
Format/Info : Advanced Video Codec
Format profile : Baseline@L5
Format settings : 1 Ref Frames
Format settings, CABAC : No
Format settings, Reference frames : 1 frame
Format settings, GOP : M=1, N=12
Codec ID : V_MPEG4/ISO/AVC
Duration : 53 min 13 s
Bit rate : 3 862 kb/s
Width : 1 280 pixels
Height : 720 pixels
Display aspect ratio : 16:9
Frame rate mode : Constant
Frame rate : 25.000 FPS
Color space : YUV
Chroma subsampling : 4:2:0
Bit depth : 8 bits
Scan type : Progressive
Bits/(Pixel*Frame) : 0.168
Stream size : 1.44 GiB (93%)
Writing library : Lavc56.60.100 nvenc_h264
Default : Yes
Forced : No
Color range : Limited
Audio
ID : 2
Format : AC-3
Format/Info : Audio Coding 3
Commercial name : Dolby Digital
Codec ID : A_AC3
Duration : 53 min 13 s
Bit rate mode : Constant
Bit rate : 192 kb/s
Channel(s) : 2 channels
Channel layout : L R
Sampling rate : 48.0 kHz
Frame rate : 31.250 FPS (1536 SPF)
Bit depth : 32 bits
Compression mode : Lossy
Delay relative to video : -5 ms
Stream size : 146 MiB (9%)
Writing library : Lavc56.60.100 ac3
Language : Spanish
Service kind : Complete Main
Default : Yes
Forced : No


VELIKO UŽITKOV!
El.Reino.aka.The.Realm.2018.SLOSubs.BRRip.XviD-DrSi

Klikni za povečavo!
04-02-2021 11:03 naložil Ziva
Sejalci: 1 / Odjemalci: 0 / Velikost: 3 GB / Dokončani: 6
Prenesi torrent Poročaj torrent Opis torrenta NFO
Kategorija: FILMI >  BRRip



Naziv: El.Reino.aka.The.Realm.2018.SLOSubs.BRRip.XviD-DrSi
Source: The.Realm.2018.1080p.BluRay.x264-USURY
Leto izida ........: 2018
Velikost ...........: 3,00 GB
Dolžina ............: 131 Minut
Video ...............: 2813 Kbps | 720x320 | 23,976 fps
Zvok ................: Dolby Digital AC3 5.1 @ 448 kbps
Kodek...............: XviD
Zvrst………….: Triler | Drama | Pustolovski
Država………..: Španija | Francija
Jezik ................: Francoski
Podnapisi ........: Slovenski, Hrvaški, Srbski (vsi RETAiL)
Prevod: Mediatranslations
Za HD priredil: metalcamp
Tehnična obdelava: DVD Rippers Slovenija
IMDb Ocena ...: 7.2/10 (6,705 glasov)
Režija.........: Rodrigo Sorogoyen
Scenarij.......: Isabel Pena, Rodrigo Sorogoyen


Antonio de la Torre ... Manuel
Mónica López ... Inés
Josep Maria Pou ... Frías
Bárbara Lennie ... Amaia Marín
Nacho Fresneda ... Paco
Ana Wagener ... La Ceballos
Luis Zahera ... Cabrera
Francisco Reyes ... Alvarado
María de Nati ... Nati
David Lorente ... Gallardo


Manuelu, vplivnemu sekretarju v kabinetu regionalne vlade, ki ima prosto pot tudi
v višjo državno politiko, se sesuje idealno življenje, sam pa se zaplete v boj za
preživetje, potem ko ga iztek informacij pahne v škandal zaradi korupcije skupaj
s Pacom, enim njegovih najboljših prijateljev v stranki. Mediji začnejo podrobno
poročati o škandalu, stranka pa strne svoje vrste in Paco je edini, ki ostane
neomadeževan. Manuela čez noč izženejo, javno je osramočen in izdajo ga tisti,
za katere je še nekaj ur prej mislil, da so njegovi najzvestejši prijatelji.
Stranka ga naredi za grešnega kozla, vendar se Manuel ne namerava pasivno predati
usodi. V boju za preživetje, kjer sta njegova edina zaveznika žena in hči, se bo
moral zoperstaviti dobro naoljenemu in podkupljenemu stroju ter strankarskemu
sistemu, v katerem lahko kralji padejo, a kraljestvo ostaja.



The.Congo.Murders.aka.Mordene.I.Kongo.2018.SLOSubs.BRRip.XviD-DrSi

Klikni za povečavo!
04-02-2021 10:56 naložil Ziva
Sejalci: 1 / Odjemalci: 0 / Velikost: 3 GB / Dokončani: 3
Prenesi torrent Poročaj torrent Opis torrenta NFO
Zvrst: Drama | Kriminalka
Kategorija: FILMI >  BRRip



Naziv: Congo.aka.Mordene.I.Kongo.2018.SLOSubs.BRRip.XviD-DrSi
Source: Mordene.I.Kongo.2018.1080p.BluRay.DTS.x264-WASTE
Leto izida ........: 2018
Velikost ...........: 2,60 GB
Dolžina ............: 127 Minut
Video ...............: 2904 Kbps | 720x304 | 23,976 fps
Zvok ................: Dolby Digital AC3 5.1 @ 448 kbps
Kodek...............: XviD
Zvrst………….: Kriminalka | Drama
Država………..: Norveška
Jezik ................: Norveški, Angleški
Podnapisi ........: Slovenski, Hrvaški (oboji RETAiL)
Prevod: Mediatranslations
Za HD priredil: metalcamp
Tehnična obdelava: DVD Rippers Slovenija
IMDb Ocena ...: 6.1/10 (1,175 glasov)
Režija.........: Marius Holst
Scenarij.......: Stephen Uhlander


Aksel Hennie ... Joshua French
Tobias Santelmann ... Tjostolv Moland
Ine F. Jansen ... Ane Strom Olsen
Dennis Storhoi ... Morten Furuholmen
Tone Danielsen ... Kari Hilde French
Anthony Oseyemi ... General Joseph Kazumba
Wanga Jawar ... Serge Kabondo
Hakeem Kae-Kazim ... Victor Makuni
Richard Katanga ... Pierre Mawa


Spomladi leta 2009 sta norveška pustolovca Joshua French in Tjostolv Moland
obtožena umora najetega šoferja po prečkanju meje v Vzhodni Kongo. Lov na
oba moža sproži burne politične in diplomatske ukrepe.
Spomladi leta 2009 norveška pustolovca Joshua French in Tjostolv Moland
prečkata mejo v Vzhodni Kongo. Nekaj dni pozneje se začnejo širiti novice
o nasilni smrti njunega šoferja in po nekaj nočeh na begu po velikanskem
pragozdu Konga oblasti naposled ujamejo ubežnika ter ju obtožijo umora.
Lov na oba moža in dogodki v džungli v naslednji mesecih sprožijo burne
politične in diplomatske ukrepe, ki vodijo v mednarodno krizo, t. i.
Primer Konga. V sojenju, ki sledi, sta Joshua French in Tjostolv Moland
obtožena naklepnega umora voznika in vohunstva ter obsojena na smrt.
Norveško obtožijo, da je namenoma poslala Frencha in Molanda vohunit
za vlado Konga, in od države zahtevajo 500 milijonov dolarjev kazenske
odškodnine.



El.Camino.A.Breaking.Bad.Movie.2019.SLOSubs.BRRip.XviD-DrSi

Klikni za povečavo!
04-02-2021 10:49 naložil Ziva
Sejalci: 1 / Odjemalci: 0 / Velikost: 2.8 GB / Dokončani: 3
Prenesi torrent Poročaj torrent Opis torrenta NFO
Zvrst: Akcija | Drama | Kriminalka
Kategorija: FILMI >  BRRip



Naziv: El.Camino.A.Breaking.Bad.Movie.2019.SLOSubs.BRRip.XviD-DrSi
Source: El.Camino.A.Breaking.Bad.Movie.2019.720p.BluRay.DD5.1.x264-iFT
Leto izida ........: 2019
Velikost ...........: 2,80 GB
Dolžina ............: 122 Minut
Video ...............: 2823 Kbps | 720x304 | 24 fps
Zvok ................: Dolby Digital AC3 5.1 @ 448 kbps
Kodek...............: XviD
Zvrst………….: Akcija | Kriminalka | Drama
Država………..: ZDA
Jezik ................: Angleški
Podnapisi ........: Slovenski (custom)
Prevedel: Žimo
Popravil in uredil: metalcamp
Tehnična obdelava: DVD Rippers Slovenija
IMDb Ocena ...: 7,3/10 (183.094 glasov)
Režija.........: Vince Gilligan
Scenarij.......: Vince Gilligan


Aaron Paul ... Jesse
Jesse Plemons ... Todd
Krysten Ritter ... Jane
Charles Baker ... Skinny Pete
Matt Jones ... Badger
Todd Terry ... SAC Ramey
Julie Pearl ... ADA Ericsen
Scott Shepherd ... Casey
Scott MacArthur ... Neil
Gregory Steven Soliz ... TV News Anchor


Film El Camino se osredotoča na odvisnika z imenom JessePinkman, kateri je v
okviru serije Breaking Bad s svojim profesorjem kemije iz srednješolskih let
skupaj proizvajal drogo metamfetamin.
Uraden zapis zgodbe je naslednji: “Ob dramatičnem pobegu iz ujetništva se mora
Jesse sprijazniti s svojo preteklostjo, da bo lahko koval nekakšno prihodnost.”





Darlin.2019.SLOSubs.BRRip.XviD-DrSi

Klikni za povečavo!
04-02-2021 10:40 naložil Ziva
Sejalci: 2 / Odjemalci: 0 / Velikost: 2.3 GB / Dokončani: 5
Prenesi torrent Poročaj torrent Opis torrenta NFO
Zvrst: Grozljivka | Triler
Kategorija: FILMI >  BRRip



Naziv: Darlin.2019.SLOSubs.BRRip.XviD-DrSi
Source: Darlin.2019.1080p.BluRay.x264-JustWatch
Leto izida ........: 2019
Velikost ...........: 2,30 GB
Dolžina ............: 101 Minut
Video ...............: 2813 Kbps | 720x320 | 23,976 fps
Zvok ................: Dolby Digital AC3 5.1 @ 448 kbps
Kodek...............: XviD
Zvrst………….: Grozljivka | Triler
Država………..: ZDA
Jezik ................: Angleški
Podnapisi ........: Slovenski, Hrvaški, Srbski (vsi RETAiL)
Prevod: Mediatranslations
Za HD priredil in uredil: metalcamp
Tehnična obdelava: DVD Rippers Slovenija
Režija.........: Pollyanna McIntosh
Scenarij.......: Jack Ketchum, Pollyanna McIntosh


Cooper Andrews ... Tony
Kristina Arntz ... Gina
Mackenzie Bateman ... Young Darlin'
Bryan Batt ... The Bishop
Eugenie Bondurant ... Mona
Lauryn Canny ... Darlin'
Lauren Ashley Carter ... Peggy
Donna Duplantier ... Shirley
Sabrina Gennarino ... Charity
Allison Gobuzzi ... Lottie


V divjini odraslo najstnico Darlin, ki so jo umazano in besno našli v katoliški
bolnišnici, v domačo nego prevzamejo škof in njegova skupnost redovnic, da bi jo
prevzgojili v ubogljivo dekle – v dokaz čudežev, ki jih sproža Cerkev. Vendar
ima Darlin temačno skrivnost, veliko hujšo od grehov, s katerimi ji grozijo,
in ne potuje sama. Enako divja in popadljiva ženska, ki jo je vzgojila v gozdovih,
je vselej v bližini in odločena, da bo za vsako ceno prišla ponjo.
Kot nadaljevanje izkrivljene in surove srhljivke "Ženska" (2011) ameriškega režiserja
Luckyja McKeeja se osrednja junakinja Pollyanna McIntosh tokrat poleg podobnega lika,
ki ga upodobi, loteva tudi režije, pri čemer poskrbi za nepozabno, čutno in
rahločutno filmsko doživetje.

Horizon.Line.2020.SRBSubs.1080p.WEB-DL.DD5.1.H.264-R77

Klikni za povečavo!
03-02-2021 18:29 naložil System
Sejalci: 1 / Odjemalci: 0 / Velikost: 3.17 GB / Dokončani: 15
Prenesi torrent Magnet Link Poročaj torrent Opis torrenta
Kategorija: FILMI
Anonimen nalagalec

Horizon.Line.2020.SRBSubs.1080p.WEB-DL.DD5.1.H.264-R77


Horizon Line (2020)

Proti horizontu


Režija:Mikael Marcimain
Scenarij:Josh Campbell, Matthew Stuecken
Igralci:Alexander Dreymon, Allison Williams, Keith David, Pearl Mackie
Država:Švedska
Podnapisi: Srbski
Žanr: Drama, pustolovski, triler


Zgodba:

Lepa, mlada in brezskrbna Sara je vmesno leto preživela v afriški otoški državi Mau r itius. Po začetku odraslega življenja v Londonu se vrne v London na prijateljsko poroko. Ko je vrsta nesreč z njenim bivšim fantom Jacksonom v letalu, namenjenem na bližnji otok, kjer poteka poroka, pilot nenadoma umre. Nad neskončnim oceanom. Praznični izlet se je nenadoma spremenil v blazen polet neviht, zamere in neskončne smole, medtem ko nima veliko več kot nekaj pozabljenih lekcij letenja. To se lahko konča le slabo.


Tehnične specifikacije:

Complete name : Horizon.Line.2020.SRBSubs.1080p.WEB-DL.DD5.1.H.264-R77
Format : Matroska
Format version : Version 4
File size : 3.17 GiB
Duration : 1 h 31 min
Overall bit rate : 4 961 kb/s
Movie name : EVO
Encoded date : UTC 2021-01-12 05:04:05

Video
ID : 2
Format : AVC
Format/Info : Advanced Video Codec
Format profile : High@L4
Format settings : CABAC / 5 Ref Frames
Format settings, CABAC : Yes
Format settings, Reference frames : 5 frames
Codec ID : V_MPEG4/ISO/AVC
Duration : 1 h 31 min
Bit rate : 4 575 kb/s
Width : 1 920 pixels
Height : 804 pixels
Display aspect ratio : 2.40:1
Frame rate mode : Constant
Frame rate : 23.976 (24000/1001) FPS
Color space : YUV
Chroma subsampling : 4:2:0
Bit depth : 8 bits
Scan type : Progressive
Bits/(Pixel*Frame) : 0.124
Stream size : 2.93 GiB (92%)
Language : English
Default : Yes
Forced : No
Color range : Limited
Color primaries : BT.709
Transfer characteristics : BT.709
Matrix coefficients : BT.709

Audio
ID : 1
Format : AC-3
Format/Info : Audio Coding 3
Commercial name : Dolby Digital
Codec ID : A_AC3
Duration : 1 h 31 min
Bit rate mode : Constant
Bit rate : 384 kb/s
Channel(s) : 6 channels
Channel layout : L R C LFE Ls Rs
Sampling rate : 48.0 kHz
Frame rate : 31.250 FPS (1536 SPF)
Compression mode : Lossy
Delay relative to video : -42 ms
Stream size : 251 MiB (8%)
Language : English
Service kind : Complete Main
Default : Yes
Forced : No


Uživajte!
The.Farewell.2019.SLOSubs.BRRip.XviD-DrSi

Klikni za povečavo!
02-02-2021 16:47 naložil Ziva
Sejalci: 1 / Odjemalci: 0 / Velikost: 2.31 GB / Dokončani: 3
Prenesi torrent Poročaj torrent Opis torrenta NFO
Zvrst: Drama | Komedija
Kategorija: FILMI >  BRRip



Naziv: The.Farewell.2019.SLOSubs.BRRip.XviD-DrSi
Source: The.Farewell.2019.1080p.BluRay.DD+5.1.x264-SbR
Leto izida ........: 2019
Velikost ...........: 2,30 GB
Dolžina ............: 100 Minut
Video ...............: 2850 Kbps | 720x304 | 23,976 fps
Zvok ................: Dolby Digital AC3 5.1 @ 448 kbps
Kodek...............: XviD
Zvrst………….: Komedija | Drama
Država………..: Kitajska | ZDA
Jezik ................: Mandarinščina, Angleški
Podnapisi ........: Slovenski, Hrvaški, Srbski (vsi RETAiL)
Prevod: Mediatranslations
Za HD priredil in uredil: metalcamp
Tehnična obdelava: DVD Rippers Slovenija
IMDb Ocena ...: 7.6/10 (50,544 glasov)
Režija.........: Lulu Wang
Scenarij.......: Lulu Wang


Shuzhen Zhao ... Nai Nai
Awkwafina ... Billi
X Mayo ... Suze
Hong Lu ... Little Nai Nai (as Lu Hong)
Hong Lin ... Doctor Wu (as Lin Hong)
Tzi Ma ... Haiyan
Diana Lin ... Lu Jian
Yang Xuejian ... Mr. Li
Becca Khalil ... Shirley
Yongbo Jiang ... Uncle Haibin


Izjemno hvaljena komična drama o kitajsko-ameriški družini, ki se na zadnjem skupnem
srečanju z obolelo babico odloči, da ji bo zamolčala novico o njeni skorajšnji smrti.
Awkwafina je za vlogo svojeglave vnukinje prejela zlati globus za najboljšo igralko
v komediji.

Svojeglava Američanka kitajskega rodu Billi se vrne v domovino, ko izve, da so pri
njeni ljubljeni babici odkrili raka v zadnjem stadiju. Družina v želji po zadnjem
skupnem druženju na Kitajskem priredi improvizirano poroko, Billi pa se bori z
odločitvijo sorodnikov, da bodo babici zamolčali žalostno novico.
Valan.Valley.of.Angels.2019.SLOSubs.DVDRip.XviD-DrSi

Klikni za povečavo!
02-02-2021 15:55 naložil Ziva
Sejalci: 1 / Odjemalci: 0 / Velikost: 1.38 GB / Dokončani: 5
Prenesi torrent Poročaj torrent Opis torrenta NFO
Zvrst: Drama | Kriminalka
Kategorija: FILMI > DVDRip



Naziv: Valan.Valley.of.Angels.2019.SLOSubs.DVDRip.XviD-DrSi
Source: Valan.Az.angyalok.volgye.2019.RETAIL.HUN.PAL.DVD9-TRASH
Leto izida .........: 2019
Velikost ...........: 1,36 GB
Dolžina ............: 94 Minut
Video ...............: 1641 Kbps | 720x304 | 25 fps
Zvok .................: Dolby Digital AC3 5.1 @ 448 kbps
Kodek ..............: XviD
Zvrst ..............: Kriminalka | Drama
Država ............: Madžarska
Jezik ................: Madžarski
Podnapisi .........: Slovenski
Prevod ..............: RETAiL (MEDIATRANSLATIONS)
Tehn. obdelava .: DVD Rippers Slovenija
Režija.........: Béla Bagota
Scenarij.......: Béla Bagota
IMDb ocena ...: 7,1/10 (902 glasov)


Csaba Krisztik ... Péter
András Hatházi ... János
Tollas Gábor ... Dragos
Júlia Nyakó ... Kati
László Mátray ... Miklós
Emõke Pál ... Lilla


Mestni policist Péter preiskuje zločinsko podzemlje prostitucije in trgovanja
z ljudmi v Brasovu. Življenje je posvetil iskanju žensk, ki so bile pogrešane;
v vsakem dekletu, ki ga tako reši, namreč vidi svojo sestro Juli. Ta je v
domačem kraju Valan pred 22 leti izginila med zmedo in izgredi romunske
revolucije leta 1989. Zdaj se je Péter prisiljen vrniti v rudarsko mestece v
Transilvaniji, potem ko je prejel telefonski klic, da so truplo njegove sestre
našli med drevesi na zasneženi gori. Preiskava ga prisili v boj s krajevnimi
zločinci, ki imajo v pesti Valan, in obenem lastnimi strahovi, prežečimi v
labirintu preteklosti, s katerimi se bo moral spet soočiti.



Legal.Action.aka.Tožba.2018.SLOSubs.720p.HDRip-R77

Klikni za povečavo!
01-02-2021 17:38 naložil rado77
Sejalci: 1 / Odjemalci: 0 / Velikost: 1.38 GB / Dokončani: 3
Prenesi torrent Poročaj torrent Opis torrenta
Zvrst: Drama
Kategorija: FILMI > HDRip

Legal.Action.aka.Tožba.2018.SLOSubs.720p.HDRip-R77


Legal Action (2018)

Tožba

Scenarij: Shea Sizemore in Jason White
Režiser: Brent Christy
Producent: Gary Wheeler , Jason White
Žanr: Drama
Čas izvajanja: 97 min
Jezik: Angleški
Podnapisi:Slovenski

Igrajo: Eric Close , Tommy Flanagan , Nick Searcy , Tanya Clarke , Kevin Sizemore , Christian James , Greg Alan Williams , Mark Ashworth , Kristopher Wente


Povzetek:

Odvetnika iz velikega mesta Caseyja McKaya (Eric Close - Nashville , Brez sledi ) njegova bivša žena pritegne v majhno mesto, da brani svojega brata, obtoženega umora DA. Odkrije splet zarote, ki ga postavi iz oči v oči z najbolj pokvarjenim gradbenim zemljiščem, gospodom Gatesom (Tommy Flanagan - Sons of Anarchy , Braveheart) . Ko Casey razkrije resnico, se znajde v boju za življenje svojega nekdanjega zeta, pa tudi za svoje življenje.
V tej sodobni zgodbi je malo starega Zahoda, v katerem sta dober in hudoben človek pripravljena rešiti drug drugega, ko film doseže vrhunec. Bo Jay odšel na prosto? Bo McKay znova osvojil svojo bivšo?
To je dobra staromodna zgodba, pripovedovana v sodobnem okolju. Igra je izjemna, zgodba je zanimiva, konec pa lepo narejen.


Tehnične specifikacije:

Complete name : Legal.Action.aka.Tožba.2018.SLOSubs.720p.HDRip-R77
Format : MPEG-4
Format profile : Base Media
Codec ID : isom (isom/iso2/avc1/mp41)
File size : 1.38 GiB
Duration : 1 h 32 min
Overall bit rate : 2 123 kb/s
Writing application : Lavf58.29.100
Video
ID : 1
Format : AVC
Format/Info : Advanced Video Codec
Format profile : High@L3.1
Format settings : CABAC / 2 Ref Frames
Format settings, CABAC : Yes
Format settings, Reference frames : 2 frames
Codec ID : avc1
Codec ID/Info : Advanced Video Coding
Duration : 1 h 32 min
Bit rate : 1 989 kb/s
Width : 1 024 pixels
Height : 576 pixels
Display aspect ratio : 16:9
Frame rate mode : Constant
Frame rate : 25.120 FPS
Color space : YUV
Chroma subsampling : 4:2:0
Bit depth : 8 bits
Scan type : Progressive
Bits/(Pixel*Frame) : 0.134
Stream size : 1.29 GiB (94%)
Codec configuration box : avcC
Audio
ID : 2
Format : AAC LC
Format/Info : Advanced Audio Codec Low Complexity
Codec ID : mp4a-40-2
Duration : 1 h 32 min
Bit rate mode : Constant
Bit rate : 128 kb/s
Channel(s) : 2 channels
Channel layout : L R
Sampling rate : 48.0 kHz
Frame rate : 46.875 FPS (1024 SPF)
Compression mode : Lossy
Stream size : 85.2 MiB (6%)
Default : Yes
Alternate group : 1


Uživajte!
Lahko.dekle.aka.Une.fille.facile.2019.SLOSubs.720p.HDRip-R77

Klikni za povečavo!
01-02-2021 14:36 naložil rado77
Sejalci: 3 / Odjemalci: 0 / Velikost: 1.28 GB / Dokončani: 19
Prenesi torrent Poročaj torrent Opis torrenta
Zvrst: Drama | Komedija
Kategorija: FILMI > HDRip

Lahko.dekle.aka.Une.fille.facile.2019.SLOSubs.720p.HDRip-R77


UNE FILLE FACILE / EASY GIRL 2019
LAHKO DEKLE


Režija: Rebecca Zlotowski
Scenarij: Teddy Lussi-Modeste in Rebecca Zlotowski
Igrajo: Mina Farid, Zahia Dehar, Benoît Magimel, Nuno Lopes, Clotilde Courau


Zgodba:

Šestnajstletna Naima je hči čistilke na Azurni obali. Šolskega leta je konec in Naima se s prijateljico Dodo pripravlja na avdicijo v Cannesu. Tedaj pa jo nepričakovano obišče sestrična Sofia iz Pariza, dvaindvajsetletno dekle, ki sproščeno dojema spolnost in je brez pomislekov pripravljena izkoristiti svoje čare … »Ujemi trenutek« je njeno vodilo, s katerim se predstavi Naimi. Dekleti se skupaj predata sladkostim cannskega življenja; plaže, nočni klubi, jahte … Spoznata bogatega Andresa in njegovega prijatelja, zbiratelja umetnin Philippa, ki ju povabita na svojo jahto. Sofia se v svetu bogatašev dobro znajde in vanj vpelje tudi manj samozavestno Naimo. Pred njima oživi svet blišča, obilja, izjemnih restavracij in razkošnih obmorskih vil … Svet, v katerem se zdi vse mogoče.


Država: Francija
Jezik: Francoščina, Italijanščina, Angleščina
Podnapisi Slovenski
Izvajanje: 92 min
Žanr: Drama, Erotični, Komedija


Tehnične specifikacije:

Complete name : Lahko.dekle.aka.Une.fille.facile.2019.SLOSubs.720p.HDRip-R77
Format : MPEG-4
Format profile : Base Media
Codec ID : isom (isom/iso2/avc1/mp41)
File size : 1.28 GiB
Duration : 1 h 28 min
Overall bit rate : 2 072 kb/s
Writing application : Lavf58.29.100
Video
ID : 1
Format : AVC
Format/Info : Advanced Video Codec
Format profile : High@L3.1
Format settings : CABAC / 2 Ref Frames
Format settings, CABAC : Yes
Format settings, Reference frames : 2 frames
Codec ID : avc1
Codec ID/Info : Advanced Video Coding
Duration : 1 h 28 min
Bit rate : 1 939 kb/s
Width : 1 280 pixels
Height : 720 pixels
Display aspect ratio : 16:9
Frame rate mode : Constant
Frame rate : 25.000 FPS
Color space : YUV
Chroma subsampling : 4:2:0
Bit depth : 8 bits
Scan type : Progressive
Bits/(Pixel*Frame) : 0.084
Stream size : 1.20 GiB (94%)
Codec configuration box : avcC
Audio
ID : 2
Format : AAC LC
Format/Info : Advanced Audio Codec Low Complexity
Codec ID : mp4a-40-2
Duration : 1 h 28 min
Duration_LastFrame : -12 ms
Bit rate mode : Constant
Bit rate : 128 kb/s
Channel(s) : 2 channels
Channel layout : L R
Sampling rate : 44.1 kHz
Frame rate : 43.066 FPS (1024 SPF)
Compression mode : Lossy
Stream size : 81.1 MiB (6%)
Default : Yes
Alternate group : 1


Uživajte!