A
B
C
D
E
F
G
H
I
J
K
L
M
N
O
P
Q
R
S
T
U
V
W
X
Y
Z
0-9
Koncert.Ansambla.Saša.Avsenika.720p.TVRip.R77

Klikni za povečavo!
13-01-2021 15:13 naložil System
Sejalci: 1 / Odjemalci: 0 / Velikost: 3.19 GB / Dokončani: 1
Prenesi torrent Poročaj torrent Opis torrenta
Zvrst: Glasbeni
Kategorija: GLASBA > Video
Anonimen nalagalec

Koncert.Ansambla.Saša.Avsenika.720p.TVRip.R77


KONCERT ANSAMBLA
SAŠE AVSENIKA


Tehnične specifikacije:

Complete name : Koncert.Ansambla.Saša.Avsenika.720p.TVRip.R77\Koncert.Ansambla.Saša.Avsenika.720p.TVRip.R77.mp4
Format : MPEG-4
Format profile : Base Media
Codec ID : isom (isom/iso2/avc1/mp41)
File size : 1.99 GiB
Duration : 1 h 32 min
Overall bit rate : 3 089 kb/s
Writing application : Lavf58.29.100

Video
ID : 1
Format : AVC
Format/Info : Advanced Video Codec
Format profile : High@L3.1
Format settings : CABAC / 3 Ref Frames
Format settings, CABAC : Yes
Format settings, Reference frames : 3 frames
Codec ID : avc1
Codec ID/Info : Advanced Video Coding
Duration : 1 h 32 min
Bit rate : 2 955 kb/s
Width : 1 280 pixels
Height : 720 pixels
Display aspect ratio : 16:9
Frame rate mode : Constant
Frame rate : 25.000 FPS
Color space : YUV
Chroma subsampling : 4:2:0
Bit depth : 8 bits
Scan type : Progressive
Bits/(Pixel*Frame) : 0.128
Stream size : 1.90 GiB (96%)
Writing library : x264 core 148
Codec configuration box : avcC



Audio
ID : 2
Format : AAC LC
Format/Info : Advanced Audio Codec Low Complexity
Codec ID : mp4a-40-2
Duration : 1 h 32 min
Bit rate mode : Constant
Bit rate : 128 kb/s
Channel(s) : 2 channels
Channel layout : L R
Sampling rate : 44.1 kHz
Frame rate : 43.066 FPS (1024 SPF)
Compression mode : Lossy
Stream size : 84.6 MiB (4%)
Default : Yes
Alternate group : 1

Posnetek ne vsebuje napovednika in povezovanja voditelja!


UŽIVAJTE!