A
B
C
D
E
F
G
H
I
J
K
L
M
N
O
P
Q
R
S
T
U
V
W
X
Y
Z
0-9
X.Men.Apocalypse.2016.CroSubs 1080p.HDTC.AAC.x264-ETRG

Klikni za povečavo!
19-06-2016 08:18 naložil System
Sejalci: 1 / Odjemalci: 0 / Velikost: 3.89 GB / Dokončani: 18
Prenesi torrent Poročaj torrent Opis torrenta
Zvrst: Z.F.
Kategorija: FILMI > WEBRip-1080
Anonimen nalagalec

Naziv......: X.Men.Apocalypse.2016.CroSubs 1080p.HDTC.AAC.x264-ETRG
Source....... X.Men.Apocalypse.2016. 1080p.HDTC.AAC.x264
Velikost....: 3.89 GiB
Dolžina......: 2h 23mn
Leto......: 2016
Slika......: 1 920 x 792 | 3 728 kbps | 29.970 fps
Zvok.....: Dolby Digital | AC3 | 448 Kbps
Kodek......: MP4- Advanced Video Coding
Država.....: ZDA
Jezik......: Angleški
Žanr.....: Domišlijska akcija
Podnapisi......:Hrvaški (RETAiL)
Tehnična obdelava...: RM

IMDB: http://www.imdb.com/title/tt3385516/

Ocena: 7,4/10

Režija.....: Bryan Singer

Scenarij......:Simon Kinberg,Brayn Singer,MichaelDougherty,Dan Harris.
Igrajo:James McAvoy, Michael Fassbender, Jennifer Lawrence, Oscar Isaac, Nicholas Hoult, Rose Byrne, Tye Sheridan, Sophie Turner, Olivia Munn, Lucas Till, Evan Peters, Kodi Smit-McPhee, Alexandra Shipp, Josh Helman, Lana Condor, Ben Hardy

Zgodba;
Po več tisočletjih spanca se ponovno zbudi prvi, neumrljivi in najmočnejši mutant, ki so ga od nekdaj slavili kot boga. Vsemogočni Apokalipsa je razočaran nad sodobnim svetom, zato se odloči ponovno izbrati štiri pomagače, ki mu bodo stali ob strani pri uničenju človeštva. Profesor X in Mystique poskušata s svojimi mutantskimi učenci preprečiti najhujše, toda njun večni nasprotnik Magneto se s svojimi zavezniki pridruži Apokalipsi, kar vodi v spopad epskih razsežnosti. Ko usoda človeštva visi na nitki, se morajo mutanti soočiti z lastnimi moralnimi in fizičnimi omejitvami svojih nadnaravnih moči in sposobnosti.

YouTube Napovednik;

General ;
Complete name : X.Men.Apocalypse.2016.1080p.HDTC.AAC.x264-ETRG.mp4
Format : MPEG-4
Format profile : Base Media
Codec ID : isom
File size : 3.89 GiB
Duration : 2h 23mn
Overall bit rate mode : Variable
Overall bit rate : 3 869 Kbps
Encoded date : UTC 2016-06-05 08:02:23
Tagged date : UTC 2016-06-05 08:02:23

Video
ID : 1
Format : AVC
Format/Info : Advanced Video Codec
Format profile : High@L4.0
Format settings, CABAC : Yes
Format settings, ReFrames : 4 frames
Codec ID : avc1
Codec ID/Info : Advanced Video Coding
Duration : 2h 23mn
Bit rate : 3 728 Kbps
Maximum bit rate : 18.0 Mbps
Width : 1 920 pixels
Height : 792 pixels
Display aspect ratio : 2.40:1
Frame rate mode : Constant
Frame rate : 29.970 fps
Color space : YUV
Chroma subsampling : 4:2:0
Bit depth : 8 bits
Scan type : Progressive
Bits/(Pixel*Frame) : 0.082
Stream size : 3.75 GiB (96%)
Title : ETRG
Writing library : x264 core 148 r2665 a01e339

Audio
ID : 2
Format : AAC
Format/Info : Advanced Audio Codec
Format profile : LC
Codec ID : 40
Duration : 2h 23mn
Bit rate mode : Variable
Bit rate : 136 Kbps
Maximum bit rate : 160 Kbps
Channel(s) : 2 channels
Channel positions : Front: L R
Sampling rate : 48.0 KHz
Compression mode : Lossy
Stream size : 140 MiB (4%)
Title : ETRG
Language : English
Encoded date : UTC 2016-06-04 21:54:45
Tagged date : UTC 2016-06-05 08:03:42