A
B
C
D
E
F
G
H
I
J
K
L
M
N
O
P
Q
R
S
T
U
V
W
X
Y
Z
0-9
Winter Jade -Homeroom At Home (2021) 4k.mp4

Klikni za povečavo!
15-03-2021 05:15 naložil BlackDevil
Sejalci: 1 / Odjemalci: 0 / Velikost: 8.26 GB / Dokončani: 3
Prenesi torrent Poročaj torrent Opis torrenta
Kategorija: FILMI > xxx

[WankzVR.com] Winter Jade (Homeroom At Home / 15.01.2021) [2021 г., Blowjob, Cowgirl, Doggy Style, Missionary, Reverse Cowgirl, POV, VR, 4K, 1920p] [Oculus Rift / Vive]

Hrvatica besramno šprica 1080p.mkv

Klikni za povečavo!
15-03-2021 05:04 naložil BlackDevil
Sejalci: 4 / Odjemalci: 0 / Velikost: 1.33 GB / Dokončani: 20
Prenesi torrent Poročaj torrent Opis torrenta
Kategorija: FILMI > xxx


jung muschi' Search - XNXX.COMAlma Obric Droljetina iz Sarajeva Voli Da Pokazuje Picku - XNXX.COM
PublicAgent 21 01 03 Tina Fire XXX 1080p MP4-WRB

Klikni za povečavo!
15-03-2021 04:58 naložil BlackDevil
Sejalci: 1 / Odjemalci: 0 / Velikost: 818.79 MB / Dokončani: 6
Prenesi torrent Poročaj torrent Opis torrenta
Kategorija: FILMI > Risanke

Tina Fire HD Porn Videos (Now in 4k) - PlayVids

PublicAgent.21.01.03.Tina.Fire.XXX.1080p.MP4-WRB

Release Stats
Date.............: 2021-01-03
Files............: 18
Size.............: 818mb

Porn
Category.........: Adult

Information
File type........: MP4
Duration.........: 26min38sec
Resolution.......: 1920x1080
Bitrate..........: 4161 kb/s
Frame rate.......: 25.000 fps

Message.in.a.Bottle.1999.PAL.DVDR.Custom.SLOSUBS-max

Klikni za povečavo!
14-03-2021 21:18 naložil BlackDevil
Sejalci: 2 / Odjemalci: 0 / Velikost: 4.37 GB / Dokončani: 4
Prenesi torrent Poročaj torrent Opis torrenta
Zvrst: Drama | Romantični
Kategorija: FILMI > DVD




BlackDevil

Message.in.a.Bottle.1999.PAL.DVDR.Custom.SLOSUBS-max


RELEASE:Message.in.a.Bottle.1999.PAL.DVDR.Custom.SLOSUBS-max
ViDEO: 4462 Kbps
RESOLUTiON: 720x576
RUNTiME: 2h 10m
SUBTiTLES: SLOVENSKI
AUDiO: 384 Kbps AC3
LANGUAGE: ENGLiSH
NOTES: Enjoy.


Paul Newman > Dodge Blake
Kevin Costner > Garret Blake
Robin Wright > Theresa Osborne
Robbie Coltrane > Charlie Toschi
Illeana Douglas > Lina Paul
John Savage > Johnny Land
Tom Aldredge > Hank Land
Susan Brightbill > Catherine Land Blake
Viveka Davis > Alva
Steven Eckholdt > David Osborne
Richard Hamilton > Chet
Jesse James > Jason Osborne
Bethel Leslie > Marta Land
Rosemary Murphy > Helen at the B&B
Raphael Sbarge > Andy

Sporočilo v steklenici bo začelo življenje nesrečnih ljubimcev v iskanju izpolnitve in nove ljubezni.
Nekega dne na obali mlada novinarka Theresa Osborne (Robin Wright Penn) po nesreči najde sporočilo v steklenici. Sporočilo, podpisano samo s črko "G", je polno ljubezni in žalosti za pokojno ženo. Terezija, ki sporoča svojim kolegom, sploh ne ve, kakšne dogodke bo izzvala in sprožila. Pismo neznanega moškega bo objavljeno v jutrišnji številki časopisa, odzivi bralcev pa med drugim v steklenico prinašajo dve novi sporočili. V gnanju avtorjeve čustvenosti se Theresa poda v iskanje, ki jo kmalu pripelje do privlačnega restavratorja ladij Garretta Blakea (Kevin Costner). In res, Garret še vedno žaluje za svojo ženo, Theresa, ki je sama nezadovoljna z nedavnim razpadom zakona, v Garretu najde človeka svojega življenja. Toda preteklost še vedno stoji med dvema nesrečnima ljubimcema ...

Message In A Bottle 1999 1080p BluRay H264 AAC-RARBG
Gugu

Klikni za povečavo!
14-03-2021 20:35 naložil BlackDevil
Sejalci: 3 / Odjemalci: 0 / Velikost: 60.82 MB / Dokončani: 8
Prenesi torrent Poročaj torrent Opis torrenta
Kategorija: GLASBA > Glasba

Gu-Gu: Gu-Gu play for you / Mango banana (2 albuma)

GUGU - Dnevi Ki Prihajajo
Gugu - Ljubica Mojga Srca
GUGU - Ljubil Bi Se, Ljubil S Teboj
GuGu - Mango banana
GUGU - Mi Imamo Se Fajn
GUGU - Moj Mali Kakadu
Gugu - Moja Mala Lucija
GUGU - Ona ni za me
GuGu - Sam po parku
GUGU & BASTINO - Zelim si na Jamajko rmx
Gugu - Bugalu
Gugu - Honolulu baby
Gugu - Papagaja
Gugu - Riba smrdi pri glavi
Gugu - So najlepše pesmi že napisane
Gugu - Žabe



The.Alamo.2004.MultiSub.PAL.DVDR

Klikni za povečavo!
14-03-2021 12:26 naložil System
Sejalci: 1 / Odjemalci: 0 / Velikost: 4.36 GB / Dokončani: 2
Prenesi torrent Poročaj torrent Opis torrenta
Kategorija: FILMI > DVD
Anonimen nalagalec

The Alamo (2004)
Alamo (2004)



-------------
INFO:
-------------
Source..........: DVD
Format..........: 16:9
Standard........: PAL
Release Size....: 4,35 GB
iMDB Link.......: KLIK
iMDB Rating.....: 6,0/10 (19.755)
Genre...........: Drama, History, War, Western
Country.........: USA
Language........: English/ Spanish
Video...........: /
Audio...........: AC3 5.1-ch English
Subs............: English/ Italian/ Croatian/ Slovenian
Extras..........: yes
Regija..........: Prosto
Runtime.........: 132 min
Čas predvajanja.: 02:11.05 h

-------------
IGRALCI:
-------------
Dennis Quaid ... Sam Houston
Billy Bob Thornton ... Davy Crockett
Jason Patric ... James Bowie
Patrick Wilson ... William Travis
Emilio Echevarría ... Antonio Lopez de Santa Ana
Jordi Molla ... Juan Seguin
Leon Rippy ... Sgt. William Ward
Tom Davidson ... Colonel Green Jameson
Marc Blucas ... James Bonham
Robert Prentiss ... Albert Grimes
Kevin Page ... Micajah Autry
Joe Stevens ... Mial Scurlock
Stephen Bruton ... Captain Almeron Dickinson
Laura Clifton ... Susanna Dickinson
Ricardo Chavira ... Private Gregorio Esparza

-------------
OPIS:
-------------
Billy Bob Thornton, Dennis Quaid in Jason Patric igrajo v akcijskem epu,
o enem najpomembnejših dogodkov v ameriški zgodovini! To je junaška zgodba
o 200 pogumnih moških, ki so se v imenu svobode žrtvovali in 13 dni branili
majhno trdnjavo v Teksasu pred celo vojsko! Poveljevali so mu trije moški -
podpolkovnik William Travis (Patrick Wilson), James Bowie (Patric) in
David Crockett (Thornton) - njihov pogum v Alamu, ki je nenavaden, bo za vedno
živel kot klic k svobodi in neodvisnosti!



Admiral.2008.SloSubs.720p.BRrip.DD5.1.x264-R77

Klikni za povečavo!
14-03-2021 12:17 naložil rado77
Sejalci: 1 / Odjemalci: 0 / Velikost: 2.15 GB / Dokončani: 6
Prenesi torrent Poročaj torrent Opis torrenta
Kategorija: FILMI >  BRRip

Admiral.2008.SloSubs.720p.BRrip.DD5.1.x264-R771


Admiral (2008)



Admiral ( rusko : Адмиралъ ) je biografija o Alexandru Kolchaku , vice-admiralu ruske mornarice in vodja anti-komunističnega Belega gibanja v času ruske državljanske vojne . Film prikazuje tudi ljubezenski trikotnik med admiralom, njegovo ženo in pesnico Anno Timirjovo .

Iz razširjene različice filma je nastala 10-delna TV-serija.

Zaplet:

Filmski dogodki se odvijajo v obdobju 1915-1920. Kolčakse predstavi, najprej kot admiral v cesarski ruski mornarici med prvo svetovno vojno. Nato doživimo propad ruske revolucije, rusko februarsko in oktobrsko revolucijo in poznejšo državljansko vojno.

Po negotovem premagovanju nemške bojne križarke se Kolčak vrne v mornariško oporišče Kronstadt blizu Sankt Peterburga. Tam ga seznani z Anno Timirevo, ženo enega od njegovih nižjih častnikov. Čeprav sta oba z Anno poročena, sta njuna ljubezen očitna tako njima kot zakoncema.

Kolchak prejme napredovanje za poveljnika črnomorske flote. In tako se z ženo preselita v Sevastopol. Zanj je to srečna poteza, saj ko pride februarska revolucija leta 1917, so vsi častniki v Kronstadtu usmrčeni. Vsi, razen Ane in njenega moža.


Po februarski revoluciji se Kolčak sestane z začasnim šefom ruske vlade Aleksandrom Kerenskim. Čeprav se Kerensky najprej predlaga, da bi Kolchaka imenoval za obrambnega ministra, oba padeta. Kerensky na koncu izžene Kolchaka.

Hitro naprej do leta 1919. Kolčak se je vrnil v Rusijo in zdaj poveljuje preostali ruski regiji, ki jo nadzirajo Belorusi - Sibiriji. Med evakuacijo iz Omska v Irkutsk Kolchak izve, da Anna dela kot medicinska sestra v njegovi bližini. Oba se ponovno združita in poročita.

Kmalu zatem so boljševiki napadli Irkutsk. Ko je mesto očitno izgubljeno, voditelji francoske in češkoslovaške legije Kolčaka predajo boljševikom. Kmalu je usmrčen, njegovo telo pa je vrženo v led.


Direktor: Andreja Kravčuka
Scenarij: Zoya Kudrya , Vladimir Valutskiy
Vodilne vloge: Konstantin Khabenskiy , Elizaveta Boyarskaya , Sergey Bezrukov


Žanri: Biografija , drama , zgodovina
Država: Rusija
Jezik: Ruščina | Francosko
Podnapisi: Slovenščina
Izvajanje: 124 min

ADMIRAL JE NAJDRAŽJI FILM V ZGODOVINI RUSKE KINEMATOGRAFIJE!


Tehnične specifikacije:

Complete name : Admiral.2008.SloSubs.720p.BRrip.DD5.1.x264-R77
Format : MPEG-4
Format profile : Base Media
Codec ID : isom (isom/iso2/avc1/mp41)
File size : 2.15 GiB
Duration : 2 h 4 min
Overall bit rate : 2 476 kb/s
Movie name : Admiral (2008)
Writing application : Lavf58.29.100

Video
ID : 1
Format : AVC
Format/Info : Advanced Video Codec
Format profile : High@L3.1
Format settings : CABAC / 2 Ref Frames
Format settings, CABAC : Yes
Format settings, Reference frames : 2 frames
Codec ID : avc1
Codec ID/Info : Advanced Video Coding
Duration : 2 h 4 min
Bit rate : 2 344 kb/s
Width : 1 280 pixels
Height : 538 pixels
Display aspect ratio : 2.40:1
Frame rate mode : Constant
Frame rate : 23.976 (23976/1000) FPS
Color space : YUV
Chroma subsampling : 4:2:0
Bit depth : 8 bits
Scan type : Progressive
Bits/(Pixel*Frame) : 0.142
Stream size : 2.03 GiB (95%)
Language : Russian
Codec configuration box : avcC

Audio
ID : 2
Format : AAC LC
Format/Info : Advanced Audio Codec Low Complexity
Codec ID : mp4a-40-2
Duration : 2 h 4 min
Bit rate mode : Constant
Bit rate : 129 kb/s
Channel(s) : 2 channels
Channel layout : L R
Sampling rate : 48.0 kHz
Frame rate : 46.875 FPS (1024 SPF)
Compression mode : Lossy
Stream size : 114 MiB (5%)
Language : Russian
Default : Yes
Alternate group : 1


Uživajte!
1983.S01.2018.SRBSubs.720p.AAC-5.1.x264-ReEnc-Livada-R77

Klikni za povečavo!
14-03-2021 12:07 naložil rado77
Sejalci: 1 / Odjemalci: 0 / Velikost: 4.35 GB / Dokončani: 2
Prenesi torrent Poročaj torrent Opis torrenta
Zvrst: Drama | Kriminalka | Triler
Kategorija: FILMI > TV - Serija

1983.S01.2018.SRBSubs.720p.AAC-5.1.x264-ReEnc-Livada-R77


1983 (2018)

TV Serija


[align=center]Leto izdelave: 2018 ( sezona 1 )


Država: Poljska
Žanr: triler , drama , kriminal
Producent: Kasia Adamik , Olga Haidas , Agnieszka Holland , ...
Scenarij: Joshua Long , Dariush Glazer , Maciej Musyal
Producent: Andrzej Biesztak , Nicole Harjo , Agnieszka Holland , ...
Operater: Tomasz Naumyuk , Rafal Paradowski , Anna Rzepka , ...
Skladatelj: Anthony Lazarkiewicz , Marcin Masecki
Umetnik: Anna Anosovich , Katarzyna Levinska , Hanna Wujcikowska-Szymczak
Svetovna premiera: 30. november 2018 , ...
Digitalna izdaja: 30. november 2018 , "Netflix"
Čas: 58 minut
Podnapisi: srbohrvaški

Zgodba:

Globoko zamrznjena hladna vojna se segreva. Dvajset let po uničujočem terorističnem napadu leta 1983, ki je ustavil potek osvoboditve Poljske in poznejši propad Sovjetske zveze, se je idealistični študent prava in osramočeni policijski preiskovalec spotaknil o zaroto, ki je železno zaveso ohranila, Poljska pa živela pod represivna policijska država. Zdaj, leta 2003, po dveh desetletjih miru in blaginje, voditelji režima sprejmejo skrivni načrt, narejen z neverjetnim nasprotnikom v osemdesetih letih prejšnjega stoletja, ki bo korenito spremenil Poljsko in vplival na življenje vseh državljanov države - in sveta. Kar odkrijeta ta dva moška, ​​lahko sproži revolucijo in tisti, ki so na oblasti, se ne bodo nič ustavili, da bi to skrivali.


Tehnične specifikacije:

Complete name : 1983.S01.2018.720p.AAC-5.1.x264-ReEnc-Livada-R77
Format : Matroska
Format version : Version 4
File size : 572 MiB
Duration : 57 min 30 s
Overall bit rate : 1 390 kb/s
Encoded date : UTC 2020-05-12 15:03:15
Writing application : HandBrake 1.3.1 2020010400
Writing library : Lavf58.29.100
ErrorDetectionType : Per level 1

Video
ID : 1
Format : AVC
Format/Info : Advanced Video Codec
Format profile : High@L4.1
Format settings : CABAC / 5 Ref Frames
Format settings, CABAC : Yes
Format settings, Reference frames : 5 frames
Codec ID : V_MPEG4/ISO/AVC
Duration : 57 min 30 s
Nominal bit rate : 1 130 kb/s
Width : 1 280 pixels
Height : 640 pixels
Display aspect ratio : 2.000
Frame rate mode : Constant
Frame rate : 25.000 FPS
Color space : YUV
Chroma subsampling : 4:2:0
Bit depth : 8 bits
Scan type : Progressive
Bits/(Pixel*Frame) : 0.055
Default : Yes
Forced : No
Color range : Limited
Color primaries : BT.709
Transfer characteristics : BT.709
Matrix coefficients : BT.709

Audio
ID : 2
Format : AAC LC
Format/Info : Advanced Audio Codec Low Complexity
Codec ID : A_AAC-2
Duration : 57 min 30 s
Channel(s) : 6 channels
Channel layout : C L R Ls Rs LFE
Sampling rate : 48.0 kHz
Frame rate : 46.875 FPS (1024 SPF)
Compression mode : Lossy
Delay relative to video : -21 ms
Title : Surround
Language : Polish
Default : Yes
Forced : No [/size]

Uživajte!
Miami.Super.Police.aka.Super.policaja.iz.Miamia.1985.SloSubs.TVRip-R77

Klikni za povečavo!
14-03-2021 11:57 naložil rado77
Sejalci: 4 / Odjemalci: 0 / Velikost: 1.04 GB / Dokončani: 14
Prenesi torrent Poročaj torrent Opis torrenta
Kategorija: FILMI > TVRip

Miami.Super.Police.aka.Super.policaja.iz.Miamia.1985.SloSubs.TVRip-R77


Miami Super Police (1985)
Super policaja iz Miamia


Žanri: Akcija , komedija , kriminalka
Režija:Bruno Corbucci
Scenarij: Bruno Corbucci, Luciano Vincenzoni
Glavne vloge: Terence Hill , Bud Spencer, Ken Ceresne
Glasba avtorja: Carmelo La Bionda, Michelangelo La Bionda
Kinematografija: Silvano Ippoliti
Uredil: Daniele Alabiso
Datum izdaje:11. december 1985 (Milano)
Čas delovanja:96 minut
Država:Italija
Jezik:angleščina
Podnapisi: Slovenski


Zgodba:

Leta 1978 so iz banke v Detroitu ukradli 20 milijonov dolarjev. Enega od roparjev so ujeli, enega našli mrtvega, tretjega pa izginila. Denarja nikoli niso našli. Sedem let pozneje so ujetega roparja izpustili iz zapora. Takoj je odšel v Miami, le da so ga naslednji dan našli mrtvega. Zdaj so agenti FBI Doug Bennet in Steve Forest povabljeni, da raziščejo primer, medtem ko se predstavljajo kot policista v Miamiju. Nekje v Miamiju se skriva tretji ropar s svojimi 20 milijoni dolarjev in ima sedemletno prednost pri oblasti.
To je zadnji film, v katerem nastopa par v 80-ih, Spencer & Hill pa sta se zadnjič združila leta 1994. To je tudi zadnji film, ki ga je par posnel z režiserjem Brunom Corbuccijem.


Tehnične specifikacije:

Informacije o datoteki

Ime datoteke: Miami.Super.Police.aka.Super.policaja.iz.Miamia.1985.SloSubs.TVRip-R77.mp4
Oblika: MP4
Informacije o obliki: QuickTime / MOV
Trajanje: 01: 33: 00.759
Velikost datoteke: 1,04 GB

Video informacije:
Video kodirnik: h264 (h.264 / avc / mpeg-4 avc / mpeg-4 del 10)
Ločljivost: 600 * 480
Širina: 600
Višina: 480
Razmerje zaslona: 5: 4
Hitrost sličic: 25 sličic na sekundo
Video bitna hitrost: 1473 kb / s
Barvni prostor: yuv420p

Zvočne informacije:
Dajalnik zvoka: aac (napredno kodiranje zvoka)
Avdio bitna hitrost: 128 kb / s
Hitrost vzorčenja: 44100 Hz
Zvočni kanali: stereo
Jezik: und
Trajanje: 01: 33: 00.735

Veliko užitkov!
Zbirka.ex_YU.vojnih.filmov.HDTV-WEBrip-R77

Klikni za povečavo!
14-03-2021 11:45 naložil rado77
Sejalci: 3 / Odjemalci: 1 / Velikost: 48.31 GB / Dokončani: 3
Prenesi torrent Poročaj torrent Opis torrenta
Zvrst: Vojni
Kategorija: FILMI > HDRip

Zbirka.ex_YU.vojnih.filmov.HDTV-WEBrip-R77


Zbirka ex_YU vojnih filmov


Filmi na temo partizanskega boja med drugo svetovno vojno so se snemali celotno obdobje socialistične Jugoslavije. Ker je bilo to obdobje razmeroma dolgo in ker so se v tem času močno spreminjali politični,
socialni in estetski konteksti, so bili filmi, ki so nastali v tem času, neogibno raznoliki.
Zdi se, da jugoslovanski partizanski filmi doživljajo svojevrstno renesanso popularnosti: na televizijskih kanalih se pojavljajo partizanske filmske klasike, kot so na primer Bitka na Neretvi, Sutjeska, Užička republika,
Vrhovi Zelengore, Povratak otpisanih in podobne, vse več tovrstnih filmov je mogoče najti na prodajnih policah z DVD-ji, med mladimi, tudi takšnimi, ki socialistične Jugoslavije niti doživeli niso, pa je tudi zaznati vse več zanimanja za partizansko vstajo in filme, ki so bili posneti o tem obdobju jugoslovanske zgodovine.

Glede na to, da so jugoslovanski partizanski filmi pomemben del filmskih zgodovin držav, ki so po razpadu federacije vzniknile na njenih prostorih v devetdesetih letih 20. stoletja, je to vsekakor dobro...
Vir: Peter STANKOVIĆ

Mnogi si želite starejših vojaških (partizanskih) filmov, zato sem se odločil pripraviti zbirko, ki vam lahko služi tudi za arhiv!
V zbirki je 51 filmov. Zagotovo niso vsi, mislim pa, da sem vsaj najodmevnejše vključil v ta paket. Slovenskih filmov namerno nisem dodajal saj si zaslužijo svojo zbirko, ni jih pa prav veliko! Za filme , ki jih ni in bi si jih želeli lahko napišete v komentar in če mi bodo dosegljivi se bodo znašli na tracker-u.


Spisek filmov v zbirki:

1.Abeceda straha (1961).avi
2.Balkan expres 1 [1983] .avi
3.Balkan express 2 (1988).MKV
4.Balkanski Spijun[1984].avi
5.Bitka na Neretvi.SLOSubs.R77.mp4
6.Bombasi (1973) TVrip.avi
7.Bosko Buha (1978).avi
8.Bosko Buha [1978] .mp4
9.Broj 55 2014 1080p HDTV x264.mp4
10.Crveni Udar (1974).avi
11.Daleko je Sunce (1953).avi
12.Desant na Drvar [1963] DVDRip MPEG4.mkv
13.Devet Krug 1960 WebRip 720p x264.mp4
14.Diverzanti (1967).avi
15.Doktor Mladen (1976) .avi
16.Duga.mracna.noc.2004
17.Dvoboj za juznu prugu (1978) .avi
18.Hiljadarka 2015 -.avi
19.Igmanski Mars 1983 SLOSubs .mp4
20.Kad Cujes Zvona (1969) .avi
21.Kako je poceo rat na mom otoku (1996) .AVI
22.Kapetan Lesi (1960) DVDRip XVID.avi
23.Kapetan Lesi 2 -Obracun-(1962).avi
24.Kapetan Mikula Mali (1974).avi
25.Klopka za generala 1971-.avi
26.Kozara (1962).avi
27.Kraljevski Voz (1981).avi
28.Kroz granje nebo (1958) DvDRip H264.avi
29.Krvava Bajka (1969).avi
30.Macak pod sljemom (1962).avi
31.Mirko i Slavko (1973).avi
32.Most (1969) SloSubs -R77.mp4
33.Neprijatelj.2011.HDRip.720p.x264..mp4
34.No Man s Land (2001) SLOSubs - R77.mp4
35.Operacija Beograd (1968).avi
36.Otpisani 1974 H264.avi
37.Partizani 1974 DX50.avi
38.Partizanska eskadrila [1979].mp4
39.Povratak.otpisanih.1976.SloSubs.R77.mp4
40.Prvi Splitski odred 1972 .avi
41.Salas u malom ritu [1976 DX50.mp4
42.Sedamdeset i dva dana [2010] .avi
43.Slavica (1947).avi
44.Sutjeska (1973) SloSubs .mp4
45.Trinaesti Jul (1982).avi
46.Užička.Republika.1976.SloSubs-R77.avi
47.Valter Brani Sarajevo (1972) SloSubs.mp4
48.Veliki Transport (1983).avi
49.Vrhovi.Zelengore.1976
50.Vuk sa Prokletija (1968).avi
51.Zivi i mrtvi [2007].mp4


100

Veliko užitkov!
Vivarium.2019.SLOSubs.720p.BRRip.XviD-N33D3R

Klikni za povečavo!
13-03-2021 18:18 naložil Ziva
Sejalci: 5 / Odjemalci: 0 / Velikost: 3.05 GB / Dokončani: 21
Prenesi torrent Poročaj torrent Opis torrenta NFO
Kategorija: FILMI >  BRRip



Naziv: Vivarium.2019.SLOSubs.720p.BRRip.XviD-N33D3R
Source: Vivarium 2019 720p BluRay DD5.1 x264-LoRD
Velikost ...........: 3.05 GB
Dolžina ............: 98 Minut
Video ...............: 3973 Kbps | 1280x536 | 23,976 fps
Zvok .................: DD AC-3 @448 kbps 5.1 Ch
Kodek...............: XviD
Zvrst………….....: Misterij | Grozljivka | ZF | Triler
Jezik ................: Angleški
Podnapisi.........: Slovenski (Custom SRT)
Prevod: denycare - HVALA !!!
Režija.........: Lorcan Finnegan
Scenarij......: Lorcan Finnegan, Garret Shanley


Imogen Poots ... Gemma
Danielle Ryan ... School Mom
Molly McCann ... Molly
Jesse Eisenberg ... Tom
Jonathan Aris ... Martin
Côme Thiry ... Baby
Senan Jennings ... Young Boy
Éanna Hardwicke ... Older Boy (as Eanna Hardwicke)
Olga Wehrly ... Crying Woman


Vivarij - okolje ali prostor, prilagojen za gojenje živali
v polnaravnih pogojih z namenom opazovanja in preučevanja.
Prav v njem pa se znajde mladi par, ki išče svoj skupni dom,
potem ko odide k agentu za nepremičnine, ki mu predstavi
novo predmestno naselje, ki naj bi se hitro prodajalo.
Iz radovednosti ta par odide na ogled tega naselja,
ki se prelevi v prisilno življenje v soseski brez izhoda.




Military.Wives.2019.SLOSubs.BRRip.XviD-DrSi(2)

Klikni za povečavo!
13-03-2021 18:10 naložil Ziva
Sejalci: 1 / Odjemalci: 0 / Velikost: 2.61 GB / Dokončani: 7
Prenesi torrent Poročaj torrent Opis torrenta NFO
Zvrst: Drama | Glasbeni | Komedija
Kategorija: FILMI >  BRRip



Naziv: Military.Wives.2019.SLOSubs.BRRip.XviD-DrSi
Source: Military.Wives.2019.1080p.BluRay.X264-AMIABLE
Leto izida ........: 2019
Velikost ...........: 2,60 GB
Dolžina ............: 118 Minut
Video ...............: 2858 Kbps | 720x304 | 23,976 fps
Zvok .................: Dolby Digital AC3 5.1 @ 448 Kbps
Kodek.................: XviD
Zvrst………….: Drama | Komedija | Glasbeni
Država .............: VB
Jezik ................: Angleški
Podnapisi…….: Slovenski (RETAiL)
Prevod: Blitz Film
TVRip: Toyan
Za HD priredil in uredil: metalcamp
Tehnična obdelava: DVD Rippers Slovenija
IMDb Ocena ...: 6.5/10 (3,521 glasov)
Režija.........: Peter Cattaneo
Scenarij......: Rachel Tunnard, Rosanne Flynn


Kristin Scott Thomas ... Kate
Sharon Horgan ... Lisa
Emma Lowndes ... Annie
Gaby French ... Jess
Lara Rossi ... Ruby
Amy James-Kelly ... Sarah
India Ria Amarteifio ... Frankie
Greg Wise ... Richard
Jason Flemyng ... Crooks
Laura Checkley ... Maz


Navdihujoča zgodba o prijateljstvu, ljubezni in podpori od doma. Skupina žena,
katerih partnerji služijo v Afganistanu, se zberejo in ustanovijo pravi zbor
vojaških žena, kjer si pomagajo skozi najtežje trenutke v življenju in postanejo
medijska senzacija ter globalno gibanje.




One.Day.2011.SloSubs.1080p.BluRay.x265-R77

Klikni za povečavo!
13-03-2021 17:31 naložil rado77
Sejalci: 3 / Odjemalci: 0 / Velikost: 1.67 GB / Dokončani: 5
Prenesi torrent Magnet Link Poročaj torrent Opis torrenta
Zvrst: Drama | Romantični
Kategorija: FILMI > BluRay-1080

[align=center]One.Day.2011.SloSubs.1080p.BluRay.x265-R77


EN DAN

ONE DAY, 2011


Režija: Lone Scherfig
Žanr: Drama, Romanca
Igrajo: Anne Hathaway, Jim Sturgess, Tom Mison, Jodie Whittaker, Tim Key, Rafe Spall, Joséphine de La Baume, Patricia Clarkson
Podnapisi: Slovenski


O filmu:

Dan, ki se začne v zgodnjih jutranjih urah leta 1988, ko glavna junaka Dexter in Emma proslavljata podelitev mature, je 15.julij. Vsak nov dan je novo leto in njuno življenje se za stopnjo ali dve premakne v odraslost, vse do sedanjosti. Emma (Anne Hathaway) je očitno in povsem zaljubljena v Dexterja (Jim Sturgess), a ker je on poln samega sebe in ženskar in Emma ne želi biti zgolj ena njegovih trofej, postaneta prijatelja. Trudita si stati ob strani v dobrem in slabem, saj za njunim prijateljstvom tli iskra, ki je preskočila tistega prvega 15. julija 1988.
Način pripovedovanja zgodbe z enoletnimi preskoki je zanimiv in dobro narejen, drobni pogledi v življenja junakov pa kljub vsakoletnim spremembam razkrivajo delce njihove biti. Hkrati film (in verjetno tudi knjiga, na kateri temelji) gledalcu pušča prostor za ustvarjanje medletnih zgodb in motivov junakov. Tako Hathawayeva kot Sturgess svoje delo odlično opravita, največja pohvala pa vsekakor gre danski režiserki Lone Scherfig (Šola za življenje, Italijanščina za začetnike), ki s subtilnostjo in tankočutnostjo združi zgodbo teh poletnih dni skozi njuni življenji.


Tehnične specifikacije:

File Information
File Name:One.Day.2011.SloSubs.1080p.BluRay.x265-R77.mp4
Format:MP4
Format info: QuickTime / MOV
Duration:01:47:28.495
File size:1,67 GB

Video Information:
Video encoder:hevc(h.265 / hevc (high efficiency video coding))
Resolution:1920 * 816
Width:1920
Height:816
Display aspect ratio: 40:17
Frame rate:98 fps
Video bit rate:1999 kb/s
Color space: yuv420p10le(tv)

Audio Information:
Audio Encoder:aac (advanced audio coding)
Audio bit rate:224 kb/s
Sample rate:48000 Hz
Audio channels: 5.1
Language:eng
Duration:01:47:28.452


Veliko užitkov!
Gori.gospodicna.aka.HOŘi.MÁ.PANENKO.1962.SloSubs.TVRip.R77

Klikni za povečavo!
13-03-2021 16:52 naložil rado77
Sejalci: 1 / Odjemalci: 0 / Velikost: 1.6 GB / Dokončani: 3
Prenesi torrent Poročaj torrent Opis torrenta
Zvrst: Drama | Komedija
Kategorija: FILMI > TVRip

Gori.gospodicna.aka.HOŘi.MÁ.PANENKO.1962.SloSubs.TVRip-R77


HOŘi, MÁ PANENKO 1967

Gori, gospodična



Obdelava: Restavrirani film
Žanri: Komedija, drama
Režiser:Miloš Forman
Producent:Rudolf Hájek
Scenarist: Miloš Forman, Jaroslav Papoušek, Ivan Passer, Václav Šašek
Igralci:Jan Vostrčil
Glasba:Karel Mareš
Direktor fotografijeMiroslav Ondříček
MontažaMiroslav Hájek
Datum izida: 15. december 1967
Dolžina: 71 minut
Država:Češkoslovaška
Jezik:češčina
Podnapisi: Slovenski


Biser češkega novega vala, provokativna satira socialistične stvarnosti. Režiser Miloš Forman je moral zaradi filma zapustiti državo. V majhnem kraju gasilsko društvo pripravlja veselico. Na njej bodo podelili častno priznanje nekdanjemu predsedniku, priredili lepotno tekmovanje in odigrali srečelov. Dekleta so preveč sramežljiva, da bi se razkazovala, na odločitev o zmagovalki poskušajo vplivati družinski člani, nagrade za srečelov pa ves čas izginjajo. Za nameček v vasi zagori domačija. In ker so vsi gasilci na veselici, z gašenjem požara začnejo prepozno, zato kmetija zgori do tal. Nekdo ukrade prav vse loterijske dobitke, celo častno gasilsko sekirico, s katero namerava vodstvo gasilcev nagraditi svojega nekdanjega predsednika. Zadnji film Miloša Formana, posnet na Češkoslovaškem, je bil v tej državi od nastanka leta 1967 do leta 1988 prepovedan, leta 1989 pa je obveljal za mojstrovino, brezkompromisno satiro komunistične družbe.


Miloš Forman:


Miloš Forman, ameriški filmski režiser, producent in scenarist češkega rodu, * 18. februar 1932, Časlav, Češkoslovaška, † 13. april 2018, Warren, Connecticut, Združene države Amerike.



Tehnične specifikacije:

Informacije o datoteki
Ime datoteke: Gori.gospodicna.aka.HOŘi.MÁ.PANENKO.1962.SloSubs.TVRip.R77.mp4
Oblika: MP4
Informacije o obliki: QuickTime / MOV
Trajanje: 01: 10: 09.806
Velikost datoteke: 1,60 GB

Video informacije:
Video kodirnik: h264 (h.264 / avc / mpeg-4 avc / mpeg-4 del 10)
Ločljivost: 1280 * 720
Širina: 1280
Višina: 720
Razmerje zaslona: 16: 9
Hitrost sličic: 25 sličic na sekundo
Video bitna hitrost: 3135 kb / s
Barvni prostor: yuv420p

Zvočne informacije:
Dajalnik zvoka: aac (napredno kodiranje zvoka)
Avdio bitna hitrost: 127 kb / s
Hitrost vzorčenja: 44100 Hz
Zvočni kanali: stereo
Jezik: und
Trajanje: 01: 10: 09.782

VELIKO UŽITKOV!
Dobrodošli.pri.Hartmannovih.aka.WILLKOMMEN.BEI.DEN.HARTMANNS.2016.SloSubsHDTVRip.x264-R77

Klikni za povečavo!
13-03-2021 16:42 naložil rado77
Sejalci: 1 / Odjemalci: 0 / Velikost: 1.6 GB / Dokončani: 7
Prenesi torrent Poročaj torrent Opis torrenta
Zvrst: Drama | Komedija
Kategorija: FILMI > HDRip

Dobrodošli.pri.Hartmannovih.aka.WILLKOMMEN.BEI.DEN.HARTMANNS.2016.SloSubsHDTVRip.x264-R77


WILLKOMMEN BEI DEN HARTMANNS

Dobrodošli pri Hartmannovih 2016


Žanri: Komedija , drama
Režija:Simon Verhoeven
Scenarij:Simon Verhoeven
Igralci:Senta Berger, Heiner Lauterbach, Palina Rojinski, Elyas M'Barek, Florian David Fitz, Ulrike Kriener, Uwe Ochsenknecht, Jaymes Butler, Samir Fuchs, Eric Kabongo, Adrian Can, Eisi Gulp, Thilo Prothmann, Marinus Hohmann
Država:Nemčija
Podnapisi: Slovenski

Zgodba:

Družino Hartmann čakajo turbulentni časi, ko se mama Angelika (Senta Berger) po obisku begunskega doma odloči, da sprejme Diallo (Eric Kabongo), enega od prebivalcev, proti želji moža Richarda (Heiner Lauterbach). In kmalu se bo hiša še naprej polnila. Ker se hči Sophie (Palina Rojinski), brezciljna stalna študentka, ki beži pred občudovalcem, in sin, ki je nagnjen k izgorelosti, Philipp (Florian David Fitz) in vnuk Basti (Marinus Hohmann) preselita nazaj domov. Medtem ko so potomci kmalu ugotovili, da je zakonska zveza staršev v hudi stiski, so neznane razmere v njihovi hiši pomenile, da je družina doživela veliko zmede in pretresov - Hartmannovi so podobni preostali državi.


Tehnične specifikacije:

Video informacije:
Video kodirnik: h264 (h.264 / avc / mpeg-4 avc / mpeg-4 del 10)
Ločljivost: 1280 * 720
Širina: 1280
Višina: 720
Razmerje zaslona: 16: 9
Hitrost sličic: 25 sličic na sekundo
Video bitna hitrost: 1917 kb / s
Barvni prostor: yuv420p

Zvočne informacije:
Dajalnik zvoka: aac (napredno kodiranje zvoka)
Avdio bitna hitrost: 128 kb / s
Hitrost vzorčenja: 48000 Hz
Zvočni kanali: stereo
Jezik: Nemški
Trajanje: 01: 51: 33.650
Veliko užitkov!
And.Then.We.Danced.2019.1080p.BluRay.x265-R77

Klikni za povečavo!
13-03-2021 16:03 naložil rado77
Sejalci: 2 / Odjemalci: 0 / Velikost: 1.75 GB / Dokončani: 2
Prenesi torrent Magnet Link Poročaj torrent Opis torrenta
Zvrst: Drama | Romantični
Kategorija: FILMI > BluRay-1080

[align=center]And.Then.We.Danced.2019.SrbSubs.1080p.BluRay.x265-R77


[color=#FF0000]And Then We Danced (2019)

IN POTEM SMO PLESALI


[size=5]Strastna zgodba o polnoletnosti, postavljena med konservativne okvire sodobnega Tbilisija, spremlja Merab, tekmovalno plesalko ...

Igralci: Levan Gelbakhiani, Bachi Valishvili, Ana Javakishvili, Kakha Gogidze, Ana Makharadze, Nino Gabisonia, Levan Gabrava, Dachi Babunashvili, Saba Abashidze, Giorgi Aladashvili, Soso Abramishvili, Salome Nadaraia, Tsitsino Kobiahhazhazz Mida

Žanr: Drama, romanca
Režija in scenarij: Levan Akin
Država: Švedska | Gruzija | Francija
Jezik: Gruzijski
Datum izdaje:13. september 2019 (Švedska)
[b]Podnapisi: Srbski
Izvajanje: 113 min
Barva: Barva in Črno in bela (arhivski posnetki)

Zgodba:

Strastna zgodba o ljubezni in osvoboditvi je nastala sredi konzervativnih meja sodobne gruzijske družbe. Nato pa smo plesali, sledi Merabu, predanemu plesalcu, ki že leta trenira s svojo partnerico Mary za mesto v nacionalnem gruzijskem ansamblu. Prihod drugega moškega plesalca, nadarjenega Iraklija s popolno formo in opremljenega z uporniško žilico, Meraba spravi iz ravnotežja, kar sproži tako močno rivalstvo kot romantično željo, zaradi katere lahko tvega svojo plesno prihodnost in tudi odnose z Marijo in njegovo družino.

Tehnične specifikacije:

Informacije o datoteki
Ime datoteke: And.Then.We.Danced.2019.1080p.BluRay.x265-R77.mp4
Oblika: MP4
Informacije o obliki: QuickTime / MOV
Trajanje: 01: 53: 04.155
Velikost datoteke: 1,75 GB

Video informacije:
Video kodirnik: hevc (h.265 / hevc (visoko učinkovito video kodiranje))
Ločljivost: 1920 * 1080
Širina: 1920
Višina: 1080
Razmerje zaslona: 16: 9
Hitrost sličic: 98 sličic na sekundo
Video bitna hitrost: 1989 kb / s
Barvni prostor: yuv420p10le (tv)

Zvočne informacije:
Zvočni kodirnik: aac (napredno kodiranje zvoka)
Avdio bitna hitrost: 224 kb / s
Hitrost vzorčenja: 48000 Hz
Zvočni kanali: 5.1
Jezik: gruzijski
Trajanje: 01: 53: 04.112


[size=7][b][color=#FF6600]Uživajte!
Kosti.2020.S01.1080p.HDTV.x264-R77

Klikni za povečavo!
11-03-2021 11:01 naložil rado77
Sejalci: 1 / Odjemalci: 0 / Velikost: 7.11 GB / Dokončani: 8
Prenesi torrent Poročaj torrent Opis torrenta
Zvrst: Drama | Kriminalka | Triler
Kategorija: FILMI > TV - Serija

Kosti.2020.S01.1080p.HDTV.x264-R77

KOSTI

TV Serija 2020


Tri leta po hvaljeni "Mesi" na male zaslone prihaja drugi del načrtovane trilogije scenarista Nikole Pejakovića in režiserja Saše Hajdukovića. Pomembna opomba: v središču mojega pregleda so prve tri epizode serije "Kosti", v katerih so predstavljeni glavni junaki in zaplet, ki skupaj prinašajo napoved, kaj bo sledilo v preostalih dveh tretjinah sezone.
Pejaković in Hajduković predstavljala Meso in Kosti kot zaokroženo celoto, ki povezuje zločinsko razpoloženje in prizorišče, ki pa ju je mogoče spremljati tudi popolnoma neodvisno.
Serija Kosti prinaša zgodbo o Banjaluki, ki jo razjeda korupcija na vseh ravneh. Igrajoč se z naslovom sezone, Pejakovič dva glavna junaka imenuje z istim imenom - Kosta. Kosta Govoruša (igra Jovo Maksić), begunec iz Krajine, se trudi, da bi z najtežjim fizičnim delom držal glavo nad vodo.
Vzhajajoči politik Kosta Gajić (Ljubiša Savanović) in njegova odtujena žena Zorica (Milica Janevski), direktorica marketinške agencije, spadata med banjaluško elito. Usoda dveh Kost se seka po krvavem maščevanju na koncu tretje epizode (ključna beseda: kladivo), ki bo pretresla vse junake in vplivala na njihovo usodo...
Serija odlično in realno predstavi dejansko stanje v regiji brez olepševanja in neresnične dramatizacije!
Izkoristite priložnost, da to serijo doživite, Kosta in Kosti si vsekakor zaslužita vašo pozornost.

IMDB: ocena- 8.9 Link: https://www.imdb.com/title/tt10451240/


Režija: Saša Hajduković
Scenarij: Nikola Pejaković
Igrajo: Jovo Maksic, Ljubisa Savanovic, Nikola Pejakovic
Žanri: Drama, kriminalka, triler
Država: Bosna in Hercegovina | Srbija
Jezik: Srbščina | angleščina
Datum izdaje: 2020 (Srbija)
Število sezon:1
Število epizod:10
Čas trajanja:45 minut


Tehnične specifikacije:

Complete name : Kosti.2020.S01.1080p.HDTV.x264-R77
Format : MPEG-4
Format profile : Base Media
Codec ID : isom (isom/iso2/avc1/mp41)
File size : 962 MiB
Duration : 46 min 20 s
Overall bit rate mode : Constant
Overall bit rate : 2 904 kb/s
Writing application : Lavf58.12.100
Comment : by darks

Video
ID : 1
Format : AVC
Format/Info : Advanced Video Codec
Format profile : Main@L4
Format settings : CABAC / 1 Ref Frames
Format settings, CABAC : Yes
Format settings, Reference frames : 1 frame
Format settings, GOP : M=1, N=25
Codec ID : avc1
Codec ID/Info : Advanced Video Coding
Duration : 46 min 20 s
Source duration : 57 s 159 ms
Bit rate mode : Constant
Bit rate : 136 Mb/s
Nominal bit rate : 2 800 kb/s
Width : 1 920 pixels
Height : 1 080 pixels
Display aspect ratio : 16:9
Frame rate mode : Variable
Frame rate : 1 215.910 FPS
Minimum frame rate : 12.500 FPS
Maximum frame rate : 159.210 FPS
Original frame rate : 25.000 FPS
Color space : YUV
Chroma subsampling : 4:2:0
Bit depth : 8 bits
Scan type : Progressive
Bits/(Pixel*Frame) : 0.054
Stream size : 928 MiB (96%)
Source stream size : 928 MiB (96%)
mdhd_Duration : 2780098
Codec configuration box : avcC

Audio
ID : 2
Format : AAC LC
Format/Info : Advanced Audio Codec Low Complexity
Codec ID : mp4a-40-2
Duration : 46 min 20 s
Bit rate mode : Constant
Bit rate : 99.3 kb/s
Channel(s) : 2 channels
Channel layout : L R
Sampling rate : 48.0 kHz
Frame rate : 46.875 FPS (1024 SPF)
Compression mode : Lossy
Stream size : 32.9 MiB (3%)
Language : Serbian
Default : Yes
Alternate group : 1

VELIKO UŽITKOV!
Deja.Vu.2006.MultiSub.PAL.DVDR

Klikni za povečavo!
07-03-2021 16:29 naložil System
Sejalci: 1 / Odjemalci: 0 / Velikost: 4.35 GB / Dokončani: 7
Prenesi torrent Poročaj torrent Opis torrenta
Kategorija: FILMI > DVD
Anonimen nalagalec

Deja Vu (2006)


-------------
INFO:
-------------
Source..........: DVD
Format..........: 16:9
Standard........: PAL
Release Size....: 4,35 GB
iMDB Link.......: KLIK
iMDB Rating.....: 7,1/10 (294.438)
Genre...........: Action, Crime, Sci-Fi, Thriller
Country.........: USA/ UK
Language........: English
Video...........: /
Audio...........: AC3 5.1-ch English
Subs............: English, French, Slovenian, Spanish
Extras..........: yes
Regija..........: Prosto
Runtime.........: 126 min
Čas predvajanja.: 2:06:14 h

-------------
IGRALCI:
-------------
Denzel Washington ... Doug Carlin
Paula Patton ... Claire Kuchever
Val Kilmer ... Agent Pryzwarra
Jim Caviezel ... Carroll Oerstadt
Adam Goldberg ... Denny
Elden Henson ... Gunnars
Erika Alexander ... Shanti
Bruce Greenwood ... Jack McCready
Rich Hutchman ... Agent Stalhuth
Matt Craven ... Minuti
Donna W. Scott ... Beth
Elle Fanning ... Abbey
Brian Howe ... Medical Examiner
Enrique Castillo ... Claire's Father
Mark Phinney ... Agent Donnelly

-------------
OPIS:
-------------
Agent Doug mora raziskati razbitine, ki jih je povzročil grozljiv bombni napad,
toda nepričakovano odkrije, da skrivni vladni oddelek premore tehnologijo,
s katero lahko vidijo v preteklost in z dejanji, ki jih v sedanjosti razumemo
kot Deja Vu, vplivajo na prihodnost. Doug je prisiljen v zapleteno in napeto
dirko s časom, v kateri so na preizkušnjo postavljena tudi njegova ljubezenska
čustva, hkrati pa je od njega odvisna usoda številnih nedolžnih ljudi...


Werk.ohne.Autor.aka.Never.Look.Away.2018.SLOSubs.BRRip.XviD-DrSi

Klikni za povečavo!
06-03-2021 10:09 naložil Ziva
Sejalci: 1 / Odjemalci: 0 / Velikost: 4.41 GB / Dokončani: 8
Prenesi torrent Poročaj torrent Opis torrenta NFO
Kategorija: FILMI >  BRRip



Naziv: Werk.ohne.Autor.aka.Never.Look.Away.2018.SLOSubs.BRRip.XviD-DrSi
Source: Never.Look.Away.2018.720p.BluRay.x264-CiNEFiLE
Leto izida ........: 2018
Velikost ...........: 4,40 GB
Dolžina ............: 189 Minut
Video ...............: 2884 Kbps | 720x390 | 23,976 fps
Zvok .................: Dolby Digital AC3 5.1 @ 448 Kbps
Kodek.................: XviD
Zvrst………..….: Biografski | Drama | Triler | Vojni | Romantični
Država .............: Nemčija | Rusija
Jezik ................: Nemški
Podnapisi .........: Slovenski, Hrvaški, Srbski (vsi RETAiL)
Prevod: Mediatranslations
Za HD priredil in uredil: metalcamp
Tehnična obdelava: DVD Rippers Slovenija
IMDb Ocena ...: 7,7/10 (16.513 glasov)
Režija.........: Florian Henckel von Donnersmarck
Scenarij.....: Florian Henckel von Donnersmarck


Tom Schilling ... Kurt Barnert
Sebastian Koch ... Professor Carl Seeband
Paula Beer ... Ellie Seeband
Saskia Rosendahl ... Elisabeth May
Oliver Masucci ... Professor Antonius van Verten
Hanno Koffler ... Günther Preusser
Cai Cohrs ... Kurt Barnert 6 Jahre
Evgeniy Sidikhin ... NKWD Major Murawjow
Ulrike C. Tscharre ... Frau Hellthaler
Jörg Schüttauf ... Johann Barnert


Zgodba zgodovinske drame "Delo brez avtorja", ki so jo navdihnili resnični dogodki,
se odvija skozi tri rodove v nemški zgodovini in spremlja mladega študenta umetnosti
Kurta (Tom Schilling), ki se zaljubi v svojo sošolko Ellie (Paula Beer). Njen oče,
slavni zdravnik prof. Seeband (Sebastian Koch), ni navdušen nad hčerino izbiro in
sklene uničiti njun odnos. Nihče od njih ne ve, da so se njihova življenja nepovratno
prepletla zaradi grozljivega zločina, ki ga je Seeband zagrešil pred nekaj desetletji.



Wrong Turn 2021 SrbSubs 720p BRRip XviD AC3 XVID

Klikni za povečavo!
06-03-2021 10:00 naložil Ziva
Sejalci: 3 / Odjemalci: 0 / Velikost: 3.42 GB / Dokončani: 17
Prenesi torrent Poročaj torrent Opis torrenta NFO
Zvrst: Grozljivka | Triler
Kategorija: FILMI >  BRRip



Wrong Turn 2021 720p BRRip XviD AC3 XVID
Language(s): English
Size: 3.41 GB | Duration: 1hr 50mn | Container: AVI
Audio: AC-3 | 640 Kbps | 6 Channels
Video: XviD | 3791 Kbps | 1280 x 538
Genre: Horror | Thriller


Matthew Modine, Emma Dumont, Charlotte Vega


Friends hiking the Appalachian Trail are confronted by 'The Foundation', a community of people who have lived in the mountains for hundreds of years.

Mortal.2020.SLOSubs.BRRip.XviD-N33D3R

Klikni za povečavo!
06-03-2021 09:43 naložil Ziva
Sejalci: 3 / Odjemalci: 0 / Velikost: 2.38 GB / Dokončani: 27
Prenesi torrent Poročaj torrent Opis torrenta NFO
Kategorija: FILMI >  BRRip



Naziv: Mortal.2020.SLOSubs.BRRip.XviD-N33D3R
Source: Mortal.2020.1080p.BluRay.DD+5.1.x264-iFT
Velikost ...........: 2.38 GB
Dolžina ............: 104 Minut
Video ...............: 2799 Kbps | 720x302 | 23,976 fps
Zvok .................: DD AC-3 @448 kbps 5.1 Ch
Kodek...............: XviD
Zvrst………….....: Akcijski | Pustolovski | Fantazijski
Jezik ................: Norveški | Angleški
Podnapisi.........: Slovenski (Custom SRT)
Prevod: MARINKO - HVALA !!!
iMDB Rating ....: 5,9/10 (5.274 glasov)
Režija.........: André Øvredal
Scenarij......: André Øvredal, Norman Lesperance


Nat Wolff ... Eric
Priyanka Bose ... Hathaway
Iben Akerlie ... Christine
Ania Nova ... Ole's Sister (as Anna Sedunova)
Ravdeep Singh Bajwa ... Radiologist
Arthur Hakalahti ... Ole
Sunniva Lind Høverstad ... Crying Woman
Oddrun Valestrand ... Hospital Doctor
Per Frisch ... Henrik
Per Egil Aske ... Bjørn


Spremljamo nenavadno zgodbo o mladeniču Ericu, ki odkrije, da ima božje moči iz starodavne norveške mitologije. Medtem ko se skriva v divjini zahodne Norveške, nenamerno ubije najstnika, zato ga kmalu za tem aretirajo. Med zaslišanjem spozna Christine, mlado psihologinjo, ki poskuša ugotoviti, kaj se je v resnici zgodilo. Verjame Ericu in čuti sočutje do njega. Vest o nenavadnem dogodku pa prispe tudi na ameriško veleposlaništvo, kjer so odločeni, da ga odpeljejo iz države. Med begom pred oblastjo tako Eric končno odkrije, kdo je v resnici.




Ansambel Franca Potočarja.izbor.MP3.MP4.R77

Klikni za povečavo!
01-03-2021 10:54 naložil System
Sejalci: 1 / Odjemalci: 0 / Velikost: 409.93 MB / Dokončani: 7
Prenesi torrent Poročaj torrent Opis torrenta
Zvrst: Glasbeni
Kategorija: GLASBA > Video
Anonimen nalagalec

Ansambel Franca Potočarja.izbor.MP3.MP4.R77

Ansambla Franca Potočarja
Želja uporabnika: silvoa
Komponist in dolgoletni vodja Ansambla Franca Potočarja.

Njegova glasbena pot se je začela leta 1960, ko je navdušen oprtal očetovo harmoniko. Vredno je omeniti, da je bil Francev oče, prav tako Franc Potočar, znan dolenjski ohcetni godec in hkrati velik vzornik Lojzetu Slaku.
Čas izvajanja: 1 h 34 min 45 s



Tehnične specifikacije:
MP3:
Audio
Format : MPEG Audio / MP3
Format version : Version 1
Format profile : Layer 3
Format settings : Joint stereo
Bit rate mode : Constant
Bit rate : 160 kb/s
Channel(s) : 2 channels
Sampling rate : 44.1 kHz
Frame rate : 38.281 FPS (1152 SPF)
Compression mode : Lossy
Stream size : Audio
omplete name : Ansambel Franca Potočarja.izbor.MP3.MP4.R77
Format : MPEG-4
Format profile : Base Media / Version 2
Codec ID : mp42 (isom/mp42)
File size : 90.2 MiB
Duration : 1 h 34 min 45 s
Overall bit rate mode : Variable
Overall bit rate : 218 kb/s
Encoded date : UTC 2018-11-12 18:35:33
Tagged date : UTC 2018-11-12 18:35:33
Video
ID : 1
Format : AVC
Format/Info : Advanced Video Codec
Format profile : Baseline@L1.3
Format settings : 1 Ref Frames
Format settings, CABAC : No
Format settings, Reference frames : 1 frame
Format settings, GOP : M=1, N=60
Codec ID : avc1
Codec ID/Info : Advanced Video Coding
Duration : 57 min 45 s
Duration_LastFrame : -1 ms
Bit rate : 120 kb/s
Width : 342 pixels
Height : 224 pixels
Display aspect ratio : 3:2
Frame rate mode : Constant
Frame rate : 29.818 FPS
Color space : YUV
Chroma subsampling : 4:2:0
Bit depth : 8 bits
Scan type : Progressive
Bits/(Pixel*Frame) : 0.052
Stream size : 49.5 MiB (55%)
Title : ISO Media file produced by Google Inc. Created on: 11/12/2018.
Encoded date : UTC 2018-11-12 18:35:33
Tagged date : UTC 2018-11-12 18:35:33
Codec configuration box : avcC
Audio
ID : 2
Format : AAC LC
Format/Info : Advanced Audio Codec Low Complexity
Codec ID : mp4a-40-2
Duration : 1 h 34 min 45 s
Bit rate mode : Variable
Bit rate : 96.0 kb/s
Channel(s) : 2 channels
Channel layout : L R
Sampling rate : 44.1 kHz
Frame rate : 43.066 FPS (1024 SPF)
Compression mode : Lossy
Stream size : 39.7 MiB (44%)
Title : ISO Media file produced by Google Inc. Created on: 11/12/2018.
Encoded date : UTC 2018-11-12 18:35:33
Tagged date : UTC 2018-11-12 18:35:33
Uživajte!
Cosmoball.2020.SLOSubs.BRRip.XviD-DrSi(1)

Klikni za povečavo!
26-02-2021 08:38 naložil Ziva
Sejalci: 3 / Odjemalci: 0 / Velikost: 2.6 GB / Dokončani: 24
Prenesi torrent Poročaj torrent Opis torrenta NFO
Zvrst: Akcija | Sportni | Z.F.
Kategorija: FILMI >  BRRip



Naziv: Cosmoball.aka.Vratar.galaktiki.2020.SLOSubs.BRRip.XviD-DrSi
Source: Cosmoball.2020.1080p.BluRay.DTS.x264-UTT
Leto izida ........: 2020
Velikost ...........: 2,60 GB
Dolžina ............: 117 Minut
Video ...............: 2817 Kbps | 720x304 | 23,976 fps
Zvok .................: Dolby Digital AC3 5.1 @ 448 Kbps
Kodek.................: XviD
Zvrst………..….: Akcija | ZF | Športni
Država .............: Rusija
Jezik ................: Rusija
Podnapisi .........: Slovenski, Hrvaški, Srbski (vsi RETAiL)
Prevod: Mediatranslations
Za HD priredil in uredil: metalcamp
Tehnična obdelava: DVD Rippers Slovenija
Režija.........: Dzhanik Fayziev
Scenarij.....: Dzhanik Fayziev, Twister Murchison


Viktoriya Agalakova ... Natasha
Georgiy Bestaev ... Molodezh na tribune
Khristina Blokhina ... Amazonka Vo
Valeriya Bukhina ... Amazonka Bu
Wolfgang Cerny ... Borodach s Tayms-skver
Aleksandra Cherkasova ... Mama devochki s respiratorom
Artyom Chetverikov ... Drug muzhika s binoklem
Ekaterina Dar ... Fanatka 'Pele'
Olga Degtyaryova ... Mama
Valeriya Dmitrieva ... Molodezh na tribuneĐ


Nad Zemljo lebdi ogromno vesoljsko plovilo, kjer se med ljudmi in vesoljci odvija
vznemirljiva igra, imenovana vesoljski nogomet.

Galaktične vojne so sprožile niz katastrofalnih dogodkov po vsem svetu in povzročile
uničenje Lune, človeštvo pa se mnoga leta pozneje trudi preživeti z edinim virom
zabave: vesoljskim nogometom, vznemirljivo medgalaktično igro med ljudmi in vesoljci
v velikanskem nezemeljskem plovilu, ki lebdi v zraku. Mladenič z neizmernimi neznanimi
močmi se pridruži moštvu vročekrvnih super junakov v zameno za zdravilo za usodno
bolezen njegove matere. Štirje Zemljani se bodo morali v spektakularni igri boriti
ne le za čast svojega planeta, temveč se bodo tudi zoperstavili grožnji, kakršne še
ni bilo, in se soočili s svojo usodo.