A
B
C
D
E
F
G
H
I
J
K
L
M
N
O
P
Q
R
S
T
U
V
W
X
Y
Z
0-9
Private.Peacefull.2012.SRBSubs.DVDRip.Xvid.AC3-R77

Klikni za povečavo!
25-12-2020 14:42 naložil rado77
Sejalci: 3 / Odjemalci: 0 / Velikost: 1.39 GB / Dokončani: 6
Prenesi torrent Poročaj torrent Opis torrenta
Zvrst: Drama | Romantični | Vojni
Kategorija: FILMI > DVDRip

Private.Peacefull.2012.SRBSubs.DVDRip.Xvid.AC3-R77


Private Peaceful (2012)
Moj brat Charlie
RAZDELJENI Z LJUBEZNIJO - ZDRUŽENI Z VOJNO.


Zgodba:
Private Peaceful podrobno opisuje krhko življenje in ljubezen Tomma in Charlieja - dveh mladih bratov - in njune revne družine Devonshire od leta 1909 do leta 1916, ko izbruh vojne uniči njihovo idilo v državi. Oba se združita (ena mlajša) in za seboj pusti čudovito Molly, ki je ljubezen obeh njunih življenj. Mladi moški preživijo plinske napade, obstreljevanje, nemške čete in grozljivo smrt svojih bližnjih prijateljev. Toda ena stvar, ki ji ne morejo ubežati, je povzetek vojaške pravičnosti. Spisal Guy de Beaujeu
Žanri: Drama, Romanca, Vojna
Direktor: Pat O'Connor
Pisatelji: Michael Morpurgo (roman), Simon Reade (scenarij)
Igrajo: George MacKay , Hero Fiennes Tiffin , Jack O'Connell
Podrobnosti:
Država: Združeno kraljestvo
Jezik: angleščina
Datum izdaje:12. oktober 2012 (Združeno kraljestvo)
Poznan tudi kot: Zasebno mirno
Lokacije snemanja: Suffolk, Anglija, Združeno kraljestvo
Podnapisi: Srbski
Tehnične specifikacije:
Complete name : Private.Peacefull.2012.DVDRip.Xvid.AC3-R77\Private Peacefull 2012 DVDRip Xvid AC3-R77.avi
Format : AVI
Format/Info : Audio Video Interleave
File size : 1.39 GiB
Duration : 1 h 38 min
Overall bit rate : 2 030 kb/s
Video
ID : 0
Format : MPEG-4 Visual
Format profile : Advanced Simple@L5
Format settings : BVOP2 / QPel
Format settings, BVOP : 2
Format settings, QPel : Yes
Format settings, GMC : No warppoints
Format settings, Matrix : Default (H.263)
Codec ID : XVID
Codec ID/Hint : XviD
Duration : 1 h 38 min
Bit rate : 1 574 kb/s
Width : 720 pixels
Height : 384 pixels
Display aspect ratio : 1.85:1
Frame rate : 25.000 FPS
Color space : YUV
Chroma subsampling : 4:2:0
Bit depth : 8 bits
Scan type : Progressive
Compression mode : Lossy
Bits/(Pixel*Frame) : 0.228
Stream size : 1.08 GiB (78%)
Writing library : XviD 1.2.1 (UTC 2008-12-04)
Audio
ID : 1
Format : AC-3
Format/Info : Audio Coding 3
Commercial name : Dolby Digital
Codec ID : 2000
Duration : 1 h 38 min
Bit rate mode : Constant
Bit rate : 448 kb/s
Channel(s) : 6 channels
Channel layout : L R C LFE Ls Rs
Sampling rate : 48.0 kHz
Frame rate : 31.250 FPS (1536 SPF)
Compression mode : Lossy
Stream size : 315 MiB (22%)
Alignment : Aligned on interleaves
Interleave, duration : 64 ms (1.60 video frames)
Interleave, preload duration : 192 ms
Title : VTS_02_1 T81 3_2ch 448Kbps DELAY 0ms_new
Service kind : Complete Main
UŽIVAJTE!
Running.With.The.Devil.2019.720p.WEBRip.x264.mkv

Klikni za povečavo!
25-12-2020 12:33 naložil Ziva
Sejalci: 4 / Odjemalci: 0 / Velikost: 895.07 MB / Dokončani: 7
Prenesi torrent Magnet Link Poročaj torrent Opis torrenta NFO
Zvrst: Akcija | Drama | Kriminalka
Kategorija: FILMI > WEBRip-720



Running With The Devil
Leto: 2019
Zvrst: drama, kriminalka, srhljivka
Trajanje: 100 min
Režija: Jason Cabell
Scenarij: Jason Cabell


Nicolas Cage > The Cook
Laurence Fishburne > The Man
Barry Pepper > The Boss
Clifton Collins Jr. > The Farmer
Leslie Bibb > The Agent in Charge
Peter Facinelli > Number One
Adam Goldberg > The Snitch
Cole Hauser > The Executioner
Rib Hillis > Mountie 2
Natalia Reyes > The Woman
Christian Tappan > Cartel Member (as Christian Tappán)
Tait Fletcher > The Collector
Fiona Horsey > Exotic Dancer
Sarah Minnich > The Wife
Keith Jardine > Tow Truck Driver


Režiser in scenarist je Jason Cabell - nekdanji pripadnik posebnih sil (Navy SEAL). Scenarij je bil napisan na podlagi njegovih osebnih izkušenj iz Kolumbije, ko je sodeloval z enoto za nadzor narkotikov (DEA). Zgodba filma sledi potovanju droge iz Mehike, prek ZDA v Kanado. Izvršni direktor mednarodnega konglomerata pošilja svoja dva moža, naj raziščeta izginotje več pošiljk kokaina in najdeta krivca v verigi tihotapljenja mamil.




The Reason 2020 SrbSubs 720p AMZN WEBRip XviD AC3 Unknown

Klikni za povečavo!
25-12-2020 11:48 naložil Ziva
Sejalci: 1 / Odjemalci: 0 / Velikost: 2.86 GB / Dokončani: 1
Prenesi torrent Magnet Link Poročaj torrent Opis torrenta NFO
Zvrst: Drama | Družinski
Kategorija: FILMI > WEBRip-720



The Reason 2020 720p AMZN WEBRip XviD AC3 Unknown
Language(s): English
Size: 2.85 GB | Duration: 1hr 23mn | Container: AVI
Audio: AC-3 | 448 Kbps | 6 Channels
Video: XviD | 4439 Kbps | 1280 x 692
Genre: Drama | Family


Louis Gossett Jr., Tatyana Ali, Beverly Todd


When a mysterious man appears in a small town, unexplained miracles start to occur, changing the lives of everyone he meets. There's a mother whose five-year-old boy has leukemia, two doctors - one an atheist haunted by his past, the other a brilliant young oncologist who places all her hope in the power of modern medicine - and a blind pastor whose son hasn't spoken a single word in 38 years. All of them will be brought together by the presence of this stranger, who teaches them the true meaning of faith and hope.




The Craft Legacy 2020 SrbSubs 720p BRRip XviD AC3 XVID

Klikni za povečavo!
25-12-2020 11:39 naložil Ziva
Sejalci: 2 / Odjemalci: 0 / Velikost: 2.04 GB / Dokončani: 2
Prenesi torrent Poročaj torrent Opis torrenta NFO
Kategorija: FILMI >  BRRip



The Craft Legacy 2020 720p BRRip XviD AC3 XVID
Language(s): English
Size: 2.03 GB | Duration: 1hr 34mn | Container: AVI
Audio: AC-3 | 640 Kbps | 6 Channels
Video: XviD | 2436 Kbps | 1280 x 536
Genre: Drama | Fantasy | Horror


Cailee Spaeny, Zoey Luna, Gideon Adlon


A group of high school students form a coven of witches. A sequel to the 1996 film, "The Craft".






Blind 2019 SrbSubs 720p BRRip XviD AC3 XVID

Klikni za povečavo!
25-12-2020 11:13 naložil Ziva
Sejalci: 2 / Odjemalci: 0 / Velikost: 1.99 GB / Dokončani: 2
Prenesi torrent Poročaj torrent Opis torrenta NFO
Zvrst: Drama | Grozljivka | Triler
Kategorija: FILMI >  BRRip



Blind 2019 720p BRRip XviD AC3 XVID
Language(s): English
Size: 1.98 GB | Duration: 1hr 28mn | Container: AVI
Audio: AC-3 | 640 Kbps | 6 Channels
Video: XviD | 2559 Kbps | 1280 x 544
Genre: Drama | Horror | Thriller


Sarah French, Jed Rowen, Caroline Williams


Nekdanja igralka, ki je po hudi operaciji ostala slepa, se trudi, da bi svoje življenje spet sestavila, vendar se zaveda, da ni tako sama, kot misli po srečanju z nekaj novimi prijatelji.




Love.Actually.2003.exYu.Sub.PAL.DVDR

Klikni za povečavo!
25-12-2020 09:15 naložil System
Sejalci: 2 / Odjemalci: 0 / Velikost: 4.36 GB / Dokončani: 1
Prenesi torrent Poročaj torrent Opis torrenta
Kategorija: FILMI > DVD
Anonimen nalagalec

Love Actually (2003)
Pravzaprav ljubezen (2003)


-------------
INFO:
-------------
Source..........: DVD
Format..........: 16:9
Standard........: PAL
Release Size....: 4,35 GB
iMDB Link.......: KLIK
iMDB Rating.....: 7,6/10 (427.201)
Genre...........: Comedy, Drama, Romance
Country.........: UK/ USA/ France
Language........: English/ Portuguese/ French
Video...........: /
Audio...........: AC3 5.1-ch English
Subs............: Slo/ Cro/ Serb
Extras..........: yes
Regija..........: Prosto
Runtime.........: 130 min
Čas predvajanja.: 02:09.16 h

-------------
IGRALCI:
-------------
Bill Nighy ... Billy Mack
Gregor Fisher ... Joe
Rory MacGregor ... Engineer
Colin Firth ... Jamie
Sienna Guillory ... Jamie's Girlfriend
Liam Neeson ... Daniel
Emma Thompson ... Karen
Lulu Popplewell ... Daisy - Her Daughter
Kris Marshall ... Colin Frissell
Heike Makatsch ... Mia
Martin Freeman ... John
Joanna Page ... Just Judy
Chiwetel Ejiofor... Peter
Andrew Lincoln ... Mark
Keira Knightley ... Juliet

-------------
OPIS:
-------------
Življenja in ljubezni se pomešajo, združijo in dosegajo vrhunec na
božični večer - znova, znova in spet znova - z romantičnimi, zabavnimi
in grenkimi posledicami za vsakogar, ki ima srečo ali nesrečo, da ga
preganja ljubezenski urok.

Zvezdniška zasedba, izvrsten scenarij, malo cukra in malo grenkobe,
predvsem pa veliko britanskega humorja!




Serving.Sara.2002.CroSlo.Sub.PAL.DVDR-Churchill

Klikni za povečavo!
24-12-2020 12:13 naložil System
Sejalci: 1 / Odjemalci: 0 / Velikost: 4.35 GB / Dokončani: 3
Prenesi torrent Poročaj torrent Opis torrenta
Kategorija: FILMI > DVD
Anonimen nalagalec

Serving Sara (2002)
Poziv za Saro (2002)



-------------
INFO:
-------------
Source..........: DVD
Format..........: 16:9
Standard........: PAL
Release Size....: 4,35 GB
iMDB Link.......: KLIK
iMDB Rating.....: 5,4/10 (16.694)
Genre...........: Comedy, Romance
Country.........: Germany/ USA
Language........: English/ Spanish
Video...........: Untouched
Audio...........: AC3 5.1-ch English
Subs............: Cro/ Slo
Extras..........: yes
Regija..........: Prosto
Runtime.........: 96 min
Čas predvajanja.: 01:35.30 h

-------------
IGRALCI:
-------------
Matthew Perry ... Joe Tyler
Elizabeth Hurley ... Sara Moore
Vincent Pastore ... Tony
Bruce Campbell ... Gordon Moore
Cedric the Entertainer ... Ray Harris
Amy Adams ... Kate
Terry Crews ... Vernon
Jerry Stiller ... Milton the Cop
Marshall Bell ... Warren Cebron
Derek Southers ... Bouncer
Alan Ackles ... Man in Elevator
Robin McGee ... Jimmy the Elevator Operator
Brent Duncan ... Blackjack Dealer
Eli Jacques ... Woman at Blackjack Table
John Wayne Shafer ... Pit Boss

-------------
OPIS:
-------------
Vročevalec pravniških dokumentov, Joe Tyler se preživlja z izročevanjem
listin nepripravljenim žrtvam. Sara Moore je njegova naslednja tarča.
Ko jo Gordon, Sarin partner in goveji baron, odloži na aerodromu za polet
proti New Yorku, Sara misli, da je vse v najlepšem redu. Toda Gordon Sare
ni pustil samo na pločniku - pustil jo je tudi na cedilu. Natančneje, v
času ko Sara pristane, je Joe že dobil nalogo od svojega šefa Raya (Cedric
"The Entertainer), da izroči Sari papirje, s katerimi baron prekinja njuno
partnerstvo in jo pušča brez prebite pare.

Osupljena, zmedena in naenkrat prisiljena v življenje brez modnih kreatorjev
in dragih avtomobilov, Sara ne more verjeti svojim očem, ko prebere dokumente.
Toda kmalu njene misli postanejo kristalno čiste: če bi ji uspelo pridobiti
Joeja na svojo stran in bi namesto njej papirje najprej izročil Gordonu, bi
ona pridobila nazaj kontrolo nad njunim skupnim bogastvom in obdržala, kar si
je zaslužila. S samo nekaj urami na voljo, da obrne potek svojega življenja in
pošlje Gordona k vragu, Sara predlaga Joeju ponudbo, ki si ji ne more upreti:
če vroči Gordonu njene dokumente preden Sari vroči Gordonove, mu bo ona "vročila"
nič manj kot milijon dolarjev...


Christmas With The Stars & The Royal Philharmonic Orchestra (2019) FLAC

Klikni za povečavo!
24-12-2020 12:11 naložil System
Sejalci: 2 / Odjemalci: 0 / Velikost: 246.57 MB / Dokončani: 4
Prenesi torrent Poročaj torrent Opis torrenta NFO
Zvrst: Glasbeni
Kategorija: GLASBA > Glasba
Anonimen nalagalec

---------------------------------------------------------------------
VA - Christmas With The Stars & The Royal Philharmonic Orchestra
---------------------------------------------------------------------
Artist...............: Various Artists
Album................: Christmas With The Stars & The Royal Philharmonic Orchestra
Genre................: Pop
Source...............: CD
Year.................: 2019
Ripper...............: EAC (Secure mode) / LAME 3.92 & Asus CD-S520
Codec................: Free Lossless Audio Codec (FLAC)
Version..............: reference libFLAC 1.3.2 20170101
Quality..............: Lossless, (avg. compression: 60 %)
Channels.............: Stereo / 44100 HZ / 16 Bit
Tags.................: VorbisComment
News Server..........: news.astraweb.com
News Group(s)........: alt.binaries.pl.mp3
Included.............: NFO
Covers...............: Front Back CD
---------------------------------------------------------------------
Tracklisting
---------------------------------------------------------------------
1. Elvis Presley & The Royal Philharmonic Orchestra - Blue Christmas[02:08]
2. Tony Bennett & The Royal Philharmonic Orchestra - Have Yourself a Merry Little Christmas[03:21]
3. Doris Day & The Royal Philharmonic Orchestra - I'll Be Home for Christmas[02:34]
4. Perry Como & The Royal Philharmonic Orchestra - It's Beginning to Look a Lot Like Christmas[02:47]
5. Doris Day & The Royal Philharmonic Orchestra - Let It Snow! Let It Snow! Let It Snow![03:15]
6. Harry Belafonte & The Royal Philharmonic Orchestra - Mary's Boy Child[04:26]
7. Roy Orbison & The Royal Philharmonic Orchestra - Pretty Paper[03:21]
8. Eartha Kitt & The Royal Philharmonic Orchestra - Santa Baby[03:28]
9. Elvis Presley & The Royal Philharmonic Orchestra - Silent Night[02:39]
10. Tony Bennett & The Royal Philharmonic Orchestra - The Christmas Song (Chestnuts Roasting on an Open Fire)[02:39]
11. Andy Williams & The Royal Philharmonic Orchestra - It's the Most Wonderful Time of the Year[02:32]
12. Johnny Mathis & The Royal Philharmonic Orchestra - When a Child Is Born[04:11]
13. Dean Martin & The Royal Philharmonic Orchestra - White Christmas[02:59]
Playing Time.........: 40:26
Total Size...........: 245,19 MB
Doberdob-roman.upornika.2015.Slovenija.720p.WEBRip.x264-R77

Klikni za povečavo!
23-12-2020 15:54 naložil rado77
Sejalci: 2 / Odjemalci: 0 / Velikost: 1.09 GB / Dokončani: 1
Prenesi torrent Poročaj torrent Opis torrenta
Zvrst: Zgodovinski
Kategorija: FILMI > Dokumentarni

Doberdob-roman.upornika.2015.Slovenija.720p.WEBRip.x264-R77

DOBERDOB-ROMAN UPORNIKA



EKIPA:

Scenarij in režija MARTIN TURK
Producentka IDA WEISS
Direktor fotografije RADOVAN ČOK
Montažer JURIJ MOŠKON
Skladatelj glasbe CHRIS ECKMAN
Avtor ilustracij DAMIJAN STEPANČIČ
Zvok MIHA JARAMAZ, VJEKOSLAV MIKEZ
Scenograf MARCO JURATOVEC
Kostumograf EMIL CERAR
Oblikovalka maske PETRA HARTMAN

Vsebina:

Leta 1930 Cankarjeva založba napove izid vojnega romana „Doberdob“ pisatelja Prežihovega Voranca. Roman bo popisal tragične zgodbe vojakov, ki so se borili na Doberdobski planoti, na kateri je po mnenju zgodovinarjev izkrvavelo največ slovenskih vojakov, ki so se borili v prvi svetovni vojni in na kateri se je bojeval tudi takrat dvaindvajsetletni pisatelj s pravim imenom Lovro Kuhar.
Roman dejansko izide šele leta 1940, pisatelj pa roman v desetih letih od napovedi izida napiše kar trikrat, saj rokopis nekajkrat izgine v nenavadnih okoliščin. Obdobje pisanja romana namreč sovpada z aktivnim političnim življenjem Prežihovega Voranca. Bil je eden prvih komunistov na slovenskem, leta 1937 pa postane celo organizacijski sekretar ter s tem drugi človek jugoslovanske komunistične partije. Bil je agent kominterne, popotnik, ki je govoril 5 jezikov ter bil v stikih z nekaterimi najvidnejšimi politiki tistega časa. Hkrati je ves čas ohranjal osebno skromnost in vero v malega človeka ter vrednote, ki sčasoma niso bile več v duhu vse trše partijske ideologije.
Roman Doberdob je nastajal v obdobju, ki ga je Voranc zaradi aktivnega političnega življenja, večinoma preživel v ilegali in velja za edini slovenski avtobiografski roman na temo prve svetovne vojne.


IGRALCI & SOGOVORNIKI:

SREČKO KERMAVNER (Prežihov Voranc)
ALEŠ VALIČ (Interpretacija odlomkov iz romana "Doberdob, Vojni Roman Slovenskega Naroda")
Sogovorniki:
METKA PETRIČ, vnukinja Prežihovega Voranca
DDr. IGOR GRDINA, zgodovinar in literarni zgodovinar
Mag. Dr. FABIAN HAFNER, slavist
Mag. MARKO ŠTEPEC, zgodovinar
Dr. MIRAN HLADNIK, literarni zgodovinar
DARIO FRANDOLIČ, profesor in ljubiteljski zgodovinar
Mag. VASJA KLAVORA, publicist
Dr. VIDA DEŽELAK BARIČ, zgodovinarka
MIROSLAV OSOJNIK, upokojeni strokovni sodelavec Koroškega prokrajinskega muzeja




PRODUKCIJA:
BELA FILM v koprodukciji z
RTV SLOVENIJA
Vodja projekta: Mateja Erika Smisl
Dokumentarni program
Urednik: Peter Povh
Producent: Jaka Hemler
in
RAI FURLANIJA JULIJSKA KRAJINA
Odgovorna urednica za Slovenski program RAI – Sedež za FJK:
Martina Repinc


TEHNIČNI PODATKI

Dolžina: 74 min.
Format: DCP, barvni
Ratio: 1:1,78 (16:9)
Hitrost: 25fps
Zvok: Stereo
Jezik: Slovenski
Leto produkcije: 2015 (Maj)
Tip projekta: Celovečerni, Dokumentarni

KDOR SEJE TUDI ŽANJE!
Dobri.vojak.Švejk.1957.SLOSubs.TVRip.720p.x264.ts-R77

Klikni za povečavo!
22-12-2020 14:47 naložil rado77
Sejalci: 2 / Odjemalci: 0 / Velikost: 1.54 GB / Dokončani: 3
Prenesi torrent Poročaj torrent Opis torrenta
Zvrst: Komedija | Vojni
Kategorija: FILMI > TVRip

Dobri.vojak.Švejk.1957.SLOSubs.TVRip.720p.x264.ts-R77

Dobrý voják Svejk (1957)


Dobri vojak Švejk




Vsebina:
Praški trgovec s psi Josef Švejk se na začetku prve svetovne vojne, tik po sarajevskem atentatu na nadvojvodo in prestolonaslednika Franza Ferdinanda, v svoji najljubši pivnici po neumnosti zaplete v izdajstvo in razžalitev cesarja. Po aretaciji odide v vojsko, čeprav je dobil diagnozo, da je sonček. Ko je v uniformi, spravi ob pamet svoje nadrejene – pijanega kaplana Katza in elegantnega poročnika Lukáša. Haškov roman je navdihnila pisateljeva osebna izkušnja iz prve svetovne vojne, gre pa seveda za znamenito satiro na položaj vojakov, ki ne razumejo političnih razlogov za svoje bojevanje in se borijo za deželo, do katere ne čutijo pripadnosti. Dobri vojak Švejk je posrečen, ponarodel komični lik vojaka, ki z (ne ve se, ali hlinjeno ali resnično) neumnostjo razkriva absurde vojaške oblasti in absurdne situacije, v katere se spravlja, izrablja kot obliko pasivnega upora proti vojni. Haškova zgodba je tudi polna satire na avtoriteto ter napada korupcijo in hinavščino oblasti.
Priredba legendarnega komičnega romana anarhista Jaroslava Haška.

Režija: Karel Steklý
Igrajo: Rudolf Hrusínský , Svatopluk Benes , Frantisek Filipovský , Josef Hlinomaz , Bozena Havlícková , Eva Svobodová , Milos Kopecký , Felix Le Breux , Libuse Bokrová , Bedrich Karen
Država: Čehoslovaška
Podnapisi: Slovenščina
Žanr: Komedija, vojni


Tehnične specifikacije:

ID : 1 (0x1)
Complete name : Dobri.vojak.Švejk.1957.SLOSubs.TVRip.720p.x264.ts-R77\Dobri vojak Švejk.ts
Format : MPEG-TS
File size : 1.54 GiB
Duration : 1 h 44 min
Overall bit rate mode : Variable
Overall bit rate : 2 111 kb/s

Video
ID : 256 (0x100)
Menu ID : 1 (0x1)
Format : AVC
Format/Info : Advanced Video Codec
Format profile : High@L4
Format settings : CABAC / 4 Ref Frames
Format settings, CABAC : Yes
Format settings, Reference frames : 4 frames
Codec ID : 27
Duration : 1 h 44 min
Bit rate mode : Constant
Nominal bit rate : 1 800 kb/s
Width : 1 280 pixels
Height : 720 pixels
Display aspect ratio : 16:9
Frame rate : 25.000 FPS
Standard : PAL
Color space : YUV
Chroma subsampling : 4:2:0
Bit depth : 8 bits
Scan type : Progressive
Bits/(Pixel*Frame) : 0.078
Color range : Limited
Color primaries : BT.709
Transfer characteristics : BT.709
Matrix coefficients : BT.709

Audio
ID : 257 (0x101)
Menu ID : 1 (0x1)
Format : AAC LC
Format/Info : Advanced Audio Codec Low Complexity
Format version : Version 4
Muxing mode : ADTS
Codec ID : 15-2
Duration : 1 h 44 min
Bit rate mode : Variable
Channel(s) : 2 channels
Channel layout : L R
Sampling rate : 44.1 kHz
Frame rate : 43.066 FPS (1024 SPF)
Compression mode : Lossy
Delay relative to video : -40 ms
Menu
ID : 4096 (0x1000)
Menu ID : 1 (0x1)
Duration : 1 h 44 min
List : 256 (0x100) (AVC) / 257 (0x101) (AAC)
Service name : Service01
Service provider : FFmpeg
Service type : digital television

KDOR SEJE TUDI ŽANJE!
Cinema.Komunisto.2010.SLOSubs.720p.WEBRip.x264-R77

Klikni za povečavo!
22-12-2020 14:30 naložil rado77
Sejalci: 2 / Odjemalci: 0 / Velikost: 1.37 GB / Dokončani: 2
Prenesi torrent Poročaj torrent Opis torrenta
Zvrst: Zgodovinski
Kategorija: FILMI > Dokumentarni

Cinema.Komunisto.2010.SLOSubs.720p.WEBRip.x264-R77

Cinema Komunisto (2010)
dokumentarni



Režija Mila Turajlić
Scenarij Mila Turajlić
Fotografija Goran Kovačević
Montaža Aleksandra Milovanović
Glasba Nemanja Mosurović
Producenti Dragan Pešikan, Mila Turajlić, Iva Plemić Divjak, Dejan Petrović, Goran Ješić
Produkcija Dribbling Pictures
Koprodukcija 3K Productions, Intermedia Network
Nastopajo Veljko Bulajić, Velimir Bata Živojinović, Aleksandar Leka Konstatinović, Steva Petrović, Gile Djurić
Trajanje : 01:41:25
SLO PODNAPISI


Vsebina:

SLO
Zgodba o filmskem studiu, kjer je nastajala zgodovina Jugoslavije. Zgodba o človeku, ki je vsak večer obsesivno gledal filme, medtem ko je podnevi vodil državo ter bral in popravljal scenarije bodočih filmov. Zgodba o času, ko je Jugoslavija veljala za Hollywood vzhoda. V zakulisje zlatega obdobja jugoslovanske filmske industrije nas popelje dolgoletni Titov osebni kinooperater Leka Konstantinović, njegov najljubši režiser Veljko Bulajić, zvezda partizanskega filma Bata Živojinović in drugi.
Kolaž prizorov iz pozabljenih jugoslovanskih filmov, arhivskih posnetkov in ekskluzivnih intervjujev pripoveduje zgodbo o vzponu in padcu 'Hollywooda vzhoda' in o ustvarjanju mita o Jugoslaviji na filmskem platnu. Prvenec mlade srbske režiserke je nostalgična, grenko-sladka zgodba o državi, ki ne obstaja več... razen v filmu.
Mila Turajlić, režiserka in scenaristka:
»V to zgodbo sem vstopila kot pripadnica nove generacije jugoslovanskih filmskih ustvarjalcev z zelo nejasnimi spomini na deželo, ki ne obstaja več. Odrasli smo med ruševinami nečesa, kar nostalgično imenujemo 'zlata doba'. Zamudili smo to veliko žurko in prišli ravno ob času, ko je bilo treba plačati račune. /.../ Resnična motivacija za film je bil prvi obisk filmskih studiev Avala filma.
Vstopila sem skozi široka vrata in bilo je, kot bi vstopila v skrivnostni vrt. Pogledala sem za zid in nenadoma se mi je razkril svet, za katerega nisem vedela, da obstaja. Bil je brezmejen, izumrlo mesto zapuščenih in razpadajočih kulis, zastarele opreme, praznih filmskih scen in brezposelnih tehnikov. /.../ Avala film je bil na neki način kraj, kjer se je rojevala iluzija o Jugoslaviji. To je bila moja izhodiščna točka za film, saj sem menila, da lahko porušeni filmski studio razkrije nekaj o razpadu scenografije dežele, v kateri smo živeli. /.../ Želela sem narediti film o tem, kako je mogoče s pomočjo filma napisati zgodbo o neki deželi in ustvariti njeno uradno nacionalno podobo. /.../ Mojo osnovno idejo najbolje povzame citat Jacquesa Rancièra: 'Zgodovina filma je zgodovina moči ustvarjanja zgodovine.'«

SRB-HR
(Filmska priča o Titovu kinooperateru, usponu i padu Avala filma, žanru partizanskog filma i Pulskom festivalu...
Cinema Komunisto nas vodi na putovanje kroz ostatke Titove filmske industrije ispitujući uspon i pad jugoslavenske filmske iluzije. Leka Konstantinović bio je 32 godine Titov osobni kinooperater. U tom periodu prikazao mu je ukupno 8801 film o čemu je vodio uredne zabilješke. Zajedno s redateljemVeljkom Bulajićem, Titovim omiljenim glumcem Batom Živojinovićem i direktorima i zaposlenicima Avala filma Leka govori o tome kako je Maršal Tito koristio filmsku industriju da stvori 'zvanični narativ' nove države - Socijalističke Federativne Republike Jugoslavije. Od natrule scenografije u 'gradu duhova’, u koji se pretvorila moćna Avala, do predsjednikove privatne sale za projekcije, pratimo čovjeka koji je opsesivno svake noći gledao filmove dok je danju, upravljajući zemljom, čitao, pa čak i prepravljao scenarije budućih filmova. Uz pomoć odlomaka iz više od 60 zaboravljenih jugoslavenskih filmova, 'Cinema Komunisto' je priča o Jugoslaviji na način na koji ona nikada nije ispričana na filmskom platnu. Otkrijte tajne pulskog festivala, rušenja mosta na Neretvi, Titove opsesije kinematografijom i opsesije stranih glumaca i redatelja Titom koji su redovito snimali u Jugoslaviji.)


Tehnične specifikacije:

Unique ID : 171512738702936913082549147028703504004 (0x810826E4F64EBBA99B0A576015FD6684)
Complete name : Cinema.Komunisto.2010.SLOSubs.720p.WEBRip.x264-R77\Cinema Komunisto (2010).mkv
Format : Matroska
Format version : Version 4
File size : 1.37 GiB
Duration : 1 h 41 min
Overall bit rate : 1 930 kb/s
Encoded date : UTC 2010-02-22 21:41:31
Writing application : mkvmerge v5.9.0 ('On The Loose') built on Dec 9 2012 15:37:01
Writing library : libebml v1.3.0 + libmatroska v1.4.0
Video
ID : 1
Format : AVC
Format/Info : Advanced Video Codec
Format profile : High@L4.1
Format settings : CABAC / 8 Ref Frames
Format settings, CABAC : Yes
Format settings, Reference frames : 8 frames
Muxing mode : Header stripping
Codec ID : V_MPEG4/ISO/AVC
Duration : 1 h 41 min
Bit rate : 1 735 kb/s
Width : 720 pixels
Height : 576 pixels
Display aspect ratio : 16:9
Frame rate mode : Constant
Frame rate : 25.000 FPS
Standard : PAL
Color space : YUV
Chroma subsampling : 4:2:0
Bit depth : 8 bits
Scan type : Progressive
Bits/(Pixel*Frame) : 0.167
Stream size : 1.20 GiB (88%)
Writing library : x264 core 128
Default : Yes
Forced : No
Color range : Limited
Color primaries : BT.601 PAL
Transfer characteristics : BT.709
Matrix coefficients : BT.601
Audio
ID : 2
Format : AC-3
Format/Info : Audio Coding 3
Commercial name : Dolby Digital
Muxing mode : Header stripping
Codec ID : A_AC3
Duration : 1 h 41 min
Bit rate mode : Constant
Bit rate : 192 kb/s
Channel(s) : 2 channels
Channel layout : L R
Sampling rate : 48.0 kHz
Frame rate : 31.250 FPS (1536 SPF)
Compression mode : Lossy
Stream size : 139 MiB (10%)
Language : Serbian
Service kind : Complete Main
Default : Yes
Forced : No

UŽIVAJTE!
Caliphate.aka.Kalifat.S01.2020.SRBSubs.WEBRip.x264.ts-R77

Klikni za povečavo!
22-12-2020 14:15 naložil rado77
Sejalci: 1 / Odjemalci: 0 / Velikost: 3.55 GB / Dokončani: 3
Prenesi torrent Poročaj torrent Opis torrenta
Zvrst: Drama | Triler
Kategorija: FILMI > TV - Serija

Caliphate.aka.Kalifat.S01.2020.SRBSubs.WEBRip.x264.ts-R77


Kalifat

Caliphate

TV Serija-S01


Država: Švedska
Jezik: švedščina
Datum izdaje: 12. januar 2020 (Švedska)
Ločljivost: 1280x720
Izvajanje: 45 min
Podnapisi: Srbski
https://www.imdb.com/title/tt11398870/

Igralska zasedba:
Gizem Erdogan ... Pervin 8 epizod, 2020
Amed Bozan ... Husam 8 epizod, 2020
Aliette Opheim ... Fatima 8 epizod, 2020
Albin Grenholm ... Calle 8 epizod, 2020
Nora Rios ... Sulle 8 epizod, 2020
Amanda Sohrabi ... Kerima 8 epizod, 2020

Zaplet:
Agent Fatima dobi namig, da je na Švedskem načrtovano teroristično dejanje. Hkrati je najstnica Sulle odprla oči svojemu študentskemu asistentu, ki odpira vrata v nov fascinanten svet.
Več opisa preprosto ni potrebno, ker je serija tako dobra!

Tehnične specifikacije:
Complete name : Caliphate.aka.Kalifat.S01.2020.SRBSubs.WEBRip.x264.ts-R77\Kalifat.S01E01.WEBRip.x264-R77.mp4
Format : MPEG-4
Format profile : Base Media
Codec ID : isom (isom/iso2/avc1/mp41)
File size : 447 MiB
Duration : 46 min 46 s
Overall bit rate : 1 337 kb/s
Movie name : Kalifat.S01E01.WEBRip.x264-ION10
Encoded date : UTC 2020-03-21 16:06:12
Tagged date : UTC 2020-03-21 16:06:12
Writing application : Lavf58.0.101
Comment : Kalifat.S01E01.WEBRip.x264-ION10

Video
ID : 1
Format : AVC
Format/Info : Advanced Video Codec
Format profile : High@L3.1
Format settings : CABAC / 5 Ref Frames
Format settings, CABAC : Yes
Format settings, Reference frames : 5 frames
Codec ID : avc1
Codec ID/Info : Advanced Video Coding
Duration : 46 min 46 s
Bit rate : 1 100 kb/s
Width : 720 pixels
Height : 400 pixels
Display aspect ratio : 16:9
Frame rate mode : Constant
Frame rate : 25.000 FPS
Color space : YUV
Chroma subsampling : 4:2:0
Bit depth : 8 bits
Scan type : Progressive
Bits/(Pixel*Frame) : 0.153
Stream size : 360 MiB (80%)
Title : Kalifat.S01E01.WEBRip.x264-ION10
Writing library : x264 core 148 r2795M aaa9aa8
Tagged date : UTC 2020-03-21 16:06:12
Codec configuration box : avcC

Audio
ID : 2
Format : AAC LC
Format/Info : Advanced Audio Codec Low Complexity
Codec ID : mp4a-40-2
Duration : 46 min 46 s
Duration_LastFrame : -11 ms
Bit rate mode : Constant
Bit rate : 256 kb/s
Channel(s) : 2 channels
Channel layout : L R
Sampling rate : 48.0 kHz
Frame rate : 46.875 FPS (1024 SPF)
Compression mode : Lossy
Stream size : 85.7 MiB (19%)
Title : Kalifat.S01E01.WEBRip.x264-ION10
Language : Swedish
Default : Yes
Alternate group : 1
Encoded date : UTC 2020-03-21 16:06:12
Tagged date : UTC 2020-03-21 16:06:12

UŽIVAJTE!
Various Artists - 2010s New Year's Party (2020) MP3

Klikni za povečavo!
22-12-2020 13:20 naložil System
Sejalci: 1 / Odjemalci: 0 / Velikost: 313.07 MB / Dokončani: 4
Prenesi torrent Poročaj torrent Opis torrenta NFO
Zvrst: Glasbeni
Kategorija: GLASBA > Glasba
Anonimen nalagalec

---------------------------------------------------------------------
VA - 2010s New Year's Party
---------------------------------------------------------------------
Artist...............: Various Artists
Album................: 2010s New Year's Party
Genre................: Pop
Source...............: CD
Year.................: 2020
Ripper...............: EAC (Secure mode) / LAME 3.92 & Asus CD-S520
Codec................: FhG
Version..............: MPEG 1 Layer III
Quality..............: Insane, (avg. bitrate: 320kbps)
Channels.............: Stereo / 44100 hz
Tags.................: ID3 v1.1, ID3 v2.3, APE v2.000
I
News Server..........: news.astraweb.com
News Group(s)........: alt.binaries.pl.mp3
Included.............: NFO
---------------------------------------------------------------------
Tracklisting
---------------------------------------------------------------------
1. Imagine Dragons - Thunder [03:07]
2. Jessie J, B.o.B - Price Tag [03:42]
3. Justin Bieber, BloodPop® - Friends [03:09]
4. Nick Jonas, Tinashe - Jealous (Remix) [03:41]
5. LMFAO, Lauren Bennett, GoonRock - Party Rock Anthem [04:23]
6. Taio Cruz - Dynamite [03:22]
7. American Authors - Best Day Of My Life (Single Version) [03:14]
8. The Vamps - Somebody To You [03:04]
9. Owl City, Carly Rae Jepsen - Good Time [03:25]
10. Bastille - Pompeii [03:36]
11. DNCE - Cake By The Ocean [03:54]
12. Selena Gomez, Marshmello - Wolves [03:17]
13. OneRepublic - Counting Stars [04:19]
14. Avicii - Wake Me Up (Radio Edit) [04:06]
15. Florence + The Machine - Spectrum (Say My Name) (Calvin Harris Remix)[03:38]
16. The Wanted - We Own The Night [03:25]
17. Ellie Goulding - Burn [03:51]
18. Mike Posner - I Took A Pill In Ibiza (Seeb Remix) [03:22]
19. ZEDD, Alessia Cara - Stay [03:30]
20. Hailee Steinfeld, Alesso, Florida Georgia Line, Watt - Let Me Go[02:54]
21. John Newman - Love Me Again [04:00]
22. Demi Lovato - Cool for the Summer [03:34]
23. James Bay - Hold Back The River [03:58]
24. Iggy Azalea, Charli XCX - Fancy [03:19]
25. Hailee Steinfeld - Love Myself [03:40]
26. Shawn Mendes - Treat You Better [03:07]
27. Kungs, Cookin' On 3 Burners - This Girl (Kungs Vs. Cookin' On 3 Burners)[03:15]
28. Robin Thicke, T.I., Pharrell Williams - Blurred Lines (Physical Version)[04:23]
29. Kiesza - Hideaway [04:12]
30. Maroon 5, Christina Aguilera - Moves Like Jagger (Studio Recording From The Voice Performance)[03:22]
31. NEIKED, Dyo - Sexual [03:08]
32. Duke Dumont, Jax Jones - I Got U [04:45]
33. Felix Jaehn, Jasmine Thompson - Ain't Nobody (Loves Me Better)[03:05]
34. Swedish House Mafia, John Martin - Don't You Worry Child (Radio Edit)[03:31]
35. Lorde - Royals [03:09]
36. Tove Lo, Hippie Sabotage - Stay High (Habits Remix) [04:18]
37. Desiigner - Panda [04:06]
Playing Time.........: 02:14:09
Total Size...........: 312,72 MB
Various Artists - 2000s New Year's Party (2020) MP3

Klikni za povečavo!
22-12-2020 13:19 naložil System
Sejalci: 1 / Odjemalci: 0 / Velikost: 301 MB / Dokončani: 4
Prenesi torrent Poročaj torrent Opis torrenta NFO
Zvrst: Glasbeni
Kategorija: GLASBA > Glasba
Anonimen nalagalec

---------------------------------------------------------------------
VA - 2000s New Year's Party
---------------------------------------------------------------------
Artist...............: Various Artists
Album................: 2000s New Year's Party
Genre................: Pop
Source...............: CD
Year.................: 2020
Ripper...............: EAC (Secure mode) / LAME 3.92 & Asus CD-S520
Codec................: LAME 3.99
Version..............: MPEG 1 Layer III
Quality..............: Insane, (avg. bitrate: 320kbps)
Channels.............: Joint Stereo / 44100 hz
Tags.................: ID3 v1.1, ID3 v2.3, APE v2.000
News Server..........: news.astraweb.com
News Group(s)........: alt.binaries.pl.mp3
Included.............: NFO
---------------------------------------------------------------------
Tracklisting
---------------------------------------------------------------------
1. Black Eyed Peas - I Gotta Feeling [04:49]
2. t.A.T.u. - All The Things She Said [03:34]
3. Duffy - Mercy [03:40]
4. A.R. Rahman, The Pussycat Dolls, Nicole Scherzinger - Jai Ho! (You Are My Destiny)[03:42]
5. Sugababes - Push The Button [03:37]
6. Nelly Furtado, Timbaland - Intro/Promiscuous [04:02]
7. La Roux - Bulletproof [03:25]
8. Gwen Stefani - Hollaback Girl [03:19]
9. Timbaland, OneRepublic - Apologize [03:04]
10. Corinne Bailey Rae - Put Your Records On [03:35]
11. Nelly, Kelly Rowland - Dilemma [04:49]
12. Vanessa Carlton - A Thousand Miles [03:57]
13. Kid Cudi - Day 'N' Nite (Nightmare) [03:40]
14. Christina Milian - AM To PM [03:51]
15. Scissor Sisters - I Don't Feel Like Dancin' (Radio Edit)[04:08]
16. Keane - Everybody's Changing [03:35]
17. Hoobastank - The Reason [03:52]
18. Taio Cruz - Break Your Heart [03:23]
19. Maroon 5 - This Love [03:25]
20. Busted - Year 3000 [03:16]
21. MIKA - Grace Kelly [03:07]
22. The Pussycat Dolls, Busta Rhymes - Don't Cha [04:31]
23. Alien Ant Farm - Smooth Criminal [03:29]
24. The Killers - Mr. Brightside [03:42]
25. tracker-182 - All The Small Things [02:50]
26. Fountains of Wayne - Stacy's Mom [03:19]
27. The All-American Rejects - Swing, Swing [03:53]
28. Ronan Keating - Life Is A Rollercoaster [03:54]
29. Fergie, will.i.am - Fergalicious [04:52]
30. Daniel Bedingfield - Gotta Get Thru This (D'N'D Radio Edit)[02:42]
31. Bodyrockers - I Like The Way (Radio Edit) [03:21]
32. Blue - All Rise [03:43]
33. Shaggy, Ricardo Ducent - It Wasn't Me [03:48]
34. Atomic Kitten - The Tide Is High (Radio Mix) [03:27]
35. Akon - Lonely [03:55]
Playing Time.........: 02:09:31
Total Size...........: 300,74 MB
Various Artists - 90s New Year's Party (2020) MP3

Klikni za povečavo!
22-12-2020 13:17 naložil System
Sejalci: 1 / Odjemalci: 0 / Velikost: 439.83 MB / Dokončani: 2
Prenesi torrent Poročaj torrent Opis torrenta NFO
Zvrst: Glasbeni
Kategorija: GLASBA > Glasba
Anonimen nalagalec

---------------------------------------------------------------------
VA - 90s New Year's Party
---------------------------------------------------------------------
Artist...............: Various Artists
Album................: 90s New Year's Party
Genre................: Pop
Source...............: CD
Year.................: 2020
Ripper...............: EAC (Secure mode) / LAME 3.92 & Asus CD-S520
Codec................: LAME 3.99
Version..............: MPEG 1 Layer III
Quality..............: Insane, (avg. bitrate: 320kbps)
Channels.............: Stereo / 44100 hz
Tags.................: ID3 v1.1, ID3 v2.3, APE v2.000
News Server..........: news.astraweb.com
News Group(s)........: alt.binaries.pl.mp3
Included.............: NFO
---------------------------------------------------------------------
Tracklisting
---------------------------------------------------------------------
1. Spice Girls - Wannabe [02:52]
2. New Radicals - You Get What You Give [04:59]
3. Cher - The Shoop Shoop Song (It's In His Kiss) [02:46]
4. Divinyls - I Touch Myself [03:46]
5. Charles & Eddie - Would I Lie To You? [04:39]
6. Gun - Word Up (Radio Mix) [04:12]
7. Dodgy - Good Enough [04:01]
8. James - Laid [02:37]
9. 4 Non Blondes - What's Up? [04:55]
10. Hanson - MMMBop [04:28]
11. Beats International - Dub Be Good To Me [03:37]
12. Alisha's Attic - I Am, I Feel [04:00]
13. Arrested Development - People Everyday [04:59]
14. Shaggy, Rayvon - In The Summertime [03:58]
15. Inner City - Good Life [04:04]
16. Luniz, Michael Marshall - I Got 5 On It [04:13]
17. OMC - How Bizarre [03:45]
18. Shanice - I Love Your Smile [04:19]
19. Chaka Demus & Pliers, Jack Radics, The Taxi Gang - Twist And Shout[03:57]
20. Orchestral Manoeuvres in the Dark - Sailing On The Seven Seas[03:45]
21. Texas - Summer Son [04:02]
22. The Cardigans - Lovefool [03:18]
23. Bryan Adams, Melanie C - When You're Gone [03:26]
24. Sheryl Crow - All I Wanna Do [04:32]
25. Janet Jackson - Together Again [05:00]
26. Vanilla Ice - Ice Ice Baby [04:29]
27. Marky Mark And The Funky Bunch, Loleatta Holloway - Good Vibrations[04:29]
28. Nightcrawlers - Push The Feeling On (Radio Mix) [04:02]
29. Shaggy - Oh Carolina [03:11]
30. Adamski, Seal - Killer [04:11]
31. Salt-N-Pepa - Let's Talk About Sex [03:33]
32. Cece Peniston - Finally [04:04]
33. Stereo MC's - Connected [05:12]
34. Crystal Waters - Gypsy Woman (She's Homeless) (Radio Edit)[03:47]
35. Pato Banton, The Reggae Revolution, Ali Campbell, Robin Campbell - Baby Come Back[03:50]
36. Jon Secada - Just Another Day [05:24]
37. Funky Green Dogs - Fired Up! [03:37]
38. Bellini - Samba De Janeiro (Radio Edit) [02:46]
39. Billie Myers - Kiss The Rain [04:29]
40. Underworld - Born Slippy (Nuxx) (Radio Edit) [04:23]
41. The Chemical Brothers - Hey Boy Hey Girl [04:50]
42. Deep Blue Something - Breakfast At Tiffany's [04:17]
43. Pulp - Common People [05:48]
44. Gabrielle - Dreams [03:41]
45. DNA, Suzanne Vega - Tom's Diner (7" Version) [03:48]
46. The Cranberries - Zombie [05:07]
Playing Time.........: 03:09:26
Total Size...........: 439,58 MB
Various Artists - 80s New Year's Party (2020) MP3

Klikni za povečavo!
22-12-2020 13:16 naložil System
Sejalci: 2 / Odjemalci: 0 / Velikost: 490.08 MB / Dokončani: 3
Prenesi torrent Poročaj torrent Opis torrenta NFO
Zvrst: Glasbeni
Kategorija: GLASBA > Glasba
Anonimen nalagalec

---------------------------------------------------------------------
VA - 80s New Year's Party
---------------------------------------------------------------------
Artist...............: Various Artists
Album................: 80s New Year's Party
Genre................: Pop
Source...............: CD
Year.................: 2020
Ripper...............: EAC (Secure mode) / LAME 3.92 & Asus CD-S520
Codec................: FhG
Version..............: MPEG 1 Layer III
Quality..............: Insane, (avg. bitrate: 320kbps)
Channels.............: Stereo / 44100 hz
Tags.................: ID3 v1.1, ID3 v2.3, APE v2.000
News Server..........: news.astraweb.com
News Group(s)........: alt.binaries.pl.mp3
Included.............: NFO
---------------------------------------------------------------------
Tracklisting
---------------------------------------------------------------------
1. Bon Jovi - Livin' On A Prayer [04:10]
2. Tiffany - I Think We're Alone Now [03:45]
3. Janet Jackson - What Have You Done For Me Lately [04:43]
4. Inner City - Good Life [04:04]
5. Murray Head - One Night In Bangkok (From “Chess” / ReTrolled 2016)[03:13]
6. Culture Club - Karma Chameleon [04:13]
7. DeBarge - Rhythm Of The Night (From "The Last Dragon" Soundtrack)[03:49]
8. Technotronic - Pump Up The Jam [05:20]
9. The Buggles - Video Killed The Radio Star [04:12]
10. Rockwell - Somebody's Watching Me (Single Version) [03:56]
11. Bobby Brown - My Prerogative [04:49]
12. Kim Carnes - Crazy In The Night (Barking At Airplanes) [03:33]
13. Trio - Da Da Da (I Don't Love You You Don't Love Me Aha Aha Aha)[03:26]
14. Glenn Frey - The Heat Is On (From "Beverly Hills Cop" Soundtrack)[03:47]
15. Cameo - Word Up [04:18]
16. Salt-N-Pepa - Push It [04:28]
17. Rick James - Super Freak [03:24]
18. Soul II Soul, Caron Wheeler - Back To Life [03:48]
19. Paula Abdul - Straight Up (Single Version) [04:11]
20. Glass Tiger - Don't Forget Me (When I'm Gone) [04:08]
21. Gwen Guthrie - Ain't Nothin' Goin' On But The Rent [03:32]
22. INXS - Need You Tonight [03:01]
23. Colonel Abrams - Trapped [03:40]
24. Yazz - The Only Way Is Up [04:26]
25. Musical Youth - Pass The Dutchie [03:23]
26. Steve Winwood - Higher Love (Single Version) [05:47]
27. UB40 - Red Red Wine [05:20]
28. Orchestral Manoeuvres in the Dark - Enola Gay (ReTrolled)[03:33]
29. Steve Miller Band - Abracadabra [05:08]
30. Feargal Sharkey - A Good Heart [04:38]
31. Danny Wilson - Mary's Prayer [03:54]
32. Wang Chung - Everybody Have Fun Tonight [04:47]
33. Go-Go's - Our Lips Are Sealed (Single Version) [02:47]
34. Billy Idol - Mony Mony [04:59]
35. Lionel Richie - Dancing On The Ceiling [04:32]
36. Bryan Adams - Summer Of '69 [03:37]
37. The J. Geils Band - Centerfold [03:36]
38. Cher - If I Could Turn Back Time [03:57]
39. Blondie - Heart Of Glass (ReTrolled 2001) [05:47]
40. Katrina & The Waves - Walking On Sunshine [03:56]
41. Yello - The Race [03:18]
42. Tears for Fears - Shout [06:33]
43. The Human League - Don't You Want Me [03:56]
44. Simple Minds - Don't You (Forget About Me) (2001 Mix) [04:21]
45. Kool & The Gang - Celebration [04:58]
46. Nik Kershaw - I Won't Let The Sun Go Down On Me [03:23]
47. Baltimora - Tarzan Boy [03:49]
48. ABBA - Happy New Year [04:24]
49. Harold Faltermeyer - Axel F (From "Beverly Hills Cop" Soundtrack)[03:01]
50. Soft Cell - Tainted Love [02:39]
51. Dexys Midnight Runners - Come On Eileen [04:47]
Playing Time.........: 03:31:08
Total Size...........: 489,81 MB
International Jazz Day (2020) MP3

Klikni za povečavo!
22-12-2020 12:32 naložil System
Sejalci: 2 / Odjemalci: 0 / Velikost: 1.12 GB / Dokončani: 3
Prenesi torrent Poročaj torrent Opis torrenta NFO
Zvrst: Glasbeni
Kategorija: GLASBA > Glasba
Anonimen nalagalec

---------------------------------------------------------------------
VA - International Jazz Day
---------------------------------------------------------------------
Artist...............: Various Artists
Album................: International Jazz Day
Genre................: Jazz, Blues, Instrumental
Source...............: CD
Year.................: 2020
Ripper...............: EAC (Secure mode) / LAME 3.92 & Asus CD-S520
Codec................: LAME 3.99
Version..............: MPEG 1 Layer III
Quality..............: Insane, (avg. bitrate: 320kbps)
Channels.............: Stereo / 44100 hz
Tags.................: ID3 v1.1, ID3 v2.3
News Server..........: news.astraweb.com
News Group(s)........: alt.binaries.pl.mp3
Included.............: NFO
---------------------------------------------------------------------
Tracklisting
---------------------------------------------------------------------
1. Jerry Bergonzi - Countdown [06:04]
2. Tomeka Reid - Glass Light [05:34]
3. Carlos Camilo - Face To Face [05:21]
4. Nabowa & Jizue - Dancing Man [03:46]
5. Martin Perret's L'anderer - Quandaries [05:11]
6. Tanel Ruben - Adnilsong [05:34]
7. Brahja - Can't Stand It [03:14]
8. Giovanni Alaimo - Rio Claro [05:30]
9. Sandro Gibellini Trio - Jazz In The Park [03:41]
10. Carsten Dahl - Autumn Leaves [06:30]
11. Vincent Ingala - Maybe You Think [03:40]
12. Peshay - Jazz Club [06:32]
13. The Stan Getz Quartet - Airegin [08:32]
14. Graziano Aguzzi - Moby Lounge [03:24]
15. Frankfurt Radio Big Band - A Piece With A Chord [09:01]
16. Jorge Vera - Mantra (feat. Damien Schmitt) [04:59]
17. Platina Jazz - Fireworks [04:44]
18. Jerry Bergonzi Brahja; John Coltra... - Erzeben Strasse [08:58]
19. Bowman Trio - Persistence [04:14]
20. Aki Rissanen - Aeropeans [05:16]
21. Giampaolo Casati - Sandu [03:20]
22. Dorri3 - Daydreams Of A Morning Flower [00:57]
23. Neue Grafik Ensemble - Hedgehog's Dilemma [03:44]
24. Lakecia Benjamin - Central Park West [04:26]
25. Big Band Of Brothers - [03:45]
26. Mark De Clive-Lowe - Blueberries [02:34]
27. Myele Manzanza - Pencarrow [04:24]
28. Antti Loetjoenen - Oblique [06:34]
29. Platina Jazz - Song For 4 Season [04:09]
30. Jarmo Nikku - Hell & Piisaa [05:46]
31. Wanubalé - Choose Your Truth [05:07]
32. Sandro Gibellini Trio - Imagine [03:06]
33. Sandro Gibellini Trio - Walk On By [02:18]
34. John Coltrane - Naima [04:33]
35. Tomeka Reid - Woodlawn [05:59]
36. Ronin Arkestra - Onkochishin [06:43]
37. Louis Sclavis - La Dame De Martigues [06:18]
38. Tony Allen - Coconut Jam [03:29]
39. Orrin Evans - This Little Light Of Mine [07:41]
40. Jazz Sabbath - Evil Woman [05:35]
41. Tomeka Reid - Super Nova [04:47]
42. Elektro Jirschi - Heisenberg [03:57]
43. Mikko Innanen - Confessions Of A Congressman [10:02]
44. Angelo Trane - Skett One [03:47]
45. Big Chief - Later That Day [10:45]
46. Matthew Whitaker - Tranquility [05:30]
47. Pyjan - In Search Of The Sticky Side [06:45]
48. Kenny Barron - Without Deception [06:32]
49. Ibrahim Maalouf - S3ns [04:56]
50. Mike Stern - Big Town [05:02]
51. Antoine Berjeaut - Triple A [02:39]
52. Nerija - Where It Ends And Begins [07:46]
53. Tanel Ruben Quintet - Gretale [04:57]
54. Herd - Cold Wind [04:43]
55. The Jazzual Suspects - In Review [02:43]
56. Giacomo Bondi - Cheek To Cheek [02:48]
57. Giacomo Bondi - Fly Me To The Moon [02:24]
58. Ibrahim Maalouf - Jusqu'ici Tout Va Bien [01:26]
59. Giacomo Bondi - Englishman In New York [03:51]
60. Jacob Karlzon - Panorama [05:32]
61. Balimaya - Kayira 2 [06:32]
62. Bernhard Schimpelsberger - Segeriyua [07:10]
63. Wayne Escoffery - Benedictus [05:02]
64. Matthew Halsall - Stories From India [09:31]
65. Re:plus / Yusuke Shima - Glittering Sea [04:45]
66. Giampaolo Casati - Sing, Sing, Sing [03:26]
67. Francesco Digilio - Beautiful Love [04:24]
68. Stefano Micarelli - Another Me [00:58]
69. Brit Rozeveld - Another Antelope [01:00]
70. Herb Alpert - All Love [03:54]
71. Ron Carter - Good Morning Heartache [05:34]
72. Abdullah Ibrahim - Devotion [02:53]
73. Giampaolo Casati - The Masquerade Is Over [05:40]
74. Pope Puolitaival - Small Town Church [05:55]
75. Joe Armon-Jone - The Leo & Aquarius [06:28]
76. Ashley Hodgett - All About Sugar Beach [00:52]
77. Pyjan feat. Blue Lab Beats - Sage Secrets [03:39]
78. Denise King - Sway [03:00]
79. Jukka Eskola Soul Trio - Old Stones [02:59]
80. M?ly Trio - Mot ?land [05:23]
81. Ilkka Arola Sound Tagine - Kamelimmaito [05:08]
82. Elektro Jirschi - Misery (Remix) [02:57]
83. Sad Jazz Man - Leo [02:40]
84. Three Dogs Good Fight - Talk About Coffee [01:44]
85. Joonas Haavisto - Moriens [06:59]
86. Ryan Porter - Oscalypso [09:48]
87. Kamaal Williams - Gp Drums [04:08]
88. Sandro Gibellini Trio - What A Wonderful World [04:09]
89. Florian Weiss' Woodoism - Istop Oder Die Zeitanhaltuhr [07:17]
90. Afro Dub - Brazilian Night (Original Mix) [04:12]
91. Jamael Dean - People Of The Moon [08:56]
92. Ellie Blue - Beach Bar Party [03:37]
93. Binker Golding - Fluorescent Black [06:21]
94. Platina Jazz - Itadaki Mambo [04:57]
95. Aurora Hentunen - Kuohu [07:01]
96. Tokyo Chuo-Line - Looking Back At Crossroads [04:52]
97. Jazz At Lincoln - Twilight Sounds [07:37]
98. Bertie Keyser - A Statement Reversed [00:53]
99. A Incerteza Do Trio Certo - Como Te Chamas [08:13]
100. Antoine Berjeaut - Jp's Beats [02:15]
Playing Time.........: 08:14:43
Total Size...........: 1114,50 MB
Christmas EDM 2020 - (36 Electronic & Dance Music Hits) MP3

Klikni za povečavo!
22-12-2020 12:13 naložil System
Sejalci: 1 / Odjemalci: 0 / Velikost: 267.46 MB / Dokončani: 4
Prenesi torrent Poročaj torrent Opis torrenta NFO
Zvrst: Glasbeni
Kategorija: GLASBA > Glasba
Anonimen nalagalec

---------------------------------------------------------------------
VA - Christmas EDM 2020: 36 Electronic & Dance Music Hits For Christmas Party & New Year's Eve 2021 Party
---------------------------------------------------------------------
Artist...............: Various Artists
Album................: Christmas EDM 2020: 36 Electronic & Dance Music Hits For Christmas Party & New Year's Eve 2021 Party
Genre................: House, Electronic, Dance
Source...............: CD
Year.................: 2020
Ripper...............: EAC (Secure mode) / LAME 3.92 & Asus CD-S520
Codec................: LAME 3.10
Version..............: MPEG 1 Layer III
Quality..............: Insane, (avg. bitrate: 320kbps)
Channels.............: Stereo / 44100 hz
Tags.................: ID3 v1.1, ID3 v2.3
News Server..........: news.astraweb.com
News Group(s)........: alt.binaries.pl.mp3
Included.............: NFO
---------------------------------------------------------------------
Tracklisting
---------------------------------------------------------------------
1. Lory DJ & D@n Deejay feat. Guax - Last Christmas (Radio Mix)[03:09]
2. Elaic & Il Cartello feat. Nya - Stardust (Radio Edit) [02:36]
3. Bruce Blayne & Alex Moro - Reborn (Silver & Bruce Blayne Edit)[02:58]
4. Dino Brown & Saintpaul DJ feat. Eliza G. - Give Me Love (Paky Francavilla Remix Radio)[03:59]
5. Joe Berte' & Daniel Tek feat. Monika Kiss - Better Of Alone (Radio Edit)[03:09]
6. JBGL - Dance Monkey (Panico & Skar Remix) [03:05]
7. Luka J Troll & Mr. Saretto feat. Serenu' - Sleeping Satellite (Radio Edit)[03:01]
8. Doubl3 Mask - You Are (Radio Edit) [02:56]
9. D.J. Mirko B. - Astronomia 2020 (Original Mix) [03:04]
10. Samhz & Krea - Hey Mr. DJ (Original Mix) [02:52]
11. Christian Tanz - [04:14]
12. D.J. Mirko B. - Let You Go (Original Mix) [02:18]
13. MJX & Pasquale Morabito feat. Manuel Giampaoli - Virus (Radio Edit)[02:33]
14. Rizzo DJ & Amon Fly - Rising Tide (Original Mix) [03:31]
15. Samuele Pintus - Ride Alone (Original Mix) [03:12]
16. Pony Lu - Gimme The Light (Radio Mix) [02:45]
17. Fearless feat. Eugenio Ferrara & Maurizio Lessi - On And On (Original Mix)[03:35]
18. DJ Beda & Fr3Y - By Your Side (Original Mix) [02:59]
19. The Coolbreezers - Lost And Found (Radio Edit) [02:59]
20. Genyo & Paul Lucas feat. Martha - I Will Be There (Radio Edit)[02:49]
21. D.J. Mirko B. - Breaking Me (Original Mix) [02:37]
22. DJ Beda & Fr3Y - I Need You (Radio Edit) [03:01]
23. Carella - ASMR (Everybody In The Place) (Fraxwell DJ Radio Edit)[02:41]
24. Eugenio Ferrara & Maurizio Lessi & Tamra Keenan - Dance All Night (Radio Edit)[02:37]
25. Luka J Troll & MR. Esse feat. Serenu' - Crush (Radio Mix)[02:52]
26. DJ Saved M.L. - Need You (Radio Edit) [03:05]
27. D'Amico & Valax - Angels (Original Mix) [02:51]
28. Nico Del Prato - Deep Diving (Radio Edit) [02:27]
29. Socievole feat. Wild Fox - Far Away (Radio Edit) [03:13]
30. Tobix feat. Steven May - Wanna Catch You (Radio Edit) [03:17]
31. Lorenz Koin feat. Lion D - I'm Flying (Radio Edit) [03:33]
32. TonyLaces & Stefano Giorgini - Keep Running Away (Radio Edit)[03:17]
33. Gianluca Manzieri - Martyrs (Original Radio Edit) [03:38]
34. MJX feat. Lomas - Party Now (Radio Edit) [02:51]
35. Elaic feat. Xent - Try Me Baby (Radio Edit) [02:54]
36. Rummolino feat. Allien Twinz - One More Time (Original Mix)[03:17]
Playing Time.........: 01:50:16
Total Size...........: 267,25 MB
Wild.Wild.West.1999.SloSub.BRRip.XviD-SIHQ

Klikni za povečavo!
22-12-2020 10:52 naložil System
Sejalci: 2 / Odjemalci: 0 / Velikost: 1.37 GB / Dokončani: 5
Prenesi torrent Poročaj torrent Opis torrenta NFO
Zvrst: Komedija | Western
Kategorija: FILMI >  BRRip
Anonimen nalagalec



Name............: Wild.Wild.West.1999.SloSub.BRRip.XviD-SIHQ
Source..........: Wild Wild West 1999x264 BluRay1080pBLUEBIRD
Želja izpolnjena santa
Subtitles ......: Slovenian (Custom)
Genre ..........: Action | Western | Comedy
Release Size....: 1,37GB
Video Length....: 1h 46mn
Video Codec ....: XviD MPEG-4 codec
Video Bitrate...: 1397 Kbps
Resolution .....: 720x400
Framerate ......: 23.976 fps
Quality Factor .: 0.202 bits/pixel
Aspect Ratio....: 16:9
Audio ..........: English @ 5.1
Audio Codec ....: ATSC/A-52 Dolby AC3
Audio Bitrate ..: 448 Kbps
Sampling Rate ..: 48000 Hz


Will Smith ... Capt. James West
Kevin Kline ... U.S. Marshal Artemus Gordon / Ulysses S. Grant
Kenneth Branagh ... Dr. Arliss Loveless
Salma Hayek ... Rita Escobar
M. Emmet Walsh ... Coleman
Ted Levine ... General 'Bloodbath' McGrath
Frederique Van Der Wal ... Amazonia (as Frederique van der Wal)
Musetta Vander ... Munitia
Sofia Eng ... Miss Lippenrieder
Ling Bai ... Miss East
Garcelle Beauvais ... Belle
Mike H. McGaughy ... Big Reb (as Mike McGaughy)
Jerry Wills ... Other Reb
Rodney A. Grant ... Hudson
Buck Taylor ... Cross-Eyed Reb


Posebni vladni agent James West, ki mu ne manjka šarma in duhovitosti, in posebni vladni agent Artemus Gordon, genialen izumitelj vseh mogočih priprav in mojster krinke, dobita nalogo, naj izsledita diaboličnega doktorja Arlissa Lovelessa. Loveless, ki je zaradi nekega ponesrečenega znanstvenega eksperimenta ostal brez obeh nog, pripravlja atentat na predsednika Združenih držav Amerike, izvedel pa naj bi ga s pomočjo svojega pošastno velikega premičnega orožja v obliki pajka, ki ga je poimenoval Tarantela. West in Gordon, popolnoma različna agenta, sta sprva tekmeca, kmalu pa združita svoje moči in postaneta prebrisana in drzna partnerja. Zadeve zaplete zapeljiva in skrivnostna Rita Escobar, ki se vmeša v njuno delo. Začne se nevarna, razgibana in tudi ravno prav romantična pustolovščina v duhu vesterna.



The.Mandalorian.S02E08.SLOSubs.Chapter.16.The.Rescue.720p.WEBRip.DDP5.1.Atmos.x264-MZABI

Klikni za povečavo!
22-12-2020 10:46 naložil Ziva
Sejalci: 1 / Odjemalci: 0 / Velikost: 2.32 GB / Dokončani: 2
Prenesi torrent Magnet Link Poročaj torrent Opis torrenta NFO
Zvrst: Akcija | Pustolovski | Z.F.
Kategorija: FILMI > WEBRip-720



The Mandalorian and the Child continue their journey, facing enemies and rallying allies as they make their way through a dangerous galaxy in the tumultuous era after the collapse of the Galactic Empire.

Podnapisi: Slovenski (custom)
Prevedel in uredil: MaStr - HVALA !!!