A
B
C
D
E
F
G
H
I
J
K
L
M
N
O
P
Q
R
S
T
U
V
W
X
Y
Z
0-9
Prolece.Na.Poslednjem.Jezeru.2020.HDTV.x264-BD4YU

Klikni za povečavo!
24-03-2021 16:46 naložil System
Sejalci: 2 / Odjemalci: 0 / Velikost: 984.47 MB / Dokončani: 11
Prenesi torrent Poročaj torrent Opis torrenta
Zvrst: Drama | Vojni
Kategorija: FILMI > HDTV
Anonimen nalagalec

Prolece.Na.Poslednjem.Jezeru.2020.HDTV.x264-BD4YU


Prolece na poslednjem jezeru 2020

Pomlad na zadnjem jezeru


Režija: Filip Čolović
Scenarij: Vule Žurić
Fotografija: Gojko Despotović
Žanri: Drama, Vojni

Igrajo: Tihomir Stanić, Nebojša Milovanović, Olga Odanović, Natasa Tapušković, Marija Vicković, Aleksandar Đurica, Jelena Ćuruvija, Dragan Petrović, Jovan Jovanović, Boris Komnenić, Branislav Trifunović

Producent: Marija Bereta
Produkcija: Radio-televizija Srbije
Izvajanje: 82 min
Država: Srbija
Jezik: Srbsko


Opis:

Pomlad na zadnjem jezeru je slika življenja našega slavnega pisatelja Iva Andrića med ambasadorstvom. Med drugo svetovno vojno so bili diplomati in diplomatsko osebje jugoslovanskih misij iz držav, ki jih je zasedel tretji rajh, deportirani v hotel na Bodenskem jezeru. Med diplomati je bil tudi Andrić, takrat veleposlanik jugoslovanske diplomatske misije v Berlinu. Vzporedno s pričakovanjem rešitve usode jugoslovanskih diplomatov, ki so bivali v hotelu, se razvija zanimiva zgodba o ljubezenskem trikotniku med Andrićem, kostumografinjo Milico Babić in njenim možem Nenadom Jovanovićem.

Tehnične specifikacije:

Ime datoteke: Prolece.Na.Poslednjem.Jezeru.2020.HDTV.x264-BD4YU.mkv
Oblika: MKV
Informacije o formatu: Matroska / WebM
Trajanje: 01: 22: 50.003
Velikost datoteke: 984,47 MB

Video informacije:
Video kodirnik: h264 (h.264 / avc / mpeg-4 avc / mpeg-4 del 10)
Ločljivost: 1024 * 436
Širina: 1024
Višina: 436
Razmerje zaslona: 40:17
Hitrost sličic: 25 sličic na sekundo
Video bitna hitrost: 1661 kb / s
Barvni prostor: yuv420p (tv

Zvočne informacije:
Dajalnik zvoka: aac (napredno kodiranje zvoka)
Avdio bitna hitrost: 0 kb / s
Hitrost vzorčenja: 48000 Hz
Zvočni kanali: stereo
Jezik: Srbski
Trajanje: 01: 22: 50.003


Želim vam hiter prenos in ne pozabite na sejanje!
Povratak.Otpisanih.S02.HDTVRip-R77

Klikni za povečavo!
21-03-2021 15:08 naložil rado77
Sejalci: 2 / Odjemalci: 0 / Velikost: 6.52 GB / Dokončani: 4
Prenesi torrent Poročaj torrent Opis torrenta
Zvrst: Akcija | Vojni
Kategorija: FILMI > TV - Serija

Povratak.Otpisanih.S02.HDTVRip-R77


Povratak otpisanih (1976)

VRNITEV ODPISANIH


Scenarij: Dragan Marković
Režija: Aleksandar Đorđević
Glasba: Milivoje Marković
Igrajo: Dragan Nikolic, Vojislav Brajovic, Zlata Petkovic, Pavle Vujisic, Aleksandar Bercek, Stevo Zigon, Tanasije Uzunovic, Mira Peic, Goran Sultanovic, Bozidar Savicevic in drugi.
Ideja za to serijo je temeljila na visokih ocenah serije "Odpisani" tako s strani občinstva kot kritikov.

Skupini partizanov, "odpisanih", je med drugim uspelo ujeti kvizlinškega ministra, prodreti v Beograd, da bi opravljala nevarne in občutljive naloge, kar jim je uspelo.
Zadnji dnevi vladavine Nemcev in Nedića. V pripravi je prevoz na Dunaj. Tu je naš človek "vstavljen".
V obleganem Beogradu ostaja le Krieger, ki še vedno seje smrt s svojega sedeža. Končno mora pobegniti. Preoblečen pride do Donave, a tam ga čaka past.

Vse to si boste ogledali v naslednjih 13 epizodah.

https://i.imgur.com/xBuQuuc.jpg

Tehnične specifikacije:

Ime datoteke: Povratak.Otpisanih.S02.HDTVRip-R77
Oblika: MP4
Informacije o obliki: QuickTime / MOV
Trajanje: 00: 57: 21.765
Velikost datoteke: 492,08 MB

Video informacije:
Video kodirnik: h264 (h.264 / avc / mpeg-4 avc / mpeg-4 del 10)
Ločljivost: 640 * 480
Širina: 640
Višina: 480
Razmerje zaslona: 4: 3
Hitrost sličic: 25 sličic na sekundo
Video bitna hitrost: 1064 kb / s
Barvni prostor: yuv420p

Zvočne informacije:
Dajalnik zvoka: aac (napredno kodiranje zvoka)
Avdio bitna hitrost: 128 kb / s
Hitrost vzorčenja: 44100 Hz
Zvočni kanali: stereo
Jezik: und
Trajanje: 00: 57: 21.690


NE POZABITE NA SEJANJE!

Veliko užitkov!
PublicAgent 21 01 03 Tina Fire XXX 1080p MP4-WRB

Klikni za povečavo!
15-03-2021 04:58 naložil BlackDevil
Sejalci: 1 / Odjemalci: 0 / Velikost: 818.79 MB / Dokončani: 6
Prenesi torrent Poročaj torrent Opis torrenta
Kategorija: FILMI > Risanke

Tina Fire HD Porn Videos (Now in 4k) - PlayVids

PublicAgent.21.01.03.Tina.Fire.XXX.1080p.MP4-WRB

Release Stats
Date.............: 2021-01-03
Files............: 18
Size.............: 818mb

Porn
Category.........: Adult

Information
File type........: MP4
Duration.........: 26min38sec
Resolution.......: 1920x1080
Bitrate..........: 4161 kb/s
Frame rate.......: 25.000 fps

Primeri.inspektorja.Vrenka.2020.S01E04.SLOVENiAN.1080p.HDTV.x264-N33D3R

Klikni za povečavo!
21-02-2021 10:33 naložil Spartakus
Sejalci: 1 / Odjemalci: 0 / Velikost: 3.52 GB / Dokončani: 16
Prenesi torrent Poročaj torrent Opis torrenta NFO
Zvrst: Kriminalka
Kategorija: FILMI > HDTV


Naziv: Primeri.inspektorja.Vrenka.2020.S01E04.SLOVENiAN.1080p.HDTV.x264-N33D3R
Source: DVB-C HD
Velikost ...........: 3.52 GB
Dolžina ............: 50 Minut
Video ...............: 9895 Kbps | 1920x1080 | 25 fps
Zvok .................: MP2 @192 kbps 2.0 Ch
Kodek...............: AVC
Zvrst………….....: Kriminalni
Jezik ................: Slovenski

Režija.........: Slobodan Maksimović, Boris Jurjaševič
Scenarij......: Avgust Demšar

Igrajo:
Dario Varga, Jurij Drevenšek, Lotos Šparovec, Janez Hočevar-Rifle, Katarina Čas, Barbara Lapajne Predin in drugi

Opis:
Šestdelna nadaljevanka je nastala po prvih treh romanih Avgusta Demšarja.
V središču dogajanja je seveda inšpektor Martin Vrenko (Dario Varga), ki se v Mariboru srečuje s preiskovanjem kriminalističnih primerov in temnih skrivnosti – pa tudi strasti –, ki usodno posegajo v življenja posameznikov.
Naslovni protagonist pa ima ob zahtevni službi opravka še s svojim ne prav preprostim zasebnim življenjem. Po materini smrti mora skrbeti za odtujenega očeta Borisa (Janez Hočevar – Rifle), z lastnico džezovskega lokala Mojco (Katarina Čas) pa razvija prijateljski odnos, iz katerega bo nemara zraslo kaj večjega.
Kriminalistično ekipo ob Vrenku sestavljata Marko Breznik (Jurij Drevenšek) in Oskar Brajdič (Lotos Šparovec), v preostalih vlogah pa se pojavlja več prepoznavnih igralk in igralcev.

Režijo nadaljevanke podpisujeta Slobodan Maksimović in Boris Jurjaševič, njeno avtorsko jedro pa sestavljajo še direktor fotografije Vladan G. Janković, scenografka Mateja Medvedić, kostumografka Katarina Šavs, oblikovalka maske Eva Uršič in montažer Jurij Moškon.

4.del:
Po krutem umoru v galeriji inšpektor Vrenko vedno močneje sumi, da se motiv za umore skriva v zapuščini slikarja Korenike. Čeprav se izkaže, da si je Silvan z svojim nebrzdanim življenjskim slogom nakopal veliko sovražnikov, pa je inšpektor Vrenko vse bolj prepričan, da se motiv za umore nahaja v Korenikini zapuščini. V pogovoru s poznavalcem slikarstva Liebmannom Vrenko pride do odkritja, ki dvigne vrednost zapuščine na povsem nov nivo. Sedaj mora Vrenko najti le še odgovor na na eno vprašanje – čigavo oko je opazilo dragocenost v zapuščini in jo zaželelo zadržati le zase.
Primeri.inspektorja.Vrenka.2020.S01E03.SLOVENiAN.1080p.HDTV.x264-N33D3R

Klikni za povečavo!
21-02-2021 10:30 naložil Spartakus
Sejalci: 1 / Odjemalci: 0 / Velikost: 3.34 GB / Dokončani: 15
Prenesi torrent Poročaj torrent Opis torrenta NFO
Zvrst: Kriminalka
Kategorija: FILMI > HDTV


Naziv: Primeri.inspektorja.Vrenka.2020.S01E03.SLOVENiAN.1080p.HDTV.x264-N33D3R
Source: DVB-C HD
Velikost ...........: 3.34 GB
Dolžina ............: 48 Minut
Video ...............: 9793 Kbps | 1920x1080 | 25 fps
Zvok .................: MP2 @192 kbps 2.0 Ch
Kodek...............: AVC
Zvrst………….....: Kriminalni
Jezik ................: Slovenski

Režija.........: Slobodan Maksimović, Boris Jurjaševič
Scenarij......: Avgust Demšar

Igrajo:
Dario Varga, Jurij Drevenšek, Lotos Šparovec, Janez Hočevar-Rifle, Katarina Čas, Barbara Lapajne Predin in drugi

Opis:
Šestdelna nadaljevanka je nastala po prvih treh romanih Avgusta Demšarja.
V središču dogajanja je seveda inšpektor Martin Vrenko (Dario Varga), ki se v Mariboru srečuje s preiskovanjem kriminalističnih primerov in temnih skrivnosti – pa tudi strasti –, ki usodno posegajo v življenja posameznikov.
Naslovni protagonist pa ima ob zahtevni službi opravka še s svojim ne prav preprostim zasebnim življenjem. Po materini smrti mora skrbeti za odtujenega očeta Borisa (Janez Hočevar – Rifle), z lastnico džezovskega lokala Mojco (Katarina Čas) pa razvija prijateljski odnos, iz katerega bo nemara zraslo kaj večjega.
Kriminalistično ekipo ob Vrenku sestavljata Marko Breznik (Jurij Drevenšek) in Oskar Brajdič (Lotos Šparovec), v preostalih vlogah pa se pojavlja več prepoznavnih igralk in igralcev.

Režijo nadaljevanke podpisujeta Slobodan Maksimović in Boris Jurjaševič, njeno avtorsko jedro pa sestavljajo še direktor fotografije Vladan G. Janković, scenografka Mateja Medvedić, kostumografka Katarina Šavs, oblikovalka maske Eva Uršič in montažer Jurij Moškon.

3.del:
Na otvoritvi retrospektive priznanega mariborskega slikarja Karola Korenike se zgodi umor. Žrtev je umetnikov sin, morilsko orodje pa del razstavljene umetnine – granitna kocka. Ko nekaj dni za tem umre še en član družine, se inšpektor Vrenko znajde pred posebno težko nalogo.

Primeri.inspektorja.Vrenka.2020.S01E02.SLOVENiAN.1080p.HDTV.x264-N33D3R

Klikni za povečavo!
21-02-2021 10:28 naložil Spartakus
Sejalci: 1 / Odjemalci: 0 / Velikost: 3.1 GB / Dokončani: 15
Prenesi torrent Poročaj torrent Opis torrenta NFO
Zvrst: Kriminalka
Kategorija: FILMI > HDTV



Naziv: Primeri.inspektorja.Vrenka.2020.S01E02.SLOVENiAN.1080p.HDTV.x264-N33D3R
Source: DVB-C HD
Velikost ...........: 3.10 GB
Dolžina ............: 47 Minut
Video ...............: 9310 Kbps | 1920x1080 | 25 fps
Zvok .................: MP2 @192 kbps 2.0 Ch
Kodek...............: AVC
Zvrst………….....: Kriminalni
Jezik ................: Slovenski

Režija.........: Slobodan Maksimović, Boris Jurjaševič
Scenarij......: Avgust Demšar

Igrajo:
Dario Varga, Jurij Drevenšek, Lotos Šparovec, Janez Hočevar-Rifle, Katarina Čas, Barbara Lapajne Predin in drugi

Opis:
Šestdelna nadaljevanka je nastala po prvih treh romanih Avgusta Demšarja.
V središču dogajanja je seveda inšpektor Martin Vrenko (Dario Varga), ki se v Mariboru srečuje s preiskovanjem kriminalističnih primerov in temnih skrivnosti – pa tudi strasti –, ki usodno posegajo v življenja posameznikov.
Naslovni protagonist pa ima ob zahtevni službi opravka še s svojim ne prav preprostim zasebnim življenjem. Po materini smrti mora skrbeti za odtujenega očeta Borisa (Janez Hočevar – Rifle), z lastnico džezovskega lokala Mojco (Katarina Čas) pa razvija prijateljski odnos, iz katerega bo nemara zraslo kaj večjega.
Kriminalistično ekipo ob Vrenku sestavljata Marko Breznik (Jurij Drevenšek) in Oskar Brajdič (Lotos Šparovec), v preostalih vlogah pa se pojavlja več prepoznavnih igralk in igralcev.

Režijo nadaljevanke podpisujeta Slobodan Maksimović in Boris Jurjaševič, njeno avtorsko jedro pa sestavljajo še direktor fotografije Vladan G. Janković, scenografka Mateja Medvedić, kostumografka Katarina Šavs, oblikovalka maske Eva Uršič in montažer Jurij Moškon.

2.del:
Ključ odklene skrbno varovano skrivnost nesrečnega zdravnika. Odkrita Pandorina skrinjica pa med sosedi sproži učinek domin in na plano druga za drugo pridejo skrivnosti ostalih stanovalcev. Izkaže se, da sta blišč in uglajenost zgolj fasada, za katero se skrivajo temne plasti človeške narave. Na videz nepovezano izginotje enega izmed sosedov pripelje inšpektorja Vrenka do morilca.



Poklon.slovenskih.glasbenikov.S.Avseniku.2013.720p.TVRip.R77

Klikni za povečavo!
23-01-2021 14:32 naložil rado77
Sejalci: 0 / Odjemalci: 1 / Velikost: 1.16 GB / Dokončani: 6
Prenesi torrent Poročaj torrent Opis torrenta
Zvrst: Glasbeni
Kategorija: GLASBA > Video

Poklon.slovenskih.glasbenikov.S.Avseniku.2013.720p.TVRip.R77


Poklon slovenskih glasbenikov
S.Avseniku


Koncert, ki je namenjena spominu na velikana slovenske narodno-zabavne glasbe, bodo o fenomenu bratov Avsenik govorili mag. Ivan Sivec, Vinko Šimek, Ciril Zlobec ter Jani Golob. Spomnili bomo na nastanek nekaterih najlepših pesmi, kot sta Na Golici in Tam, kjer murke cveto, predvajali pa bomo arhivske posnetke še drugih uspešnic: Slovenija, od kod lepote tvoje, Cveteli so beli kostanji, Pastirček, Prelepa Gorenjska ...
Slavko Avsenik bo obudil spomin na zlata leta ansambla, njegovi posnetki in fotografije pa bodo potrdili, da ostaja njegova glasba večna.


Melodije bratov Avsenik so doživele veliko interpretacij, tokrat bomo slišali najlepše v izvedbi Alfija Nipiča, Klemna Koširja, Modrijanov, Gregorja Avsenika in Ansambla Saše Avsenika ter Čukov. K poslušanju koncerta pa nas je povabil Slavko Avsenik.


Glasbena pot Slavka Avsenika

Slavko Avsenik se je rodil 26. novembra 1929 kot zadnji od štirih otrok Ivana in Marije Avsenik. Že kot sedemletnik je na očetovo željo z diatonično harmoniko nastopal v družinskem kvartetu. Po šoli je Slavko Avsenik ostal doma in pomagal na kmetiji, igral pa le priložnostno. V tistem času se je navdušil za smučarske skoke in se leta 1946 pridružil državni smučarski skakalni reprezentanci. Svoj osebni rekord je dosegel v Planici, kjer je skočil 74 metrov. Leta 1953 nastane trio Slavka Avsenika, iz katerega kasneje nastane Gorenjski kvartet. Dve leti kasneje se ta razširi v Gorenjski kvintet oz. kvintet bratov Avsenik, v tujini pa so nastopali pod imenom Oberkrainer Quintett. V štiridesetletni karieri so Avsenikove skladbe izšle na več kot 120 nosilcih zvoka. Skupno pa je bilo prodanih več kot 36 milijonov nosilcev zvoka, za katere so prejeli 33 zlatih, dve platinasti in eno diamantno ploščo. Brata Avsenik sta z več kot 700 novimi melodijami obogatila zakladnico slovenskih melodij, njune viže pa je poslušalo na milijone poslušalcev v Avstriji, Nemčiji, Švici, Franciji, Italiji, ZDA, Kanadi in drugod. Avseniki so ustvarili nov zven, ki ga pred tem nismo poznali, njihovo obliko kvinteta pa so posnemali tako doma kot po svetu. Leta 1999 je predsednik Republike Slovenija bratoma Avsenik podelili najvišje državno priznanje »za zasluge na področju slovensko zaznamovane množične glasbene kulture doma in široko po svetu«. Avseniki so nastopili več kot 10.000-krat, domačo gorenjsko glasbo pa ponesli v najprestižnejše in največje koncertne dvorane, vse do berlinske filharmonije. Avseniki se lahko pohvalijo tudi z več kot 10.000 posnemovalci in s 150 klubi ljubiteljev Avsenikove glasbe. Avseniki so ambasadorji Slovenije po svetu, saj so z uveljavitvijo značilnega glasbenega sloga pripomogli k njeni večji prepoznavnosti. Slovenski etnografski muzej je Avsenikovo glasbo kot poseben fenomen vpisal med slovensko nesnovno oziroma duhovno, kulturno dediščino.
Vir:RTV-SLO


Tehnične specifikacije:

Complete name : Poklon.slovenskih.glasbenikov.S.Avseniku.2013.720p.TVRip.R77
Format : MPEG-4
Format profile : Base Media
Codec ID : isom (isom/iso2/avc1/mp41)
File size : 1.16 GiB
Duration : 51 min 9 s
Overall bit rate : 3 244 kb/s
Writing application : Lavf58.20.100

Video
ID : 1
Format : AVC
Format/Info : Advanced Video Codec
Format profile : High@L3.1
Format settings : CABAC / 3 Ref Frames
Format settings, CABAC : Yes
Format settings, Reference frames : 3 frames
Codec ID : avc1
Codec ID/Info : Advanced Video Coding
Duration : 51 min 9 s
Bit rate : 3 109 kb/s
Width : 1 280 pixels
Height : 720 pixels
Display aspect ratio : 16:9
Frame rate mode : Constant
Frame rate : 25.000 FPS
Color space : YUV
Chroma subsampling : 4:2:0
Bit depth : 8 bits
Scan type : Progressive
Bits/(Pixel*Frame) : 0.135
Stream size : 1.11 GiB (96%)
Writing library : x264 core 148

Audio
ID : 2
Format : AAC LC
Format/Info : Advanced Audio Codec Low Complexity
Codec ID : mp4a-40-2
Duration : 51 min 9 s
Bit rate mode : Constant
Bit rate : 129 kb/s
Channel(s) : 2 channels
Channel layout : L R
Sampling rate : 44.1 kHz
Frame rate : 43.066 FPS (1024 SPF)
Compression mode : Lossy
Stream size : 47.1 MiB (4%)
Default : Yes
Alternate group : 1


Uživajte!
Poljub.ob.borovem.jezeru.aka.Kiss.at.Pine.Lake.SLOSubs.720p.HDTVRip x264.R77

Klikni za povečavo!
23-01-2021 11:39 naložil rado77
Sejalci: 0 / Odjemalci: 1 / Velikost: 939.69 MB / Dokončani: 2
Prenesi torrent Poročaj torrent Opis torrenta
Zvrst: Romantični
Kategorija: FILMI > HDRip

Poljub.ob.borovem.jezeru.aka.Kiss.at.Pine.Lake.SLOSubs.720p.HDTVRip x264.R77



Kiss at Pine Lake

Poljub ob borovem jezeru (2012)




O poljubu pri Pine Lakeu:


Petnajst let po poletni romantiki usoda prikliče dva zaljubljena zvezdnika. Zoe in Luke sta si prvi poljub skoraj delila ob jezeru Camp Pine, a sta ju prekinila in njuna najstniška romanca se je končala. Zdaj je Luke (Barry Watson) človekoljubni podjetnik, ki je pred kratkim zaradi sentimentalnih razlogov kupil stric's Camp Pine Lake, le da bi ugotovil, da bi lahko kamp zaprli zaradi kršitev varnostnih pravil. Zoe (Mia Kirshner) je glavna oseba iz podjetja, ki je novega lastnika kampa prepričalo, naj proda svojo zemljo.


Ko pride Zoe, z osuplostjo ugotovi, da je Luka novi lastnik. Zoe se vse spremeni, ko ugotovi, da Luke ne zanima dobiček, ampak želi, da ostane kamp odprt. Ko jo šef zapusti, se strinja, da bo prijateljstvo z Lukom izkoristila sebi v prid. Ali bosta zmogla premagati prevaro, da bi obudila svoj stari plamen in hkrati rešila umik iz otroštva?





Igrajo:

Mia Kirshner (VAMPIRJEV DNEVNIK, 24,
Barry Watson (7.NEBO,OCEANOVIH ENAJST )
Matty Finochio
Victoria Bidewell

Režija: Michael Scott

Država: Kanada
Jezik: angleščina
Podnapisi: slovenščina
Žanr: romantični





Tehnične specifikacije:



Complete name: Poljub.ob.borovem.jezeru.aka.Kiss.at.Pine.Lake.SLOSubs.720p.HDTVRip x264.R77

Format : MPEG-4
Format profile : Base Media
Codec ID : isom (isom/iso2/avc1/mp41)
File size : 940 MiB
Duration : 1 h 24 min
Overall bit rate : 1 546 kb/s
Writing application : Lavf58.29.100


Video

ID : 1
Format : AVC
Format/Info : Advanced Video Codec
Format profile : High@L3
Format settings : CABAC / 2 Ref Frames
Format settings, CABAC : Yes
Format settings, Reference frames : 2 frames
Codec ID : avc1
Codec ID/Info : Advanced Video Coding
Duration : 1 h 24 min
Bit rate : 1 412 kb/s
Width : 720 pixels
Height : 576 pixels
Display aspect ratio : 16:9
Frame rate mode : Constant
Frame rate : 25.000 FPS
Standard : PAL
Color space : YUV
Chroma subsampling : 4:2:0
Bit depth : 8 bits
Scan type : Progressive
Bits/(Pixel*Frame) : 0.136
Stream size : 858 MiB (91%)
Codec configuration box : avcC


Audio

ID : 2
Format : AAC LC
Format/Info : Advanced Audio Codec Low Complexity
Codec ID : mp4a-40-2
Duration : 1 h 24 min
Bit rate mode : Constant
Bit rate : 129 kb/s
Channel(s) : 2 channels
Channel layout : L R
Sampling rate : 44.1 kHz
Frame rate : 43.066 FPS (1024 SPF)
Compression mode : Lossy
Stream size : 78.3 MiB (8%)
Default : Yes
Alternate group : 1





UŽIVAJTE!
Podolskiye Kursanty 2020 SrbSubs 720p WEBRip XviD AC3 Unknown

Klikni za povečavo!
23-01-2021 10:55 naložil Ziva
Sejalci: 0 / Odjemalci: 0 / Velikost: 4.71 GB / Dokončani: 8
Prenesi torrent Magnet Link Poročaj torrent Opis torrenta NFO
Zvrst: Akcija | Vojni
Kategorija: FILMI > WEBRip-720



Podolskiye Kursanty 2020 720p WEBRip XviD AC3 Unknown
Language(s): Russian
Size: 4.70 GB | Duration: 2hr 16mn | Container: AVI
Audio: AC-3 | 448 Kbps | 6 Channels
Video: XviD | 4488 Kbps | 1280 x 536
Genre: Action | Drama | War


Artyom Gubin, Lubov Konstantinova, Igor Yudin


The film tells the story of the Podolsk cadets' heroic stand outside Moscow in October 1941. Cadets from the Podolsk infantry and artillery schools were sent to the Ilyinsky line of defense, fighting alongside units from the Soviet 43rd Army to hold back the German advance until reinforcements arrived. Hopelessly outnumbered, young men in their teens laid down their lives in a battle lasting almost two weeks to obstruct the far superior German forces advancing towards Moscow. This film is not only about war. It is also about love, true camaraderie, and the path from boyhood to manhood. Around 3,500 cadets and their commanding officers were sent to hold up the last line of defense outside Moscow. Most of them remained there for eternity.



Paul Anka - Duets (2013) FLAC

Klikni za povečavo!
19-01-2021 14:30 naložil System
Sejalci: 3 / Odjemalci: 0 / Velikost: 469.13 MB / Dokončani: 5
Prenesi torrent Poročaj torrent Opis torrenta NFO
Zvrst: Glasbeni
Kategorija: GLASBA > Glasba
Anonimen nalagalec

---------------------------------------------------------------------
Paul Anka - Duets
---------------------------------------------------------------------
Artist...............: Paul Anka
Album................: Duets
Genre................: Pop
Source...............: CD
Year.................: 2013
Ripper...............: EAC (Secure mode) / LAME 3.92 & Asus CD-S520
Codec................: Free Lossless Audio Codec (FLAC)
Version..............: reference libFLAC 1.2.1 20070917
Quality..............: Lossless, (avg. compression: 61 %)
Channels.............: Stereo / 44100 HZ / 16 Bit
News Server..........: news.astraweb.com
News Group(s)........: alt.binaries.pl.mp3
Included.............: NFO
Covers...............: Front Back
---------------------------------------------------------------------
Tracklisting
---------------------------------------------------------------------
1. Paul Anka - Walk A Fine Line (with Michael McDonald & George Benson)[05:32]
2. Paul Anka - Find My Way Back To Your Heart (with Tita Hutchison)[04:39]
3. Paul Anka - Do I Love You (Yes, In Every Way) (with Dolly Parton)[04:53]
4. Paul Anka - This Is It (with Michael Jackson) [04:07]
5. Paul Anka - I Really Miss You (with Leon Russell) [04:45]
6. Paul Anka - Think I’m In Love Again (with Gloria Estefan)[05:05]
7. Paul Anka - Pennies From Heaven (with Michael Buble) [04:12]
8. Paul Anka - Crazy (with Willie Nelson) [04:45]
9. Paul Anka - You Are My Destiny (with Patti LaBelle) [04:11]
10. Paul Anka - Les Filles de Paris (with Chris Botti) [05:02]
11. Paul Anka - It’s Hard To Say Goodbye (with Celine Dion) [05:11]
12. Paul Anka - She's A Lady (with Tom Jones) [04:20]
13. Paul Anka - Hold Me 'til The Morning Comes (with Peter Cetera)[04:52]
14. Paul Anka - My Way (with Frank Sinatra) [05:14]
15. Paul Anka - I'm Not Anyone (with Sammy Davis, Jr.) [04:08]
16. Paul Anka - Les Filles de Paris (with Chris Botti) (French Version)[05:03]
Playing Time.........: 01:16:07
Total Size...........: 468,61 MB
Primeri.inspektorja.Vrenka.2020.S01E01.avi

Klikni za povečavo!
13-01-2021 12:43 naložil Spartakus
Sejalci: 1 / Odjemalci: 0 / Velikost: 971.08 MB / Dokončani: 18
Prenesi torrent Poročaj torrent Opis torrenta
Zvrst: Kriminalka
Kategorija: FILMI > HDTV


INFO:
Naziv: Primeri.inspektorja.Vrenka.2020.S01E01.SLOVENiAN.HDTV.XviD-N33D3R
Source: Primeri.inspektorja.Vrenka.2020.S01E01.SLOVENiAN.1080p.HDTV.x264-N33D3R
Velikost ...........: 971 MB
Dolžina ............: 46 Minut
Video ...............: 2788 Kbps | 720x374 | 25 fps
Zvok .................: MP2 @192 kbps 2.0 Ch
Kodek...............: XviD
Zvrst………….....: Kriminalni
Jezik ................: Slovenski

Režija.........: Slobodan Maksimović, Boris Jurjaševič
Scenarij......: Avgust Demšar

IGRAJO:
Dario Varga, Jurij Drevenšek, Lotos Šparovec, Janez Hočevar-Rifle, Katarina Čas, Barbara Lapajne Predin in drugi

VSEBINA:
Šestdelna nadaljevanka je nastala po prvih treh romanih Avgusta Demšarja.
V središču dogajanja je seveda inšpektor Martin Vrenko (Dario Varga), ki se v Mariboru srečuje s preiskovanjem kriminalističnih primerov in temnih skrivnosti – pa tudi strasti –, ki usodno posegajo v življenja posameznikov.
Naslovni protagonist pa ima ob zahtevni službi opravka še s svojim ne prav preprostim zasebnim življenjem. Po materini smrti mora skrbeti za odtujenega očeta Borisa (Janez Hočevar – Rifle), z lastnico džezovskega lokala Mojco (Katarina Čas) pa razvija prijateljski odnos, iz katerega bo nemara zraslo kaj večjega.
Kriminalistično ekipo ob Vrenku sestavljata Marko Breznik (Jurij Drevenšek) in Oskar Brajdič (Lotos Šparovec), v preostalih vlogah pa se pojavlja več prepoznavnih igralk in igralcev.

Režijo nadaljevanke podpisujeta Slobodan Maksimović in Boris Jurjaševič, njeno avtorsko jedro pa sestavljajo še direktor fotografije Vladan G. Janković, scenografka Mateja Medvedić, kostumografka Katarina Šavs, oblikovalka maske Eva Uršič in montažer Jurij Moškon.

Phil Collins - Love Songs. A Compilation... Old and New [2CD] (2004) FLAC

Klikni za povečavo!
26-12-2020 05:29 naložil System
Sejalci: 1 / Odjemalci: 0 / Velikost: 734.67 MB / Dokončani: 7
Prenesi torrent Poročaj torrent Opis torrenta NFO
Zvrst: Glasbeni
Kategorija: GLASBA > Glasba
Anonimen nalagalec

---------------------------------------------------------------------
Phil Collins - Love Songs: A Compilation... Old and New
---------------------------------------------------------------------
Artist...............: Phil Collins
Album................: Love Songs: A Compilation... Old and New
Genre................: Rock
Source...............: CD
Year.................: 2004
Ripper...............: EAC (Secure mode) / LAME 3.92 & Asus CD-S520
Codec................: Free Lossless Audio Codec (FLAC)
Version..............: reference libFLAC 1.2.1 20070917
Quality..............: Lossless, (avg. compression: 63 %)
Channels.............: Stereo / 44100 HZ / 16 Bit
Tags.................: VorbisComment
News Server..........: news.astraweb.com
News Group(s)........: alt.binaries.pl.mp3
Included.............: NFO
Covers...............: Front Back CD
---------------------------------------------------------------------
Tracklisting CD1
---------------------------------------------------------------------
1. Phil Collins - Tearing and Breaking [05:32]
2. Phil Collins - Do You Remember [04:37]
3. Phil Collins - One More Night [04:52]
4. Phil Collins - Against All Odds [03:25]
5. Phil Collins - Can't Turn Back the Years [04:38]
6. Phil Collins - Groovy Kind of Love [03:30]
7. Phil Collins - Everyday [05:42]
8. Phil Collins - Don't Let Him Steal Your Heart Away [04:46]
9. Phil Collins - Please Come Out Tonight [05:48]
10. Phil Collins - This Must Be Love [03:34]
11. Phil Collins - It's in Your Eyes [02:53]
12. Phil Collins - Can't Stop Loving You [04:18]
Playing Time.........: 53:40
Total Size...........: 337,02 MB
---------------------------------------------------------------------
Tracklisting CD2
---------------------------------------------------------------------
1. Phil Collins - Testify [06:32]
2. Phil Collins - True Colours [05:32]
3. Phil Collins - You'll Be In My Heart [04:18]
4. Phil Collins - If Leaving Me Is Easy [04:54]
5. Phil Collins - I've Been Trying [05:00]
6. Phil Collins - I've Forgotten Everything [04:36]
7. Phil Collins - Somewhere [04:01]
8. Phil Collins - Least You Can [05:07]
9. Phil Collins - Two Hearts [03:24]
10. Phil Collins - Separate Lives (Live) [05:15]
11. Phil Collins - My Girl (Live) [03:43]
12. Phil Collins - Always (Live) [04:31]
13. Phil Collins - The Way You Look Tonight (Live) [04:00]
Playing Time.........: 01:00:59
Total Size...........: 397,53 MB
Primal.2019.SLOSubs.BRRip.XviD-DrSi

Klikni za povečavo!
14-12-2020 16:13 naložil Ziva
Sejalci: 0 / Odjemalci: 0 / Velikost: 2.21 GB / Dokončani: 7
Prenesi torrent Poročaj torrent Opis torrenta NFO
Zvrst: Akcija | Triler
Kategorija: FILMI >  BRRip



Naziv: Primal.2019.SLOSubs.BRRip.XviD-DrSi
Source: Primal.2019.720p.BluRay.DD+5.1.x264-LoRD
Leto izida ........: 2019
Velikost ...........: 2,00 GB
Dolžina ............: 97 Minut
Video ...............: 2808 Kbps | 720x304 | 23,976 fps
Zvok .................: Dolby Digital AC3 5.1 @ 448 Kbps
Kodek.................: XviD
Zvrst………….: Akcija | Triler
Država .............: ZDA
Jezik ................: Angleški
Podnapisi .........: Slovenski (RETAiL)
Prevod: RETAiL
Uredil: metalcamp
Tehnična obdelava: DVD Rippers Slovenija
Režija.........: Nick Powell
Scenarij.......: Richard Leder


Nicolas Cage ... Frank Walsh
Famke Janssen ... Dr. Ellen Taylor
Kevin Durand ... Richard Loffler
Jeremy Nazario ... Rafael
LaMonica Garrett ... John Ringer
Michael Imperioli ... Freed
Isaac Santiago ... Vasquez
Braulio Castillo hijo ... Morales
Tommy Walker ... Forrest
Sewell Whitney ... Scuddy


Lovec na velike živali za živalski vrt si je zagotovil mesto na latinskoameriški
tovorni ladji z eksotičnimi in smrtonosnimi živalmi iz Amazonije, med katerimi je
tudi redki beli jaguar. Njegov sopotnik je politični atentator, ki ga v tajnosti
izročajo ZDA. Dva dneva po začetku potovanja atentator pobegne in izpusti ujete
živali, na ladji pa izbruhne kaos.




Paul Mauriat - World Love Sounds [5CD Box] (1998) FLAC

Klikni za povečavo!
09-12-2020 15:48 naložil System
Sejalci: 1 / Odjemalci: 0 / Velikost: 1.04 GB / Dokončani: 8
Prenesi torrent Poročaj torrent Opis torrenta NFO
Zvrst: Glasbeni
Kategorija: GLASBA > Glasba
Anonimen nalagalec

---------------------------------------------------------------------
Paul Mauriat - World Love Sounds
---------------------------------------------------------------------
Artist...............: Paul Mauriat
Album................: World Love Sounds
Genre................: Easy Listening
Source...............: CD
Year.................: 1998
Ripper...............: EAC (Secure mode) / LAME 3.92 & Asus CD-S520
Codec................: Free Lossless Audio Codec (FLAC)
Version..............: reference libFLAC 1.2.1 20070917
Quality..............: Lossless, (avg. compression: 71 %)
Channels.............: Stereo / 24000 HZ / 16 Bit
Tags.................: VorbisComment
News Server..........: news.astraweb.com
News Group(s)........: alt.binaries.sounds.mp3.m
Included.............: NFO
Covers...............: Front CD
---------------------------------------------------------------------
Tracklisting CD1
---------------------------------------------------------------------
1. Paul Mauriat - Love Is Blue (Version' 82 [02:39]
2. Paul Mauriat - I Like Choppin [03:44]
3. Paul Mauriat - Bimbo [02:33]
4. Paul Mauriat - Pearl Fisher [03:15]
5. Paul Mauriat - Penelope [03:59]
6. Paul Mauriat - I Will Follow Him--Chario [02:47]
7. Paul Mauriat - Toccata [02:43]
8. Paul Mauriat - Chanson Pour Anna [02:48]
9. Paul Mauriat - Mamy Blue [02:50]
10. Paul Mauriat - Minuetto [02:25]
11. Paul Mauriat - Brasilia Carnaval [02:46]
12. Paul Mauriat - Nocturne [02:48]
13. Paul Mauriat - Reine De Saba [03:06]
14. Paul Mauriat - Siffier Sur La Colline [02:24]
15. Paul Mauriat - Tombe La Neige [02:55]
16. Paul Mauriat - Godfather [02:39]
17. Paul Mauriat - Petite Melodie [02:58]
18. Paul Mauriat - Piano Ballade [03:09]
Playing Time.........: 52:37
Total Size...........: 204,16 MB
---------------------------------------------------------------------
Tracklisting CD2
---------------------------------------------------------------------
1. Paul Mauriat - El Condor Pasa [03:10]
2. Paul Mauriat - Sunny [02:38]
3. Paul Mauriat - Careless Whisper [03:38]
4. Paul Mauriat - Souvenirs 'Memory [03:29]
5. Paul Mauriat - I Just Called To Say I Lo [03:48]
6. Paul Mauriat - Bridge Over Troubled Wate [03:06]
7. Paul Mauriat - Yesterday [02:33]
8. Paul Mauriat - Hey Jude [03:10]
9. Paul Mauriat - Yesterday Once More [03:48]
10. Paul Mauriat - Mandy [02:21]
11. Paul Mauriat - Physical [03:09]
12. Paul Mauriat - Flashdance...What A Feeli [03:48]
13. Paul Mauriat - Thriller [04:23]
14. Paul Mauriat - Let It Be [02:58]
15. Paul Mauriat - Mrs Robinson [03:08]
16. Paul Mauriat - Aquarius [02:33]
17. Paul Mauriat - Holidays [02:36]
18. Paul Mauriat - Melody Fair [02:49]
Playing Time.........: 57:16
Total Size...........: 217,63 MB
---------------------------------------------------------------------
Tracklisting CD3
---------------------------------------------------------------------
1. Paul Mauriat - Love Story (Une Histoire [03:04]
2. Paul Mauriat - Romeo Et Juliette [02:45]
3. Paul Mauriat - 13 Jours En France [02:36]
4. Paul Mauriat - Moulins De Mon Coeur (The [02:53]
5. Paul Mauriat - Jeux Interdits [03:23]
6. Paul Mauriat - Homme St Une Femme [02:24]
7. Paul Mauriat - Passager De La Pluie [03:34]
8. Paul Mauriat - Isadora [03:01]
9. Paul Mauriat - Way We Were [02:30]
10. Paul Mauriat - Contigo Mi Vida (D'apres [02:49]
11. Paul Mauriat - Dansez Maintenant (Moonli [03:04]
12. Paul Mauriat - Lecon Particuliere [01:59]
13. Paul Mauriat - Chanson De Lara [02:54]
14. Paul Mauriat - Sound Of Silence [03:05]
15. Paul Mauriat - Summer Place [02:20]
16. Paul Mauriat - Raindrops Keep Falling On [02:53]
17. Paul Mauriat - How Deep Is Your Love [03:05]
18. Paul Mauriat - Amapola [03:30]
Playing Time.........: 51:59
Total Size...........: 199,69 MB
---------------------------------------------------------------------
Tracklisting CD4
---------------------------------------------------------------------
1. Paul Mauriat - Hymne A L'amour [03:36]
2. Paul Mauriat - Le Temps Des Fleurs [02:51]
3. Paul Mauriat - Generique [02:47]
4. Paul Mauriat - Pour Un Flirt [02:28]
5. Paul Mauriat - Soleado [03:19]
6. Paul Mauriat - Qui Saura [02:39]
7. Paul Mauriat - My Way (Comme D'habitude) [02:56]
8. Paul Mauriat - L'orage "La Pioggia" [02:30]
9. Paul Mauriat - L'aigle Noir...Dedie A La [04:26]
10. Paul Mauriat - Sayonara [02:36]
11. Paul Mauriat - Rain And Tears [02:27]
12. Paul Mauriat - Catherine [02:35]
13. Paul Mauriat - Je T'aime Moi Non Plus [03:07]
14. Paul Mauriat - Inch Allah [02:52]
15. Paul Mauriat - Aranjuez...D'apres L'adag [05:08]
16. Paul Mauriat - Le Piano Sur La Vague [03:27]
17. Paul Mauriat - Pegase [03:35]
18. Paul Mauriat - Pobre Diable [03:01]
Playing Time.........: 56:27
Total Size...........: 219,69 MB
---------------------------------------------------------------------
Tracklisting CD5
---------------------------------------------------------------------
1. Paul Mauriat - O Show Ja Terminou [02:41]
2. Paul Mauriat - Teimosa [03:05]
3. Paul Mauriat - Folhas Secas [02:48]
4. Paul Mauriat - Joanna Francesa [03:18]
5. Paul Mauriat - O Moco Velho [03:28]
6. Paul Mauriat - Amada Amante [03:38]
7. Paul Mauriat - Retalhos De Cetim [03:38]
8. Paul Mauriat - Carinhoso [04:03]
9. Paul Mauriat - Proposta [03:21]
10. Paul Mauriat - Eu So Quero Um Xodo [02:50]
11. Paul Mauriat - Oracao De Mae Meninnha [02:45]
12. Paul Mauriat - Naquela Mesa [02:14]
13. Paul Mauriat - Amigo [04:11]
14. Paul Mauriat - Tranquei Avida [02:50]
15. Paul Mauriat - Somos Todos Iguais Nesta [03:29]
16. Paul Mauriat - Qualquer Coisa [02:48]
17. Paul Mauriat - Foi Assim [03:32]
18. Paul Mauriat - Juizo Final [02:45]
Playing Time.........: 57:31
Total Size...........: 221,91 MB
Possessor 2020 SrbSubs UNCUT 720p BRRip XviD AC3 XVID

Klikni za povečavo!
08-12-2020 15:37 naložil Ziva
Sejalci: 1 / Odjemalci: 0 / Velikost: 2.01 GB / Dokončani: 9
Prenesi torrent Poročaj torrent Opis torrenta NFO
Zvrst: Grozljivka | Triler | Z.F.
Kategorija: FILMI >  BRRip



Possessor 2020 UNCUT 720p BRRip XviD AC3 XVID
Language(s): English
Size: 2.01 GB | Duration: 1hr 44mn | Container: AVI
Audio: AC-3 | 640 Kbps | 6 Channels
Video: XviD | 2108 Kbps | 1280 x 720
Genre: Horror | Sci-Fi | Thriller
Podnapisi: srbski


Andrea Riseborough, Christopher Abbott, Jennifer Jason Leigh


Possessor follows an agent who works for a secretive organization that uses brain-implant technology to inhabit other people's bodies - ultimately driving them to commit assassinations for high-paying clients.




Pirates.Of.The.Caribbean.Collection.2003-2017.SLOSubs.720p.BRRip.H265-DrSi

Klikni za povečavo!
05-12-2020 11:52 naložil Ziva
Sejalci: 1 / Odjemalci: 0 / Velikost: 18.92 GB / Dokončani: 10
Prenesi torrent Poročaj torrent Opis torrenta NFO
Kategorija: FILMI >  BRRip



Pirates Of The Caribbean Collection 2003-2017
5 delov
Pirati iz Karibov
Zvrst : pustolovski
Podnapisi: slovenski
Video : 1280x534 H265


Johnny Depp
Geoffrey Rush
Orlando Bloom
Keira Knightley
Jonathan Pryce ...



Pozdrav iz Krvavih Revirjev 2018 SLOVENiAN 1080p MiXy

Klikni za povečavo!
03-12-2020 14:23 naložil System
Sejalci: 2 / Odjemalci: 0 / Velikost: 1.74 GB / Dokončani: 4
Prenesi torrent Poročaj torrent Opis torrenta
Kategorija: FILMI > Slo
Anonimen nalagalec

Pozdrav iz Krvavih Revirjev 2018 SLOVENiAN 1080p MiXy


Pozdrav iz Krvavih Revirjev (2018)
prva zasavska kriminalna komedija

Zasavsko društvo ljubiteljev filma FUD Loke Studio, ki deluje že dobro desetletje, se je letos lokalnemu občinstvu predstavilo z najnovejšim celovečernim filmom Pozdrav iz Krvavih Revirjev. Gre za prvo zasavsko kriminalko, zabeljeno s pristnim “knapovskim” humorjem in barvito igralsko zasedbo, v kateri med drugim nastopa tudi veliko znanih Zasavčanov, celo župana občin Trbovlje in Zagorje ob Savi. Zgodba filma ni pretirano kompleksna; v Zasavju se zgodi niz okrutnih umorov, katere morata razrešiti ambiciozni in ošabni policijski inšpektor iz Ljubljane in lokalni policist z lastnim razumevanjem črk zakona. Film je zamišljen kot “buddy-buddy” komedija, katere humor po pričakovanjih temelji na izpostavljanju osebnostnih razlik med glavnima junakoma, veliko šal pa je zastavljenih na tak način, da jih bodo najbolj razumeli predvsem Zasavci. Film si s tem resda postavi nekaj omejitev, še posebej pri gledalcih izven regije, toda hkrati je na srečo moč najti dovolj “univerzalnih” šal, ki bodo nasmejale širše občinstvo. Zgodba filma je spodobno razvita z nekaj nepričakovanimi zasuki, liki pa so ravno prav karikaturni, da ne izpadejo preveč nadležno. Izdelku bi lahko očital nekaj tehničnih napak, dolžino in prgišče slabo izpeljanih šal, vendar pa je v okviru neodvisne produkcije zelo soliden, tekoč in predvsem gledljiv. Neškodljivo razvedrilo.

Režiser: Matic Poropatič


Podrobnosti:
General
Complete name : Pozdrav iz Krvavih Revirjev 2018 SLOVENiAN 1080p MiXy
Format : MPEG-4
Format profile : Base Media
Codec ID : isom (isom/iso2/avc1/mp41)
File size : 1.74 GiB
Duration : 1 h 42 min
Overall bit rate : 2 435 kb/s
Writing application : Lavf58.20.100
Video
ID : 1
Format : AVC
Format/Info : Advanced Video Codec
Format profile : High@L4
Format settings : CABAC / 3 Ref Frames
Format settings, CABAC : Yes
Format settings, Reference frames : 3 frames
Codec ID : avc1
Codec ID/Info : Advanced Video Coding
Duration : 1 h 42 min
Duration_FirstFrame : -40 ms
Bit rate : 2 302 kb/s
Width : 1 920 pixels
Height : 1 080 pixels
Display aspect ratio : 16:9
Frame rate mode : Variable
Frame rate : 25.000 FPS
Minimum frame rate : 25.000 FPS
Maximum frame rate : 25.014 FPS
Color space : YUV
Chroma subsampling : 4:2:0
Bit depth : 8 bits
Scan type : Progressive
Bits/(Pixel*Frame) : 0.044
Stream size : 1.64 GiB (95%)
Color range : Limited
Color primaries : BT.709
Transfer characteristics : BT.709
Matrix coefficients : BT.709
Codec configuration box : avcC
Audio
ID : 2
Format : AAC LC
Format/Info : Advanced Audio Codec Low Complexity
Codec ID : mp4a-40-2
Duration : 1 h 42 min
Bit rate mode : Constant
Bit rate : 128 kb/s
Channel(s) : 2 channels
Channel layout : L R
Sampling rate : 44.1 kHz
Frame rate : 43.066 FPS (1024 SPF)
Compression mode : Lossy
Stream size : 93.6 MiB (5%)
Default : Yes
Alternate group : 1
KDOR SEJE TUDI ŽANJE!
Philippe L'Auran & The London Starlight Orchestra - Always On My Mind (1992) MP3

Klikni za povečavo!
13-11-2020 02:22 naložil System
Sejalci: 1 / Odjemalci: 0 / Velikost: 153.73 MB / Dokončani: 7
Prenesi torrent Poročaj torrent Opis torrenta NFO
Zvrst: Glasbeni
Kategorija: GLASBA > Glasba
Anonimen nalagalec

---------------------------------------------------------------------
Philippe L'auran With The London Starlight Orchestra - Always On My Mind
---------------------------------------------------------------------
Artist...............: Philippe L'auran With The London Starlight Orchestra
Album................: Always On My Mind
Genre................: Easy Listening
Source...............: CD
Year.................: 1992
Ripper...............: EAC (Secure mode) / LAME 3.92 & Asus CD-S520
Codec................: LAME 3.98
Version..............: MPEG 1 Layer III
Quality..............: Insane, (avg. bitrate: 320kbps)
Channels.............: Stereo / 44100 hz
Tags.................: ID3 v1.1, ID3 v2.3
Information..........:
News Server..........: news.astraweb.com
News Group(s)........: alt.binaries.pl.mp3
Included.............: NFO
---------------------------------------------------------------------
Tracklisting
---------------------------------------------------------------------
1. Philippe L'auran With The London Starlight Orchestra - Somwhere Out There[03:56]
2. Philippe L'auran With The London Starlight Orchestra - Groovy Kind Of Love[03:27]
3. Philippe L'auran With The London Starlight Orchestra - Ma Que Bello Questo Amore[03:47]
4. Philippe L'auran With The London Starlight Orchestra - Music[05:56]
5. Philippe L'auran With The London Starlight Orchestra - Right Here Waiting For You[04:26]
6. Philippe L'auran With The London Starlight Orchestra - The From "Missing"[04:05]
7. Philippe L'auran With The London Starlight Orchestra - This Melody[04:28]
8. Philippe L'auran With The London Starlight Orchestra - You Needed Me[03:59]
9. Philippe L'auran With The London Starlight Orchestra - Song For Guy[04:58]
10. Philippe L'auran With The London Starlight Orchestra - Sign Your Name[04:22]
11. Philippe L'auran With The London Starlight Orchestra - Another Day In Paradise[04:23]
12. Philippe L'auran With The London Starlight Orchestra - Anything For You[03:43]
13. Philippe L'auran With The London Starlight Orchestra - The Old Fashioned Way[04:17]
14. Philippe L'auran With The London Starlight Orchestra - Take My Breath Away[04:25]
15. Philippe L'auran With The London Starlight Orchestra - La Colegiala[03:30]
16. Philippe L'auran With The London Starlight Orchestra - Always On My Mind[02:59]
Playing Time.........: 01:06:49
Total Size...........: 152,94 MB
Pop Dance Exclusive Megamixes 2020 (2020) MP3

Klikni za povečavo!
10-11-2020 10:26 naložil System
Sejalci: 2 / Odjemalci: 0 / Velikost: 1.12 GB / Dokončani: 26
Prenesi torrent Poročaj torrent Opis torrenta NFO
Zvrst: Glasbeni
Kategorija: GLASBA > Glasba
Anonimen nalagalec

---------------------------------------------------------------------
VA - Pop Dance Exclusive Megamixes
---------------------------------------------------------------------
Artist...............: Various Artists
Album................: Pop Dance Exclusive Megamixes
Genre................: Pop, Dance, Electropop
Source...............: CD
Year.................: 2020
Ripper...............: EAC (Secure mode) / LAME 3.92 & Asus CD-S520
Codec................: LAME 3.99
Version..............: MPEG 1 Layer III
Quality..............: Extreme, (avg. bitrate: 317kbps)
Channels.............: Stereo / 44100 hz
Tags.................: ID3 v1.1, ID3 v2.3
Information..........:
News Server..........: news.astraweb.com
News Group(s)........: alt.binaries.pl.mp3
Included.............: NFO
---------------------------------------------------------------------
Tracklisting
---------------------------------------------------------------------
1. Millie Turner - Jungle [02:49]
2. Pouring - Burn [03:48]
3. The Disco Boys - Around The World [03:01]
4. Deborah Cox - Easy Way [02:49]
5. Brothers Feat. Ranieri - Don't Mind [03:12]
6. Imanbek - Blackout [02:39]
7. Matthias And Marss - When The Sky Falls Down [05:45]
8. Heavy-K - Sakho [06:01]
9. Dj Bebek - Disco Party [02:56]
10. Jay Lock - Fuori Di Testa [03:57]
11. Stylerockerz - Keep Living This Dream [05:09]
12. A-Mase & Sharliz - This Summer I'm Alone [06:24]
13. Gandalf Bosch - Tardi Ormai [03:19]
14. Don Diablo - Bad [02:47]
15. Nea - Some Say [03:04]
16. Loud Luxury & Cid - Nights Like This [02:50]
17. Imanbek, Martin Jensen - I'm Just Feelin [02:42]
18. Robin Schulz, Alida - In Your Eyes [03:25]
19. Dababy - Rockstar [04:35]
20. Dj Esteban - Don't Worry [04:01]
21. Bob Sinclar - I'm On My Way [02:48]
22. Eveningshade - Over My Head [03:48]
23. Rafa Dj - Ready Or Not [06:30]
24. Ken - Laura Non C'e [05:07]
25. Joachim Garraud - Lullaby [06:01]
26. Joel Corry - Lonely [04:13]
27. Paul Norval - Show No Shame [05:42]
28. Deco - Bart [03:38]
29. Green Olives - Jive In To The Night [07:41]
30. Tokimonsta Feat. Mndr - We Love [03:08]
31. Dj Shorty & El Micha - Shake Senora [02:49]
32. Miranda Lambert - Bluebird [03:15]
33. Trifle 69 - Blue [03:49]
34. Rockstroh - Tanzen [03:45]
35. Ann Lee - Ring My Bell [06:35]
36. Rooftime - Blind [02:58]
37. Vize, Tom Gregory - Never Let Me Down [02:30]
38. Micon - Alone In My Dreams [05:49]
39. Alex Schulz - My Heart Is Your Heart [03:16]
40. Airheadz - Slap Da Bass [09:12]
41. Crazibiza, House Of Prayers - Let's Dance [04:21]
42. Martin Solveig - Juliet & Romeo [03:22]
43. Fuorionda - Smile [03:01]
44. Trifle 69 - Blue (Da Ba Dee) [03:38]
45. Dj Aristocrat - Lost (Extended Mix) [04:29]
46. Momentums - Light It Up [04:16]
47. Josef Bamba - Real Talk [03:36]
48. S Club 7 - Bring It All Back [03:31]
49. Cyn - Drinks [02:14]
50. Nichole - Date With An Angel [02:50]
51. New Kids On The Block - Step By Step [04:24]
52. Wunderwerk - Luftschloss [03:11]
53. Helena - La Notte Vola [03:16]
54. Tones And I - Ur So F King Cool [04:18]
55. Gaia - Chega [03:02]
56. Md Dj - Killing Me Softly [03:17]
57. Rocco - Everybody [02:16]
58. Domino - Tora Tora Tora [07:12]
59. Junior Sanches - Make It [04:28]
60. B-1 - Ti Sento [03:39]
61. Kristian Martti - Still Dreaming [03:28]
62. Dj Triple A It And Jonny D - Que Viva La Fiesta [03:06]
63. Flip And Fill - Shooting Star [05:19]
64. Sebastien Drums - He's A Dream [03:20]
65. Robin Schulz - In Your Eyes [03:25]
66. Marnix Feat. Vibe - We Are Young [03:35]
67. Tom Wax - Sonic Empire [03:33]
68. Marc Korn - Wonderful Life [02:58]
69. Henrikz And Nina Carr - Love Me Free [03:12]
70. D.O.N.S. - Big Fun [02:54]
71. Sugar Jesus - Call My Name [02:38]
72. Aleks Syntek - Lindas Criaturitas (feat. Jns) [03:48]
73. Rgmusic Allstars - With Thanks From Allstars [05:16]
74. Bramd - In This Together [03:57]
75. Lady Gaga - Stupid Love [03:10]
76. Susan Bell - Stay With Me [04:44]
77. Harry Styles - Watermelon Sugar [02:28]
78. Nathan Dawe - Flowers [03:14]
79. Sean Finn - Sunglasses At Night [03:14]
80. Tempo Feat. Manola - Everybody Get Up [03:08]
81. Jay Dallenback - Insane [04:04]
82. Celeste - Stop This Flame [03:26]
83. Dj Gab And J Style - Intro Despedida [02:39]
84. Alex Gaudino - Remember Me [03:34]
85. Carlos Anthony - Minuikkio Dream [03:01]
86. The Sacados - Pensando En Esa Chica [04:40]
87. Cecilia Krull - Agnus Dei [02:38]
88. Dj Antoine, Willa - Kiss Me Hard [02:57]
89. Mr. Da-Nos - I Like To Move It [03:32]
90. Shirry D & Terri B! - Say You Want Me []
91. Sammy Porter - Devotion [02:51]
92. Alex Bj - Questa Insostenibile [03:21]
93. Torretta - Pixel [04:43]
94. Dave Rodgers - Made In Japan [04:35]
95. Handsome Habibi - Don't Waste My Time [02:36]
96. Sebastien Fontaine - House Is Mine [04:20]
97. Robin Knaak - Nightliner [02:36]
98. Totokardes - Gimme Your Vibration [02:21]
99. Annerley - It's Only Eurobeat [05:27]
100. Pandor Feat. Pandor - Fate [03:57]
101. Alan Benn - All I Want (Original Mix) [05:01]
102. Treasure - Come To Me [03:21]
103. Giona Guidi - Salentino [03:37]
104. Topic, A7S - Breaking Me [02:44]
105. Benny Camaro - I'm Running Away [04:29]
106. Jack Butler And Jon Bw - Looking Back On Heaven [07:23]
107. Deemania - Be Ok [03:07]
108. Kygo, Avicii, Sandro Cavazza - Forever Yours [03:11]
109. Dusty Rockers - Rise It (Original Mix) [04:27]
110. Fenomeno - All I Want [04:09]
111. Alok & Thrdl!fe - Hear Me Tonight [03:06]
112. Avian Grays - Come With Me [02:49]
113. Rolipso - Better Day [02:32]
114. Calmani & Grey - To The Moon And Back [02:27]
115. Kenny Chesney - Here And Now [03:03]
116. Espresso - Drive Me Crazy [06:31]
117. Audiojackers - I'm Losing Control [04:22]
118. J.F.M. Project - The Power Of Love [05:36]
119. Britney Spears - ...Baby One More Time [03:28]
120. Martin Solveig, Roy Woods - Juliet & Romeo [03:21]
121. Scotty - The Black Pearl [03:34]
122. Flip And Fill - Concrete Angel [06:59]
123. Gardna - Bureau De Change [04:44]
124. Sono - Keep Control [08:01]
125. Polina Jefferson - So Long [04:09]
Playing Time.........: 08:07:03
Total Size...........: 1150,19 MB
P.Domingo S.Brightman H.Lotti R.Cocciante - A Gala Christmas In Vienna( 1998) MP3

Klikni za povečavo!
31-10-2020 05:13 naložil System
Sejalci: 2 / Odjemalci: 0 / Velikost: 153.22 MB / Dokončani: 6
Prenesi torrent Poročaj torrent Opis torrenta NFO
Zvrst: Glasbeni
Kategorija: GLASBA > Glasba
Anonimen nalagalec

---------------------------------------------------------------------
Domingo/Brightman/Lotti/Cocciante - A Gala Christmas In Vienna
---------------------------------------------------------------------
Artist...............: Domingo/Brightman/Lotti/Cocciante
Album................: A Gala Christmas In Vienna
Genre................: Classical
Source...............: CD
Year.................: 1998
Ripper...............: EAC (Secure mode) / LAME 3.92 & Asus CD-S520
Codec................: LAME 3.98
Version..............: MPEG 1 Layer III
Quality..............: Insane, (avg. bitrate: 320kbps)
Channels.............: Stereo / 44100 hz
Tags.................: ID3 v1.1, ID3 v2.3
Information..........
News Server..........: news.astraweb.com
News Group(s)........: alt.binaries.sounds.mp3.m
Included.............: NFO
Covers...............: Front Back CD
---------------------------------------------------------------------
Tracklisting
---------------------------------------------------------------------
1. Domingo/Brightman/Lotti/Cocciante - Christmas Prologue [02:13]
2. Domingo/Brightman/Lotti/Cocciante - Deck The Halls [02:25]
3. Domingo/Brightman/Lotti/Cocciante - The Closing Of The Year[04:43]
4. Domingo/Brightman/Lotti/Cocciante - Tu Scendi Dalle Stelle[04:12]
5. Domingo/Brightman/Lotti/Cocciante - Walking In The Air [03:34]
6. Domingo/Brightman/Lotti/Cocciante - Adeste Fideles [03:58]
7. Domingo/Brightman/Lotti/Cocciante - Away In A Manger [03:29]
8. Domingo/Brightman/Lotti/Cocciante - An Old-Fashioned Christmas[04:06]
9. Domingo/Brightman/Lotti/Cocciante - First Of May [03:32]
10. Domingo/Brightman/Lotti/Cocciante - Il Re Gesu [04:42]
11. Domingo/Brightman/Lotti/Cocciante - Medley: Frohliche Weinacht[01:01]
12. Domingo/Brightman/Lotti/Cocciante - Medley: Cantemos Rapaces[01:33]
13. Domingo/Brightman/Lotti/Cocciante - Medley: Christmas Is Here Again[02:15]
14. Domingo/Brightman/Lotti/Cocciante - Medley: Child In A Manger[03:19]
15. Domingo/Brightman/Lotti/Cocciante - Medley: Angels From The Realms Of Glory[02:07]
16. Domingo/Brightman/Lotti/Cocciante - Medley: Another Christmas Song[02:17]
17. Domingo/Brightman/Lotti/Cocciante - Medley: Santa Claus Is Coming To Town[01:54]
18. Domingo/Brightman/Lotti/Cocciante - Medley: Happy Christmas (War Is Over)[03:59]
19. Domingo/Brightman/Lotti/Cocciante - Silent Night [07:17]
20. Domingo/Brightman/Lotti/Cocciante - First Of May [02:52]
Playing Time.........: 01:05:38
Total Size...........: 152,81 MB
Playing.with.Fire.2019.SLOSubs.BRRip.XviD-DrSi

Klikni za povečavo!
12-10-2020 10:06 naložil ViHaR
Sejalci: 1 / Odjemalci: 0 / Velikost: 2.2 GB / Dokončani: 7
Prenesi torrent Poročaj torrent Opis torrenta NFO
Kategorija: FILMI >  BRRip



Naziv: Playing.with.Fire.2019.SLOSubs.BRRip.XviD-DrSi
Source: Playing.with.Fire.2019.720p.BluRay.DD5.1.x264-PTer
Leto izida .........: 2019
Velikost ...........: 2,20 GB
Dolžina ............: 95 Minut
Video ...............: 2827 Kbps | 720x304 | 23,976 fps
Zvok .................: Dolby Digital AC3 5.1 @ 448 Kbps
Kodek.................: XviD
Zvrst………….: Komedija | Družinski
Država .............: ZDA
Jezik ................: Angleški
Podnapisi .........: Slovenski, Hrvaški (RETAiL)
Tehnična obdelava: DVD Rippers Slovenija

IMDb Ocena ...: 5,0/10 (9.261 glasov)
IMDb Info .......: https://www.imdb.com/title/tt9134216/

Režija.........: Andy Fickman
Scenarij.......: Dan Ewen


John Cena ... Jake
Keegan-Michael Key ... Mark
John Leguizamo ... Rodrigo
Tyler Mane ... Axe
Brianna Hildebrand ... Brynn
Christian Convery ... Will
Finley Rose Slater ... Zoey
Judy Greer ... Dr. Amy Hicks
Dennis Haysbert ... Commander Richards
Daniel Cudmore ... Burly Smoke Jumper #1


Pošteni, odločni nadzornik Jake Carson (John Cena) in njegovo elitno moštvo gasilcev
(Keegan-Michael Key, John Leguizamo, Tyler Mane) med nevarno akcijo pred divjim požarom
rešijo tri otroke (Brianna Hildebrand, Christian Convery, Finley Rose Slater), vendar
kmalu ugotovijo, da jih dolgoletno urjenje ni pripravilo na največji izziv v vsej
poklicni karieri: poklic varušk. Dokler ne najdejo staršev otrok, se morajo gasilci
prilagoditi položaju in sami poskrbeti zanje, to pa njihovo življenje zasuka na glavo.
Hitro spoznajo, da so mladostniki taki kot ogenj: neukrotljivi in skrajno nepredvidljivi.