A
B
C
D
E
F
G
H
I
J
K
L
M
N
O
P
Q
R
S
T
U
V
W
X
Y
Z
0-9
The.Hitcher.1986.SloSub.DVDRip.XviD-Churchill

Klikni za povečavo!
Sobota at 13:31 naložil System
Sejalci: 4 / Odjemalci: 0 / Velikost: 1.47 GB / Dokončani: 6
Prenesi torrent Poročaj torrent Opis torrenta
Zvrst: Akcija | Triler
Kategorija: FILMI > XviD
Anonimen nalagalec

The Hitcher (1986)
Avtoštopar (1986)



INFO:
-------------
Codec : XVID
Format : AVI
Size : 1.47 GiB
Bit rate : 1 801 kb/s
Width : 720 pixels
Height : 304 pixels
Aspect ratio : 16/9
Audio 1 : AC-3
Bit rate : 448 kb/s
Channel(s) : 6 channels
Channel positions: L R C LFE Ls Rs
Sampling rate : 48.0 kHz
Genre : Action, Thriller
Country : USA
Language : English/ French
Subtitles : Slovenski
Runtime : 93 min
Čas predvajanja : 1 h 33 min

IMDb user Rating: 7,2/10 (43.498)
IMDb Link: KLIK

IGRALCI:
-------------
Rutger Hauer ... John Ryder
C. Thomas Howell ... Jim Halsey
Jennifer Jason Leigh ... Nash
Jeffrey DeMunn ... Captain Esteridge
John M. Jackson ... Sergeant Starr
Billy Green Bush ... Trooper Donner
Jack Thibeau ... Trooper Prestone
Armin Shimerman ... Interrogation Sergeant
Gene Davis ... Trooper Dodge
Jon Van Ness ... Trooper Hapscomb
Henry Darrow ... Trooper Hancock
Tony Epper ... Trooper Conners
Tom Spratley ... Proprietor
Colin Campbell ... Construction Man

OPIS:
-------------
Zgodba o motenem morilcu in njegovem lovu na mladeniča...


The.Man.with.One.Red.Shoe.1985.SloSub.DVDRip.XviD-Churchill

Klikni za povečavo!
12-01-2021 15:18 naložil System
Sejalci: 1 / Odjemalci: 0 / Velikost: 1.19 GB / Dokončani: 5
Prenesi torrent Poročaj torrent Opis torrenta
Zvrst: Komedija | Triler
Kategorija: FILMI > XviD
Anonimen nalagalec

The Man with One Red Shoe (1985)
Zaljubljen v vohunko (1985)



INFO:
-------------
Codec : XVID
Format : AVI
Size : 1.19 GiB
Bit rate : 1 724 kb/s
Width : 720 pixels
Height : 384 pixels
Aspect ratio : 16/9
Audio 1 : AC-3
Bit rate : 192 kb/s
Channel(s) : 2 channels
Channel positions: L R
Sampling rate : 48.0 kHz
Genre : Comedy, Thriller
Country : USA
Language : English
Subtitles : Slovenski
Runtime : 88 min
Čas predvajanja : 1 h 28 min

IMDb user Rating: 5,7/10 (14.745)
IMDb Link: KLIK

IGRALCI:
-------------
Tom Hanks ... Richard
Dabney Coleman ... Cooper
Lori Singer ... Maddy
Charles Durning ... Ross
Carrie Fisher ... Paula
Edward Herrmann ... Brown
Jim Belushi ... Morris
Irving Metzman ... Virdon
Tom Noonan ... Reese
Gerrit Graham ... Carson
David L. Lander ... Stemple
Ritch Brinkley ... Hulse
Frank Hamilton ... Edgar
Dortha Duckworth ... Natalie
David Ogden Stiers ... The Conductor

OPIS:
-------------
Človek, naključno izbran iz množice, je tarča nadzora in zasledovanja
Cie...

Dobro pazite kakšne čevlje nosite, če ne želite postati tajni agent,
z rdečim čevljem...



Dark.Shadows.2012.SloSub.DVDRip.XviD-Churchill

Klikni za povečavo!
08-01-2021 17:08 naložil System
Sejalci: 1 / Odjemalci: 0 / Velikost: 1.4 GB / Dokončani: 3
Prenesi torrent Poročaj torrent Opis torrenta
Kategorija: FILMI > XviD
Anonimen nalagalec

Dark Shadows (2012)
Temne sence (2012)



INFO:
-------------
Codec : XVID
Format : AVI
Size : 1.40 GiB
Bit rate : 1 451 kb/s
Width : 720 pixels
Height : 384 pixels
Aspect ratio : 16/9
Audio 1 : AC-3
Bit rate : 384 kb/s
Channel(s) : 6 channels
Channel positions: L R C LFE Ls Rs
Sampling rate : 48.0 kHz
Genre : Comedy, Fantasy, Horror
Country : USA/ Australia/ UK
Language : English
Subtitles : Slovenski
Runtime : 108 min
Čas predvajanja : 1 h 48 min

IMDb user Rating: 6,2/10 (246.843)
IMDb Link: KLIK

IGRALCI:
-------------
Johnny Depp ... Barnabas Collins
Michelle Pfeiffer ... Elizabeth Collins Stoddard
Helena Bonham Carter ... Dr. Julia Hoffman
Eva Green ... Angelique Bouchard
Jackie Earle Haley ... Willie Loomis
Jonny Lee Miller ... Roger Collins
Bella Heathcote ... Victoria Winters / Josette DuPres
Chloe Grace Moretz ... Carolyn Stoddard
Gulliver McGrath ... David Collins
Ray Shirley ... Mrs. Johnson
Christopher Lee ... Clarney
Alice Cooper ... Alice Cooper
Ivan Kaye ... Joshua Collins
Susanna Cappellaro ... Naomi Collins
Josephine Butler ... David's Mother

OPIS:
-------------
Režiser slikovitih srhljivk Brezglavi jezdec in Sweeney Todd: Hudičev
brivec, predstavlja zgodbo premožnega mladeniča Barnabasa, ki ga je
ljubosumna čarovnica v 18. stoletju oropala ljubezni, spremenila v
vampirja in zakopala v temačni grob. Leta 1972 Barnabas znova vstane
od mrtvih in priskoči na pomoč obubožanim in necenjenim potomcem svoje
družine. Toda težko privajanje na tehnološki napredek in divji časi
brezmejne ljubezni, drog in rock'n'rolla ga privedejo v številne
zabavne težave, naposled pa se mora soočiti tudi s še vedno živo in
zelo vplivno smrtno sovražnico...





Highwaymen.2004.SloSub.DVDRip.XviD-Churchill

Klikni za povečavo!
06-01-2021 14:30 naložil System
Sejalci: 5 / Odjemalci: 0 / Velikost: 1.27 GB / Dokončani: 12
Prenesi torrent Poročaj torrent Opis torrenta
Kategorija: FILMI > XviD
Anonimen nalagalec

Highwaymen (2004)



INFO:
-------------
Codec : XVID
Format : AVI
Size : 1,27 GB
Bit rate : 1 904 kb/s
Width : 720 pixels
Height : 352 pixels
Aspect ratio : 16/9
Audio 1 : AC-3
Bit rate : 448 kb/s
Channel(s) : 6 channels
Channel positions: L R C LFE Ls Rs
Sampling rate : 48.0 kHz
Genre : Action, Crime, Horror, Thriller
Country : USA/ Canada
Language : English
Subtitles : Slovenski
Runtime : 77 min
Čas predvajanja : 1 h 17 min

IMDb user Rating: 5,7/10 (8.414)
IMDb Link: KLIK

IGRALCI:
-------------
Jim Caviezel ... James 'Rennie' Cray
Rhona Mitra ... Molly Poole
Frankie Faison ... Will Macklin
Colm Feore ... Fargo
Gordon Currie ... Ray Boone
Andrea Roth ... Alexandra Farrow
Noam Jenkins ... Kelt
Toby Proctor ... Rookie
James Kee ... Trauma Counselor
Guylaine St-Onge... Olivia Cray
Joe Pingue ... Long Hair Mechanic
Martin Roach ... Detective
Ron Bell ... Semi Driver
Paul Rutledge ... Pickup Driver
Kelly Jones ... Pickup Passenger

OPIS:
-------------
Rennie Cray (Caviezel) se hoče maščevati za smrt svoje žene, ki jo je
umoril serijski morilec - moškega, ki lovi in ubija ženske s svojim
El Doradom iz leta 72...




The Song Of Names 2019 SrbSubs 720p BRRip XviD AC3 Unknown

Klikni za povečavo!
03-12-2020 14:55 naložil rado77
Sejalci: 1 / Odjemalci: 0 / Velikost: 2.35 GB / Dokončani: 0
Prenesi torrent Poročaj torrent Opis torrenta
Kategorija: FILMI > XviD

The Song Of Names 2019 SrbSubs 720p BRRip XviD AC3-Unknown


The Song of Names 2019


PESEM O IMENIH
(PESMI IMEN)


Clive Owen in Tim Roth igrata v drami Francoisa Girarda o judovskem glasbeniku, ki je pred holokavstom in njegovim posvojenim angleškim bratom komaj pobegnil s Poljske.

"Pesem o imenih", ki jo je priredil Jeffrey Caine ("GoldenEye", "The Constant Gardener") iz nagrajenega romana kulturnega komentatorja Normana Lebrechta iz leta 2002, je morda izmišljena skrivnostna drama, vendar je njena zgodba resnična kot mnogi resnične zgodbe, osredotočene na holokavst, ki so se prebile do zaslona, ​​odra ali strani. To je globoka, prizadevna in lepo pripovedovana kronika vere, družine, obsedenosti in glasbenega jezika.
Konec tridesetih let, tik pred začetkom druge svetovne vojne, se londonski glasbeni založnik Gilbert Simmonds (Stanley Townsend) strinja, da sprejme Dovidla Rapoporta (Luke Doyle), 9-letnega judovskega violinskega čudeža iz Varšave, čigar oče Zygmunt , želi obdariti svojega sina na varnem in daleč stran od grozeče nacistične invazije na Poljsko. Zygmunt se vrne domov, da bi zaščitil svojo ženo in hčere.
Po skalnatem začetku Martin in Dovidl postaneta tesna prijatelja, tekmovalna in borbena, hkrati pa globoko zaupljiva in zaščitniška. Dovidlovo violinsko znanje, ki ga je gojil velikodušen Gilbert, raste v najstniških letih (kjer ga igra Jonah Hauer-King), prav tako pa tudi njegovo bratstvo z Martinom (danes Gerran Howell). Medtem se Dovidlovi starši in sestre nikoli več niso slišali in čeprav Dovidl domneva, da je najslabše kar je lahko, ohranja kanček upanja.
Toda na noč Dovidlovega koncertnega prvenca v Londonu leta 1951, velikega dogodka, ki ga je Gilbert tvegano priredil in financiral, zdaj 21-letni violinist ni nastopil in je izginil. To je potem, ko se razočarani Dovidl v močni sceni v londonski sinagogi odreče svojemu judovstvu in religijo šteje za "plašč, ki si ga je treba sleči in odvžti".
...Martin odide v Varšavo, da bi izvedel, kaj se je zgodilo z izmuzljivim Dovidlom.


Igrajo: Tim Roth, Clive Owen, Catherine McCormack, Jonah Hauer-King, Gerran Howell, Luke Doyle, Misha Handley, Stanley Townsend, Magdalena Cielecka, Eddie Izzard, Marina Hambro , Amy Sloan, Saul Rubinek, Richard Bremmer, Julian Wadham, Daniel Mutlu
Režija: Francois Girard
Scenarist: Jeffrey Caine, po romanu Normana Lebrechta
Producenti: Robert Lantos, Lyse Lafontaine, Nick Hirschkorn
Izvršni producenti: Mark Musselman, Randy Lennox, Peter Touche, Stephen Spence, Nadine Luque, Joe Iacono, Tibor Krsko, Anant Singh, Peter Watson, Jens Meurer, Klemens Hallman, Alan Howard, Christian Angermayer
Direktor fotografije: David Franco
Oblikovalec produkcije: Francois Seguin
Kostumograf: Anne Dixon
Montažer: Michel Arcand
Glasba: Howard Shore
Casting: Kirsty Kinnear, Pam Dixon, Susie Figgis
Država: Kanada, Madžarska, Združeno kraljestvo, Nemčija
Jezik: angleščina
Podnapisi: Srbski
Datum izdaje:6. februar 2020 (Madžarska)


Tehnične specifikacije:
Complete name : The Song Of Names 2019 SrbSubs 720p BRRip XviD AC3 Unknown\The.Song.of.Names.2019.720p.BRRip.XviD.AC3-Unknown.avi
Format : AVI
Format/Info : Audio Video Interleave
Format profile : OpenDML
File size : 2,35 GiB
Duration : 1 h 53 min
Overall bit rate : 2 .980 kb/s
Writing application : Lavf58.31.104

Video
ID : 0
Format : xvid
Codec ID : xvid
Duration : 1 h 53 min
Bit rate : 2 .521 kb/s
Width : 1 .280 piksela
Height : 534 piksela
Display aspect ratio : 2,40:1
Frame rate : 23,976 (24000/1001) FPS
Scan type : Progresivno
Bits/(Pixel*Frame) : 0.154
Stream size : 1,99 GiB (85%)

Audio
ID : 1
Format : AC-3
Format/Info : Audio Coding 3
Commercial name : Dolby Digital
Codec ID : 2000
Duration : 1 h 53 min
Bit rate mode : Ustaljeno
Bit rate : 448 kb/s
Channel(s) : 6 kanala
Channel layout : L R C LFE Ls Rs
Sampling rate : 48,0 kHz
Frame rate : 31,250 FPS (1536 SPF)
Bit depth : 16 bita
Compression mode : Lossy
Stream size : 363 MiB (15%)
Alignment : Usmjerenje sukladno čimbeniku 'interleave'
Interleave, duration : 32 ms (0,77 video-sličica)[/size]

VELIKO UŽITKOV!
Lek.2000.Slo.Sub.DVDRip.XviD-Churchill

Klikni za povečavo!
30-11-2020 12:35 naložil System
Sejalci: 1 / Odjemalci: 0 / Velikost: 1.21 GB / Dokončani: 4
Prenesi torrent Poročaj torrent Opis torrenta
Kategorija: FILMI > XviD
Anonimen nalagalec

Lek (2000)
Dosje: ovaduh (2000)



INFO:
-------------
Codec : XVID
Format : AVI
Size : 1.21 GiB
Width : 704 pixels
Height : 304 pixels
Bit rate : 1 439 kb/s
Aspect ratio : 16:9
Audio 1 : AC3 2-ch Dutch
Bit rate : 224 kb/s
Channel(s) : 2 channels
Channel positions: L R
Sampling rate : 48.0 kHz
Genre : Action, Crime, Thriller
Country : Netherlands
Language : Dutch
Subtitles : Slovenski
Runtime : 104 min
Čas predvajanja : 1:43.33

IMDb user Rating: 7,0/10 (2.783)
IMDb Link: KLIK

IGRALCI:
-------------
Cas Jansen ...> Eddy
Ricky Koole ...> Ria
Thomas Acda ...> Franco
Victor Löw ...> Jack
Gijs Scholten van Aschat ...> Ferdinand de Wit
Lou Landre ...> politiechef Berg
Jacob Derwig ...> Patrick
Ton Kas ...> Haveman
Jacqueline Blom ...> Gynaecologe
Loes Wouterson ...> Wachtcommandant
Ad Knippels ...> Agent Erik
Mohammed Azaay ...> Agent Suat
Kees Boot ...> Agent Kees
Rob Bartels ...> Agent
Ben Ramakers ...> Agent Henk

OPIS:
-------------
Poleg tega, da se kariera policaja Eddy-ja ne odvija po njegovih
pričakovanjih, ga istočasno spremljajo tudi družinske težave.
Priložnost se mu ponudi v trenutku, ko od njega zahtevajo, da se
sreča s kriminalcem Jackom, njegovim prijateljem iz otroštva. Ta se
namreč odloči policiji posredovati nekatere informacije o načrtovanih
akcijah kriminalcev. Toda do akcij ne pride in kmalu postane jasno da
tudi med policaji obstaja ovaduh...


Les Aventures De Rabbi Jacobm 1973

Klikni za povečavo!
18-11-2020 12:33 naložil ViHaR
Sejalci: 1 / Odjemalci: 0 / Velikost: 693.56 MB / Dokončani: 7
Prenesi torrent Poročaj torrent Opis torrenta NFO
Zvrst: Komedija
Kategorija: FILMI > XviD



Čas trajanja : 01:31:36
Popoln film : Da
Resolucija : 528x336
Kodek : DivX 3 (Low motion)
FPS : 25,00
Hitrost : 961 Kbps
Koeficient Kvalitete : 0,22 b/px
Kodek : MPEG 1 or 2 Audio Layer 3 (MP3)
Število kanalov : 2
Primerjalna hitrost : 44100 Hz
Hitrost : 96 Kbps


Louis de Funès, Miou-Miou, Suzy Delair



A bigoted Frenchman finds himself forced to impersonate a popular rabbi while on the run from a group of assassins - and the police.




ZGODA.2017.SRBSub.PL.WEB-DL.XVID-R77

Klikni za povečavo!
22-10-2020 14:38 naložil rado77
Sejalci: 1 / Odjemalci: 0 / Velikost: 934.39 MB / Dokončani: 5
Prenesi torrent Poročaj torrent Opis torrenta
Zvrst: Drama | Vojni
Kategorija: FILMI > XviD

ZGODA.2017.SRBSub.PL.WEB-DL.XVID-R77


The Reconciliation (2017)
Zgoda (2017)

Privolitev (2017) - Sprava



LETO: 2017
ZVRST: drama, vojni
TRAJANJE: 87 min
REŽIJA: Maciej Sobieszczanski
SCENARIJ: Malgorzata Sobieszczanska





GLAVNE VLOGE:

Tomasz Sapryk > Atholff
Danuta Stenka > Franek je mati
Wojciech Zielinski > Poveljnik
Magdalena Bieganska > Gertruda (kot Magda Bieganska)
Pawel Tomaszewski > Wrobel
Jakub Gierszal > Erwin
Jacek Beler > Tall
Stanislaw Cywka > Jožef
Rafal Garnecki > Thin
Zofia Wichlacz > Anna
Martyna Krzysztofik > prostitutki
Julian Swiezewski > Franek
Filip Krupa > Antek
Jakub Sasak > Janek





ZGODBA:

Začetek leta 1945, Poljska. Na pravkar osvobojenih območjih komunistična varnostna služba odpravi sovražnike pod pretvezo, da kaznuje "narodne izdajalce". Organizira delovno taborišče za Nemce, Šlezijce in Poljake na mestu nekdanjega nacističnega koncentracijskega taborišča z imenom Zgoda / Sprava. Franek, ki je zaljubljen v poljsko ujetnico Anno, se pridruži taborišču, da jo reši. Ne ve, da je eden od zapornikov Erwin, njegov nemški prijatelj, ki ima tako kot on tudi Anno že dolgo rad. Franek se pridruži komunistom v iluzornem upanju, da bodo sistem prelisičili.




PODROBNOSTI:

Država: Poljska
Jezik: Poljski
Datum izdaje:13. oktober 2017 (Poljska)
Podnapisi: Srbščina - latinica - dodan SRBSub-cyr
Izvajanje: 87 min

Ostale inf.:


KDOR SEJE TUDI ŽANJE!
Der.Uberlaufer.aka.The.Turncoat.2020.SLOSubs.720p.WEB-DL.H264.AAC-R

Klikni za povečavo!
11-10-2020 14:52 naložil System
Sejalci: 3 / Odjemalci: 0 / Velikost: 3.94 GB / Dokončani: 5
Prenesi torrent Poročaj torrent Opis torrenta NFO
Zvrst: Drama | Vojni | Zgodovinski
Kategorija: FILMI > XviD
Anonimen nalagalec


Der.Uberlaufer.aka.The.Turncoat.2020.SLOSubs.720p.WEB-DL.H264.AAC-R





Der Uberlaufer aka The Turncoat 2020

MINI SERIJA V DVEH DELIH
Prvič je bila predvajana kot štiridelna mini serija na spletu od 1. aprila 2020 v medijski knjižnici ARD





PREBEŽNIK




Zgodba:

Mladi nemški vojak Walter Proska (Jannis Niewöhner) se je zadnje poletje vojne leta 1944 vrnil z domačih počitnic na vzhodno fronto. A vlak, ki naj bi ga peljal na fronto, napadejo partizani. Walter se znajde v skupini raztresenih pripadnikov Wehrmachta, ki so jih ostale čete zapustile in so obkroženi s sovražniki in se bojijo za svoje življenje. V tej obupni situaciji sreča partizanko Wando (Malgorzata Mikolajczak). Ti in Walterjev tovariš Kürschner (Sebastian Urzendowsky) ga dvomita v pravilnost svoje zaveze in prisege ...





Igralska zasedba:

vloga:¸¸¸¸¸¸¸¸¸¸¸¸¸¸¸¸¸¸¸¸¸¸¸¸¸¸¸¸¸¸¸¸¸Igralec:

Walter Proska..........................Jannis Niewöhner
Wanda Zielinski.......................Malgorzata Mikolajczak
Wolfgang Kürschne.................Sebastiana Urzendowskega
Willi vstani...............................Rainer Bock
Ferdinand Ellerbrok "Baffi"......Bjarne punca
Maria Rogalski........................Katharina Schüttler
Kurt Rogalski..........................Shenja se zasmeje
Paul Zacharias........................Florian Lukas
Zwiczosbirski..........................Adam Venhaus
Helmut Poppek.......................Mathias Herrmann
Jakub Zielinski........................Wieslaw Zanowicz
Župnik Jan Kowolski...............Janusz Cichocki
Glasba:Antoni Lazarkiewicz
Kamera:Arthur Reinhart
Scenarij in režija:Bernd Lange, Florian Gallenberger
Direktor:Florian Gallenberger

Žanri: drama, zgodovina, vojna


Podrobnosti:

Država: Nemčija
Jezik: Nemščina, Poljščina, Rusko
Datum izdaje:1. april 2020 (Nemčija)
Podnapisi: Slovenski
Izvajanje: 173 min

IMDb ocena: 6.8/10 ..... link: https://www.imdb.com/title/tt5917226/?ref_=nv_sr_srsg_0





KDOR SEJE TUDI ŽANJE!
Summerland 2020 SrbSubs 720p WEB DL XviD AC3 FGT

Klikni za povečavo!
10-10-2020 14:23 naložil System
Sejalci: 1 / Odjemalci: 0 / Velikost: 2.65 GB / Dokončani: 4
Prenesi torrent Poročaj torrent Opis torrenta NFO
Zvrst: Drama | Romantični | Vojni
Kategorija: FILMI > XviD
Anonimen nalagalec

Summerland 2020 SrbSubs 720p WEB DL XviD AC3 FGT





Summerland (2020)


POLETJE





Izvirni naslov: Poletje
Leto: 2020
Čas delovanja: 99 min.
Država: Združeno kraljestvo Združeno kraljestvo
Direktor: Jessica Swale
Scenarist: Jessica Swale
Glasba: Volker Bertelmann
Kinematografija: Laurie Rose




Igralska zasedba:

Gemma Arterton, Lucas Bond, Gugu Mbatha-Raw, Penelope Wilton, Tom Courtenay, Bernardo Santos, Dixie Egerickx, Sally Scott, Joshua Riley, Dominic McGreevy, David Ajao, Amanda Lawrence, Karl Farrer, Ty Hurley, Sian Phillips, Toby Osmond, Nina Beagley, Amanda Root, Jessica Gunning, David Horovitch
Žanr: Drama, romantični, vojni - 40. leta . II svetovna vojna


Povzetek / Plot:

Ženska med drugo svetovno vojno odpre srce evakuiranemu moškemu, potem ko se je sprva odločila, da se ga bo znebila na tej ganljivi poti ženskosti, ljubezni in prijateljstva.


Zgodba:

Alice je samotna pisateljica, ki je odstopila od samotnega življenja na obmorskih pečinah v Južni Angliji, medtem ko druga svetovna vojna divja po kanalu. Ko nekega dne odpre vhodna vrata in ugotovi, da bo posvojila mladega londonskega evakuiranega Franka, je odporna. Kmalu pa se zaveta, da imata v preteklosti več skupnega, kot je predvidevala Alice. Gemma Arterton, Gugu Mbatha-Raw in Tom Courtenay igrajo v tej močno čustveni zgodbi o vzdržljivosti ljubezni v težavnih časih.

IMDb: ocena6.9/10 - link: https://www.imdb.com/title/tt6841122/?ref_=nv_sr_srsg_0


Podrobnosti:

Država: Združeno kraljestvo
Jezik: angleščina
Datum izdaje:31. julij 2020 (Združeno kraljestvo)
Podnapisi: srbski


Tehnične specifikacije:

Izvajanje: 99 min
Barva: Barva
Razmerje: 2.39 : 1






KDOR SEJE TUDI ŽANJE!
Sonic.The.Hedgehog.2020.SLOSINH.DVDRip.XviD-R

Klikni za povečavo!
26-09-2020 11:23 naložil System
Sejalci: 10 / Odjemalci: 0 / Velikost: 1.37 GB / Dokončani: 61
Prenesi torrent Poročaj torrent Opis torrenta NFO
Kategorija: FILMI > XviD
Anonimen nalagalec

Sonic the Hedgehog (2020)


SLO-SINH





Direktor: Jeff Fowler
Scenarij: Pat Casey , Josh Miller...
Igrajo: Pisatelji: Pat Casey , Josh Miller


Zgodba:


Na podlagi globalne filmske uspešnice Sega, SONIC THE HEDGEHOG pripoveduje zgodbo o najhitrejšem ježu na svetu, ko objame svoj novi dom na Zemlji. V tej avanturistični komediji v živo se Sonic in njegov novi najboljši prijatelj Tom (James Marsden) združita, da bi branila planet pred zlobnim genijem dr. Robotnikom (Jim Carrey) in njegovimi načrti za prevlado nad svetom.


Žanri: Akcija, avantura, komedija, družinski
Država: ZDA, Japonska, Kanada
Lokacije snemanja: Vancouver, Britanska Kolumbija, Kanada


Tehnične specifikacije:


Trajanje: 99 min
Zvočna mešanica: Dolby Digital | DTS (DTS: X) | Dolby Atmos
Barva: Barva
Razmerje: 2.39 : 1
Velikost: 1.37 GB





KDOR SEJE TA ŽANJE!
300.2006.&.300.Rise.of.an.Empire.2014.SloSub.DVDRip.XviD-Churchill

Klikni za povečavo!
06-09-2020 14:45 naložil System
Sejalci: 1 / Odjemalci: 0 / Velikost: 3.37 GB / Dokončani: 3
Prenesi torrent Poročaj torrent Opis torrenta
Kategorija: FILMI > XviD
Anonimen nalagalec

300 (2006)

INFO:
-------------
Codec : XVID
Format : AVI
Size : 1.82 GiB
Bit rate : 1 930 Kbps
Width : 720-pixels
Height : 384-pixels
Aspect ratio : 16/9
Audio 1 : AC-3
Bit rate : 384 Kbps
Channel(s) : 6 channels
Channel positions: Front: L C R, Surround: L R, LFE
Sampling rate : 48.0 KHz
Genre : Action, Fantasy, War
Country : USA
Language : English
Subtitles : Slovenski (Custom), uredil: Churchill
Runtime : 111 min
Čas predvajanja : 1h 51mn

IMDb user Rating : 7,6/10 from 722.664 users
IMDb Link : KLIK

IGRALCI:
-------------
Gerard Butler ... King Leonidas
Lena Headey ... Queen Gorgo
Dominic West ... Theron
David Wenham ... Dilios
Vincent Regan ... Captain
Michael Fassbender... Stelios
Tom Wisdom ... Astinos
Andrew Pleavin ... Daxos
Andrew Tiernan ... Ephialtes
Rodrigo Santoro ... Xerxes
Giovani Cimmino ... Pleistarchos
Stephen McHattie ... Loyalist
Greg Kramer ... Ephor /1
Alex Ivanovici ... Ephor /2
Kelly Craig ... Oracle Girl

OPIS:
-------------
Film 300 govori o kruti starodavni bitki pri Termopilah, kjer se je
300 Špartancev, na čelu katerih je bil kralj Leonidas, borilo do smrti
proti Kserksu in njegovi ogromni perzijski vojski. Kljub temu, da niso
imeli nobene možnosti za zmago, pa sta njihov pogum in žrtvovanje
navdihnila celotno Grčijo, da so se združili proti pošastni perzijski
vojski...



300: Rise of an Empire (2014)
300: VZPON IMPERIJA

INFO:
-------------
Codec : XVID
Format : AVI
Size : 1.55 GiB
Bit rate : 1 863 Kbps
Width : 720-pixels
Height : 384-pixels
Aspect ratio : 16/9
Audio 1 : AC-3
Bit rate : 384 Kbps
Channel(s) : 6 channels
Channel positions: Front: L C R, Surround: L R, LFE
Sampling rate : 48.0 KHz
Genre : Action, Drama, Fantasy
Country : USA
Language : English
Subtitles : Slovenski (Retail): Churchill
Runtime : 98 mn
Čas predvajanja : 1h 38mn

IMDb user Rating : 6,2/10 from 276.710 users
IMDb Link : KLIK

IGRALCI:
-------------
Sullivan Stapleton ... Themistokles
Eva Green ... Artemisia
Lena Headey ... Queen Gorgo
Hans Matheson ... Aeskylos
Callan Mulvey ... Scyllias
David Wenham ... Dilios
Rodrigo Santoro ... Xerxes
Jack O'Connell ... Calisto
Andrew Tiernan ... Ephialtes
Igal Naor ... King Darius
Andrew Pleavin ... Daxos
Peter Mensah ... Persian Emissary
Ben Turner ... General Artaphernes
Ashraf Barhom ... General Bandari
Christopher Sciueref ... General Kashani

OPIS:
-------------
V nadaljevanju sage o 300 umrlih špartanskih herojih, spoznamo grškega
generala Temistoklesa, ki se s pomočjo ovdovele kraljice Gorge postavi
po robu okrutnemu perzijskemu kralju Kserksu. Drugo invazijo sovražnikov
želijo ustaviti že na morju, toda v osupljivi pomorski bitki jim nasproti
stoji ladjevje maščevalne kraljice Artemizije, zveste Kserksove zaveznice.
Vzpon ali padec kraljestev postane odvisen od številnih neusmiljenih in
krvavih bojev mož na moža, kjer sta glavno orožje čast in pogum...


Garfield.2004.SloSinhro.DVDRip.XviD-Churchill

Klikni za povečavo!
06-09-2020 12:10 naložil System
Sejalci: 3 / Odjemalci: 0 / Velikost: 1.07 GB / Dokončani: 24
Prenesi torrent Poročaj torrent Opis torrenta
Kategorija: FILMI > XviD
Anonimen nalagalec

Garfield (2004)



INFO:
-------------
Codec : XVID
Format : AVI
Size : 1.07 GiB
Bit rate : 1 792 kb/s
Width : 720 pixels
Height : 384 pixels
Aspect ratio : 16/9
Audio 1 : AC-3
Bit rate : 192 kb/s
Channel(s) : 2 channels
Channel positions: L R
Sampling rate : 48.0 kHz
Genre : Animation, Comedy, Family, Fantasy
Country : USA
Language : Slovenski
Subtitles : /
Runtime : 76 min
Čas predvajanja : 1 h 16 min

IMDb user Rating: 5,0/10 (77.698)
IMDb Link: KLIK

GLASOVI:
-------------
Garfield... Jurij Zrnec
Jon........ Samo Jakoš
Liz........ Sabina Kogovšek
Srečko..... Niko Goršič
Nace....... Jan Bučar
Lojze...... Jan Slak

Ostale vloge:
-------------
Ludvik Bagari, Borut Berden, Simona Berden, Lena Hribar,
Luka Hribar, Zvone Hribar, Srečko Kermavner,
Maja Martina Merljak, Jaka Mihelič, Boštjan Napotnik,
Sonja Pavčič, Helena Petelin, Tjaša Repše, Franci Slak,
Lojze Svete, Boštjan Vrhovšek

OPIS:
-------------
Najbolj znani maček na svetu, Garfield, mora za pozornost svojega
gospodarja Jona kar naenkrat tekmovati z novim hišnim ljubljenčkom,
simpatičnim kužkom Odijem. Ker je to za samovšečnega pametnjakoviča
prehuda zadeva, mora Odi od hiše. Vendar pa Garfiel kmalu spozna,
da je Odiju že uspelo zmehčani njegovo, samo na videz trdo srce,
in odloči se, da ga bo našel in pripeljal domov...




The Short History Of The Long Road 2019 CroSubs 720p BRRip XviD AC3 Unknown

Klikni za povečavo!
03-09-2020 13:55 naložil System
Sejalci: 1 / Odjemalci: 0 / Velikost: 2.82 GB / Dokončani: 3
Prenesi torrent Poročaj torrent Opis torrenta NFO
Zvrst: Drama
Kategorija: FILMI > XviD
Anonimen nalagalec

The Short History of the Long Road (2019)
Kratka zgodovina dolge poti - 1h 30min
(Kratka zgodba o dolgem potovanju)
Direktor: Ani Simon-Kennedy
Pisec: Ani Simon-Kennedy
Igrajo: Sabrina Carpenter, Maggie Siff, Danny Trejo
Ocena: 6.4/10
Žanr: Drama
Zgodba
Za najstnico Nolo (Sabrina Carpenter) je dom odprta cesta. Njen samostojni oče (Steven Ogg) je njeno sidro v minljivem življenju. Par se je z ljubeznivo prenovljenim potovalnim vozilom prečkal po Združenih državah Amerike, užival v svoji neodvisnosti in se preživljal z nenavadnimi deli. Šokantna razpoka pa Nolo izžene sama, v Albuquerque v Novi Mehiki v iskanju matere, ki je nikoli ni poznala. Ko se njen avtodom nepričakovano pokvari, se naveže na lastnika avtomobilske delavnice (Danny Trejo) in zazna možnost priveza svoje ladje v tej nevihti.
Podrobnosti
Država: ZDA
Jezik: angleščina
Podnaposi: Hrvaški
Datum izdaje:16. junij 2020 (ZDA)
Lokacije snemanja: Nova Mehika, ZDA
Trajanje: 90 min
Velikost: 2,81 GB
Vrsta elementa: AVI








KDOR SEJE TUDI ŽANJE!
Paparazzi.2004.SloSub.DVDRip.XviD-Churchill

26-07-2020 12:17 naložil System
Sejalci: 1 / Odjemalci: 0 / Velikost: 1.22 GB / Dokončani: 10
Prenesi torrent Poročaj torrent Opis torrenta
Kategorija: FILMI > XviD
Anonimen nalagalec

Paparazzi (2004)
Paparaci (2004)



INFO:
-------------
Codec : XVID
Format : AVI
Size : 1.22 GiB
Bit rate : 1 619 kb/s
Width : 688 pixels
Height : 304 pixels
Aspect ratio : 16/9
Audio 1 : AC-3
Bit rate : 448 kb/s
Channel(s) : 6 channels
Channel positions: L R C LFE Ls Rs
Sampling rate : 48.0 kHz
Genre : Action, Crime, Drama, Thriller
Country : USA
Language : English/ Spanish
Subtitles : Slovenski
Runtime : 84 min
Čas predvajanja : 1 h 24 min

IMDb user Rating: 5,8/10 (14.445)
IMDb Link: KLIK

IGRALCI:
-------------
Cole Hauser ... Bo Laramie
Robin Tunney ... Abby Laramie
Dennis Farina ... Detective Burton
Daniel Baldwin ... Wendell Stokes
Tom Hollander ... Leonard Clark
Kevin Gage ... Kevin Rosner
Blake Michael Bryan ... Zach Laramie
Tom Sizemore ... Rex Harper
Andrea Baker ... Emily
Jordan Baker ... Dr. Kelley
Joe Basile ... Police Lab Tech
Lauren Birkell ... Allison
Wendy Braun ... Bo's Publicist
Kelly Carlson ... Kristin
Greg Castro ... Policeman

OPIS:
-------------
Filmski megazvezdnik Bo Laramie (Cole Hauser) ima na videz vse –
čudovito ženo, sina in vilo na Malibuju. Toda zaradi svoje slave
je tudi tarča senzacij željnih fotografov, ki bi radi izkoristili
njegovo zasebno življenje. S fotografom Rexom (Tom Sizemore) na čelu
postajajo paparaci vse bolj vztrajni, dokler nekega večera zaradi
njihovega preganjanja Bo skoraj izgubi družino. Ko začnejo znova
oblegati njegovo soprogo in sina, se Bo odloči za maščevanje...



Divji_valovi

Klikni za povečavo!
23-04-2020 17:30 naložil NERON
Sejalci: 2 / Odjemalci: 1 / Velikost: 701.78 MB / Dokončani: 75
Prenesi torrent Poročaj torrent Opis torrenta
Kategorija: FILMI > XviD

SURF'S UP (2007)

DIVJI VALOVI
SLOVENSKA SIHRONIZACIJA

Amazon.com: Watch Surf's Up | Prime Video

Žanr ................: Animacijski / Družinski
Dolžina ...........: 85 minut
Leto ................: 2007

Država ...........: ZDA
Kodek ............: XviD
Slika ...............: 720x384 1003 kbps 25 fps

Jezik ...............: Slovenski
Zvok ...............: Dolby Digital AC3 2.0 192kb/s


Glasovi Slovenski glasovi
Shia LaBeouf...........Cody Maverick.......Lovro Lah
Jon Heder................Chicken Joe............Vojko Belšak
Zooey Deschanel....Lani.........................Tinkara Končar
Jeff Bridges.............The Geek.................Roman Končar
James Woods..........Reggie Belafonte.....---------------
Napovedovalec.......-----------------....Igor E. Bergant


Ustvarjalci Sezone lova in režiserja drugega dela Sveta igrač ter
Tarzana nam prinašajo zgodbo o radoživem pingvinu Codyju, ki se
odloči udeležiti največjega tekmovanja v deskanju na valovih. Na
poti se mu s pomočjo zabavnih naključij pridružijo čudaški piščanec,
preračunljiva menedžerska vidra, kolerični čapljasti iskalec mladih
talentov in prijazna pingvinja vodna reševalka. Skupaj se pogumno
spopadejo z največjimi valovi in ob tem spoznavajo, da resničnemu
zmagovalcu ni potrebno vedno biti prvi. Film je sinhroniziran v
slovenščino.

NAPOVEDNIK





Fort.Defiance.1951.SLOSUB.HDTVrip.Xvid-el201

Klikni za povečavo!
14-04-2020 14:44 naložil System
Sejalci: 1 / Odjemalci: 0 / Velikost: 1.2 GB / Dokončani: 6
Prenesi torrent Poročaj torrent Opis torrenta
Zvrst: Akcija
Kategorija: FILMI > XviD
Anonimen nalagalec

Fort.Defiance.1951.SLOSUB.HDTVrip.Xvid-el201
Film
Vir: Fort.Defiance.1951.720p.HDTV.x264-REGRET
Čas trajanja : 01:21:57
Velikost datoteke : 1,2 Gb

Video
Resolucija : 720x400
Kodek : XviD
FPS : 23,98
Hitrost : 1709 Kbps
Koeficient Kvalitete : 0,25 b/px
Zvok
Kodek : Dolby AC3
Število kanalov : 6
Primerjalna hitrost : 48000 Hz
Hitrost : 384 Kbps

Igrajo
Dane Clark...Johnny Tallon
Ben Johnson...Ben Shelby
Peter Graves...Ned Tallon
Tracey Roberts...Julie Morse
George Cleveland...Uncle Charlie Tallon
Ralph Sanford...Jed Brown - Stagecoach Driver
Iron Eyes Cody...Brave Bear (as Iron Eyes)
Dennis Moore...Lt. Lucas

Vsebina
A former Civil War solider bent on killing the man whose surrender got his brother killed,
later finds out a rancher wants that same man and his blind brother killed.


PREVOD:
TVrip (v sami datoteki ni bilo navedenega prevajalca)
USKLADIL: el201





Minuscule.2013..DVDRip.XviD-Churchill

Klikni za povečavo!
01-03-2020 16:03 naložil System
Sejalci: 2 / Odjemalci: 0 / Velikost: 1.2 GB / Dokončani: 46
Prenesi torrent Poročaj torrent Opis torrenta NFO
Kategorija: FILMI > XviD
Anonimen nalagalec

Drobižki (2013)
Minuscule - La vallee des fourmis perdues (2013)



INFO:
-------------
Codec : XVID
Format : AVI
Size : 1.20 GiB
Bit rate : 1 571 kb/s
Width : 720 pixels
Height : 320 pixels
Aspect ratio : 16/9
Audio 1 : AC-3
Bit rate : 448 kb/s
Channel(s) : 6 channels
Channel positions: L R C LFE Ls Rs
Sampling rate : 48.0 kHz
Genre : Animation, Adventure, Family
Country : France/ Belgium
Language : none
Subtitles : /
Runtime : 84 min
Čas predvajanja : 1 h 24 min

IMDb user Rating: 7,1/10 (7.034)
IMDb Link: KLIK

OPIS:
-------------
Na majhni, mirni jasi sredi gozda je mlad par ravno končal s piknikom.
Fant počiva pod borovci, njegovo nosečo dekle pa se sladka z jagodami.
Nepričakovano nastopijo popadki in nemudoma odhitita v bolnišnico,
za seboj pa pustita ostanke piknika, med katerimi je tudi posoda s
sladkorčki. Istočasno se komaj rojena, a neustrašna pikapolonica,
ki se je izgubila v gozdu in so jo ujele muhe, zateče na varno v
posodo s sladkorčki. Naslednji dan se znajde ujeta sredi bitke za
kocke sladkorja med dvema kolonijama mravelj – črnimi in rdečimi.
Spoprijatelji se z eno izmed črnih mravelj, Mandibulo, in ji pomaga
braniti mravljišče pred napadom strašne vojske rdečih mravelj,
ki jo vodi okrutni Butor.



Ford.v.Ferrari.2019.DVDScr.RERIP.x264-NOGRP

Klikni za povečavo!
29-12-2019 15:29 naložil el201
Sejalci: 1 / Odjemalci: 0 / Velikost: 1.34 GB / Dokončani: 20
Prenesi torrent Poročaj torrent Opis torrenta
Zvrst: Akcija
Kategorija: FILMI > XviD

Ford.v.Ferrari.2019.DVDScr.RERIP.x264-NOGRP



Video

ID : 1
Format : AVC
Format/Info : Advanideo Codec
Format profile : High@L3.1
Format settings : CABAC / 5 Ref Frames
Format settings, CABAC : Yes
Format settings, Reference frames : 5 frames
Codec ID : avc1
Codec ID/Info : Advanced Video Coding
Duration : 2 h 32 min
Bit rate : 1 000 kb/s
Width : 720 pixels
Height : 300 pixels
Display aspect ratio : 2.40:1
Frame rate mode : Constant
Frame rate : 23.976 (24000/1001) FPS
Color space : YUV
Chroma subsampling : 4:2:0
Bit depth : 8 bits
Scan type : Progressive
Bits/(Pixel*Frame) : 0.193
ced V
Stream size : 1.07 GiB (79%)

Writing library : x264 core 152 r2851M ba24899


Audio
ID : 2
Format : AAC LC
Format/Info : Advanced Audio Codec Low Complexity
Codec ID : mp4a-40-2
Duration : 2 h 32 min
Duration_LastFrame : -11 ms
Bit rate mode : Constant
Bit rate : 256 kb/s
Channel(s) : 2 channels
Channel layout : L R
Sampling rate : 48.0 kHz
Frame rate : 46.875 FPS (1024 SPF)
Compression mode : Lossy
Stream size : 279 MiB (20%)
Default : Yes
Alternate group : 1


CAST
Matt Damon ... Carroll Shelby
Christian Bale .. .Ken Miles
Jon Bernthal ... Lee Iacocca
Caitriona Balfe ... Mollie Miles
Josh Lucas ... Leo Beebe
Noah Jupe ... Peter Miles
Tracy Letts ... Henry Ford II
Remo Girone ... Enzo Ferrari
Ray McKinnon ... Phil Remington
JJ Feild ... Roy Lunn
Jack McMullen ... Charlie Agapiou
Corrado Invernizzi ... Franco Gozzi
Joe Williamson ... Don Frey
Ian Harding ... Ford Executive Ian
Christopher Darga ... John Holman

PLOT
American car designer Carroll Shelby and driver Ken Miles battle corporate interference, the laws of physics and their own personal demons to build a revolutionary race car for Ford and challenge Ferrari at the 24 Hours of Le Mans in 1966.
Domino.2005.SloSub.DVDRip.XviD-Churchill

Klikni za povečavo!
07-12-2019 13:39 naložil System
Sejalci: 1 / Odjemalci: 0 / Velikost: 1.65 GB / Dokončani: 14
Prenesi torrent Poročaj torrent Opis torrenta
Kategorija: FILMI > XviD
Anonimen nalagalec

Domino (2005)



INFO:
-------------
Codec : XVID
Format : AVI
Size : 1.65 GiB
Bit rate : 1 472 kb/s
Width : 720 pixels
Height : 304 pixels
Aspect ratio : 16/9
Audio 1 : AC-3
Bit rate : 448 kb/s
Channel(s) : 6 channels
Channel positions: L R C LFE Ls Rs
Sampling rate : 48.0 kHz
Genre : Action, Biography, Crime, Drama, Thriller
Country : France/ USA/ UK
Language : English
Subtitles : Slovenski
Runtime : 122 min
Čas predvajanja : 2 h 2 min

IMDb user Rating: 5,9/10 (63.048)
IMDb Link: KLIK

IGRALCI:
-------------
Keira Knightley ... Domino Harvey
Mickey Rourke ... Ed Moseby
Edgar Ramírez ... Choco
Delroy Lindo ... Claremont Williams
Mo'Nique ... Lateesha Rodriguez
Mena Suvari ... Kimmie
Macy Gray ... Lashandra Davis
Jacqueline Bisset ... Sophie Wynn
Dabney Coleman ... Drake Bishop
Brian Austin Green ... Brian Austin Green
Ian Ziering ... Ian Ziering
Stanley Kamel ... Anthony Cigliutti
Peter Jacobson ... Burke Beckett
T.K. Carter ... Lester Kincaid
Kel O'Neill ... Frances

OPIS:
-------------
Domino je ameriški akcijski film iz leta 2005, ki ga je režiral Tony Scott,
scenarij zanj pa je napisal Richard Kelly. Film je navdihnila zgodba
Domino Harvey, hčere angleškega gledališkega in televizijskega igralca
Laurencea Harveyja, ki je postala lovka na glave v Los Angelesu.

Hčerka angleškega komika Laurenca Harweyja je uspešno manekensko kariero
pustila ob strani in postala ženska različica lovca na glave. V zloglasnih
predmestjih Los Angelesa je plačana morilka kmalu postala strah in trepet
preprodajalcev droge - vse dokler ni tudi sama podlegla skušnjavi. Le malo
pred premiero filma, posnetega po njenem življenju, je umrla zaradi prevelikega
odmerka drog.

Elysium.2013.SloSub.DVDRip.XviD-Churchill

Klikni za povečavo!
10-11-2019 13:30 naložil System
Sejalci: 1 / Odjemalci: 0 / Velikost: 1.37 GB / Dokončani: 13
Prenesi torrent Poročaj torrent Opis torrenta
Zvrst: Akcija | Drama | Z.F.
Kategorija: FILMI > XviD
Anonimen nalagalec

Elizij (2013)
Elysium (2013)



INFO:
-------------
Codec : XVID
Format : AVI
Size : 1.37 GiB
Bit rate : 1 472 kb/s
Width : 720 pixels
Height : 304 pixels
Aspect ratio : 16/9
Audio 1 : AC-3
Bit rate : 384 kb/s
Channel(s) : 6 channels
Channel positions: L R C LFE Ls Rs
Sampling rate : 48.0 kHz
Genre : Action, Drama, Sci-Fi
Country : USA
Language : English, (Spanish, French, Afrikaans, Ukrainian)
: a few words
Subtitles : Slovenski
Runtime : 105 min
Čas predvajanja : 1 h 45 min

IMDb user Rating: 6,6/10 (401.719)
IMDb Link: KLIK

IGRALCI:
-------------
Matt Damon ... Max
Jodie Foster ... Delacourt
Sharlto Copley ... Kruger
Alice Braga ... Frey
Diego Luna ... Julio
Wagner Moura ... Spider
William Fichtner ... John Carlyle
Brandon Auret ... Drake
Josh Blacker ... Crowe
Emma Tremblay ... Matilda
Jose Pablo Cantillo ... Sandro
Maxwell Perry Cotton ... Young Max
Faran Tahir ... President Patel
Adrian Holmes ... Manuel
Jared Keeso ... Rico

OPIS:
-------------
Film Elizij nas popelje v prihodnost, ko izbranci človeške rase živijo na
gromozanski vesoljski postaji po imeni Elizij, kjer življenje poteka brez
bolezni, nasilja in zločinov. Medtem je večinski revni del človeštva obsojen
na življenje na Zemlji, kjer sta smrt in lakota del vsakdana. Ko bivši tat
Max zboli za rakom, je odločen, da bo nekako prišel na Elizij in tam ozdravel,
vendar mora prej premagati robotsko vojsko, ki kontrolira ljudi. Max se je
tako prisiljen vrniti h kriminalni preteklosti, vendar mu na poti stoji
upraviteljica Delacourt (Jodie Foster), ki hoče na vsak način preprečiti,
da bi ljudje iz Zemlje uničili popolni svet Elizija...


The.Extraordinary.Adventures.of.Adele.Blanc-Sec.2010.SloSub.DVDRip.XviD-Churchill

Klikni za povečavo!
10-10-2019 17:25 naložil System
Sejalci: 1 / Odjemalci: 0 / Velikost: 1.43 GB / Dokončani: 18
Prenesi torrent Poročaj torrent Opis torrenta
Kategorija: FILMI > XviD
Anonimen nalagalec

The Extraordinary Adventures of Adele Blanc-Sec (2010)
Les aventures extraordinaires d'Adele Blanc-Sec (2010)
Pustolovščine Adele Blanc-Sec (2010)



INFO:
-------------
Codec : XVID
Format : AVI
Size : 1.43 GiB
Bit rate : 1 551 kb/s
Width : 720 pixels
Height : 320 pixels
Aspect ratio : 16/9
Audio 1 : AC-3
Bit rate : 448 kb/s
Channel(s) : 6 channels
Channel positions: L R C LFE Ls Rs
Sampling rate : 48.0 kHz
Genre : Action, Adventure, Fantasy, Mystery
Country : France/ USA
Language : French/ English/ Spanish
Subtitles : Slovenski
Runtime : 102 min
Čas predvajanja : 1 h 42 min

IMDb user Rating: 6,3/10 (18.784)
IMDb Link: KLIK

IGRALCI:
-------------
Louise Bourgoin ... Adele Blanc-Sec
Mathieu Amalric ... Dieuleveult
Gilles Lellouche ... Inspecteur Albert Caponi
Jean-Paul Rouve ... Justin de Saint-Hubert
Jacky Nercessian ... Marie-Joseph Esperandieu
Philippe Nahon ... Le professeur Menard
Nicolas Giraud ... Andrej Zborowski
Laure de Clermont-Tonnerre ... Agathe Blanc-Sec
Gerard Chaillou ... President Armand Fallieres
Serge Bagdassarian ... Ferdinand Choupard
Claire Perot ... Nini les Gambettes
François Chattot ... Raymond Pointrenaud
Stanislas de la Tousche ... Le chauffeur Pointrenaud
Youssef Hajdi ... Aziz
Mohamed Aroussi ... Traitre egyptien

OPIS:
-------------
Piše se leto 1922. Neustrašna mlada novinarka Adele Blanc-Sec bi naredila
vse za svoj cilj, celo odplula v Egipt izkopavat mumije. Medtem ko odpira
sarkofage, zajame Pariz panika – izleglo se je jajce pterodaktila, shranjeno
v naravoslovnem muzeju, ki je staro 136 let! Mladi pterodaktil leti nad
Parizom in straši meščane. Adele pa se ne pusti motiti. Omenjeni dogodki je
sploh ne prestrašijo, njene pustolovščine pa razkrivajo še mnogo nenavadnih
presenečenj!



Epic.2013.SloSinhro.DVDRip.XviD-Churchill

Klikni za povečavo!
05-10-2019 10:51 naložil System
Sejalci: 1 / Odjemalci: 0 / Velikost: 1.32 GB / Dokončani: 123
Prenesi torrent Poročaj torrent Opis torrenta
Kategorija: FILMI > XviD
Anonimen nalagalec

Epic (2013)
Skrivnostni varuhi gozda (2013)

INFO:
-------------
Codec : XVID
Format : AVI
Size : 1.32 GiB
Width : 720 pixels
Height : 304 pixels
Aspect ratio : 16/9
Bit rate : 1 529 kb/s
Audio 1 : AC-3
Channel(s) : 6 channels
Channel positions: L R C LFE Ls Rs
Bit rate : 384 kb/s
Sampling rate : 48.0 kHz
Genre : Animation, Adventure, Family
Country : USA
Language : Slovensko
Subtitles : /
Runtime : 98 min
Čas predvajanja : 1 h 38 min

IMDb user Rating: 6,7/10 (96.142)
IMDb Link: KLIK

Slo sinhronizacija:
-------------
Uroš Maček,
Tomo Tomšič,
Janez Hočevar,
Primož Ekart,
Uroš Smolej,
Anja Križnik Tomažin

OPIS:
-------------
Zgodba predstavlja uporniško najstnico Mary Katherine, ki se po mamini smrti
vrne k čudaškemu očetu. Ta živi v koči sredi gozda in že več let neuspešno
raziskuje obstoj nenavadnih malih bitij, toda po spletu nenavadnih naključij
se prav Mary Katherine pomanjšana znajde med skrivnostnimi varuhi gozda.
Umirajoča kraljica ji zaupa pomembno nalogo varovanja čarobnega lotosovega cveta
in dekle se skupaj s pogumnim generalom Roninom, uporniškim bojevnikom Nodom
ter dvema čudaškima polžema odpravi na neverjetno pustolovščino reševanja sveta
pred zlobnim Mandrakom in njegovimi gnilobnimi lakaji...


A.Prairie.Home.Companion.2006.SloSub.DVDRip.XviD-Churchill

Klikni za povečavo!
09-04-2019 10:45 naložil System
Sejalci: 1 / Odjemalci: 0 / Velikost: 1.4 GB / Dokončani: 4
Prenesi torrent Poročaj torrent Opis torrenta
Zvrst: Drama | Glasbeni | Komedija
Kategorija: FILMI > XviD
Anonimen nalagalec

A Prairie Home Companion (2006)
RADIJSKI ŠOV (2006)


INFO:
-------------

Codec : XVID
Format : AVI
Size : 1.40 GiB
Bit rate : 1 444 Kbps
Width : 720-pixels
Height : 320-pixels
Aspect ratio : 16/9
Audio 1 : AC-3
Bit rate : 448 Kbps
Channel(s) : 6 channels
Channel positions: Front: L C R, Surround: L R, LFE
Sampling rate : 48.0 KHz
Genre : Comedy, Drama, Music, Musical
Country : USA
Language : English/ Norwegian
Subtitles : Slovenski
Runtime : 105mn
Čas predvajanja : 1h 45mn

IMDb user Rating: 6,8/10 (20.971)
IMDb Link: KLIK

IGRALCI:
-------------

Marylouise Burke ... Lunch Lady
Woody Harrelson ... Dusty
L.Q. Jones ... Chuck Akers
Tommy Lee Jones ... The Axeman
Garrison Keillor ... GK
Kevin Kline ... Guy Noir
Lindsay Lohan ... Lola Johnson
Virginia Madsen ... Dangerous Woman
John C. Reilly ... Lefty
Maya Rudolph ... Molly
Tim Russell ... Stage Manager
Sue Scott ... Makeup Lady
Meryl Streep ... Yolanda Johnson
Lily Tomlin ... Rhonda Johnson
Tom Keith ... Himself - Sound Effects Man

OPIS:
-------------

Eden najbolj nenavadnih radijskih programov, na katerem pevci nastopajo
v živo, se znajde v težavah, ko novi lastnik postaje zagrozi z ukinitvijo.
Nastopajoči skušajo preprečiti najhujše, a se morajo hkrati spopasti tudi
z lastnimi težavami...


Skyscraper.2018.SLOSubs.BRRip.XviD-BLiNK

Klikni za povečavo!
30-10-2018 20:22 naložil System
Sejalci: 1 / Odjemalci: 0 / Velikost: 2.1 GB / Dokončani: 14
Prenesi torrent Poročaj torrent Opis torrenta
Zvrst: Akcija | Triler
Kategorija: FILMI > XviD
Anonimen nalagalec

SKYSCRAPER (2018)
NEBOTIČNIK
akcijski triler



Režija: Rawson Marshall Thurber

Dolžina: 102 min

IGRAJO:
Dwayne Johnson...Will Sawyer
Neve Campbell...Sarah Sawyer
Chin Han...Zhao Long Ji
Roland Moller...Kores Botha
Noah Taylor...Mr. Pierce
Byron Mann...Inspector Wu
Pablo Schreiber...Ben
McKenna Roberts...Georgia Sawyer
Noah Cottrell...Henry Sawyer
Hannah Quinlivan...Xia

VSEBINA:
Nekdanji vodja specialne enote za reševanje talcev pri FBI in vojni
veteran Will Sawyer (Dwayne Johnson) po amputaciji noge ocenjuje varnost
za nebotičnike. S svojo družino živi v najvišji in najvarnejši stavbi
na svetu v Hong Kongu, znani kot The Pearl, kjer skrbi za varnost,
a izpostavlja določene pomanjkljivosti v nebotičniku. Kljub zagotavljanju
nadrejenih, da je stavba brezhibna, pa jo napadejo teroristi in zajamejo
jo ognjeni zublji. Vso odgovornost za nastalo situacijo teroristi prevalijo
na Sawyerja, ki mora, medtem ko je na begu, najti odgovorne za nastalo
nesrečo, si oprati svoje ime in rešiti svojo družino, ki je ujeta v goreči
stavbi, nekaj nadstropij nad razplamtelim ognjem.

NAPOVEDNIK