Snezna.kraljica.SLOSiNH.DVDRip.XviD-RoNoN

Klikni za povečavo!
08-07-2022 09:45 naložil System
Sejalci: 2 / Odjemalci: 0 / Velikost: 641.48 MB / Dokončani: 836
Prenesi torrent Poročaj torrent Opis torrenta NFO
Zvrst: Risanka
Kategorija: FILMI > Risanke
Anonimen nalagalec




zabice, eMMa, allena in 3 ostalim je to všeč.
Tagi za tale torrent: Risanka
Delite na socialnem omrežju



Trenutno še ni nobenega komentarja.
General
Complete name                            : Snezna.kraljica.SLOSiNH.DVDRip.XviD\The Snow Queen Part 1.avi
Format                                   : AVI
Format/Info                              : Audio Video Interleave
File size                                : 233 MiB
Duration                                 : 26 min 1 s
Overall bit rate                         : 1 252 kb/s
Writing application                      : VirtualDubMod 1.5.4.1 (build 2178/release)
Writing library                          : VirtualDubMod build 2178/release

Video
ID                                       : 0
Format                                   : MPEG-4 Visual
Format profile                           : Advanced Simple@L5
Format settings                          : BVOP1 / Custom Matrix
Format settings, BVOP                    : 1
Format settings, QPel                    : No
Format settings, GMC                     : No warppoints
Format settings, Matrix                  : Custom
Codec ID                                 : XVID
Codec ID/Hint                            : XviD
Duration                                 : 26 min 1 s
Bit rate                                 : 1116 kb/s
Width                                    : 512 pixels
Height                                   : 384 pixels
Display aspect ratio                     : 4:3
Frame rate                               : 25.000 FPS
Color space                              : YUV
Chroma subsampling                       : 4:2:0
Bit depth                                : 8 bits
Scan type                                : Progressive
Compression mode                         : Lossy
Bits/(Pixel*Frame)                       : 0.227
Stream size                              : 208 MiB (89%)
Writing library                          : XviD 1.2.1 (UTC 2008-12-04)

Audio
ID                                       : 1
Format                                   : MPEG Audio
Format version                           : Version 1
Format profile                           : Layer 3
Format settings                          : Joint stereo / MS Stereo
Codec ID                                 : 55
Codec ID/Hint                            : MP3
Duration                                 : 26 min 1 s
Bit rate mode                            : Constant
Bit rate                                 : 128 kb/s
Channel(s)                               : 2 channels
Sampling rate                            : 48.0 kHz
Frame rate                               : 41.667 FPS (1152 SPF)
Compression mode                         : Lossy
Stream size                              : 23.8 MiB (10%)
Alignment                                : Aligned on interleaves
Interleave, duration                     : 80  ms (2.00 video frames)
Interleave, preload duration             : 504  ms
Writing library                          : LAME3.98r
Encoding settings                        : -m j -V 4 -q 2 -lowpass 17 -b 128
Language                                 : English