It.Chapter.Two.2019.SloSub.1080p.WEB.x264-[cyd]

Klikni za povečavo!
26-11-2019 18:26 naložil
Sejalci: 1 / Odjemalci: 0 / Velikost: 3.23 GB / Dokončani: 13
Prenesi torrent Poročaj torrent Opis torrenta NFO
Kategorija: FILMI > WEBRip-1080

——————————————————————————————————————————————————————————————————
IMDb info:
◎ Naslov: Tisto: drugo poglavje - It Chapter Two (original title)
◎ Leto: 2019
◎ Zvrst: domišljijski, drama, grozljivka
◎ Jezik: angleški
◎ Ocena: 6,8
◎ Povzetek: Filmski hit TISTO je leta 2017 napolnil kino dvorane, redefiniral žanr, postal del popoularne kulture in navdušil gledalce in kritike po svetu. Ker se zlo v Derry ciklično vrača vsakih 27 let, bomo v Tisto: Drugo poglavje spremljali like, ki so pred skoraj tremi desetletji odšli vsak svojo pot. 27 let po grozotah se morajo odrasli člani Kluba zgub vrniti nazaj v Derry, po tem ko prejmejo srhljiv telefonski klic.
———————————————————————————————————————————————————————————
YouTube URADNI NAPOVEDNIK:
——————————————————————————————————————————————————————————————————
PODNAPISI:
◎ Jezik : slovenski retail [vstavljeni / softcoded / multiplexed]
——————————————————————————————————————————————————————————————————
VIR:
◎ Source:
It.Chapter.Two.2019.1080p.WEBRip.x264-RARBG.mp4
◎ After coding:
It.Chapter.Two.2019.SloSub.1080p.WEB.x264-[cyd].mkv
——————————————————————————————————————————————————————————————————
ViHaR in Ziva je to všeč.
Delite na socialnem omrežju
——————————————————————————————————————————————————————————————————
IMDb info:
◎ Naslov: Tisto: drugo poglavje - It Chapter Two (original title)
◎ Leto: 2019
◎ Zvrst: domišljijski, drama, grozljivka
◎ Jezik: angleški
◎ Ocena: 6,8
◎ Povzetek: Filmski hit TISTO je leta 2017 napolnil kino dvorane, redefiniral žanr, postal del popoularne kulture in navdušil gledalce in kritike po svetu. Ker se zlo v Derry ciklično vrača vsakih 27 let, bomo v Tisto: Drugo poglavje spremljali like, ki so pred skoraj tremi desetletji odšli vsak svojo pot. 27 let po grozotah se morajo odrasli člani Kluba zgub vrniti nazaj v Derry, po tem ko prejmejo srhljiv telefonski klic.
———————————————————————————————————————————————————————————
YouTube URADNI NAPOVEDNIK:
——————————————————————————————————————————————————————————————————
PODNAPISI:
◎ Jezik : slovenski retail [vstavljeni / softcoded / multiplexed]
——————————————————————————————————————————————————————————————————
VIR:
◎ Source:
It.Chapter.Two.2019.1080p.WEBRip.x264-RARBG.mp4
◎ After coding:
It.Chapter.Two.2019.SloSub.1080p.WEB.x264-[cyd].mkv
——————————————————————————————————————————————————————————————————
Trenutno še ni nobenega komentarja.
###.
.                                          .""--.._
                                           []      `'--.._
                                           ||__           `'-,
                                         `)||_ ```'--..       \
                     _                    /|//}        ``--._  |
                  .'` `'.                /////}              `\/
                 /  .""".\              //{///
                /  /_  _`\\            // `||
                | |(_)(_)||          _//   ||
                | |  /\  )|        _///\   ||
                | |L====J |       / |/ |   ||
               /  /'-..-' /    .'`  \  |   ||
              /   |  :: | |_.-`      |  \  ||
             /|   `\-::.| |          \   | ||
           /` `|   /    | |          |   / ||
         |`    \   |    / /          \  |  ||
        |       `\_|    |/      ,.__. \ |  ||
        /                     /`    `\ ||  ||
       |           .         /        \||  ||
       |                     |         |/  ||
       /         /           |         (   ||
      /          .           /          )  ||
 ------------------------------------------------------------------
|                    Reaper                                        |
 ------------------------------------------------------------------
General
Complete name                  : It.Chapter.Two.2019.SloSub.1080p.WEB.x264-[cyd].mkv
Format                         : Matroska
Format version                 : Version 4
File size                      : 3.22 GiB
Duration                       : 2 h 49 min
Overall bit rate               : 2 726 kb/s
Encoded date                   : UTC 2019-11-26 17:17:35
Writing application            : mkvmerge v22.0.0 ('At The End Of The World') 64-bit
Writing library                : libebml v1.3.5 + libmatroska v1.4.8

Video
ID                             : 1
Format                         : AVC
Format/Info                    : Advanced Video Codec
Format profile                 : High@L4.1
Format settings                : CABAC / 4 Ref Frames
Format settings, CABAC         : Yes
Format settings, ReFrames      : 4 frames
Codec ID                       : V_MPEG4/ISO/AVC
Duration                       : 2 h 49 min
Bit rate                       : 2 500 kb/s
Width                          : 1 920 pixels
Height                         : 804 pixels
Display aspect ratio           : 2.40:1
Frame rate mode                : Constant
Frame rate                     : 23.976 (23976/1000) FPS
Color space                    : YUV
Chroma subsampling             : 4:2:0
Bit depth                      : 8 bits
Scan type                      : Progressive
Bits/(Pixel*Frame)             : 0.068
Stream size                    : 2.96 GiB (92%)
Writing library                : x264 core 152 r2851M ba24899
Language                       : English
Default                        : Yes
Forced                         : No

Audio
ID                             : 2
Format                         : AAC LC
Format/Info                    : Advanced Audio Codec Low Complexity
Codec ID                       : A_AAC-2
Duration                       : 2 h 49 min
Bit rate                       : 224 kb/s
Channel(s)                     : 6 channels
Channel layout                 : C L R Ls Rs LFE
Sampling rate                  : 48.0 kHz
Frame rate                     : 46.875 FPS (1024 SPF)
Compression mode               : Lossy
Delay relative to video        : -43 ms
Stream size                    : 271 MiB (8%)
Language                       : English
Default                        : Yes
Forced                         : No

Text #1
ID                             : 3
Format                         : UTF-8
Codec ID                       : S_TEXT/UTF8
Codec ID/Info                  : UTF-8 Plain Text
Duration                       : 2 h 44 min
Bit rate                       : 40 b/s
Count of elements              : 1793
Stream size                    : 48.7 KiB (0%)
Title                          : RETAIL
Language                       : Slovenian
Default                        : Yes
Forced                         : Yes

Text #2
ID                             : 4
Format                         : UTF-8
Codec ID                       : S_TEXT/UTF8
Codec ID/Info                  : UTF-8 Plain Text
Duration                       : 2 h 44 min
Bit rate                       : 39 b/s
Count of elements              : 1434
Stream size                    : 48.0 KiB (0%)
Title                          : latin
Language                       : Serbian
Default                        : No
Forced                         : No