A
B
C
D
E
F
G
H
I
J
K
L
M
N
O
P
Q
R
S
T
U
V
W
X
Y
Z
0-9
Spider-Man.No.Way.Home.2021.CROSubs.HDTS.XviD.B4ND1T69

Klikni za povečavo!
08-03-2022 11:02 naložil BlackDevil
Sejalci: 2 / Odjemalci: 0 / Velikost: 1.87 GB / Dokončani: 20
Prenesi torrent Poročaj torrent Opis torrenta
Kategorija: FILMI > HDTV

CoverCity - DVD Covers & Labels - Spider-Man: No Way Home (2021)

Director: Jon Watts
Writers: Chris McKenna, Erik Sommers, Stan Lee(based on the Marvel comic book by)
Stars: Tom Holland, Zendaya, Benedict Cumberbatch, Jacob Batalon, Jon Favreau

Plot/Story:
Peter Parker is unmasked and no longer able to separate his normal life from the high-stakes of being a super-hero. When he asks for help from Doctor Strange the stakes become even more dangerous, forcing him to discover what it truly means to be Spider-Man.

General
Complete name : Spider-Man.No.Way.Home.2021.HDTS.XviD.B4ND1T69.avi
Format : AVI
Format/Info : Audio Video Interleave
File size : 1.79 GiB
Duration : 2 h 23 min
Overall bit rate : 1 785 kb/s
Samples : Yes...Included(3)

Video
ID : 0
Format : MPEG-4 Visual
Format profile : Advanced [email protected]
Format settings, BVOP : 2
Format settings, QPel : No
Format settings, GMC : No warppoints
Format settings, Matrix : Default (H.263)
Codec ID : DIVX
Codec ID/Info : Project Mayo
Codec ID/Hint : DivX 4
Duration : 2 h 23 min
Bit rate : 1 643 kb/s
Width : 720 pixels
Height : 352 pixels
Display aspect ratio : 2.045
Frame rate : 30.000 FPS
Color space : YUV
Chroma subsampling : 4:2:0
Bit depth : 8 bits
Scan type : Progressive
Compression mode : Lossy
Bits/(Pixel*Frame) : 0.216
Stream size : 1.65 GiB (92%)
Writing library : XviD 64

Audio
ID : 1
Format : MPEG Audio
Format version : Version 1
Format profile : Layer 3
Mode : Joint stereo
Mode extension : MS Stereo
Codec ID : 55
Codec ID/Hint : MP3
Duration : 1 h 43 min
Source duration : 2 h 23 min
Bit rate mode : Constant
Bit rate : 128 kb/s
Channel(s) : 2 channels
Sampling rate : 48.0 kHz
Compression mode : Lossy
Stream size : 131 MiB (7%)
Alignment : Aligned on interleaves
Interleave, duration : 24 ms (0.72 video frame)


Willem Dafoe > Norman Osborn
Alfred Molina > Dr. Otto Octavius
Marisa Tomei > May Parker
Jamie Foxx > Electro
Jamie Foxx > Max Dillon
Jon Favreau > Happy Hogan
Paula Newsome > MIT Assistant Vice Chancellor
Martin Starr > Mr. Harrington
J.K. Simmons > J. Jonah Jameson
Benedict Wong > Wong
Benedict Cumberbatch > Doctor Strange
J.B. Smoove > Mr. Dell
Arian Moayed > Agent Cleary
Tony Revolori > Flash Thompson
Hannibal Buress > Coach Wilson
Angourie Rice > Betty Brant
Zendaya > MJ
Tom Holland > Peter Parker
Tom Holland > Spider-Man
Jacob Batalon > Ned Leeds

Screenshots:












Please Seed For As Long As Possible
Or At Least 1:1 Ratio...Thanks
Enjoy
Besa S02E02.HDTV

Klikni za povečavo!
29-11-2021 08:35 naložil ExYuUploader
Sejalci: 1 / Odjemalci: 0 / Velikost: 1.62 GB / Dokončani: 96
Prenesi torrent Poročaj torrent Opis torrenta
Zvrst: Drama | Kriminalka
Kategorija: FILMI > HDTV

Besa Sezona 2



Besa S02E02

Radnja se nastavlja tri godine kasnije. Nakon što je Uroš Perić primio poslednji zadatak od šefa albanske mafije Dardana Beriše, podsećanja radi, trebalo je da ubije inspektora Petrita Kocija kako bi sačuvao sopstvenu glavu, zatičemo ga na neočekivanom mestu.
Vidanov je rođendan. Međutim, nisu svi na proslavi. Porodica Perić je podeljena i daleko od rodne zemlje. Istovremeno, sin Dardana Beriše, Driton, se vraća u Crnu Goru iz Italije, gde ga je otac poslao na studije. Njegov brat od ujaka Iljir Sokolji već vodi uspešan posao iz svoje vile na Ženevskom jezeru.

Inspektor Petrit Koci je još uvek živ i uz to oženjen. Njegova partnerka iz policije Divna nastvalja da prati aktivnosti klana Beriša i dok bivši muž preti da će joj oduzeti starateljstvo nad ćerkom.
Luka trpi pritisak jer mu je u poslu sa kokainom direktna saradnica Ana, koja želi od njega da sazna ko joj je ubio brata.
Jedna smrt u klanu Beriša i neočekivani kraj rođendana Vidana Perića pokrenuće niz neverovatnih događaja koji će postaviti pitanje da li je uvek moguće održati datu reč.


Besa S02E01.HDTV

Klikni za povečavo!
28-11-2021 19:55 naložil ExYuUploader
Sejalci: 1 / Odjemalci: 0 / Velikost: 1.74 GB / Dokončani: 78
Prenesi torrent Poročaj torrent Opis torrenta
Zvrst: Drama | Kriminalka
Kategorija: FILMI > HDTV

Besa Sezona 2



Besa S02E01

Radnja se nastavlja tri godine kasnije. Nakon što je Uroš Perić primio poslednji zadatak od šefa albanske mafije Dardana Beriše, podsećanja radi, trebalo je da ubije inspektora Petrita Kocija kako bi sačuvao sopstvenu glavu, zatičemo ga na neočekivanom mestu.
Vidanov je rođendan. Međutim, nisu svi na proslavi. Porodica Perić je podeljena i daleko od rodne zemlje. Istovremeno, sin Dardana Beriše, Driton, se vraća u Crnu Goru iz Italije, gde ga je otac poslao na studije. Njegov brat od ujaka Iljir Sokolji već vodi uspešan posao iz svoje vile na Ženevskom jezeru.

Inspektor Petrit Koci je još uvek živ i uz to oženjen. Njegova partnerka iz policije Divna nastvalja da prati aktivnosti klana Beriša i dok bivši muž preti da će joj oduzeti starateljstvo nad ćerkom.
Luka trpi pritisak jer mu je u poslu sa kokainom direktna saradnica Ana, koja želi od njega da sazna ko joj je ubio brata.
Jedna smrt u klanu Beriša i neočekivani kraj rođendana Vidana Perića pokrenuće niz neverovatnih događaja koji će postaviti pitanje da li je uvek moguće održati datu reč.

Beležnica profesora Miškovića (2021)

Klikni za povečavo!
26-11-2021 16:21 naložil ExYuUploader
Sejalci: 0 / Odjemalci: 0 / Velikost: 7.82 GB / Dokončani: 11
Prenesi torrent Poročaj torrent Opis torrenta
Zvrst: Skrivnosten | Triler | Z.F.
Kategorija: FILMI > HDTV

Beležnica profesora Miškovića (2021)



U proleće 2002. godine mladi novinar Beogradskog lista "Argument", Boško Stevanović, dobija zadatak da napiše tekst o naučnoj ostavštini preminulog srpskog etnologa Arsenija Miškovića. U razgovoru sa Miškovićevom udovicom on će se susresti sa serijom misterioznih i naučno neobjašnjivih događaja o kojima nije ni sanjao da su mogući, a kamoli da su se odigrali i da još uvek traju u Srbiji.
Ti događaji čine sadržaj jedne male beležnice sa crnim koricama, koje će udovica Mišković pokloniti novinaru Stevanoviću. Vođen svojim novinarskim instinktom, a u saradnji sa prijateljem Milenkom, Boško će pokušati da proveri verodostojnost misterioznih događaja opisanih u Beležnici. Ono što piše u Beležnici opseda neke ljude iz inostranstva, Beča, Londona, Moskve, a na kraju pokreće i lavinu čudnih događaja koji samog novinara, njegovu porodicu i prijatelje dovode u životnu opasnost...
Besa (2018-)-Sezona 1

Klikni za povečavo!
26-11-2021 15:36 naložil ExYuUploader
Sejalci: 1 / Odjemalci: 0 / Velikost: 7.26 GB / Dokončani: 99
Prenesi torrent Poročaj torrent Opis torrenta
Zvrst: Drama | Kriminalka
Kategorija: FILMI > HDTV

Besa (2018-) - Sezona 1



Uroš je porodični čovek iz Beograda, kome se čitav svet ruši nakon saobraćajne nesreće u kojoj strada ćerka surovog kriminalca, a on postane ucenjen krvnom osvetom. Jedini način da sačuva svoj i život svojih najbližih je da počne da uzima tuđe živote i ubija ljude koje ne zna... Da li je sunovrat njegove duše, najmanje sto mu sledi...?
Ovo je potresna i uzbudljiva priča o teškoj borbi jednog čoveka sa svojom savešću i željom da zaštiti svoju porodicu, o moralnim dilemama i neverovatnom zaokretu kada se jedan običan i miran život pretvara u surovu borbu za preživljavanje i spasenje duše. Uroš Perić je iz Beograda, porodičan čovek sa dvoje dece. Na službenom putu u Crnoj Gori, dolazi do saobraćajne nesreće u kojoj život gubi devojka, Albanka Besiana koja je i uzrokovala nesreću. Situacija se od loše pretvara u noćnu moru kada se Uroš probudi u bolnici i sazna da je mrtva devojka ćerka okorelog mafijaškog bosa sa Kosova Dardana Beriše. Da bi izbegao osvetu i spasio život svoje porodice, Uroš pristaje da postane profesionalni ubica koji će eliminisati Dardanove neprijatelje. Dardan daje besu Urošu da kada ubije petoricu njegovih neprijatelja, tačno onoliko koliko članova broji Uroševa porodica, oslobodiće ga. Uroš je prinuđen da izvršava najbrutalnija ubistva širom bivše Jugoslavije. Nespretan u početku, vremenom postaje sve veštiji u ovom zločinu. Osim Dardanove senke, u stopu ga prati i Petrit Koči, neustrašivi interpolov inspektor koji na ovom slučaju tesno sarađuje sa srpskom i crnogorskom policijom.
Trench.11.aka.Rov.smrti.2017.SloSubs.720p.HDTVRip.x264-R77

Klikni za povečavo!
21-08-2021 17:52 naložil BlackDevil
Sejalci: 1 / Odjemalci: 0 / Velikost: 772.01 MB / Dokončani: 18
Prenesi torrent Poročaj torrent Opis torrenta
Zvrst: Grozljivka | Triler | Vojni
Kategorija: FILMI > HDTV

Trench 11 (2017)

Informacije o datoteki
Ime datoteke: Trench.11.aka.Rov.smrti.2017.SloSubs.720p.HDTVRip.x264-R77.mp4
Oblika: MP4
Informacije o obliki: QuickTime / MOV
Trajanje: 01: 22: 31.046
Velikost datoteke: 772,01 MB
Video informacije:
Video kodirnik: h264 (h.264 / avc / mpeg-4 avc / mpeg-4 del 10)
Ločljivost: 1048 * 576
Širina: 1048
Višina: 576
Razmerje zaslona: 131: 72
Hitrost sličic: 50 fps
Video bitna hitrost: 1107 kb / s
Barvni prostor: yuv420p
Zvočne informacije:
Avdio dajalnik: aac (napredno kodiranje zvoka)
Avdio bitna hitrost: 195 kb / s
Hitrost vzorčenja: 48000 Hz
Zvočni kanali: stereo
Jezik: und
Trajanje: 01: 22: 31.045

Severna Francija, 1918.
Kanadski kopač rovov (Rossif Sutherland) je strokovnjak za kopanje rovov pod sovražnimi položaji in od spodaj uničuje njihove rove. To je kruto, klavstrofobično delo, celo smrtonosnejši od življenja nad površjem v rovih.
Ko se 1. svetovna vojna približuje koncu, si Berton dovoli sanjati o življenju po vojni s svojo zaročenko, Francozinjo VERONIQUE (Karine Vanasse). Bertonov nadrejeni, stotnik JENNINGS (Ted Atherton) in DR. PRIEST (Charlie Carrick) imata drugačne načrte. Potrebujeta njegovo posebno znanje, da spravi enoto zaveznikov pod “Rovom 11” v tajno podzemlje nemške baze, kjer je po predvidevanjih Reinerjev (Robert Stadlober) orožarski laboratorij.





Resident Alien 2021 SrbSubs S01 720p AMZN WEBRip x264-GalaxyTV

Klikni za povečavo!
13-05-2021 09:19 naložil johnny80
Sejalci: 1 / Odjemalci: 0 / Velikost: 2.87 GB / Dokončani: 50
Prenesi torrent Poročaj torrent Opis torrenta
Kategorija: FILMI > HDTV



Velikost ...........: 2.87 GB
Dolžina ............: 10 x 44 Minut
Video ...............: 1000 Kbps | 1280 x 720
Zvok .................: AAC | 640 Kbps | 2 Channels
Kodek...............: x264
Zvrst………….....: Comedy | Drama | Mystery | Sci-Fi
Jezik ................: Angleški
Podnapisi.........: Srbski

Alan Tudyk, Sara Tomko, Corey Reynolds

A crash-landed alien named Harry who takes on the identity of a small-town Colorado doctor and slowly begins to wrestle with the moral dilemma of his secret mission on Earth.

Slike:
Dealer 2021 CroSubs S01 FRENCH 720p NF WEBRip DDP5 1 x264 MRCS

Klikni za povečavo!
11-05-2021 08:53 naložil johnny80
Sejalci: 1 / Odjemalci: 0 / Velikost: 2.69 GB / Dokončani: 10
Prenesi torrent Poročaj torrent Opis torrenta
Kategorija: FILMI > HDTV



Velikost ...........: 2.68 GB
Dolžina ............: 10 x 10 Minut
Video ...............: 2500 Kbps | 1280 x 720
Zvok .................: E-AC-3 | 640 Kbps | 6 Channels
Kodek...............: x264
Zvrst………….....: Action | Crime | Thriller
Jezik ................: Francoski
Podnapisi.........: Hrvaški

Abdramane Diakite, Mohamed Boudouh, Sébastien Houbani

A music video director tries to film Tony, a charismatic but unpredictable drug gang leader wanting to break into the rap music scene. His work reveals the hidden, true face of drug dealing, while he gets caught in a bloody gang war.

Slike:
Leonardo 2021 SrbSubs S01 720p AMZN WEBRip x264-GalaxyTV

Klikni za povečavo!
08-05-2021 21:43 naložil johnny80
Sejalci: 1 / Odjemalci: 0 / Velikost: 2.77 GB / Dokončani: 18
Prenesi torrent Poročaj torrent Opis torrenta
Kategorija: FILMI > HDTV



Velikost ...........: 2.76 GB
Dolžina ............: 8 x 53 Minut
Video ...............: 1000 Kbps | 1280 x 640
Zvok .................: AAC | 640 Kbps | 2 Channels
Kodek...............: x264
Zvrst………….....: Biography | Drama | History
Jezik ................: Angleški
Podnapisi.........: Srbski

Aidan Turner, Matilda De Angelis, Freddie Highmore

The series recounts Leonardo da Vinci's extraordinary life through the works that made him famous, through the stories hidden within those works, revealing little by little the inner torment of a man obsessed with attaining perfection.

Slike:
Južni Vetar 2020 S01 720p HDTV x264 AC3-PACK

Klikni za povečavo!
07-05-2021 22:30 naložil johnny80
Sejalci: 1 / Odjemalci: 1 / Velikost: 24.05 GB / Dokončani: 173
Prenesi torrent Poročaj torrent Opis torrenta
Zvrst: Drama | Kriminalka | Triler
Kategorija: FILMI > HDTV



Velikost ...........: 24.0 GB
Dolžina ............: 14 x 43 Minut
Video ...............: 4200 Kbps | 1280 x 720
Zvok .................: AC-3 | 192 Kbps | 2 Channels
Kodek...............: x264
Zvrst………….....: Crime | Drama | Thriller
Jezik ................: Srbski

Milos Bikovic, Miodrag Radonjic, Milos Timotijevic

A young member of a gang in Belgrade puts his family in danger when he angers a mafia boss.

Slike:
Jupiters Legacy 2021 CroSubs S01 720p NF WEBRip DDP5 1 Atmos x264 MRCS

Klikni za povečavo!
07-05-2021 19:43 naložil johnny80
Sejalci: 0 / Odjemalci: 0 / Velikost: 5.29 GB / Dokončani: 46
Prenesi torrent Poročaj torrent Opis torrenta
Zvrst: Akcija | Pustolovski | Z.F.
Kategorija: FILMI > HDTV



Velikost ...........: 5.28 GB
Dolžina ............: 8 x 45 Minut
Video ...............: 1500 Kbps | 1280 x 720
Zvok .................: Dolby Digital Plus with Dolby Atmos | 768 Kbps | 6 Channels
Kodek...............: x264
Zvrst………….....: Action | Adventure | Sci-Fi
Jezik ................: Angleški
Podnapisi.........: Hrvaški

Josh Duhamel, Ben Daniels, Leslie Bibb

The first generation of superheroes has kept the world safe for nearly a century. Now their children must live up to their legacy in an epic drama that spans decades and navigates the dynamics of family, power and loyalty.

Slike:
Nepokoreni.Grad.1981.S01.HDTV.x264-R77

Klikni za povečavo!
11-04-2021 08:50 naložil rado77
Sejalci: 1 / Odjemalci: 0 / Velikost: 13.55 GB / Dokončani: 8
Prenesi torrent Poročaj torrent Opis torrenta
Zvrst: Drama | Vojni | Zgodovinski
Kategorija: FILMI > HDTV

Nepokoreni.Grad.1981.S01.HDTV.x264-R77



Nepokoreni grad

TV Serija (1981–1982)


Neosvojeno mesto


Celovečerna TV-serija, prikazana leta 1982 v 14 epizodah. Vsaka epizoda je bila ločena zgodba o odporniškem gibanju v Zagrebu med drugo svetovno vojno. 2. svetovna vojna, ki združuje bolj znane in manj znane resnične dogodke (taborišče Kerestinec, napad na Glavno pošto, streljanje na pisatelja A. Cesareca, zasledovanje gestapa IL Ribarja, pobeg pisatelja V. Nazorja v partizanih, sabotažne akcije itd.). Serija je zaradi izjemnega dokumentarnega filma ohranila kultni status, replike "In Carlo je vedno lačen" na Karlovem mučilnem prizorišču s pomočjo podgan pa je že dolgo del tudi popularne kulture. Epizode so trajale nestandardno, od 70 minut do dveh ur. V skupini avtorjev scenarijev so bili M. Šećerović, P. Pavličić, M. Matošec, Z. Dirnbach in H. Hitrec, epizode pa je režiral E. Galić (Burevjesnik, Smrt fašizmu - svoboda narodu, neosvojeni, stavkovne skupine, črna usnjena torba, konec vojne ), V. Kljaković ( smrt tajnika, štirje, galeb ), Z. Tadić ( 72-96, Človek v senci ), Lj. Jojić ( igralec ), Ž. Belić ( Čoln na Kupi ) in S. Delic ( Dolgi pobeg ). Glasbo je zložil A. Kabiljo, naslovno pesem pa je na verze B. Brechta zapel D. Mlinarec; režiserji M. Perušina, D. Novak in D. Ruljančić, scenograf Ž. Senečić (1–13 epizod), V. Domitrović (14. epizoda), montaža J. Podvorac, I. Drnić, V. Štefić, Ž. Toplak, V. Štern. Igrajo: M. Nadarević, M. Štrljić, M. Janketić, J. Sablić, M. Brlečić, P. Bogdanović, M. Furlan in drugi.


Tehnične specifikacije:

Ime datoteke: Nepokoreni.Grad.1981.S01.HDTV.x264-R77
Oblika: MP4
Informacije o obliki: QuickTime / MOV
Trajanje: 01: 17: 09.182
Velikost datoteke: 1,09 GB

Video informacije:
Video kodirnik: h264 (h.264 / avc / mpeg-4 avc / mpeg-4 del 10)
Ločljivost: 1920 * 1080
Širina: 1920
Višina: 1080
Razmerje zaslona: 16: 9
Hitrost sličic: 25 sličic na sekundo
Video bitna hitrost: 1886 kb / s
Barvni prostor: yuv420p (tv

Zvočne informacije:
Zvočni kodirnik: aac (napredno kodiranje zvoka)
Avdio bitna hitrost: 128 kb / s
Hitrost vzorčenja: 44100 Hz
Zvočni kanali: stereo
Jezik: und
Trajanje: 01: 17: 09.181



Uživajte in ne pozabite sejati!
Alone.in.Berlin.2016.SrbSubs.HDRip.XviD.AC3-R77

Klikni za povečavo!
09-04-2021 13:22 naložil rado77
Sejalci: 1 / Odjemalci: 0 / Velikost: 1.33 GB / Dokončani: 23
Prenesi torrent Poročaj torrent Opis torrenta
Zvrst: Drama | Vojni | Zgodovinski
Kategorija: FILMI > HDTV

Alone.in.Berlin.2016.SrbSubs.HDRip.XviD.AC3-R77



Alone in Berlin (2016)

Izvirni naslov: Seul dans Berlin

Sam v Berlinu


Režija:Vincent Perez
Scenarij:Vincent Perez , Achim von Borries
Igralska zasedba:Emma Thompson , Brendan Gleeson , Daniel Brühl
Žanri: Drama, Zgodovina, Vojna
Država: Združeno kraljestvo, Francija, Nemčija
Jezik: angleščina
Podnapisi: Srbski



Zgodba:

Leta 1940 je med francosko kampanjo v akciji umorjen nemški vojak Hans Quangel (Louis Hofmann). Njegovi starši, Otto (Brendan Gleeson) in Anna (Dame Emma Thompson), so zaradi izgube uničeni, njihova žalost pa ni ublažena zaradi vesele histerije ob zmagi Nemčije. Ko se je odločil, da sta za to tragedijo in še veliko več odgovorni Führer Adolf Hitler in njegov nacistični režim, Otto ne more več stati ob strani. Kot tak Otto začne ustvarjati ročno napisane karte, ki obsojajo zlorabe in laži režima, ki jih skrivaj deponira po Berlinu, medtem ko razočarana Anna vztraja, da mu pomaga. Ko se subverzivne karte z leti kopičijo, je policijski detektiv Escherich (Daniel Brühl) zadolžen, da izsledi letaka, medtem ko ga njegov vse bolj nestrpni nadrejeni SS pritiska na aretacijo zaradi te "izdaje", ne glede na dejansko krivdo. Ko se vlogi povečujejo, tudi ko se bliža dan obračuna nacistične Nemčije, sta Otto in Anna odločena širiti resnico ne glede na verjetnost, ...


Tehnične specifikacije:

Ime datoteke: Alone.in.Berlin.2016.SrbSubs.HDRip.XviD.AC3-R77.avi
Oblika: AVI
Informacije o formatu: AVI (avdio video prepleteno)
Trajanje: 01: 43: 01.120
Velikost datoteke: 1,33 GB

Video informacije:
Video kodirnik: mpeg4 (mpeg-4 2. del)
Ločljivost: 720 * 304
Širina: 720
Višina: 304
Razmerje zaslona: 45:19
Hitrost sličic: 24 sličic na sekundo
Video bitna hitrost: 1464 kb / s
Barvni prostor: yuv420p


Zvočne informacije:
Dajalnik zvoka: atsc a / 52a (ac-3)
Avdio bitna hitrost: 384 kb / s
Hitrost vzorčenja: 48000 Hz
Zvočni kanali: 5,1 (stranski)
Jezik: und
Trajanje: 01: 43: 01.120


Uživajte in ne pozabite na sejanje!
NUR.EINE.FRAU.aka.Samo.ženska.2019.SloSubs.HDTVRip-R77

Klikni za povečavo!
08-04-2021 10:00 naložil rado77
Sejalci: 1 / Odjemalci: 0 / Velikost: 1.31 GB / Dokončani: 9
Prenesi torrent Poročaj torrent Opis torrenta
Zvrst: Drama | Kriminalka
Kategorija: FILMI > HDTV

NUR.EINE.FRAU.aka.Samo.ženska.2019.SloSubs.HDTVRip-R77


NUR EINE FRAU / A REGULAR WOMAN 2019

SAMO ŽENSKA


Režija: Sherry Hormann
Scenarij: Florian Öller po knjigi Matthiasa Deißa
Igrajo: Almila Bagriacik, Rauand Taleb, Aram Arami, Meral Perin, Mehmet Ateşçi, Mürtüz Yolcu, Merve Aksoy, Armin Wahedi
Žanr: Drama, kriminalka
Država: Nemčija
Jezik: Nemščina, Turški
Podnapisi: Slovenski


Zgodba:

Po resničnih dogodkih v Nemčiji leta 2006. Na avtobusni postaji v Berlinu Nuri, Aynurin brat, ustreli Aynur do smrti. Preden se je to zgodilo, je Aynur, ne da bi karkoli posumila, pospremila brata do avtobusne postaje, nekaj sto metrov stran od svojega stanovanja, v katerem je spal njen petletni sin Can. Potem so se zgodili streli … Kako se je lahko zgodilo kaj takega?
V filmu Aynur pripoveduje lastno zgodbo iz svojega zornega kota. Kot mlado dekle jo je kurdsko sorodstvo v Nemčiji poročilo z nasilnežem iz svojih krogov. Po letu dni je ubežala domačemu nasilju in se zatekla nazaj k svoji družini. Vendar jo je družina skupaj z njenimi tremi brati zavrnila, češ da je s pobegom od moža umazala družinsko čast. Aynur se upre takšni razlagi, in ko postane doma zaradi šikaniranja z vseh strani neznosno, se obrne na socialno službo, ki ji pomaga najti stanovanje in kasneje tudi službo. A grožnje domačih, posebej bratov, se kar ne nehajo. Aynur kljub ustrahovanju zaživi svobodno, »prozahodno« življenje, kar še dodatno vznejevolji brate. Nekega dne jo realnost turškokurdske družbene tradicionalnosti in predsodkov le dohiti ….


Tehnične specifikacije:

Ime filma: NUR.EINE.FRAU.aka.Samo.ženska.2019.SloSubs.HDTVRip-R77
Oblika / niz: MPEG-4
Format_Profile: osnovni medij
CodecID / niz: izom (isom / iso2 / avc1 / mp41)
Velikost datoteke / niza: 1,31 GiB
Trajanje / niz: 1h 32mn
TotalBitRate / String: 2020 Kbps
Kodirana_Aplikacija / niz: Lavf58.29.100

Video
ID / niz: 1
Oblika / niz: AVC
Format / Info: Napredni video kodek
Format_Profile: High@L3.1
Format_Settings: Ref Okvirji CABAC / 3
Format_Settings_CABAC / String: Da
Format_Settings_RefFrames / String: 3 frame
ID kode: avc1
CodecID / Info: napredno kodiranje videa
Trajanje / niz: 1h 32mn
BitRate / niz: 1886 Kbps
Širina / niz: 1280 slikovnih pik
Višina / niz: 720 slikovnih pik
DisplayAspectRatio / String: 16: 9
FrameRate_Mode / String: CFR
Število sličic / niz: 25.000 sličic na sekundo
ColorSpace: YUV
ChromaSubsampling / String: 4: 2: 0
BitDepth / niz: 8 bitov
ScanType / String: Progresivno
Bit - (Pixel * Frame): 0,082
Velikost / niz niza: 1,22 GiB (93%)
CodecConfigurationBox: avcC

Zvok
ID / niz: 2
Oblika / niz: AAC LC
Oblika / informacije: Napredni avdio kodek nizke zapletenosti
KodekID: mp4a-40-2
Trajanje / niz: 1h 32mn
Trajanje_Zadnji okvir / niz: -12ms
BitRate_Mode / niz: CBR
BitRate / niz: 128 Kbps
Kanal (-i) / niz: 2-kanalni
Postavitev kanala: L R
Hitrost vzorčenja / niz: 44,1 KHz
Hitrost / niz: 43.066 sličic na sekundo (1024 SPF)
Način stiskanja / niz: Lossy
Velikost / niz niza: 84,8 MiB (6%)
Privzeto / niz: Da
Nadomestna skupina / niz: 1

Uživajte in ne pozabite sejati!
Naše.malo.misto.1970.S01.HDTV.x264-R77

Klikni za povečavo!
29-03-2021 08:21 naložil rado77
Sejalci: 1 / Odjemalci: 0 / Velikost: 8.98 GB / Dokončani: 5
Prenesi torrent Poročaj torrent Opis torrenta
Zvrst: Drama | Komedija
Kategorija: FILMI > HDTV

Naše.malo.misto.1970.S01.HDTV.x264-R77


Naše malo misto 1970

TV Serija / 13 epizod (14)


AvtorMiljenko Smoje
DirektorDaniel Marušić
GlasbaPero Gotovac
IgralciKarlo Bulić, Asja Kisić, Boris Dvornik
DržavaHrvaška
Ježik Hrvaški
ProducentŽeljko Slišurić
Trajanje epizode55 minut


O seriji:

Celovečerna TV-serija, prikazana 1970–71. v 13 epizodah. Zanjo so značilne številne šaljive situacije, značilne za sredozemski ambient. Tipizirane situacije in karikaturni liki, postavljeni v neimenovano dalmatinsko mesto od sredine tridesetih do zgodnjih šestdesetih let, so obogateni z igrivimi dialogi, prežetimi s satiro, odličnimi igralskimi predstavami.


Serija dejansko dokumentira in zasmehuje vedenje lokalnega prebivalstva v vsakdanjih življenjskih situacijah in v situacijah, ki so jim naložene - vojna in nov sistem upravljanja.

Posebna zanimivost: Za predvajanje na srbski televiziji so serijo podnaslovili s hrvaškimi podnapisi v latinici in v tej obliki je bila kasneje predvajana tudi na ozemlju Hrvaške. Vse to je verjetno spadalo v takratno cenzuro saj se v seriji uporablja dalmatinščina ki je naj takrat nebi razumeli tako Hrvati kot Srbi.


Serija vsebuje tudi 14. epizodo, ki je bila PREPOVEDANA!


Pol stoletja je biser hrvaškega dramskega programa pokopan v arhivu in je bil pozabljen. In to je posebna 14. epizoda kultne serije Naše malo misto, "Zagrebulje", ki je bila predvajana le enkrat - 31. decembra 1970 - v okviru novoletnega programa nekdanje Televizije Zagreb, in od takrat se ji sledi izgubijo. Potem je bila prepovedana!

Ta epizoda je takrat morala povzročiti precej političnih nemirov. Takratni komunistični politiki zagotovo niso bili zadovoljni s to epizodo, ker so v njej stvari, ki prestopajo mejo satire. Mimogrede, v 'Našem malem mestu' je bilo veliko novih stvari in nikoli predvajanih. Obstaja ena scena, ko sta dr. Luigi in Boris Dvornik lulala iz obale. Ta prizor je takrat ustvaril veliko medijskega hrupa - zakaj in kako si televizija lahko privošči predvajanje česa takega...
Glasba:
Glasbo je napisal kotorski skladatelj in glasbenik Tripo Tomas (1885-1975).Slavno melodijo, ki jo je zapel Boris Dvornik, je skladal in priredil Pero Gotovac po motivih pesmi "Sve se Mare koprcaje", ki jo v prvi epizodi serije poje Roko Prč , ki gre skozi ulice v Vranjici , nosi vesla na rami. Gotovcu sta bila všeč izrazit glas in melodija Dvornika in kmalu je uglasbil pesem z besedilom Tomislava Zuppe "Naše malo misto".
Serija je bila predvajana v dveh sezonah 1970/71 v tem torrentu sta sezoni združrni.
Vir: hr.wikipedia



Tehnične specifikacije:

Popolno ime: Naše.malo.misto.1970.S01.HDTV.x264-R77
Oblika: Matroska
Različica formata: različica 2
Velikost datoteke: 702 MiB
Trajanje: 50 min
Skupna bitna hitrost: 1 801 kb / s
Aplikacija za pisanje: HandBrake 0.9.5
Knjižnica za pisanje: libmkv 0.6.4.1

Video
ID: 1
Oblika: AVC
Format / Info: Napredni video kodek
Profil oblike: Main @ L3
Nastavitve formata: okvirji za referenco CABAC / 4
Nastavitve formata, CABAC: Da
Nastavitve formata, referenčni okviri: 4 sličice
ID kodeka: V_MPEG4 / ISO / AVC
Trajanje: 50 min
Nazivna bitna hitrost: 1.663 kb / s
Širina: 720 slikovnih pik
Višina: 552 slikovnih pik
Razmerje zaslona: 4: 3
Način hitrosti sličic: konstantno
Hitrost sličic: 25.000 FPS
Barvni prostor: YUV
Podvzorčenje kroma: 4: 2: 0
Globina bitov: 8 bitov
Vrsta optičnega branja: progresivno
Bit / / (Pixel * Frame): 0,167
Knjižnica za zapis: jedro x264 112
Privzeto: Da
Prisilno: Ne.
Barvno območje: omejeno
Barvne barve: BT.601 NTSC
Značilnosti prenosa: BT.709
Matrični koeficienti: BT.601

Zvok
ID: 2
Oblika: AAC LC
Oblika / informacije: Napredni avdio kodek nizke zapletenosti
ID kodeka: A_AAC-2
Trajanje: 50 min
Kanali: 2 kanala
Postavitev kanala: L R
Hitrost vzorčenja: 48,0 kHz
Hitrost sličic: 46.875 FPS (1024 SPF)

Uživajte in ne pozabite na sejanje!
Dalida.2016.SloSubs.720p.HDTVRip

Klikni za povečavo!
26-03-2021 18:11 naložil rado77
Sejalci: 1 / Odjemalci: 0 / Velikost: 2.77 GB / Dokončani: 6
Prenesi torrent Poročaj torrent Opis torrenta
Kategorija: FILMI > HDTV

Dalida.2016.SloSubs.720p.HDTVRip


Dalida (2016)


Originalni naslov: DALIDA
Leto produkcije: 2016
Država: koprodukcija - Itaija, Francija
Žanr: biografska drama
Režija: Lisa Azuelos
Scenarij: Lisa Azuelos po knjigi Catherine Rihoit in Orlanda
Igrajo: Sveva Alviti, Riccardo Scamarcio, Jean-Paul Rouve, Niels Schneider, Alessandro Borghi
Podnapisi: Slovenščina
Jezik: Francoščina, Italijanščina, Angleščina, arabsko

Portret nekonvencionalne ženske, ki je živela v konvencionalnih časih. Čeprav se je Dalida tragično poslovila že leta 1987, njeno izjemno izročilo živi naprej.


Biografija ene najpopularnejših evropskih pevk, katere kariera je trajala skoraj trideset let: od revijskih popevk prek San Rema do diska. Gre za ganljivo in tragično zgodbo emocionalno izjemno kompleksne osebe, ki ji je bilo usojeno postati mednarodna zvezda.


Tehnične specifikacije:
Ime datoteke: Dalida.2016.SloSubs.720p.HDTVRip.mp4
Oblika: MP4
Informacije o obliki: QuickTime / MOV
Trajanje: 02: 01: 43.505
Velikost datoteke: 2,77 GB


Video informacije:
Video kodirnik: h264 (h.264 / avc / mpeg-4 avc / mpeg-4 del 10)
Ločljivost: 1280 * 720
Širina: 1280
Višina: 720
Razmerje zaslona: 16: 9
Hitrost sličic: 25 sličic na sekundo
Video bitna hitrost: 3123 kb / s
Barvni prostor: yuv420p

Zvočne informacije:
Zvočni kodirnik: aac (napredno kodiranje zvoka)
Avdio bitna hitrost: 128 kb / s
Hitrost vzorčenja: 44100 Hz
Zvočni kanali: stereo
Jezik: und
Trajanje: 02: 01: 43.481


Uživajte in ne pozabite sejati!
Händler.der.vier.Jahreszeiten.aka.Branjevec.za.štiri.letne.case.1972.SloSubs.720p.HDTVRip

Klikni za povečavo!
26-03-2021 16:58 naložil rado77
Sejalci: 1 / Odjemalci: 0 / Velikost: 1.24 GB / Dokončani: 4
Prenesi torrent Poročaj torrent Opis torrenta
Zvrst: Drama | Grozljivka
Kategorija: FILMI > HDTV

Händler.der.vier.Jahreszeiten.aka.Branjevec.za.štiri.letne.case.1972.SloSubs.720p.HDTVRip



Branjevec za štiri letne čase (1972)

16+

Händler der vier Jahreszeiten


Žanri: drama, grozljivka
Direktor: Rainer Werner Fassbinder
Igrajo:
Hans Hirschmüller
Irm Hermann
Hanna Schygulla
Andrea Schober
Podnapisi: Slovenščina
Država: Zahodna Nemčija
Jezik: Nemščina | arabsko
Datum izdaje:10. februar 1972 (Francija)


O filmu:

Rainer Werner Fassbinder, ta zloglasni mojster nemškega novega vala, je v svoji kratki karieri posnel zares veliko takšnih in drugačnih filmov, ki jih te dni pridno vrtijo na naši nacionalni televiziji. In tukaj je Händler der vier Jahreszeiten, po naše, Branjevec za štiri letne čase, zgodba o možaku Hansu Eppu (Hans Hirschmuller), ki po vrnitvi iz tujske legije ne najde več pravega smisla življenja. Tudi zato, ker zaradi afere s prostitutko izgubi službo policista in ker mora zdaj na tržnici prodajati sadje. To ga ubija, to mu jemlje samozavest, to ga pahne v pijančevanje, kar seveda občuti tudi njegova nesrečna in prestrašena žena Irmgard (Irm Hermann), ki jo začne pretepati. Fassbinder, ki ga lahko na hitro ujamete v gostilni, kjer si privošči kosilo z glavnim junakom, gre zelo globoko v psiho ubogega in samouničevalnega Hansa Eppa, ki ga ne rajca več niti njegova voljna soseda, katera ga vabi na seks in se mu gola nastavlja na postelji. Za razliko od žene, ki uteho seveda najde v objemu drugega moškega.
Napisal: Iztok Gartner (https://gartnerjevfilmskisvet.wordpress.com/2021/03/22/handler-der-vier-jahreszeiten-1972/)


Tehnične specifikacije:
Ime datoteke: Händler.der.vier.Jahreszeiten.aka.Branjevec.za.štiri.letne.case.1972.SloSubs.720p.HDTVRip.mp4
Oblika: MP4
Informacije o obliki: QuickTime / MOV
Trajanje: 01: 24: 44.954
Velikost datoteke: 1,24 GB

Video informacije:
Video kodirnik: h264 (h.264 / avc / mpeg-4 avc / mpeg-4 del 10)
Ločljivost: 1280 * 720
Širina: 1280
Višina: 720
Razmerje zaslona: 16: 9
Hitrost sličic: 25 sličic na sekundo
Video bitna hitrost: 1961 kb / s
Barvni prostor: yuv420p

Zvočne informacije:
Zvočni kodirnik: aac (napredno kodiranje zvoka)
Avdio bitna hitrost: 128 kb / s
Hitrost vzorčenja: 44100 Hz
Zvočni kanali: stereo
Jezik: Nemški, arabski
Trajanje: 01: 24: 44.930


Uživajte in ne pozabite sejati!
Alibi.com.SLOSub.HDTVRip.720p.x264-R77

Klikni za povečavo!
26-03-2021 14:08 naložil rado77
Sejalci: 2 / Odjemalci: 0 / Velikost: 1.53 GB / Dokončani: 19
Prenesi torrent Poročaj torrent Opis torrenta
Zvrst: Komedija
Kategorija: FILMI > HDTV

Alibi.com.SLOSub.HDTVRip.720p.x264-R77


Alibi.com (2017)


Originalni naslov: ALIBI.COM
Leto produkcije: 2017
Država: Francija
Podnapisi: Slovenščina
Žanr: komedija
Režija: Philippe Lacheau
Scenarij: Philippe Lacheau, Julien Arruti in Pierre Dudan
Igrajo: Philippe Lacheau, Tarek Boudali, Elodie Fontan, Nathalie Baye, Didier Bourdon
Trajanje: 1 ur 25 min. 43 s


Opis:

Odbita francoska komedija, ob kateri se boste do solz nasmejali novemu nasledniku De Funesa in Bourvila, priljubljenemu in vsestranskemu Philippu Lacheauju, ki je pred časom navdušil s komedijama Babysitting in Vsi na jug.
Njegova pisana druščina se spet znajde v vrtincu zmešnjav in dvoumnih položajev, iz zagat pa jih (bolj ko ne na videz) rešuje podjetje Alibi.com, nekakšen start up, ki ga ob pomoči sodelavcev Augustina in Medhija vodi premeteni in zapeljivi Greg. Osnovna dejavnost, s katero se fantje, ki so pravi magnet za težave in smešne prigode, ukvarjajo, je, da svojim strankam na vse mogoče načine omogočajo nemoteno dvojno življenje. Tako se vsaj zdi na prvi pogled. Zapletena zgodba se zaplete v neslutene razsežnosti, ko spremljamo, kako se iz nje rešujejo glavni liki filma in kaj vse jih čaka na poti do resnice.



Tehnične specifikacije:

Ime datoteke: Alibi.com.SLOSub.HDTVRip.720p.x264-R77.mp4
Oblika: MP4
Informacije o obliki: QuickTime / MOV
Trajanje: 01: 25: 34,605
Velikost datoteke: 1,53 GB


Video informacije:
Video kodirnik: h264 (h.264 / avc / mpeg-4 avc / mpeg-4 del 10)
Ločljivost: 1280 * 720
Širina: 1280
Višina: 720
Razmerje zaslona: 16: 9
Hitrost sličic: 25 sličic na sekundo
Video bitna hitrost: 2431 kb / s
Barvni prostor: yuv420p

Zvočne informacije:
Zvočni kodirnik: aac (napredno kodiranje zvoka)
Avdio bitna hitrost: 128 kb / s
Hitrost vzorčenja: 44100 Hz
Zvočni kanali: stereo
Jezik: francoski
Trajanje: 01: 25: 34.570


Uživajte in ne pozabite sejati!
Prolece.Na.Poslednjem.Jezeru.2020.HDTV.x264-BD4YU

Klikni za povečavo!
24-03-2021 16:46 naložil System
Sejalci: 1 / Odjemalci: 0 / Velikost: 984.47 MB / Dokončani: 15
Prenesi torrent Poročaj torrent Opis torrenta
Zvrst: Drama | Vojni
Kategorija: FILMI > HDTV
Anonimen nalagalec

Prolece.Na.Poslednjem.Jezeru.2020.HDTV.x264-BD4YU


Prolece na poslednjem jezeru 2020

Pomlad na zadnjem jezeru


Režija: Filip Čolović
Scenarij: Vule Žurić
Fotografija: Gojko Despotović
Žanri: Drama, Vojni

Igrajo: Tihomir Stanić, Nebojša Milovanović, Olga Odanović, Natasa Tapušković, Marija Vicković, Aleksandar Đurica, Jelena Ćuruvija, Dragan Petrović, Jovan Jovanović, Boris Komnenić, Branislav Trifunović

Producent: Marija Bereta
Produkcija: Radio-televizija Srbije
Izvajanje: 82 min
Država: Srbija
Jezik: Srbsko


Opis:

Pomlad na zadnjem jezeru je slika življenja našega slavnega pisatelja Iva Andrića med ambasadorstvom. Med drugo svetovno vojno so bili diplomati in diplomatsko osebje jugoslovanskih misij iz držav, ki jih je zasedel tretji rajh, deportirani v hotel na Bodenskem jezeru. Med diplomati je bil tudi Andrić, takrat veleposlanik jugoslovanske diplomatske misije v Berlinu. Vzporedno s pričakovanjem rešitve usode jugoslovanskih diplomatov, ki so bivali v hotelu, se razvija zanimiva zgodba o ljubezenskem trikotniku med Andrićem, kostumografinjo Milico Babić in njenim možem Nenadom Jovanovićem.

Tehnične specifikacije:

Ime datoteke: Prolece.Na.Poslednjem.Jezeru.2020.HDTV.x264-BD4YU.mkv
Oblika: MKV
Informacije o formatu: Matroska / WebM
Trajanje: 01: 22: 50.003
Velikost datoteke: 984,47 MB

Video informacije:
Video kodirnik: h264 (h.264 / avc / mpeg-4 avc / mpeg-4 del 10)
Ločljivost: 1024 * 436
Širina: 1024
Višina: 436
Razmerje zaslona: 40:17
Hitrost sličic: 25 sličic na sekundo
Video bitna hitrost: 1661 kb / s
Barvni prostor: yuv420p (tv

Zvočne informacije:
Dajalnik zvoka: aac (napredno kodiranje zvoka)
Avdio bitna hitrost: 0 kb / s
Hitrost vzorčenja: 48000 Hz
Zvočni kanali: stereo
Jezik: Srbski
Trajanje: 01: 22: 50.003


Želim vam hiter prenos in ne pozabite na sejanje!
Dara.Iz.Jasenovca.2020.1080p.HDTV.x264

Klikni za povečavo!
22-02-2021 15:29 naložil rado77
Sejalci: 1 / Odjemalci: 0 / Velikost: 3.51 GB / Dokončani: 44
Prenesi torrent Poročaj torrent Opis torrenta
Zvrst: Drama | Vojni
Kategorija: FILMI > HDTV

Dara.Iz.Jasenovca.2020.1080p.HDTV.x264


DARA IZ JASENOVCA (2020)


Zgodba:
Zgodba teče okoli mladega dekleta po imenu Dara, ki je bila poslana v najhujše koncentracijsko taborišče na balkanu: Jasenovac.
Film je postavljen v Ustaško državo NDH (Neodvisna Država Hrvaška) med drugo svetovno vojno. Predstavljen je skozi oči dekleta Dare. Prikazuje koncentracijsko taborišče Jasenovac, pod vodstvom sadističnega poveljnika Vjekoslava "Maksa" Luburića.
To je prvi moderni film o drugi svetovni vojni, ki se dogaja in prikazuje taborišča pod nadzorom NDH.










Igrajo:
Igor Đorđević ... Ante Vrban
Marko Janketić ... Vjekoslav "Maks" Luburić
Biljana Cekić ... Dara
Nataša Drakulić ... Jovanka Konča in drugi


Leto izdaje ... 2021
Dolžina ... 130 minut
Velikost ... 3.50 GB
Rezolucija ... 1920 x 1080
Država ... Srbija
Jezik ... Srbski, Hrvaški, Nemški


TO NI LE FILM - TO JE OPOMIN!
Snayper 2 Tungus S01 SrbSubs 720p HDTV x264 PACK

Klikni za povečavo!
20-01-2021 15:26 naložil Ziva
Sejalci: 1 / Odjemalci: 0 / Velikost: 4.55 GB / Dokončani: 15
Prenesi torrent Poročaj torrent Opis torrenta NFO
Zvrst: Vojni
Kategorija: FILMI > HDTV



Mini serija
Snayper 2 Tungus S01 720p HDTV x264 PACK
Language(s): Russian
Size: 4.55 GB | Duration: 4 x 40mn | Container: MKV
Audio: MP-2 | 192 Kbps | 2 Channels
Video: AVC | 3800 Kbps | 1280 x 720
Genre: War
Podnapisi: srbski


World War 2 - Eastern Front: A new batch of raw, inexperienced female Soviet snipers arrive at the front. To bolster them a commander picks a Tungus medic whose people are known for their hunting skills and marksmanship to lead them in battle. Soon a merciless duel with an elite German sniper develops. The main character is based on the top Soviet sniper SEMYON NOMOKONOV who had 367 kills to his credit.



Kosarkar.Naj.Bo.2.2019.SLOVENiAN.720p.HDTV.XviD-metalcamp

Klikni za povečavo!
05-01-2021 12:29 naložil Ziva
Sejalci: 3 / Odjemalci: 0 / Velikost: 2.44 GB / Dokončani: 224
Prenesi torrent Poročaj torrent Opis torrenta NFO
Kategorija: FILMI > HDTV



Naziv: Kosarkar.Naj.Bo.2.2019.SLOVENiAN.720p.HDTV.XviD-metalcamp
Source: Kosarkar.Naj.Bo.2.2019.1080p.HDTV-Fr33sat -HVALA!
Leto izida ........: 2019
Velikost ...........: 2,40 GB
Dolžina ............: 76 Minut
Video ...............: 4086 Kbps | 1280x696 | 25 fps
Zvok .................: Dolby Digital AC3 2.0 @ 448 Kbps
Kodek.................: XviD
Zvrst………….: Družinski | Komedija
Država .............: Slovenija
Jezik ................: Slovenski
Podnapisi .........: Brez
Tehnična obdelava: metalcamap
IMDb Ocena ...: 6,6/10 (32 glasov)
Režija.........: Boris Bezić
Scenarij......: Primož Suhodolčan


Klemen Kostrevc ... Ranta
Matija David Brodnik ... Smodlak
Gaja Filač ... Metka
Domen Novak ... Jožko
Lado Bizovičar ... Tini Trska
Marko Miladinović ... Salta
Gojmir Lešnjak ... Tundra
Tim Celarc ... Mali
Matjaž Javšnik ... Rantin Oče
Ana Marija Mitić ... Rantina Mati


Drugi del knjižne in filmske uspešnice Košarkar naj bo nadaljuje duhovito pripoved
o Ranti, fantu, ki je tako velik, da bi lahko žirafam kravate zavezoval. Vse izgleda
brezhibno, ko Rantino predpočitniško poletno vzdušje precej pretresejo nepredvidene
šolske obveznosti, ljubezenske težave in košarkaški zapleti. Ranta bo moral marsikaj
narediti in dognati povsem sam in tako bo ponovno zrastel. Samo tokrat ne le v višino.
To je film, ki ga zaznamuje otroška radoživost in sproščen humor. Pot mladostne
razigranosti prikazuje z naklonjenostjo in razumevanjem težav in napak najstnikov,
ki jih imajo pri svojem odraščanju.





Lost On Everest SLoSub HDTV MiXy.mp4

Klikni za povečavo!
01-10-2020 09:57 naložil Spartakus
Sejalci: 1 / Odjemalci: 0 / Velikost: 1.12 GB / Dokončani: 19
Prenesi torrent Poročaj torrent Opis torrenta NFO
Zvrst: Dokumentarni
Kategorija: FILMI > HDTV


Izgubljena na Mounteverestu

(Lost On Everest)
Complete name : Lost On Everest SLoSub HDTV MiXy
Format : MPEG-4
Format profile : Base Media
Codec ID : isom (isom/iso2/avc1/mp41)
File size : 1.12 GiB
Duration : 47 min 21 s
Overall bit rate mode : Variable
Overall bit rate : 3 378 kb/s
Encoded date : UTC 1970-01-01 00:00:00
Tagged date : UTC 1970-01-01 00:00:00
Writing application : Lavf52.64.2


VSEBINA
8. junija 1924 sta britanska raziskovalca George Mallory in Andrew Irvine izginila na Mount Everestu samo 200 metrov pod vrhom.


Radio.Silence.2019.SloSub.HDTVx264-[cyd]

Klikni za povečavo!
25-10-2019 13:06 naložil System
Sejalci: 1 / Odjemalci: 0 / Velikost: 512.09 MB / Dokončani: 14
Prenesi torrent Poročaj torrent Opis torrenta NFO
Zvrst: Triler
Kategorija: FILMI > HDTV
Anonimen nalagalec

———————————————————————————————————————————————————————————
IMDb info:
◎ Naslov: Radijska tišina - Radio Silence
◎ Leto: 2019
◎ Zvrst: triler,
◎ Jezik: angleški
◎ Ocena: 05,4
◎ Stars: Georgina Haig, John Ralston, Carrie-Lynn Neales
◎ Povzetek: Psihologinja za odnose dr. Jill Peterman (Georgina Haig) vodi uspešno pogovorno radijsko oddajo, ki jo spremlja na tisoče ljudi, dokler se nekoč v živo ne zgodi samomor neke poslušalke po imenu Alexis. Do obisti pretresena Jill sklene zapustiti radijski svet pod prisego, da se nikoli več ne bo vrnila. Po enem letu jo še vedno preganja spomin na grozljivi dogodek, vendar pristane na to, da bo obnovila svojo radijsko oddajo. Ko se že nekoliko začenja privajati na nekdanje življenje, jo med oddajo pokliče skrivnostna poslušalka, ki se predstavi kot Alexis. Jill je prepričana, da gre za neuravnovešeno posnemovalko. Razpletati se začne mreža skrivnosti in laži, ki bo imela smrtonosne posledice.
———————————————————————————————————————————————————————————
YouTube URADNI NAPOVEDNIK:
———————————————————————————————————————————————————————————
PODNAPISI:
◎ Jezik : slovenski [vstavljeni / softcoded / multiplexed]
———————————————————————————————————————————————————————————
VIR:
◎ Source:
Radio Silence (2019) HDTV x264 - SHADOW.mp4
◎ After coding:
Radio.Silence.2019.SloSub.HDTVx264-[cyd].mkv
———————————————————————————————————————————————————————————
UFC.237.Main.Event.Namajunas.vs.Andrade.1080p.

Klikni za povečavo!
12-05-2019 07:39 naložil System
Sejalci: 1 / Odjemalci: 0 / Velikost: 5.85 GB / Dokončani: 0
Prenesi torrent Poročaj torrent Opis torrenta
Zvrst: Sportni
Kategorija: FILMI > HDTV
Anonimen nalagalec

UFC.237.Main.Event.Namajunas.vs.Andrade.1080p.
Expand Code:
General
Complete name                            : G:StahováníUFC.237.Namajunas.vs.Andrade.1080p.WEB-WDTeam.mp4
Format                                   : MPEG-4
Format profile                           : Base Media
Codec ID                                 : isom
File size                                : 5.85 GiB
Duration                                 : 2h 37mn
Overall bit rate                         : 5 311 Kbps
Encoded date                             : UTC 2019-05-11 04:46:12
Tagged date                              : UTC 2019-05-11 04:46:12

Video
ID                                       : 1
Format                                   : AVC
Format/Info                              : Advanced Video Codec
Format profile                           : High@L4.2
Format settings, CABAC                   : Yes
Format settings, ReFrames                : 4 frames
Codec ID                                 : avc1
Codec ID/Info                            : Advanced Video Coding
Duration                                 : 2h 37mn
Source duration                          : 2h 37mn
Bit rate                                 : 4 896 Kbps
Width                                    : 1 920 pixels
Height                                   : 1 080 pixels
Display aspect ratio                     : 16:9
Frame rate mode                          : Constant
Frame rate                               : 50.000 fps
Color space                              : YUV
Chroma subsampling                       : 4:2:0
Bit depth                                : 8 bits
Scan type                                : Progressive
Bits/(Pixel*Frame)                       : 0.047
Stream size                              : 5.40 GiB (92%)
Source stream size                       : 5.63 GiB (96%)
Tagged date                              : UTC 2019-05-11 04:47:59

Audio
ID                                       : 2
Format                                   : AAC
Format/Info                              : Advanced Audio Codec
Format profile                           : LC
Codec ID                                 : 40
Duration                                 : 2h 37mn
Bit rate mode                            : Constant
Bit rate                                 : 196 Kbps
Channel(s)                               : 2 channels
Channel positions                        : Front: L R
Sampling rate                            : 48.0 KHz
Compression mode                         : Lossy
Stream size                              : 221 MiB (4%)
Tagged date                              : UTC 2019-05-11 04:47:59