A
B
C
D
E
F
G
H
I
J
K
L
M
N
O
P
Q
R
S
T
U
V
W
X
Y
Z
0-9
Primeri.inspektorja.Vrenka.2020.S01E01.avi

Klikni za povečavo!
Sreda at 12:43 naložil Spartakus
Sejalci: 1 / Odjemalci: 0 / Velikost: 971.08 MB / Dokončani: 0
Prenesi torrent Poročaj torrent Opis torrenta
Zvrst: Kriminalka
Kategorija: FILMI > HDTV


INFO:
Naziv: Primeri.inspektorja.Vrenka.2020.S01E01.SLOVENiAN.HDTV.XviD-N33D3R
Source: Primeri.inspektorja.Vrenka.2020.S01E01.SLOVENiAN.1080p.HDTV.x264-N33D3R
Velikost ...........: 971 MB
Dolžina ............: 46 Minut
Video ...............: 2788 Kbps | 720x374 | 25 fps
Zvok .................: MP2 @192 kbps 2.0 Ch
Kodek...............: XviD
Zvrst………….....: Kriminalni
Jezik ................: Slovenski

Režija.........: Slobodan Maksimović, Boris Jurjaševič
Scenarij......: Avgust Demšar

IGRAJO:
Dario Varga, Jurij Drevenšek, Lotos Šparovec, Janez Hočevar-Rifle, Katarina Čas, Barbara Lapajne Predin in drugi

VSEBINA:
Šestdelna nadaljevanka je nastala po prvih treh romanih Avgusta Demšarja.
V središču dogajanja je seveda inšpektor Martin Vrenko (Dario Varga), ki se v Mariboru srečuje s preiskovanjem kriminalističnih primerov in temnih skrivnosti – pa tudi strasti –, ki usodno posegajo v življenja posameznikov.
Naslovni protagonist pa ima ob zahtevni službi opravka še s svojim ne prav preprostim zasebnim življenjem. Po materini smrti mora skrbeti za odtujenega očeta Borisa (Janez Hočevar – Rifle), z lastnico džezovskega lokala Mojco (Katarina Čas) pa razvija prijateljski odnos, iz katerega bo nemara zraslo kaj večjega.
Kriminalistično ekipo ob Vrenku sestavljata Marko Breznik (Jurij Drevenšek) in Oskar Brajdič (Lotos Šparovec), v preostalih vlogah pa se pojavlja več prepoznavnih igralk in igralcev.

Režijo nadaljevanke podpisujeta Slobodan Maksimović in Boris Jurjaševič, njeno avtorsko jedro pa sestavljajo še direktor fotografije Vladan G. Janković, scenografka Mateja Medvedić, kostumografka Katarina Šavs, oblikovalka maske Eva Uršič in montažer Jurij Moškon.

Maribor vijolč'ni 2020 720p HDTV x264-SuP

Klikni za povečavo!
07-01-2021 13:42 naložil Ziva
Sejalci: 3 / Odjemalci: 0 / Velikost: 436.36 MB / Dokončani: 3
Prenesi torrent Poročaj torrent Opis torrenta NFO
Kategorija: FILMI > HDTV



Naziv: Maribor vijolč'ni 2020 720p HDTV x264-SuP
Leto izida .........: 2021
Velikost ...........: 436 MiB
Dolžina ............: 1h 00min
Video ...............: 1016 kb/s | 1280x720 | 25 fps
Zvok .................: AAC 2.0
Jezik ................: Slovenski


Pred nami je premiera filma ob 60-letnici NK Maribor, ki nam bo povišala srčni utrip in nas priklenila pred majhne zaslone.

MARIBOR VIJOL'ČNI, najlepša ura zgodovine. Pa ne samo zgodovine vašega in našega svetega kluba… Ampak film o strasteh in občutjih. O ljubezni in strahu, o veselju in razočaranju. O nogometu in ljudeh, ki so z njim tesno povezani. Kot večen spomin in darilo za rojstni dan. Ob 60-letnici delovanja želimo poskrbeti za močno sporočilnost in pripraviti počastitev jubileja na nekoliko drugačen način.

S 60-minutnim dokumentarno-igranim filmom želimo poslati v svet posebno sporočilo. In tudi tistim, ki niso najbolj zapriseženi navijači, prikazati pravo bistvo igre….
Božič.z.Bliskom.aka.Christmas.with.Tucker.SLOSubs.HDTV.720p.x264.ts-R77

Klikni za povečavo!
05-01-2021 16:30 naložil System
Sejalci: 1 / Odjemalci: 0 / Velikost: 780.17 MB / Dokončani: 0
Prenesi torrent Poročaj torrent Opis torrenta
Zvrst: Družinski
Kategorija: FILMI > HDTV
Anonimen nalagalec

Božič.z.Bliskom.aka.Christmas.with.Tucker.SLOSubs.HDTV.720p.x264.ts-R77


Christmas with Tucker (2013)

Božič z Bliskom
Film • Družinski


13-letni George McCray je v nesreči s traktorjem na družinski kmetiji nedavno izgubil očeta.


Vsebina:

Georgeova mama Jill se na svoj način spopada z nesrečo: preselila se je v Minnesoto, da bi bila blizu svojih staršev in Georgeovih sester Trish in Hane, ki tam obiskujeta fakulteto. George, ki noče oditi, zato naj bi vse do božiča ostal pri babici Cori in dedku Boju.
Ko njihovega soseda Franka Thorna, nekdanjega prijatelja Georgeovega očeta, zaprejo zaradi vožnje pod vplivom alkohola, dedek domov pripelje njegovega psa in George ga poimenuje Tucker (Blisk) ter se nanj silno naveže. A Frank bo kmalu prišel iz zapora in Tucker bo moral domov.

Direktor: Larry A. McLean (v vlogi Larry McLean)
Pisatelji: Dave Alan Johnson , Greg Kincaid (po knjigi avtorja)
Igrajo: James Brolin , Gage Munroe , Barbara Gordon


Podnapisi: Slovenski
Država: Kanada
Jezik: angleščina
Datum izdaje:25. november 2013 (ZDA)
Poznan tudi kot:Pes pozimi
Izvajanje: 84 min


Tehnične specifikacije:

Complete name : Božič.z.Bliskom.aka.Christmas.with.Tucker.SLOSubs.HDTV.720p.x264.ts-R77\Božič z Bliskom SLOSubs.mp4
Format : MPEG-4
Format profile : Base Media
Codec ID : isom (isom/iso2/avc1/mp41)
File size : 495 MiB
Duration : 1 h 23 min
Overall bit rate mode : Variable
Overall bit rate : 832 kb/s

Video
ID : 2
Format : AVC
Format/Info : Advanced Video Codec
Format profile : Baseline@L3
Format settings : 4 Ref Frames
Format settings, CABAC : No
Format settings, Reference frames : 4 frames
Format settings, GOP : M=1, N=60
Codec ID : avc1
Codec ID/Info : Advanced Video Coding
Duration : 1 h 23 min
Duration_FirstFrame : 40 ms
Bit rate mode : Constant
Bit rate : 700 kb/s
Width : 632 pixels
Original width : 640 pixels
Height : 368 pixels
Original height : 360 pixels
Display aspect ratio : 16:9
Frame rate mode : Constant
Frame rate : 25.000 FPS
Color space : YUV
Chroma subsampling : 4:2:0
Bit depth : 8 bits
Scan type : Progressive
Bits/(Pixel*Frame) : 0.120
Stream size : 416 MiB (84%)
Color range : Limited
Codec configuration box : avcC

Audio
ID : 3
Format : AAC LC
Format/Info : Advanced Audio Codec Low Complexity
Codec ID : mp4a-40-2
Duration : 1 h 23 min
Bit rate mode : Variable
Bit rate : 126 kb/s
Maximum bit rate : 223 kb/s
Channel(s) : 2 channels
Channel layout : L R
Sampling rate : 44.1 kHz
Frame rate : 43.066 FPS (1024 SPF)
Compression mode : Lossy
Stream size : 74.7 MiB (15%)


UŽIVAJTE!
Kosarkar.Naj.Bo.2.2019.SLOVENiAN.720p.HDTV.XviD-metalcamp

Klikni za povečavo!
05-01-2021 12:29 naložil Ziva
Sejalci: 2 / Odjemalci: 0 / Velikost: 2.44 GB / Dokončani: 7
Prenesi torrent Poročaj torrent Opis torrenta NFO
Kategorija: FILMI > HDTV



Naziv: Kosarkar.Naj.Bo.2.2019.SLOVENiAN.720p.HDTV.XviD-metalcamp
Source: Kosarkar.Naj.Bo.2.2019.1080p.HDTV-Fr33sat -HVALA!
Leto izida ........: 2019
Velikost ...........: 2,40 GB
Dolžina ............: 76 Minut
Video ...............: 4086 Kbps | 1280x696 | 25 fps
Zvok .................: Dolby Digital AC3 2.0 @ 448 Kbps
Kodek.................: XviD
Zvrst………….: Družinski | Komedija
Država .............: Slovenija
Jezik ................: Slovenski
Podnapisi .........: Brez
Tehnična obdelava: metalcamap
IMDb Ocena ...: 6,6/10 (32 glasov)
Režija.........: Boris Bezić
Scenarij......: Primož Suhodolčan


Klemen Kostrevc ... Ranta
Matija David Brodnik ... Smodlak
Gaja Filač ... Metka
Domen Novak ... Jožko
Lado Bizovičar ... Tini Trska
Marko Miladinović ... Salta
Gojmir Lešnjak ... Tundra
Tim Celarc ... Mali
Matjaž Javšnik ... Rantin Oče
Ana Marija Mitić ... Rantina Mati


Drugi del knjižne in filmske uspešnice Košarkar naj bo nadaljuje duhovito pripoved
o Ranti, fantu, ki je tako velik, da bi lahko žirafam kravate zavezoval. Vse izgleda
brezhibno, ko Rantino predpočitniško poletno vzdušje precej pretresejo nepredvidene
šolske obveznosti, ljubezenske težave in košarkaški zapleti. Ranta bo moral marsikaj
narediti in dognati povsem sam in tako bo ponovno zrastel. Samo tokrat ne le v višino.
To je film, ki ga zaznamuje otroška radoživost in sproščen humor. Pot mladostne
razigranosti prikazuje z naklonjenostjo in razumevanjem težav in napak najstnikov,
ki jih imajo pri svojem odraščanju.





Der.kommer.en.dag.aka.Prišel.bo.dan.HDTV.720p.x264.ts-R77

Klikni za povečavo!
05-12-2020 16:26 naložil rado77
Sejalci: 1 / Odjemalci: 0 / Velikost: 1.26 GB / Dokončani: 6
Prenesi torrent Poročaj torrent Opis torrenta
Zvrst: Drama
Kategorija: FILMI > HDTV

Der.kommer.en.dag.aka.Prišel.bo.dan.HDTV.720p.x264.ts-R77[/size]

Der kommer en dag (2016)

Prišel bo dan

Film, ki bi ga lahko označili kot dansko različico Sester magdalenk, je posnet po resničnih dogodkih,
ZASLUŽI SI VSO POZORNOST! Moja ocena: 9,5 / 10



Zgodba:

Elmer in Erik z mamo samohranilko živita na Danskem sredi šestdesetih let. Ko mati zaradi bolezni ne more več skrbeti zanju, ju socialna služba pošlje v Godhavn, zloglasno sirotišnico, ki jo vodi sadistični direktor Heck. Fanta se sprva upirata nasilju učiteljev in varovancev, potem pa se sprijaznita z režimom in čakata na odpust. Upanje tli v njiju, vse dokler mati ne premine in ju tudi stric, na katerega računata, kot skrbnik pusti na cedilu. Takrat mlajši Elmer vzame usodo v svoje roke, to pa privede do nepredvidenih posledic.
Film o resničnih grozotah resnične sirotišnice Godhavn na Danskem, kjer so bili osiroteli dečki vsakodnevno deležni velikih zlorab, od zanemarjanja in grozljivega pretepanja do spolnih zlorab. Obtožbe so prvič prišle na plan leta 2005, ko je danska televizija predvajala dokumentarec. Po tem so ustanovili komisijo, ki je ugotovila, da ta sirotišnica še zdaleč ni bila edina, ki je grobo zlorabila zaupanje ljudi.


Leto produkcije: 2016
Država: Danska
Žanr: drama
Režija: Jesper W. Nielsen
Scenarij: Søren Sveistrup
Igrajo: Lars Mikkelsen, Sofie Gråbøl, Harald Kaiser Hermann, Albert Rudbeck Lindhardt
Podnapisi: Slovenščina

IMDb: https://www.imdb.com/title/tt4659056/?ref_=nv_sr_srsg_0


Podrobnosti:

General:
Complete name : Der.kommer.en.dag.aka.Prišel.bo.dan.HDTV.720p.x264.ts-R77\Prišel bo dan, danski film.mp4
Format : MPEG-4
Format profile : Base Media
Codec ID : isom (isom/iso2/avc1/mp41)
File size : 1.26 GiB
Duration : 1 h 54 min
Overall bit rate : 1 575 kb/s
Writing application : Lavf58.29.100
Video
ID : 1
Format : AVC
Format/Info : Advanced Video Codec
Format profile : High@L3.1
Format settings : CABAC / 2 Ref Frames
Format settings, CABAC : Yes
Format settings, Reference frames : 2 frames
Codec ID : avc1
Codec ID/Info : Advanced Video Coding
Duration : 1 h 54 min
Bit rate : 1 441 kb/s
Width : 1 280 pixels
Height : 720 pixels
Display aspect ratio : 16:9
Frame rate mode : Constant
Frame rate : 25.000 FPS
Color space : YUV
Chroma subsampling : 4:2:0
Bit depth : 8 bits
Scan type : Progressive
Bits/(Pixel*Frame) : 0.063
Stream size : 1.15 GiB (91%)
Codec configuration box : avcC
Audio
ID : 2
Format : AAC LC
Format/Info : Advanced Audio Codec Low Complexity
Codec ID : mp4a-40-2
Duration : 1 h 54 min
Bit rate mode : Constant
Bit rate : 128 kb/s
Channel(s) : 2 channels
Channel layout : L R
Sampling rate : 44.1 kHz
Frame rate : 43.066 FPS (1024 SPF)
Compression mode : Lossy
Stream size : 105 MiB (8%)
Default : Yes
Alternate group : 1



KDOR SEJE TUDI ŽANJE!
Treat.Me.Like.Fire-Joueurs.aka.Od.srece.do.zloma.2018.SLOSubs.720p.HDTVRip x264.R77

Klikni za povečavo!
03-12-2020 15:11 naložil rado77
Sejalci: 0 / Odjemalci: 0 / Velikost: 988.94 MB / Dokončani: 4
Prenesi torrent Poročaj torrent Opis torrenta
Zvrst: Drama | Kriminalka
Kategorija: FILMI > HDTV

Treat.Me.Like.Fire-Joueurs.aka.Od.srece.do.zloma.2018.SLOSubs.720p.HDTVRip x264.R77


TREAT ME LIKE FIRE / JOUEURS / 2018

OD SREČE DO ZLOMA
FRANCOSKI FILM


Zgodba:
Ella je privlačno, čeprav na videz ne najbolj srečno dekle, ki dela v družinskem bistroju v Parizu. Nekega dne se jim pridruži Abel, tudi privlačen, prizadeven mladenič, ki potrebuje službo. Toda Abel je predvsem slepar. Ko se mu ponudi priložnost, izmakne dnevni izkupiček iz blagajne bistroja in pobegne. Razjarjena Ella se požene za njim in sled jo pripelje do igralniškega kluba, skritega v podzemlju pariškega hazarda. Namesto da bi Abela na licu mesta kompromitirala in obtožila, Ella podleže njegovemu igralniškemu in tudi moškemu šarmu; kar se začne kot naključna stava za igralniško mizo, se nato nadaljuje kot goreča zaljubljenost in čustvena odvisnost. Skupaj sta kot Bonnie in Clyde brez brzostrelke, ki zmagujeta v kazinojih podzemnega Pariza in tako živita iz trenutka v trenutek. Toda Abel kot goljuf in hazarderski odvisnik predstavlja za zaljubljeno dekle veliko nevarnost; Ello potegne v svoj vrtinec denarja, laži in prevar saj od nje zahteva enako … Ella, čustveno in duhovno izčrpana celo ogrozi likvidnost družinskega bistroja, samo da bi lahko ustregla svojemu demoničnemu ljubimcu. Toda Abel jo še enkrat izkoristi: pobere njen denar in ogoljufa oba - Ello za ljubezen, dolžnika za denar…
Francoski film ima podobno strukturo in energijo kakor ameriški film Prava stvar (True romance, 1993)

Režija: Marie Monge
Scenarij: Julien Guetta, Marie Monge
Sodelavec pri scenariju: Romain Compingt
Igrajo: Tahar Rahim, Stacy Martin, Bruno Wolkowitch, Karim Leklou, Marie Denarnaud, Jean-Michel Correia, Henri-Noël Tabary, Jonathan Couzinié, Roman Kossowski, Alassane Traore, Djemel Barek, Jonas Dinal, Nicolas Retabi, Mahault Mollaret in drugi …
Žanri: Kriminalka, drama, romanca
Država: Francija
Jezik: Francosko
Podnapisi: Slovenščina
Datum izdaje:4. julij 2018 (Francija)
Tehnične specifikacije:
Izvajanje: 105 min
Barva: Barva
Razmerje: 2.39 : 1


KDOR SEJE TUDI ŽANJE!
Spartacus Gods Of The Arena S01 SloSubs 720p HDTV x264 PACK

Klikni za povečavo!
12-11-2020 07:57 naložil Spartakus
Sejalci: 1 / Odjemalci: 0 / Velikost: 8.74 GB / Dokončani: 3
Prenesi torrent Poročaj torrent Opis torrenta NFO
Kategorija: FILMI > HDTV

INFO
Spartacus Gods Of The Arena S01 720p HDTV x264 PACK
Language(s): English
Size: 8.74 GB | Duration: 6 x 55mn | Container: MKV
Audio: AC-3 | 384 Kbps | 6 Channels
Video: AVC | 3400 Kbps | 1280 x 720
Genre: Action | Adventure | History
mini serija

IGRAJO

John Hannah, Manu Bennett, Peter Mensah

VSEBINA
In the time before the arrival of Spartacus, the House of Batiatus faces many challenges from competitors, and within its own household.



Lost On Everest SLoSub HDTV MiXy.mp4

Klikni za povečavo!
01-10-2020 09:57 naložil Spartakus
Sejalci: 1 / Odjemalci: 0 / Velikost: 1.12 GB / Dokončani: 11
Prenesi torrent Poročaj torrent Opis torrenta NFO
Zvrst: Dokumentarni
Kategorija: FILMI > HDTV


Izgubljena na Mounteverestu

(Lost On Everest)
Complete name : Lost On Everest SLoSub HDTV MiXy
Format : MPEG-4
Format profile : Base Media
Codec ID : isom (isom/iso2/avc1/mp41)
File size : 1.12 GiB
Duration : 47 min 21 s
Overall bit rate mode : Variable
Overall bit rate : 3 378 kb/s
Encoded date : UTC 1970-01-01 00:00:00
Tagged date : UTC 1970-01-01 00:00:00
Writing application : Lavf52.64.2


VSEBINA
8. junija 1924 sta britanska raziskovalca George Mallory in Andrew Irvine izginila na Mount Everestu samo 200 metrov pod vrhom.


Cosmos.S01.SloSubs.720p.HDTV-MiXy

Klikni za povečavo!
06-04-2020 06:23 naložil
Sejalci: 1 / Odjemalci: 0 / Velikost: 9 GB / Dokončani: 11
Prenesi torrent Poročaj torrent Opis torrenta NFO
Zvrst: Dokumentarni
Kategorija: FILMI > HDTV

——————————————————————————————————————————————————————————————————
IMDb info:
◎ Naslov, leto: Kozmos (Cosmos: A Spacetime Odyssey)
◎ Zvrst: dokumentarni
◎ Ocena: 9,3
◎ Povzetek: Mary Beth and Priscilla Connolly attempt to cover up a gruesome run-in with a dangerous man. To conceal their crime, the sisters must go deep into the criminal underbelly of their hometown, uncovering the town's darkest secrets.
◎ Povezava: [urlhttps://www.imdb.com/title/tt2395695/][/url]
◎ Sezona: 1
◎ Epizode:
———————————————————————————————————————————————————————————
NAPOVEDNIK:
——————————————————————————————————————————————————————————————————
PODNAPISI:
◎ Jezik : slovenski hardcoded
——————————————————————————————————————————————————————————————————
General
Complete name : Cosmos.S01.SloSubs.720p.HDTV-MiXy
Format : MPEG-4
Format profile : Base Media
Codec ID : isom (isom/iso2/avc1/mp41)
Video
ID : 1
Format : AVC
Format/Info : Advanced Video Codec
Format profile : High@L3.1
Codec ID : avc1
Codec ID/Info : Advanced Video Coding
Width : 1 276 pixels
Height : 720 pixels
Display aspect ratio : 16:9
Audio
ID : 2
Format : AAC LC
Format/Info : Advanced Audio Codec Low Complexity
Channel(s) : 2 channels
———————————————————————————————————————————————————————————
POVEZAVA:
◎ Seedbox, speed Limit: NO
———————————————————————————————————————————————————————————
———————————————————————————————————————————————————————————
Skupaj.2018.SLOVENiAN.1080p.HDTV.x264-MrJani951

Klikni za povečavo!
05-04-2020 09:13 naložil System
Sejalci: 1 / Odjemalci: 0 / Velikost: 4.58 GB / Dokončani: 8
Prenesi torrent Poročaj torrent Opis torrenta
Zvrst: Drama
Kategorija: FILMI > HDTV
Anonimen nalagalec

——————————————————————————————————————————————————————————————————
iNFO: Skupaj.2018.SLOVENiAN.1080p.HDTV.x264-MrJani951.mkv
Leto izida ........: 2018
Velikost ..........: 4.58 GB
Slika ...............: 1920 x 1036, 7456 kbps
Zvok ...............: AC3, 192 kbps
Dolžina ...........: 1h 25min
Zvrst..............: Drama
Država ..........: Slovenia
Jezik .............: Slovenščina
iMDB.............: 7,3
OPiS
Film Skupaj nas na začetku uvede v utečeno življenje funkcionalne, vendar neklasične družine: najstnica Mia srečno živi s svojim očetom Matejem in njegovim partnerjem Luko. To harmonično skupnost z vsakdanjimi radostmi in tegobami prekine nenadna Matejeva smrt in zaradi neurejenih odnosov v širši družini postane negotovo, ali bosta Luka in Mija v prihodnje še lahko živela skupaj. Film Marka Šantića na svež in občuten način prikazuje družinske odnose znotraj nekonvencionalne družine, skozi zgodbo razgrinja posledice, ki jih prinašajo zamolčevanje, predsodki in izogibanje problemom. Govori nam predvsem o tem, da človek ni ustvarjen za samoto in da svoje sobivanje lahko polno živi v različnih skupnostih.
IGRAJO: Nadja Debeljak, Primož Bezjak, Jernej Šugman, Silava Čušin, Ivo Ban, Olga Kacjan, Gal Golob
REŽIJA: Marko Šantić / Scenarij: Irena Svetek
———————————————————————————————————————————————————————————
CONNECTION:
◎ Seedbox, speed Limit: NO
———————————————————————————————————————————————————————————
———————————————————————————————————————————————————————————
Rudar.2017.SLOVENiAN.HDTVRip.XviD-TheDude

05-04-2020 09:12 naložil System
Sejalci: 1 / Odjemalci: 0 / Velikost: 1.96 GB / Dokončani: 9
Prenesi torrent Poročaj torrent Opis torrenta
Zvrst: Biografija | Drama
Kategorija: FILMI > HDTV
Anonimen nalagalec

——————————————————————————————————————————————————————————————————
RELEASE INFO:
Naziv: Rudar.2017.SLOVENiAN.HDTVRip.XviD-TheDude
Vir: 1080p.HDTV-MrJani951
Velikost: 1.96 GiB
Dolžina: 1 h 38 min
Jeziki: slovenski
Tehnična obdelava: The Dude
SLIKA: XviD | 720x416 | 2 647 kb/s
ZVOK: AC3 | 192 kb/s 2 channels 48.0 kHz
Zvrst: biografska drama
Ocena: 7,4/10
Dodatne info: https://www.imdb.com/title/tt6213994
Vsebina:
Zasavski rudar, ki mu naročijo odpreti zazidan rov,
najde za zidom mnogo več kot le zapuščen rudnik.
Film skozi oči priseljenca odkriva temno plat
slovenske zgodovine in išče v rudarjevi preprosti in
topli človečnosti rešitev za kompleksne razkole med
ljudmi.
Režija:
Hanna Antonina Wojcik Slak
Igrajo:
Leon Lučev
Marina Redžepović
Zala Djurić Ribič
Tin Marn
Boris Cavazza
Jure Henigman
———————————————————————————————————————————————————————————
YouTube URADNI NAPOVEDNIK:
———————————————————————————————————————————————————————————
CONNECTION:
◎ Seedbox, speed Limit: NO
———————————————————————————————————————————————————————————
———————————————————————————————————————————————————————————
Jezero.S01.SLOVENiAN.1080p.HDTV.x264.AC3-MrJani951

Klikni za povečavo!
04-04-2020 14:39 naložil System
Sejalci: 1 / Odjemalci: 0 / Velikost: 18.83 GB / Dokončani: 16
Prenesi torrent Poročaj torrent Opis torrenta
Kategorija: FILMI > HDTV
Anonimen nalagalec

——————————————————————————————————————————————————————————————————
INFO:
Naziv: Jezero.S01.SLOVENiAN.1080p.HDTV.H264.AC3-MrJani951
Leto izida .........: 2020
Velikost ...........: 18.8 GiB
Video ...............: 8000 - 9500 kb/s | 1920x1080 | 25 fps
Zvok ................: AC3 Dolby Digital @ 192 Kbps, 48 kHz
Kodek...............: H264
Zvrst................: Kriminalka
Država .............: Slovenija
Jezik ................: SLOVENSKI
*****************************************************************************************
IGRAJO:
Sebastian Cavazza, Nika Rozman, Matej Puc,
Gregor Čušin, Nataša Barbara Gračner, Matjaž Tribušon,
Vlado Novak, Igor Samobor, Brane Završan, Jana Zupančič in drugi
VSEBINA:
Na poti z novoletne zabave se višji inšpektor za krvne in seksualne delikte,
Taras Birsa (Sebastian Cavazza), nehote zaplete v preiskavo krutega umora
mlade ženske. Poleg težavnega primera novo leto ekipi kriminalistov prinese
tudi novo sodelavko Tino Lanc (Nika Rozman) in z začetkom informativnih pogovorov
tudi prve osumljence.
Taras se kmalu po začetku preiskave znajde na preizkušnji, tako v službenem kot zasebnem življenju. Prihod mlade policistke, s katero po službeni dolžnosti skupaj preživljata
veliko časa, tako s tira vrže tudi njegovo notranje ravnovesje.
The.Lion.King.2019.SLOSINH.720p.HDTV.H264.AC3-GENOX

Klikni za povečavo!
09-03-2020 15:01 naložil
Sejalci: 1 / Odjemalci: 0 / Velikost: 3.24 GB / Dokončani: 223
Prenesi torrent Poročaj torrent Opis torrenta
Kategorija: FILMI > HDTV

INFO:
Naziv: The.Lion.King.2019.SLOSINH.720p.HDTV.H264.AC3-GENOX
Leto izida .........: 2019
Velikost ...........: 3.24 GiB
Dolžina ............: 1 h 53 min
Video ...............: 4000 kb/s | 1280x720 | 50 fps
Zvok .................: Dolby Digital AC3 2.0 @ 192 Kbps
Zvrst.: Animirani | Pustolovski | Družinski | Drama | Muzikal
Kodek.................: H264
Država .............: ZDA
Jezik ................: SLOVENSKI
IMDB:
iMDB info: LiNK
iMDB ocena: 6,9


SLOVENSKA SINHRONIZACIJA:
Tilen Artač, Valter Dragan, Uroš Smolej, Klemen Slakonja, Igor Štamulak, Rem Mali,
Lan Zupančič, Klemen Mramor, Sebastijan Cavazza, Glorija Forjan, Maja Založnik,
Vita renko, iztok Valič, Uroš Buh, Maja Koncar, Srđan Milovanović, Helena Berden,
Filip Borut Schroll, Alenka Tetičkovič, Primož Vrhovec, Rok Perko, Ana Trnavčević
VSEBINA:
Na filmska platna prihaja srčna in večna zgodba, ki smo jo v animirani verziji
gledali leta 1994. Spet se bomo podali v osrčje afriške savane, kjer se rodi
bodoči kralj živali. Po smrti svojega očeta Mufase želi mladi Simba prevzeti
prestol, čemur nasprotuje zlobni Scar, ki ima povsem svoje načrte. Začne se
borba z že znanim izdajstvom, dramo in strašno tragedijo. S pomočjo prijateljev
mora Simba hitro odrasti in si priboriti tisto, kar mu pripada.
Radio.Silence.2019.SloSub.HDTVx264-[cyd]

Klikni za povečavo!
25-10-2019 13:06 naložil System
Sejalci: 1 / Odjemalci: 0 / Velikost: 512.09 MB / Dokončani: 14
Prenesi torrent Poročaj torrent Opis torrenta NFO
Zvrst: Triler
Kategorija: FILMI > HDTV
Anonimen nalagalec

———————————————————————————————————————————————————————————
IMDb info:
◎ Naslov: Radijska tišina - Radio Silence
◎ Leto: 2019
◎ Zvrst: triler,
◎ Jezik: angleški
◎ Ocena: 05,4
◎ Stars: Georgina Haig, John Ralston, Carrie-Lynn Neales
◎ Povzetek: Psihologinja za odnose dr. Jill Peterman (Georgina Haig) vodi uspešno pogovorno radijsko oddajo, ki jo spremlja na tisoče ljudi, dokler se nekoč v živo ne zgodi samomor neke poslušalke po imenu Alexis. Do obisti pretresena Jill sklene zapustiti radijski svet pod prisego, da se nikoli več ne bo vrnila. Po enem letu jo še vedno preganja spomin na grozljivi dogodek, vendar pristane na to, da bo obnovila svojo radijsko oddajo. Ko se že nekoliko začenja privajati na nekdanje življenje, jo med oddajo pokliče skrivnostna poslušalka, ki se predstavi kot Alexis. Jill je prepričana, da gre za neuravnovešeno posnemovalko. Razpletati se začne mreža skrivnosti in laži, ki bo imela smrtonosne posledice.
———————————————————————————————————————————————————————————
YouTube URADNI NAPOVEDNIK:
———————————————————————————————————————————————————————————
PODNAPISI:
◎ Jezik : slovenski [vstavljeni / softcoded / multiplexed]
———————————————————————————————————————————————————————————
VIR:
◎ Source:
Radio Silence (2019) HDTV x264 - SHADOW.mp4
◎ After coding:
Radio.Silence.2019.SloSub.HDTVx264-[cyd].mkv
———————————————————————————————————————————————————————————
Cocaine.Godmother.SloSub.2018.720p.HDTV.x264-[cyd]

Klikni za povečavo!
14-10-2019 16:19 naložil System
Sejalci: 1 / Odjemalci: 0 / Velikost: 2.64 GB / Dokončani: 26
Prenesi torrent Poročaj torrent Opis torrenta NFO
Kategorija: FILMI > HDTV
Anonimen nalagalec

———————————————————————————————————————————————————————————
IMDb info:
◎ Naslov: Cocaine Godmother
◎ Leto: 2018
◎ Zvrst: biografski, drama, kriminalka
◎ Jezik: angleški
◎ Ocena: 05,6
◎ Stars: Catherine Zeta-Jones, Jenny Pellicer, Alejandro Edda
◎ Povzetek: The real life of Colombian drug lord, Griselda Blanco, who reportedly Trollminded more than 200 murders. This film presents her life story from the time she was a young girl to the end of her life.
———————————————————————————————————————————————————————————
YouTube URADNI NAPOVEDNIK:
———————————————————————————————————————————————————————————
PODNAPISI:
◎ Jezik : slovenski [vstavljeni / softcoded / multiplexed]
———————————————————————————————————————————————————————————
VIR:
◎ Source:
Cocaine.Godmother.The.Griselda.Blanco.Story.2018.720p.HDTV.x264-CRiMSON.mp4
◎ After coding:
Cocaine.Godmother.SloSub.2018.720p.HDTV.x264-[cyd].mkv
———————————————————————————————————————————————————————————
UFC.237.Main.Event.Namajunas.vs.Andrade.1080p.

Klikni za povečavo!
12-05-2019 07:39 naložil System
Sejalci: 1 / Odjemalci: 0 / Velikost: 5.85 GB / Dokončani: 0
Prenesi torrent Poročaj torrent Opis torrenta
Zvrst: Sportni
Kategorija: FILMI > HDTV
Anonimen nalagalec

UFC.237.Main.Event.Namajunas.vs.Andrade.1080p.
Expand Code:
General
Complete name                            : G:StahováníUFC.237.Namajunas.vs.Andrade.1080p.WEB-WDTeam.mp4
Format                                   : MPEG-4
Format profile                           : Base Media
Codec ID                                 : isom
File size                                : 5.85 GiB
Duration                                 : 2h 37mn
Overall bit rate                         : 5 311 Kbps
Encoded date                             : UTC 2019-05-11 04:46:12
Tagged date                              : UTC 2019-05-11 04:46:12

Video
ID                                       : 1
Format                                   : AVC
Format/Info                              : Advanced Video Codec
Format profile                           : High@L4.2
Format settings, CABAC                   : Yes
Format settings, ReFrames                : 4 frames
Codec ID                                 : avc1
Codec ID/Info                            : Advanced Video Coding
Duration                                 : 2h 37mn
Source duration                          : 2h 37mn
Bit rate                                 : 4 896 Kbps
Width                                    : 1 920 pixels
Height                                   : 1 080 pixels
Display aspect ratio                     : 16:9
Frame rate mode                          : Constant
Frame rate                               : 50.000 fps
Color space                              : YUV
Chroma subsampling                       : 4:2:0
Bit depth                                : 8 bits
Scan type                                : Progressive
Bits/(Pixel*Frame)                       : 0.047
Stream size                              : 5.40 GiB (92%)
Source stream size                       : 5.63 GiB (96%)
Tagged date                              : UTC 2019-05-11 04:47:59

Audio
ID                                       : 2
Format                                   : AAC
Format/Info                              : Advanced Audio Codec
Format profile                           : LC
Codec ID                                 : 40
Duration                                 : 2h 37mn
Bit rate mode                            : Constant
Bit rate                                 : 196 Kbps
Channel(s)                               : 2 channels
Channel positions                        : Front: L R
Sampling rate                            : 48.0 KHz
Compression mode                         : Lossy
Stream size                              : 221 MiB (4%)
Tagged date                              : UTC 2019-05-11 04:47:59

When.Heroes.Fly.S01.CroSubs.NF.WEBRipx264 INFLATE☺[cyd]

Klikni za povečavo!
16-03-2019 15:30 naložil System
Sejalci: 1 / Odjemalci: 0 / Velikost: 6.11 GB / Dokončani: 15
Prenesi torrent Poročaj torrent Opis torrenta NFO
Zvrst: Akcija | Drama
Kategorija: FILMI > HDTV
Anonimen nalagalec

———————————————————————————————————————————————————————————
IMDb info:
◎ Naslov: When Heroes Fly
◎ Leto: 2018
◎ Zvrst: akcija drama
◎ Jezik: angleški
◎ Ocena: ★★★★★★★ (7,4)
◎ Povzetek:Mislil je, da je vse izgubil. Ljubezen svojega življenja, vero, prijatelje ...
Vojna, v kateri se je boril pred 11leti, je na njem pustila tragične posledice, toda en telefonski klic, ki ga ni nikoli pričakoval, je spremenil vse.
Serija Let junakov (When Heroes Fly) se začne s koncem izraelsko-libanonske vojne leta 2006, v kateri se štirje najboljši prijatelji pripravljajo na vrnitev domov. Enajst let po koncu vojnih misij prijatelji odidejo vsak svojo pot, vsak s svojo zgodbo, težavami in osebno tragedijo.
Vir: http://www.times.si
◎ Sezona:01
◎ Koledar:
01.Resurrection 13.05.2018
02.HELP 20.05.2018
03.The Pale Father 20.05.2018
04.Ministering Angels 27.05.2018
05.There's been an accident 27.05.2018
06.Ashes to Ashes 05.03.201903.06.2018
07.Noga 03.06.2018
08.Tattooed 06.06.2018
09.Pillar of Smoke 09.06.2018
10.Roger and Out 09.06.2018
———————————————————————————————————————————————————————————
YouTube URADNI NAPOVEDNIK:
———————————————————————————————————————————————————————————
PODNAPISI:
◎ Jezik : srbski latinica [vstavljeni / softcoded / multiplexed]
———————————————————————————————————————————————————————————
VIR:
◎ Source:
When.Heroes.Fly.S01.NF.WEBRipx264.INFLATE.mkv
◎ After coding:
When.Heroes.Fly.S01.CroSubs.NF.WEBRipx264.INFLATE☺[cyd].mkv
———————————————————————————————————————————————————————————
NFO in slike se nahajajo v zato ustreznih zavihkih.
6833
Aquaman.2018.720p.HDTC.X264-Taco

Klikni za povečavo!
26-12-2018 15:51 naložil System
Sejalci: 1 / Odjemalci: 0 / Velikost: 2 GB / Dokončani: 40
Prenesi torrent Poročaj torrent Opis torrenta
Zvrst: Akcija
Kategorija: FILMI > HDTV
Anonimen nalagalec

Arthur Curry learns that he is the heir to the underwater kingdom of Atlantis, and must step forward to lead his people and be a hero to the world
Houston_We.Have.A.Problem.2016.SLOSubs.1080p.HDTV.x264-N33D3R

11-05-2017 10:33 naložil System
Sejalci: 1 / Odjemalci: 0 / Velikost: 3.61 GB / Dokončani: 5
Prenesi torrent Poročaj torrent Opis torrenta
Kategorija: FILMI > HDTV
Anonimen nalagalec

Explores the myth of the secret multi-billion-dollar deal behind America's purchase of Yugoslavia's clandestine space program in the early 1960s.
Alive.1993.SLO-Subs.720p.HDTV.MkvCage

Klikni za povečavo!
06-02-2017 20:08 naložil BlackDevil
Sejalci: 1 / Odjemalci: 0 / Velikost: 1.01 GB / Dokončani: 5
Prenesi torrent Poročaj torrent Opis torrenta
Kategorija: FILMI > HDTV

Alive
Živi
Akcija,Avantura,Biografski
dlL1f.jpg

Info
Dolžina ..................: 126 minut
Leto .......................: 1993
Kodek ....................: XviD
Slika ......................: 1280 x 720 1040 kbps 23,976 fps
Zvok ......................: Angleški AAC3 2Ch 100 kb/s
Podnapisi .............: Slovenski
Žanr ......................: Akcija / Avantura / Biografski
iMDB ocena ..........: 7,1/10 (40,383 glasov)
iMDB info ..............: http://www.imdb.com/title/tt0106246/


Igrajo
Ethan Hawke ... Nando Parrado
Vincent Spano ... Antonio Balbi
Josh Hamilton ... Roberto Canessa
Bruce Ramsay ... Carlitos Páez
John Newton ... Antonio 'Tintín' Vizintín
David Kriegel ... Gustavo Zerbino
Kevin Breznahan ... Roy Harley
Sam Behrens ... Javier Methol
Illeana Douglas ... Lilliana Methol
Jack Noseworthy ... Bobby François


Vsebina
Spremljamo polet urugvajskih ragbijašev na tekmo v Čilu.
Žal pa jim polet ni usojen; zaradi nepazljivosti pilotov
in goste megle zadanejo ob goro in strmoglavijo nekje
sredi Andov. V snegu in peklenskem mrazu preživljajo
grozo in bedo, hrane zmanjkuje, a pomoči ni od nikoder.
Ko izgine še zadnji drobec hrane, so primorani, da se
soočijo z dejstvom – ali poginejo od gladu ali pa se
hranijo s trupli mrtvih tovarišev in pod vodstvom prej
neodločnega Nanda (Ethan Hawke) in vročekrvnega Canesso
(Josh Hamillton) sami poiščejo pot iz zasneženih Andov
v Čile.
Q3KFG70.gif
k1yvI.jpg
j0ktL.jpg
http://www.thewrap.com/wp-content/uploads/2012/11/alive.jpg
ncVsY.jpg
VT6J.jpg
Maigret's Dead Man 2016 CroSubs 720p HDTV x264 AC3 GTi

Klikni za povečavo!
25-01-2017 13:26 naložil Ziva
Sejalci: 1 / Odjemalci: 0 / Velikost: 1.74 GB / Dokončani: 7
Prenesi torrent Poročaj torrent Opis torrenta NFO
Kategorija: FILMI > HDTV



Maigret's Dead Man 2016 720p HDTV x264 AC3 GTi
Language(s): English
1hr 28mn | 720p HDTV | 1280 x 720 | Matroska | 1.74 GB
Genre(s): Crime | Drama | Mystery
IMDb : http://www.imdb.com/title/tt5017060/

Podnapisi : hrvaški


Rowan Atkinson ... Chief Inspector Jules Maigret
Ian Puleston-Davies ... Inspector Colombani
Dorottya Hair ... Nicole (as Dorrottya Hais)
Mark Hadfield ... Albert Rochain
Iván Fenyö ... Pietr
Dénes Bernáth ... Victor Poliensky



Maigret plunges into the murky Parisian underworld.



Van.Helsing.S01E01.CroSub.HDTV.XviD-FUM

Klikni za povečavo!
02-08-2016 17:25 naložil
Sejalci: 1 / Odjemalci: 0 / Velikost: 348.69 MB / Dokončani: 11
Prenesi torrent Poročaj torrent Opis torrenta NFO
Zvrst: Drama | Z.F.
Kategorija: FILMI > HDTV

Ime: Van Helsing
Sezona: 01
Leto: 2016
Jezik: angleški
Žanr: drama ZF
Jezik : hraški
Prevod : rodjocousin
Priredba: cYd
Ocena: Ratings:NA
Stars: Kelly Overton, Jonathan Scarfe, Christopher Heyerdahl
URL: IMDb
01. Help Me 22.09.2016
...
13. Finale sezone 16.12.2016
Svet ni več enak odkar so zavladali vampiri. Zemlja je opustošena in brez sončnih žarkov.
Peščica preživelih se odloči da bo branila Zemljo pri tem pa nujno rabijo pomoč. Zberejo se, da obudijo od mrtvih Vanesso Helsing hčer slavnega loVCA NA VAMPIRJE.
roots.2016.part.4.SrbSub.hdtv.x264-crooks[ettv]

Klikni za povečavo!
01-08-2016 17:40 naložil
Sejalci: 1 / Odjemalci: 0 / Velikost: 745.32 MB / Dokončani: 4
Prenesi torrent Poročaj torrent Opis torrenta NFO
Zvrst: Drama | Zgodovinski
Kategorija: FILMI > HDTV

Ime: Roots
Sezona: 01
Leto: 2016
Jezik: angleški
Žanr: drama zgodovinski
Jezik : srbski - latinica
Prevod : CRAFTTroll®
Priredba: cYd
Ocena: Ratings:7,8/10 (2.638)
Stars: Jonathan Rhys Meyers, Malachi Kirby, Forest Whitaker
URL: IMDb
1.Part 1 30.05.2016
2.Part 2 01.06.2016
3.Part 3 01.06.2016
4.Part 4 02.06.2016
Mini serija in adaptacija knjižne uspešnice "Koreni".
Zgodba o Hejlijevih prednikih kako so iz svobodnih ljudi postali sužnji, njihovo potovanje iz Afrike do novega življenja v Ameriki...
roots.2016.part.1.SrbSub.hdtv.x264-crooks[ettv]

Klikni za povečavo!
01-07-2016 19:16 naložil
Sejalci: 1 / Odjemalci: 0 / Velikost: 972.74 MB / Dokončani: 7
Prenesi torrent Poročaj torrent Opis torrenta NFO
Zvrst: Drama | Zgodovinski
Kategorija: FILMI > HDTV

Ime: Roots
Sezona: 01
Leto: 2016
Jezik: angleški
Žanr: drama zgodovinski
Podnapisi: srbski - latinica
Ocena: Ratings:7,8/10 (2.638)
Stars: Jonathan Rhys Meyers, Malachi Kirby, Forest Whitaker
URL: IMDb
1.Part 1 30.05.2016
2.Part 2 01.06.2016
3.Part 3 01.06.2016
4.Part 4 02.06.2016
Mini serija in adaptacija knjižne uspešnice "Korenine".
Zgodba o Hejlijevih prednikih kako so iz svobodnih ljudi postali sužnji, njihovo potovanje iz Afrike do novega življenja v Ameriki...
Game.of.Thrones.S06E04.SloSub.HDTV.XviD-AFG

Klikni za povečavo!
16-05-2016 10:01 naložil
Sejalci: 1 / Odjemalci: 0 / Velikost: 406.17 MB / Dokončani: 3
Prenesi torrent Poročaj torrent Opis torrenta NFO
Zvrst: Drama | Pustolovski | Z.F.
Kategorija: FILMI > HDTV

Ime: Game of Thrones
Sezona: 06
Leto: 2016
Jezik: angleški
Žanr: pustolovski drama zf
Podnapisi: slovenski
Ocena: 9,5/10 (947.905)
Creators: David Benioff, D.B. Weiss
Stars: Emilia Clarke, Peter Dinklage, Kit Harington
URL: IMDb
01. The Red Woman 24.04.2016
02. Homeward Bound 01.05.2016
03. Oathbreaker 08.05.2016
04. Book of the Stranger 15.05.2016
05. The Door 22.05.2016
...
10. Finale sezone
V deželi, kjer poletja lahko trajajo več desetletij, zime pa neskončno dolgo, se pripravljajo težave.
Od spletkarskega juga in divjih vzhodnih pokrajin do ledenega severa ter starodavnega Zidu, ki varuje kraljestvo pred mračnimi silami, sta se mogočni družini zapletli v smrtonosno igro mačke in miši za nadzor nad Sedmimi kraljestvi Westerosa.
Izdaja, poželenje, spletke in nadnaravne sile stresejo štiri vogale Kraljestev.
Njihov krvavi boj za Železni prestol bo imel nepredvidljive in daljnosežne posledice...