A
B
C
D
E
F
G
H
I
J
K
L
M
N
O
P
Q
R
S
T
U
V
W
X
Y
Z
0-9
Cocaine.Godmother.SloSub.2018.720p.HDTV.x264-[cyd]

Klikni za povečavo!
14-10-2019 16:19 naložil System
Sejalci: 6 / Odjemalci: 0 / Velikost: 2.64 GB / Dokončani: 21
Prenesi torrent Poročaj torrent Opis torrenta NFO
Kategorija: FILMI > HDTV
Anonimen nalagalec

———————————————————————————————————————————————————————————
IMDb info:
◎ Naslov: Cocaine Godmother
◎ Leto: 2018
◎ Zvrst: biografski, drama, kriminalka
◎ Jezik: angleški
◎ Ocena: 05,6
◎ Stars: Catherine Zeta-Jones, Jenny Pellicer, Alejandro Edda
◎ Povzetek: The real life of Colombian drug lord, Griselda Blanco, who reportedly masterminded more than 200 murders. This film presents her life story from the time she was a young girl to the end of her life.
———————————————————————————————————————————————————————————
YouTube URADNI NAPOVEDNIK:
———————————————————————————————————————————————————————————
PODNAPISI:
◎ Jezik : slovenski [vstavljeni / softcoded / multiplexed]
———————————————————————————————————————————————————————————
VIR:
◎ Source:
Cocaine.Godmother.The.Griselda.Blanco.Story.2018.720p.HDTV.x264-CRiMSON.mp4
◎ After coding:
Cocaine.Godmother.SloSub.2018.720p.HDTV.x264-[cyd].mkv
———————————————————————————————————————————————————————————
Queen.of.the.South.S04E01.SloSub.HDTV.1080p.AAC.x265-[cyd]

Klikni za povečavo!
05-07-2019 11:18 naložil Reaper
Sejalci: 1 / Odjemalci: 0 / Velikost: 286.52 MB / Dokončani: 5
Prenesi torrent Poročaj torrent Opis torrenta NFO
Zvrst: Akcija | Drama | Kriminalka
Kategorija: FILMI > HDTV

———————————————————————————————————————————————————————————
IMDb info:
◎ Naslov: KRALJICA JUGA (QUEEN OF THE SOUTH)
◎ Leto: 2019
◎ Zvrst: akcija kriminalka drama
◎ Jezik: angleški
◎ Ocena: ★★★★★★★★(7,9)
◎ Stars:
◎ Povzetek:V seriji s pridihom kriminalke in drame bomo spremljali napeto zgodbo o Teresi Mendoza (Alice Braga), ki se mora zateči v ZDA, potem ko njenega fanta, prekupčevalca mamil, nenadoma umorijo v Mehiki.
Teresa v Ameriki moči združi z osebo iz svoje preteklosti, da bi uničila vodjo mamilarske verige, zaradi katere je morala zbežati. Spotoma se nauči skrivnosti obrti in se strateško povzpne na položaj vodje kartela v južni Španiji.
Vir: siol.net
◎ Sezona: 04
◎ Koledar:
1.Bienvenidos a Nuevo Orleans 06.06.2019
2.Un Asunto de Familia 13.06.2019
3.Hospitalidad Sureña 20.06.2019
4.La Maldición 27.06.2019
5. Noche de las Chicas 04.07.2019
6. La Mujer en el Espejo 11.07.2019
7. Amores Perros 18.07.2019
8. Secretos y Mentiras 25.07.2019
9. Los Pecados de los Padres 01.08.2019
10. TBA
11. TBA
12. TBA
13. TBA
———————————————————————————————————————————————————————————
YouTube URADNI NAPOVEDNIK:
———————————————————————————————————————————————————————————
PODNAPISI:
◎ Jezik : slovenski [vstavljeni / softcoded / multiplexed]
———————————————————————————————————————————————————————————
VIR:
◎ Source:
Queen.of.the.South.S04E01.1080p.HEVC.x265-MeGusta.mkv
◎ After coding:
Queen.of.the.South.S04E01.SloSub.HDTV.1080p.AAC.x265-[cyd].mkv
———————————————————————————————————————————————————————————
VSE KAR MORATE VEDETI O H.E.V.C. - 265:
H.265 ali visoko učinkovitost Video kodiranje (HEVC) je nov video kodek tehnologije. o je standard za stiskanje videa, ki je naslednik H.264 ali MPEG-4 AVC (Advanced Video Coding), eden od sheme stiskanja, ki jih Blu-ray. HEVC podvoji v primerjavi z H.264 ali MPEG-4 AVC na isti ravni televizija odličnost stiskanja podatkov. To je stisnjen televizija pila hoteti obstati polovico manjša od televizija pila stisnjen z H.264. Prav tako lahko izboljša kakovost videa z enako bitno hitrostjo. H.265 lahko podpira do 8 K UHD in ločljivost do 8192 x 4320.
———————————————————————————————————————————————————————————
The.100.S06E07.SloSub.1080p.HDTV.x264-[cyd]

Klikni za povečavo!
20-06-2019 11:23 naložil Reaper
Sejalci: 2 / Odjemalci: 0 / Velikost: 1.89 GB / Dokončani: 12
Prenesi torrent Poročaj torrent Opis torrenta NFO
Zvrst: Drama | Skrivnosten | Z.F.
Kategorija: FILMI > HDTV

———————————————————————————————————————————————————————————
IMDb info:
◎ Naslov: The 100
◎ Leto: 2019
◎ Zvrst: drama skrivnosten ZF
◎ Jezik: angleški
◎ Ocena: ★★★★★★★★(7,7)
◎ Stars:
◎ Povzetek:Pred 97 leti je prišlo na zemlji do jedrske katastrofe, ki je botrovala uničenju celotne civilizacije.
V 6 sezoni je konec upanja po ponovni poselitvi zemlje, preživeli člani se zbudijo iz globokega spanca v vesoljski ladji na drugem koncu vesolja ob planetu, ki bi glede na značilnosti lahko nadomestil zemljo...
◎ Sezona: 06
◎ Koledar:
01. Sanctum 30.04.2019
02. Red Sun Rising 07.05.2019
03. The Children of Gabriel 14.05.2019
04. The Face Behind the Glass 21.05.2019
05. The Gospel of Josephine 28.05.2019
06. Memento Mori 11.06.2019
07. Nevermind 18.06.2019
08. The Old Man and the Anomaly
09. What You Take With You
10. Matryoshka
11. Ashes to Ashes
12. Adjustment Protocol
13. The Blood of Sanctum
———————————————————————————————————————————————————————————
YouTube URADNI NAPOVEDNIK:
———————————————————————————————————————————————————————————
PODNAPISI:
◎ Jezik : slovenski [vstavljeni / softcoded / multiplexed]
———————————————————————————————————————————————————————————
VIR:
◎ Source:
The.100.S06E07.1080p.HDTV.x264-CRAVERS.mkv
◎ After coding:
The.100.S06E07.SloSub.1080p.HDTV.x264-[cyd].mkv
———————————————————————————————————————————————————————————
The.100.S06E05.SloSub.720p.HDTVx264.AAC-[cyd]

Klikni za povečavo!
03-06-2019 19:56 naložil Reaper
Sejalci: 2 / Odjemalci: 0 / Velikost: 1.09 GB / Dokončani: 10
Prenesi torrent Poročaj torrent Opis torrenta NFO
Zvrst: Drama | Skrivnosten | Z.F.
Kategorija: FILMI > HDTV

———————————————————————————————————————————————————————————
IMDb info:
◎ Naslov: The 100
◎ Leto: 2019
◎ Zvrst: drama skrivnosten ZF
◎ Jezik: angleški
◎ Ocena: ★★★★★★★★(7,7)
◎ Povzetek:Pred 97 leti je prišlo na zemlji do jedrske katastrofe, ki je botrovala uničenju celotne civilizacije.
V 6 sezoni je konec upanja po ponovni poselitvi zemlje, preživeli člani se zbudijo iz globokega spanca v vesoljski ladji na drugem koncu vesolja ob planetu, ki bi glede na značilnosti lahko nadomestil zemljo...
◎ Sezona: 06
◎ Koledar:
01. Sanctum 30.04.2019
02. Red Sun Rising 07.05.2019
03. The Children of Gabriel 14.05.2019
04. The Face Behind the Glass 21.05.2019
05. The Gospel of Josephine 28.05.2019
...
13. TBA
———————————————————————————————————————————————————————————
YouTube URADNI NAPOVEDNIK:
———————————————————————————————————————————————————————————
PODNAPISI:
◎ Jezik : slovenski [vstavljeni / softcoded / multiplexed]
———————————————————————————————————————————————————————————
VIR:
◎ Source:
The.100.S06E05.720p.HDTV.x264-LucidTV.mkv
◎ After coding:
The.100.S06E05.SloSub.720p.HDTVx264.AAC-[cyd].mkv
———————————————————————————————————————————————————————————
The.100.S06E03.SloSub.720p.HDTVx264.AAC-[cyd]

Klikni za povečavo!
03-06-2019 19:53 naložil Reaper
Sejalci: 2 / Odjemalci: 0 / Velikost: 1.05 GB / Dokončani: 8
Prenesi torrent Poročaj torrent Opis torrenta NFO
Zvrst: Drama | Skrivnosten | Z.F.
Kategorija: FILMI > HDTV

———————————————————————————————————————————————————————————
IMDb info:
◎ Naslov: The 100
◎ Leto: 2019
◎ Zvrst: drama skrivnosten ZF
◎ Jezik: angleški
◎ Ocena: ★★★★★★★★(7,7)
◎ Povzetek:Pred 97 leti je prišlo na zemlji do jedrske katastrofe, ki je botrovala uničenju celotne civilizacije.
V 6 sezoni je konec upanja po ponovni poselitvi zemlje, preživeli člani se zbudijo iz globokega spanca v vesoljski ladji na drugem koncu vesolja ob planetu, ki bi glede na značilnosti lahko nadomestil zemljo...
◎ Sezona: 06
◎ Koledar:
01. Sanctum 30.04.2019
02. Red Sun Rising 07.05.2019
03. The Children of Gabriel 14.05.2019
04. The Face Behind the Glass 21.05.2019
05. The Gospel of Josephine 28.05.2019
...
13. TBA
———————————————————————————————————————————————————————————
YouTube URADNI NAPOVEDNIK:
———————————————————————————————————————————————————————————
PODNAPISI:
◎ Jezik : slovenski [vstavljeni / softcoded / multiplexed]
———————————————————————————————————————————————————————————
VIR:
◎ Source:
The.100.S06E03.720p.HDTV.x264-KILLERS.mkv
◎ After coding:
The.100.S06E03.SloSub.720p.HDTVx264.AAC-[cyd].mkv
———————————————————————————————————————————————————————————
Formula1 2019 Spanish Grand Prix Race 720p HDTV DD5.1 50fps x264

Klikni za povečavo!
13-05-2019 17:10 naložil System
Sejalci: 0 / Odjemalci: 0 / Velikost: 5.21 GB / Dokončani: 0
Prenesi torrent Poročaj torrent Opis torrenta
Zvrst: Sportni
Kategorija: FILMI > HDTV
Anonimen nalagalec

Formula1 2019 Spanish Grand Prix Race 720p HDTV DD5.1 50fps x264

Expand Code:
General
Unique ID : 271454472411146908486224731586194476210 (0xCC383ACD521F737AEE47D9F18E468CB2)
Complete name : G:\Stahování\Formula1 2019 Spanish Grand Prix Race 720p HDTV DD5.1 50fps x264.mkv
Format : Matroska
Format version : Version 4 / Version 2
File size : 5.21 GiB
Duration : 1h 59mn
Overall bit rate : 6 247 Kbps
Writing application : Lavf58.20.100
Writing library : Lavf58.20.100
Video
ID : 1
Format : AVC
Format/Info : Advanced Video Codec
Format profile : High@L4.1
Format settings, CABAC : Yes
Format settings, ReFrames : 9 frames
Codec ID : V_MPEG4/ISO/AVC
Duration : 1h 59mn
Bit rate : 5 739 Kbps
Width : 1 280 pixels
Height : 720 pixels
Display aspect ratio : 16:9
Frame rate mode : Constant
Frame rate : 50.000 fps
Color space : YUV
Chroma subsampling : 4:2:0
Bit depth : 8 bits
Scan type : Progressive
Bits/(Pixel*Frame) : 0.125
Stream size : 4.79 GiB (92%)
Default : Yes
Forced : No
DURATION : 01:59:22.940000000
Audio
ID : 2
Format : AC-3
Format/Info : Audio Coding 3
Mode extension : CM (complete main)
Format settings, Endianness : Big
Codec ID : A_AC3
Duration : 1h 59mn
Bit rate mode : Constant
Bit rate : 384 Kbps
Channel(s) : 6 channels
Channel positions : Front: L C R, Side: L R, LFE
Sampling rate : 48.0 KHz
Compression mode : Lossy
Delay relative to video : 780ms
Stream size : 328 MiB (6%)
Default : Yes
Forced : No
DURATION : 01:59:22.968000000
UFC.237.Main.Event.Namajunas.vs.Andrade.1080p.

Klikni za povečavo!
12-05-2019 07:39 naložil System
Sejalci: 1 / Odjemalci: 0 / Velikost: 5.85 GB / Dokončani: 0
Prenesi torrent Poročaj torrent Opis torrenta
Zvrst: Sportni
Kategorija: FILMI > HDTV
Anonimen nalagalec

UFC.237.Main.Event.Namajunas.vs.Andrade.1080p.
Expand Code:
General
Complete name                            : G:StahováníUFC.237.Namajunas.vs.Andrade.1080p.WEB-WDTeam.mp4
Format                                   : MPEG-4
Format profile                           : Base Media
Codec ID                                 : isom
File size                                : 5.85 GiB
Duration                                 : 2h 37mn
Overall bit rate                         : 5 311 Kbps
Encoded date                             : UTC 2019-05-11 04:46:12
Tagged date                              : UTC 2019-05-11 04:46:12

Video
ID                                       : 1
Format                                   : AVC
Format/Info                              : Advanced Video Codec
Format profile                           : High@L4.2
Format settings, CABAC                   : Yes
Format settings, ReFrames                : 4 frames
Codec ID                                 : avc1
Codec ID/Info                            : Advanced Video Coding
Duration                                 : 2h 37mn
Source duration                          : 2h 37mn
Bit rate                                 : 4 896 Kbps
Width                                    : 1 920 pixels
Height                                   : 1 080 pixels
Display aspect ratio                     : 16:9
Frame rate mode                          : Constant
Frame rate                               : 50.000 fps
Color space                              : YUV
Chroma subsampling                       : 4:2:0
Bit depth                                : 8 bits
Scan type                                : Progressive
Bits/(Pixel*Frame)                       : 0.047
Stream size                              : 5.40 GiB (92%)
Source stream size                       : 5.63 GiB (96%)
Tagged date                              : UTC 2019-05-11 04:47:59

Audio
ID                                       : 2
Format                                   : AAC
Format/Info                              : Advanced Audio Codec
Format profile                           : LC
Codec ID                                 : 40
Duration                                 : 2h 37mn
Bit rate mode                            : Constant
Bit rate                                 : 196 Kbps
Channel(s)                               : 2 channels
Channel positions                        : Front: L R
Sampling rate                            : 48.0 KHz
Compression mode                         : Lossy
Stream size                              : 221 MiB (4%)
Tagged date                              : UTC 2019-05-11 04:47:59

When.Heroes.Fly.S01.CroSubs.NF.WEBRipx264 INFLATE☺[cyd]

Klikni za povečavo!
16-03-2019 15:30 naložil System
Sejalci: 1 / Odjemalci: 0 / Velikost: 6.11 GB / Dokončani: 14
Prenesi torrent Poročaj torrent Opis torrenta NFO
Zvrst: Akcija | Drama
Kategorija: FILMI > HDTV
Anonimen nalagalec

———————————————————————————————————————————————————————————
IMDb info:
◎ Naslov: When Heroes Fly
◎ Leto: 2018
◎ Zvrst: akcija drama
◎ Jezik: angleški
◎ Ocena: ★★★★★★★ (7,4)
◎ Povzetek:Mislil je, da je vse izgubil. Ljubezen svojega življenja, vero, prijatelje ...
Vojna, v kateri se je boril pred 11leti, je na njem pustila tragične posledice, toda en telefonski klic, ki ga ni nikoli pričakoval, je spremenil vse.
Serija Let junakov (When Heroes Fly) se začne s koncem izraelsko-libanonske vojne leta 2006, v kateri se štirje najboljši prijatelji pripravljajo na vrnitev domov. Enajst let po koncu vojnih misij prijatelji odidejo vsak svojo pot, vsak s svojo zgodbo, težavami in osebno tragedijo.
Vir: http://www.times.si
◎ Sezona:01
◎ Koledar:
01.Resurrection 13.05.2018
02.HELP 20.05.2018
03.The Pale Father 20.05.2018
04.Ministering Angels 27.05.2018
05.There's been an accident 27.05.2018
06.Ashes to Ashes 05.03.201903.06.2018
07.Noga 03.06.2018
08.Tattooed 06.06.2018
09.Pillar of Smoke 09.06.2018
10.Roger and Out 09.06.2018
———————————————————————————————————————————————————————————
YouTube URADNI NAPOVEDNIK:
———————————————————————————————————————————————————————————
PODNAPISI:
◎ Jezik : srbski latinica [vstavljeni / softcoded / multiplexed]
———————————————————————————————————————————————————————————
VIR:
◎ Source:
When.Heroes.Fly.S01.NF.WEBRipx264.INFLATE.mkv
◎ After coding:
When.Heroes.Fly.S01.CroSubs.NF.WEBRipx264.INFLATE☺[cyd].mkv
———————————————————————————————————————————————————————————
NFO in slike se nahajajo v zato ustreznih zavihkih.
6833
Aquaman.2018.720p.HDTC.X264-Taco

Klikni za povečavo!
26-12-2018 15:51 naložil System
Sejalci: 2 / Odjemalci: 0 / Velikost: 2 GB / Dokončani: 40
Prenesi torrent Poročaj torrent Opis torrenta
Kategorija: FILMI > HDTV
Anonimen nalagalec

Arthur Curry learns that he is the heir to the underwater kingdom of Atlantis, and must step forward to lead his people and be a hero to the world
The_Hurricane_Heist_2018_SrbSubs_720p_HDTV_x264_PLUTONiUM

Klikni za povečavo!
04-05-2018 13:13 naložil Ziva
Sejalci: 1 / Odjemalci: 0 / Velikost: 1.61 GB / Dokončani: 20
Prenesi torrent Poročaj torrent Opis torrenta NFO
Zvrst: Akcija | Triler
Kategorija: FILMI > HDTV



The Hurricane Heist 2018 720p HDTV x264 PLUTONiUM
Language(s): English
1hr 38mn | 720p HDTV | 1280 x 532 | Matroska | 1.61 GB
Genre(s): Action | Thriller
IMDb : http://www.imdb.com/title/tt5360952/
IMDB Rating:
Podnapisi : srbski


Toby Kebbell ... Will
Maggie Grace ... Casey
Ryan Kwanten ... Breeze
Ralph Ineson ... Perkins


Zgodba se začne 1992, ko v eni od orkanskih katastrof življenje izgubi Bruce Rutledge in za sabo pusti dva sinova. 25 let kasneje eden od njiju postane meteorolog, ki zasleduje orkan Tammy, enega najhujših orkanov v ameriški zgodovini. Ko evakuirajo prebivalce, je na delu skupina hekerjev, ki hočejo ukrasti 600 milijonov dolarjev iz kompleksa tiskarne denarja ravno v času, ko se razdivja orkan 5. stopnje. V zapuščenem mestu poleg meteorologa ostaneta še agentka finančnega ministrstva in njegov brat, nekdanji marinec. Skupaj morajo ne le preživet orkan, ampak tudi preprečiti domiselnim tatovom izpeljati rop stoletja.





The.Big.Bang.Theory.S11E21.HDTV.x264-SVA

Klikni za povečavo!
23-04-2018 17:12 naložil sky9113
Sejalci: 0 / Odjemalci: 0 / Velikost: 152.48 MB / Dokončani: 0
Prenesi torrent Poročaj torrent Opis torrenta
Zvrst: Komedija
Kategorija: FILMI > HDTV

The Big Bang Theory 21-i del 11-te sezone
The.Alamo.1960.SLOSubs.HDTV.XviD-metalcamp

Klikni za povečavo!
12-04-2018 11:54 naložil System
Sejalci: 0 / Odjemalci: 0 / Velikost: 3.4 GB / Dokončani: 2
Prenesi torrent Poročaj torrent Opis torrenta NFO
Kategorija: FILMI > HDTV
Anonimen nalagalec



Naziv: The.Alamo.1960.SLOSubs.HDTV.XviD-metalcamp
Source: The.Alamo.1960.720p.HDTV.x264-REGRET
Velikost ...........: 3,40 GB
Dolžina ............: 162 Minut
Video ...............: 2615 Kbps; 720x304; 23,976 fps
Zvok .................: Dolby Digital AC3 5.1 @ 384 Kbps
Kodek.................: XviD
Država .............: ZDA
Zvrst ................: Pustolovski | Vestern | Vojni | Zgodovinski |Drama
Jezik ................: Angleški, Španski
Podnapisi ......: Slovenski (RETAiL)
Prevod: Renata Kozole
Priredil: metalcamp
Tehnična obdelava: DrSi
IMDb Info .........: http://www.imdb.com/title/tt0053580/


Režija.......: John Wayne
Scenarij.....: James Edward Grant


Richard Widmark .... Jim Bowie
Laurence Harvey ..... Col. William Travis
Frankie Avalon ........ Smitty
Patrick Wayne ........ Capt. James Butler Bonham
Linda Cristal .......... Flaca
Joan O'Brien .......... Mrs. Sue Dickinson
Chill Wills .............. Beekeeper
Joseph Calleia ........ Juan Seguin
Ken Curtis ............ Capt. Almeron Dickinson


Leta 1836 je general Santa Anna z mehiško vojsko pustošil po Teksasu.
Da bi ga lahko zaustavil, je general Sam Houston potreboval čas, da zbere
in usposobi močno vojsko. Polkovniku Williamu Travisu je ukazal naj mu priskrbi
ta čas tako, da za vsako ceno obrani majhno misijonišče v Alamu.
Majhni Travisovi enoti se s svojimi možmi pridružita še Jim Bowie in Davy Crockett.

Legendarna, resnična zgodba o skupini vojakov, ki so žrtvovali svoja življenja
v brezupnem boju proti mogočni vojski, da bi tako tiranu Santa Anni preprečili
uničiti Novo Republiko Teksasa.

Marcella.S01.SrbSub.HDTV.x264-ORGANiC

Klikni za povečavo!
19-03-2018 13:25 naložil Reaper
Sejalci: 0 / Odjemalci: 1 / Velikost: 1.9 GB / Dokončani: 9
Prenesi torrent Poročaj torrent Opis torrenta NFO
Zvrst: Drama | Kriminalka
Kategorija: FILMI > HDTV

Ocena :
Ime : MARCELLA
Sezona : 01
Leto : 2016
Jezik : angleški
Žanr : drama kriminalka
Jezik : srbski -latinica
Prevod : payutti
Priredba: Reaper
1.Episode 1 04.04.2016
2.Episode 2 11.04.2016
3.Episode 3 18.04.2016
4.Episode 4 25.04.2016
5.Episode 5 02.05.2016
6.Episode 6 09.05.2016
7.Episode 7 16.05.2016
8.Episode 8 17.05.2016
Po nekaj letih se Marcella vrne na svoje staro delovno mesto detektiva v angleški policiji.
Prične z delom na primeru serijskega morilca. Njegov modus operandi (način delovanja) jo spominja na nerešen primer iz leta 2005.
Je to isti morilec ali posnemovalec ? V tej zgodbi je vsakdo lahko morilec, žrtev ali priča...
Murder.She.Baked.Just.Desserts.2017.SLOSubs.720p.HDTV.x264-SOLAR

Klikni za povečavo!
16-01-2018 12:51 naložil Ziva
Sejalci: 0 / Odjemalci: 0 / Velikost: 1001.09 MB / Dokončani: 13
Prenesi torrent Poročaj torrent Opis torrenta NFO
Kategorija: FILMI > HDTV



Format : Matroska
File size : 970 MiB
Duration : 1h 24min
Overall bit rate : 1 499 Kbps
Language(s): English
Subtitle(s): SLOVENSKI (RETAiL)
Video
Format : AVC
Width : 1280 pixels
Height : 720 pixels
Display aspect ratio : 16:9
Frame rate : 29 fps
Audio
Format : AAC
Channel(s) : 2 channels
Sampling rate : 48.0 KHz

iMDB info: http://www.imdb.com/title/tt6682134/




Alison Sweeney ... Hannah Swensen
Cameron Mathison ... Mike Kingston
Barbara Niven ... Delores Swensen
Lisa Durupt ... Andrea Todd
Gabriel Hogan ... Norman Rhodes
Toby Levins ... Bill Todd
David Lewis ... Mason Kimball
Kurt Evans ... Coach Len Bishop
James Rittinger ... Carl Kimball (as James Swalm)
Karen Holness ... Dee Johnson


Kanadsko jezero Eden: Hannah Swensen (Alison Sweeney), pekovska kraljica iz Minnesote ter lastnica slaščičarne The Cookie Jar, je vsa iz sebe od veselja, ko jo izberejo za gostjo krajevne prireditve peke sladic. Vendar na večer polfinala prvega televizijskega tekmovanja v peki tam najdejo mrtvega enega od sodnikov na prireditvi. Kaže, da so v nevarnosti tudi drugi sodniki na tekmovanju in Hannah mora vnovič zapreči svoje veščine detektivske preiskovalke – posebej, ker je tudi sama v vlogi sodnice in bo morda naslednja žrtev morilca. S pomočjo detektiva Mika Kingstona (Cameron Mathison), s komer po nekaterih nesporazumih končno hodita tudi na zmenke, mora Hannah uporabiti vse svoje znanje in spretnosti, da bi ugotovila, kdo je ubil nergaškega šolskega trenerja Leonarda Bishopa.



The.Frankenstein.Chronicles.S02E01.SrbSub.HDTV.x264-SNG

Klikni za povečavo!
12-01-2018 15:07 naložil System
Sejalci: 0 / Odjemalci: 1 / Velikost: 506.28 MB / Dokončani: 7
Prenesi torrent Poročaj torrent Opis torrenta NFO
Zvrst: Drama | Kriminalka
Kategorija: FILMI > HDTV
Anonimen nalagalec

Ocena:
Stars: Sean Bean, Lucy Cray-Miller, Shaun Blaney
Ime: The Frankenstein Chronicles
Sezona: 02
Leto: 2017
Jezik: angleški
Žanr: drama, kriminalka
Jezik : srbski latinica
Prevod : Dzondon
Priredba: Reaper
1. Prodigal Son 01.11.2017
2. Not John Marlott 08.11.2017
3. Seeing the Dead 15.11.2017
4. Little Boy Lost 22.11.2017
5. The Marriage of Heaven and Hell 29.11.2017
6. Bride of Frankenstein 06.12.2017
Inšpektor John Marlott (sean Bean) raziskuje serijo storjenih zločinov v Londonu. Obstaja sum, da je storilec znanstvenik, ki želi oživeti mrtve ljudi...
Senke nad Balkanom 1. sezona TV HD rip

Klikni za povečavo!
12-01-2018 06:37 naložil Dracula11
Sejalci: 0 / Odjemalci: 1 / Velikost: 5.21 GB / Dokončani: 7
Prenesi torrent Poročaj torrent Opis torrenta
Zvrst: Akcija | Drama
Kategorija: FILMI > HDTV

Senke Nad Balkanom- komplet 1. sezona - nadeljevanka
V zgodovinskem spektaklu Sence nad Balkanom, ima poleg producenta in igralca Dragana Bjelogrlića pomembno vlogo tudi Sebastian Cavazza, glasbo za serijo pa je prispeval Magnifico.
Dramski triler Sence nad Balkanom se dogaja v burnem obdobju ob koncu 20. let prejšnjega stoletja na Balkanu, v prostoru, kjer se križajo visoka politika, lokalni interesi, denar in kriminal. Kritiki so pohvalili privlačno atmosfero serije, nepričakovane preobrate in odlično odigrane like. Enega od njih je upodobil tudi Sebastian Cavazza, sicer pa v seriji poleg srbskih nastopajo tudi ruski igralci, glasbo za serijo pa je ustvaril Magnifico. Čeprav gre za zgodovinsko-fikcijski spektakel, v glasbi ne primanjkuje glasnih kitar in umazanega rocka.
Glavna lika v Sencah nad Balkanom sta detektiva, ki raziskujeta umore. Inšpektor kriminalne policije Andra Tanasijević - Tane (Dragan Bjelogrlić) in njegov novi sodelavec, mladi forenzik Stanko Pletikosić (Andrija Kuzmanović), se v drugi polovici leta 1928 ves čas soočata z nepričakovanimi situacijami in preobrati. V Beogradu prevladuje napeto politično in družbeno vzdušje, v tem času pa se v mestu zgodi vrsta nepojasnjenih umorov.
Ta teden 15-12-2017 TVRip 720p H264

Klikni za povečavo!
16-12-2017 16:14 naložil System
Sejalci: 0 / Odjemalci: 0 / Velikost: 416.2 MB / Dokončani: 4
Prenesi torrent Poročaj torrent Opis torrenta
Zvrst: Komedija
Kategorija: FILMI > HDTV
Anonimen nalagalec

Ta teden z Juretom Godlerjem

Razvedrilni / Zabavna oddaja, 6. sezona, 10. del, Slovenija
33 min | IMDB: 7,6 |

Najbolj iskren pregled novic tedna.



Voditelj Jure Godler najbolj vroče dogodke minulega tedna pogleda skozi satirični drobnogled in na glas pove tisto, kar si vsi mislimo, a ne komentiramo javno. Ta teden z Juretom Godlerjem novic ne zavija v celofan, najbolj vroče vsebine postreže takoj, ko se zgodijo.

Igrajo: Jure Godler

General
Complete name : E:\00\Ta teden 15-12-2017.avi
Format : AVI
Format/Info : Audio Video Interleave
File size : 416 MiB
Duration : 26 min 55 s
Overall bit rate : 2 162 kb/s
Writing library : VirtualDub build 35491/release

Video
ID : 0
Format : AVC
Format/Info : Advanced Video Codec
Format profile : High@L4.1
Format settings, CABAC : Yes
Format settings, ReFrames : 4 frames
Codec ID : H264
Duration : 26 min 55 s
Bit rate : 2 096 kb/s
Width : 1 280 pixels
Height : 720 pixels
Display aspect ratio : 16:9
Frame rate : 25.000 FPS
Color space : YUV
Chroma subsampling : 4:2:0
Bit depth : 8 bits
Scan type : Progressive
Bits/(Pixel*Frame) : 0.091
Stream size : 404 MiB (97%)
Writing library : x264 core 148 r2694bm 3b70645

Audio
ID : 1
Format : MPEG Audio
Format version : Version 2
Format profile : Layer 3
Mode : Joint stereo
Mode extension : Intensity Stereo + MS Stereo
Codec ID : 55
Codec ID/Hint : MP3
Duration : 26 min 55 s
Bit rate mode : Constant
Bit rate : 56.0 kb/s
Channel(s) : 2 channels
Sampling rate : 22.05 kHz
Compression mode : Lossy
Stream size : 10.7 MiB (3%)
Alignment : Split accross interleaves
Interleave, duration : 40 ms (1.00 video frame)
Interleave, preload duration : 502 ms


The.Foreigner.2017.720p SRB SUB .HC.HDRip.-drsko

Klikni za povečavo!
30-11-2017 17:14 naložil Dracula11
Sejalci: 2 / Odjemalci: 0 / Velikost: 702.48 MB / Dokončani: 10
Prenesi torrent Poročaj torrent Opis torrenta
Kategorija: FILMI > HDTV


Senke.nad.Balkanom.2017.HDTV.720p.S01.EP01.mp4

Klikni za povečavo!
26-11-2017 11:07 naložil Dracula11
Sejalci: 0 / Odjemalci: 0 / Velikost: 952.93 MB / Dokončani: 28
Prenesi torrent Poročaj torrent Opis torrenta
Zvrst: Kriminalka | Triler
Kategorija: FILMI > HDTV

Senke Nad Balkanom- nadeljevanka



Dragan Bjelogrlić, koji "Senke nad Balkanom" potpisuje kao redatelj ovog puta se predstavlja dramskim trilerom, povijesnom fikcijom čija je radnja smještena u burni period s kraja dvadesetih godina prošlog stoljeća. Balkan kao prostor u kojem su umiješani visoka politika, lokalni interesi, kapital i kriminal, je ambijent u kojem se odigrava ova serija.





U video ubačen latinični prijevod, te video format prilagođen gledanju na Smart TV ili Android media playeru.
Crna Zorica 2012

Klikni za povečavo!
06-11-2017 18:38 naložil Dracula11
Sejalci: 1 / Odjemalci: 0 / Velikost: 699.44 MB / Dokončani: 9
Prenesi torrent Poročaj torrent Opis torrenta
Zvrst: Komedija
Kategorija: FILMI > HDTV

Jezik: srbski
Podnapis: ne
Zorica je djevojka sa sela nad kojom visi strašno prokletstvo:
Otkako se njezina prva ljubav utopila u rijeci, muškarci oko nje umiru na nesvakidašnji način!
Razjareni seljaci zovu je „poljubac smrti”. Slučaj preuzima uobraženi beogradski policajac Mane, na privremenom radu u „ukletom" selu. Iako ne vjeruje u "bapske priče", uskoro će morati da se suoči sa naoružanim seljacima, ali i da otkrije da li je Zorica zaista serijski ubojica ili samo djevojka željna ljubavi?
Ime datoteke : Crna Zorica Film.avi
Veličina datoteke : 699 Mb.
[Film]
Ispravan : Da [AVI]
Trajanje : 01:11:39
Potpun film : Da
[Video]
Rezolucija : 720x576
Kodek : DivX (4 / 5 / 6)
FPS : 25,00
Bitrate : 1237 Kbps
Faktor kvalitete : 0,12 b/px
[Audio]
Kodek : MPEG 1 or 2 Audio Layer 3 (MP3)
Broj kanala : 2
Sample rate : 44100 Hz
Bitrate : 128 Kbps
The.Last.Dragonslayer.2016.SLOSubs.HDTV.XviD-metalcamp

Klikni za povečavo!
02-11-2017 14:48 naložil Ziva
Sejalci: 0 / Odjemalci: 0 / Velikost: 2 GB / Dokončani: 9
Prenesi torrent Poročaj torrent Opis torrenta NFO
Kategorija: FILMI > HDTV



Naziv: The.Last.Dragonslayer.2016.SLOSubs.HDTV.XviD-metalcamp
Source: The.Last.Dragonslayer.2016.1080p.HDTV.x264-PLUTONiUM
Leto izida .........: 2016
Velikost ...........: 2,00 GB
Dolžina ............: 100 Minut
Video ...............: 2458 Kbps | 720x360 | 25 fps
Zvok .................: Dolby Digital AC3 5.1 @384 kbps
Kodek...............: XviD
Zvrst………….: Domišljijski | Pustolovski | Komedija
Država……….: Velika Britanija
Jezik ................: Angleški
Podnapisi .........: Slovenski (RETAiL)
Prevod: Mediatranslations
Priredil in uredil: metalcamp
Tehnična obdelava: DVD Rippers Slovenija

IMDb Info .......: http://www.imdb.com/title/tt5807628/


Režija.........: Jamie Magnus Stone
Scenarij…..: Tom Edge, Jasper Fforde


Adeel Akhtar ... Mr. Brittles
Matt Berry ... King Snodd
Ellise Chappell ... Jennifer Strange
John Bradley ... Gordon
Andrew Buchan ... The Great Zambini
Jill Buchanan ... Villager
Phoebe Campbell ... Girl at Stuffco
Colin Michael Carmichael ... Prison Cart Guard 1
Elizabeth Chan ... Lawyer
Anna Chancellor ... Stuffco president


Zgodba se odvija v svetu, kjer je šibko magijo nadomestila sodobna tehnologija.
Pripoved spremlja 15-letno Jennifer, ki tam vodi urad za zaposlovanje čarovnikov
ter odkrije, da lovijo zadnjega ognjenega zmaja.

V Herefordu je po vsem sodeč čisto običajen dan. Cene nepremičnin rastejo,
televizija predvaja vedno enake resničnostne šove in čarovniki, ki naj bi poskrbeli
za novo električno napeljavo v hiši, so spet naredili zmešnjavo. Pod vladavino
Njegove čudovitosti kralja Snodda magija vztrajno izginja; poslej naj bi imeli
avtomobil v vsaki garaži ter Čudežne hiše na vseh avtocestah. Na sirotah osnovana
ekonomija je v vzponu in čez lužo divja Velika vojna trolov. Medtem pa v prepovedani
Zmajevi deželi zadnji izmed veličastnih zmajev Maltcaisson čaka na svojo poslednjo
bitko. V tem svetu se mlada Jennifer Strange, vajenka velikega čarovnika Zambinija,
znajde sredi velike pustolovščine, ki se iskri od čarovnije, skrivnosti in
nenavadnih bitij. Morda tega sama še ne ve, a Jennifer Strange je v resnici
zadnja lovka na zmaje.Spielberg ter njegovi prijatelji in kolegi, vse to
pa Lacy nadgradi še s posnetki iz zakulisja snemanja njegovih številnih
legendarnih filmov.





Midnight.Texas.S01.720p.HDTV.x264-Scene

Klikni za povečavo!
01-10-2017 11:42 naložil Dracula11
Sejalci: 0 / Odjemalci: 0 / Velikost: 8.91 GB / Dokončani: 2
Prenesi torrent Poročaj torrent Opis torrenta
Zvrst: Drama | Skrivnosten | Z.F.
Kategorija: FILMI > HDTV

Midnight.Texas.S01.SRBSub.720p.HDTV.x264-Scene

Bazirana na knjizi Charlaine Harris, radnja serije vodi nas na mjesto gdje je biti normalan vrlo čudno. U zabačenom teksaškom gradiću nitko nije onakvim kakvim se čini. Od vampira i vještica do vukodlaka i plaćenih ubojica, Midnight je misteriozno mjestašce u koje su dobrodošli oni koji su drugačiji...








Video
ID : 1
Format : AVC
Format/Info : Advanced Video Codec
Format profile : High@L4.1
Format settings, CABAC : Yes
Format settings, ReFrames : 5 frames
Codec ID : V_MPEG4/ISO/AVC
Bit rate : 2 682 Kbps
Width : 1 280 pixels
Height : 720 pixels
Display aspect ratio : 16:9
Frame rate mode : Constant
Frame rate : 23.976 fps
Writing library : x264 core 152 r2851 ba24899
Matrix coefficients : BT.709

Audio
ID : 2
Format : AC-3
Format/Info : Audio Coding 3
Mode extension : CM (complete main)
Format settings, Endianness : Big
Codec ID : A_AC3
Bit rate mode : Constant
Bit rate : 384 Kbps
Channel(s) : 6 channels
Channel positions : Front: L C R, Side: L R, LFE
Sampling rate : 48.0 KHz




Like Cats And Dogs 2017 SrbSubs 720p HDTV x264 W4F

Klikni za povečavo!
04-08-2017 09:25 naložil Ziva
Sejalci: 0 / Odjemalci: 0 / Velikost: 1.71 GB / Dokončani: 8
Prenesi torrent Poročaj torrent Opis torrenta NFO
Kategorija: FILMI > HDTV



Like Cats And Dogs 2017 720p HDTV x264 W4F
Language(s): English
1hr 23mn | 720p HDTV | 1280 x 720 | Matroska | 1.70 GB
Genre(s): Comedy | Romance
Podnpisi : srbski
IMDb : http://www.imdb.com/title/tt6669590/



Cassidy Gifford ... Laura Haley
Wyatt Nash ... Spencer Hodkins
Gwynyth Walsh ... Ellen
Jacky Lai ... Rose
Nelson Wong ... Kenny
Hayley Sales ... Susan Vance


A reservation goes awry when two renters one with a dog and one with a cat must share a house.








Game.of.Thrones.The.Story.So.Far.2017.720p.HDTV.x264-PLUTONiUM

Klikni za povečavo!
16-07-2017 12:02 naložil Ziva
Sejalci: 0 / Odjemalci: 0 / Velikost: 1.15 GB / Dokončani: 3
Prenesi torrent Poročaj torrent Opis torrenta NFO
Kategorija: FILMI > HDTV



Game of Thrones
http://www.tvmaze.com/shows/82/game-of-thrones

Oddaja o celotni zgodbi do sedaj...


Houston_We.Have.A.Problem.2016.SLOSubs.1080p.HDTV.x264-N33D3R

11-05-2017 10:33 naložil System
Sejalci: 0 / Odjemalci: 0 / Velikost: 3.61 GB / Dokončani: 4
Prenesi torrent Poročaj torrent Opis torrenta
Kategorija: FILMI > HDTV
Anonimen nalagalec

Explores the myth of the secret multi-billion-dollar deal behind America's purchase of Yugoslavia's clandestine space program in the early 1960s.