All torrents are Free between 15-03-2020 - 15-05-2020
A
B
C
D
E
F
G
H
I
J
K
L
M
N
O
P
Q
R
S
T
U
V
W
X
Y
Z
0-9
He-Man.in.Gospodarji.vesolja.TVRip.XVID-Lazybones (1)

Klikni za povečavo!
19-12-2019 18:22 naložil NERON
Sejalci: 0 / Odjemalci: 0 / Velikost: 4.48 GB / Dokončani: 2
Prenesi torrent Poročaj torrent Opis torrenta
Zvrst: Risanka
Kategorija: FILMI > TVRip

He-Man in Gospodarji vesolja *TVRip* *SLO sinhronizacija* *XviD*

Adam, princ iz Eternije in njegov zvesti prijatelj Cringer, imata skrivno
čudežno moč: ko Adam prime meč in vzklikne: »Pri Grayskullu!«, se spremeni v
He-mana, najmočnejšega človeka v vesolju, Cringer pa postane mogočni tiger.
Skupaj s tremi prijatelji, ki jim je zaupal svojo skrivnost, branijo grad
Grayskull pred zlimi silami Skeletorja



IMENA DATOTEK
He-Man.in.Gospodarji.vesolja.01.Zbujeni.Kolosor.TVRip.XVID-Lazybones.avi
He-Man.in.Gospodarji.vesolja.02.Casovni.prehod.TVRip.XVID-Lazybones.avi
He-Man.in.Gospodarji.vesolja.03.Kakrsen.oce.taksna.hci.TVRip.XVID-Lazybones.avi
He-Man.in.Gospodarji.vesolja.04.Orko.izgubi.carobno.moc.TVRip.XVID-Lazybones.avi
He-Man.in.Gospodarji.vesolja.05.Dolina.moci.TVRip.XVID-Lazybones.avi
He-Man.in.Gospodarji.vesolja.06.Tezave.v.Arkadiji.TVRip.XVID-Lazybones.avi
He-Man.in.Gospodarji.vesolja.07.Vrnitev.Dree.Elle.TVRip.XVID-Lazybones.avi
He-Man.in.Gospodarji.vesolja.08.Mesto.pod.morjem.TVRip.XVID-Lazybones.avi
He-Man.in.Gospodarji.vesolja.09.Zdravilo.TVRip.XVID-Lazybones.avi
He-Man.in.Gospodarji.vesolja.10.Orkov.najljubsi.stric.TVRip.XVID-Lazybones.avi
He-Man.in.Gospodarji.vesolja.11.Demonka.iz.Phantosa.TVRip.XVID-Lazybones.avi
He-Man.in.Gospodarji.vesolja.12.Prekletstvo.carobnega.kamna.TVRip.XVID-Lazybones.avi
He-Man.in.Gospodarji.vesolja.13.Carovnik.iz.kamene.planine.TVRip.XVID-Lazybones.avi

ViDEO CODEC / BiTRATE............: XviD 1.1 at Aprox. 2000 kbps

AUDiO............................: MP3 128bps ABR 2ch 44khz
ASPECT RATiO.....................: PAL 4:3
RESOLUTiON.......................: 640x480
FRAME RATE.......................: 25.000 fps
BYTE SiZE........................: Aprox. 350 MB
DURATiON.........................: Aprox. 00:22:00
LANGUAGE.........................: Slovenian

TRAILER








Muskarci.ne.placu.2017.SLOSubs.TVRip.XviD-metalcamp

Klikni za povečavo!
14-05-2018 12:28 naložil Ziva
Sejalci: 0 / Odjemalci: 1 / Velikost: 1.81 GB / Dokončani: 17
Prenesi torrent Poročaj torrent Opis torrenta NFO
Zvrst: Drama
Kategorija: FILMI > TVRip



Naziv: Muskarci.ne.placu.2017.SLOSubs.TVRip.XviD-metalcamp
Source: Muskarci.ne.placu.2017.DVB-T-Kvazdej
Leto izida .........: 2017
Velikost ...........: 1,80 GB
Dolžina ............: 94 Minut
Video ...............: 2533 Kbps | 720x304 | 25 fps
Zvok .................: Dolby Digital AC3 2.0 @ 192 Kbps
Kodek...............: XviD
Zvrst………….: Drama
Država .............: BiH | Slovenija | Hrvaška | Nemčija
Jezik ................: Bosanski
Podnapisi .........: Slovenski (RETAiL)
Prevod: Mediatranslations
Priredil: metalcamp
Tehnična obdelava: DVD Rippers Slovenija
IMDb Info .......: https://www.imdb.com/title/tt5239558/
IMDB Rating:

Režija.........: Alen Drljevic
Scenarij.......: Alen Drljevic, Zoran Solomun


Boris Isakovic ... Miki
Leon Lucev ... Valentin
Emir Hadzihafizbegovic ... Merim
Sebastian Cavazza ... Ivan
Ermin Bravo ... Ahmed
Boris Ler ... Jasmin
Ivo Gregurevic ... Josip
Primoz Petkovsek ... Andrija
Nermin Karacic ... Velimir
Mirko Zecevic-Tadic ... Tadija


Film predstavlja zgodbo vojnih veteranov iz različnih držav nekdanje Jugoslavije,
ki jih poveže humanitarna mirovna organizacija, da bi delili svoje vojne izkušnje
in med seboj vzpostavili zaupanje. Toda travme in močna čustva sovražnosti se znova
porajajo ob srečanju nekdanjih nasprotnikov. Tako nekdanji vojaki, ki se trdno
držijo svoje temeljne moškosti in lastnih predsodkov, zavrnejo razkritje nečlovečnosti
dogodkov, ne glede na to, ali so jih storili oni ali drugi.
Ta briljantno režirana drama govori o zmožnosti, da bi odpuščali drugim le po tem,
ko odpustimo sami sebi. V odlični igralski zasedbi blesti tudi slovenski igralec
Sebastian Cavazza.
V odmaknjenem gorskem hotelu se skoraj dve desetletji po koncu jugoslovanskih vojn
na terapevtski delavnici zberejo veterani različnih narodnosti in veroizpovedi,
da bi se spopadli s travmatičnimi izkušnjami. A v naelektrenem ozračju, polnem
predsodkov, nezaupanja, sovraštva in zamer, lahko vsaka nepremišljena beseda ali
napačen pogled znova sprožita konflikt.
Film bosanskega režiserja, navdahnjen z resničnimi dogodki in posnet z vrhunskimi
igralci z vseh koncev nekdanje države, je zgodba o tem, da moramo najprej oprostiti
sebi, šele potem bomo lahko oprostili tudi drugim.
Posebna nagrada žirije in nagrada Europa Cinemas v Karlovih Varih ter nagrada
FIPRESCI na LIFFu.




Avatar.Zadnji.Gospodar.Vetra.So2.SLOSINH.TVRip.XviD

Klikni za povečavo!
09-03-2018 05:45 naložil Reaper
Sejalci: 0 / Odjemalci: 1 / Velikost: 6.59 GB / Dokončani: 16
Prenesi torrent Poročaj torrent Opis torrenta NFO
Kategorija: FILMI > TVRip

Jezik : slovenski
Sezona 02:
Ul by: Reaper
Avatar.Zadnji.Gospodar.Vetra.So1.SLOSINH.TVRip.XviD

Klikni za povečavo!
09-03-2018 05:44 naložil Reaper
Sejalci: 0 / Odjemalci: 1 / Velikost: 6.67 GB / Dokončani: 16
Prenesi torrent Poročaj torrent Opis torrenta NFO
Kategorija: FILMI > TVRip

Jezik : slovenski
Sezona 01:
Ul by: Reaper
Flipper.1963.SLOSubs.TVRip.XviD-sc28

Klikni za povečavo!
17-02-2018 13:46 naložil Reaper
Sejalci: 1 / Odjemalci: 0 / Velikost: 1.37 GB / Dokončani: 14
Prenesi torrent Poročaj torrent Opis torrenta NFO
Kategorija: FILMI > TVRip

Jezik : slovenski (vgrajeni - Retail)
Prevod: Nina Zabukovec
Ul by: Reaper
Like.Share.Follow.2017.SLOSubs.TVRip.XviD-metalcamp

Klikni za povečavo!
20-11-2017 13:07 naložil Ziva
Sejalci: 0 / Odjemalci: 0 / Velikost: 1.81 GB / Dokončani: 9
Prenesi torrent Poročaj torrent Opis torrenta NFO
Kategorija: FILMI > TVRip



Naziv: Like.Share.Follow.2017.SLOSubs.TVRip.XviD-metalcamp
Source: DVB-T HBO (Kvazdej)
Leto izida .........: 2017
Velikost ...........: 1,80 GB
Dolžina ............: 86 Minut
Video ...............: 2617 Kbps | 720x384 | 25 fps
Zvok .................: Dolby Digital AC3 5.1 @384 kbps
Kodek...............: XviD
Zvrst………….: Grozljivka | Triler | Romantični
Država……….: ZDA
Jezik ................: Angleški
Podnapisi .........: Slovenski (RETAiL)
Prevod: Mediatranslations
Priredil: metalcamp
Tehnična obdelava: DVD Rippers Slovenija
IMDb Info .......: http://www.imdb.com/title/tt7441032/


Režija.........: Glenn Gers
Scenarij…..: Glenn Gers


Keiynan Lonsdale ... Garret
Ema Horvath ... Shell
Abraham Benrubi ... Detective Yarden
Michael Boatman ... Norman
Mikey Bolts ... Skeevix
Gabriel Conte ... Carbonite
Patrick Gorman ... Mr. Crossbow
Nate Hartley ... Lyle


Napeta zgodba govori o nevarnostih digitalne dobe in tveganju pri objavi svojega
življenja na spletu. Garrett je senzacija z YouTuba, obsedena oboževalka in
zalezovalka pa želi za vsako ceno osebno spoznati svojega vzornika.
Mojster za grozljivke Jason Blum prinaša še eno napeto zgodbo o nevarnostih
digitalne dobe in tveganju pri objavi svojega življenja na spletu. Mladi Garrett
(Keiynan Lonsdale) je najnovejša senzacija na videoportalu YouTube, obsedena
oboževalka in zalezovalka (Ema Horvath) pa želi za vsako ceno osebno spoznati
svojega spletnega vzornika.




Orizont.2015.SLOSubs.TVRip.XviD-metalcamp

Klikni za povečavo!
27-10-2017 12:06 naložil Ziva
Sejalci: 0 / Odjemalci: 0 / Velikost: 1.91 GB / Dokončani: 11
Prenesi torrent Poročaj torrent Opis torrenta NFO
Zvrst: Akcija | Drama | Kriminalka
Kategorija: FILMI > TVRip




Naziv: Orizont.2015.SLOSubs.TVRip.XviD-metalcamp
Leto izida .........: 2015
Velikost ...........: 1,90 GB
Dolžina ............: 88 Minut
Video ...............: 2703 Kbps | 720x304 | 25 fps
Zvok .................: Dolby Digital AC3 5.1 @384 kbps
Kodek...............: XviD
Zvrst………….: Akcija | Kriminalka | Drama
Država………..: Romunija
Jezik ................: Romunski
Podnapisi .........: Slovenski (RETAiL)
Prevod: Mediatranslations
Priredil: metalcamp
Tehnična obdelava: DrSi

IMDb Info .......: http://www.imdb.com/title/tt4568268/


Režija.........: Marian Crisan
Scenarij.......: Marian Crisan, Ioan Slavici (roman)


András Hatházi ... Lucian
Rodica Lazar ... Andra
Maria Seles ... Victoria
Zsolt Bogdán ... Zoli
Valeriu Andriuta ... Pintea
Niko Becker ... Mircea
Emilian Oprea ... Adi
Ioan Paraschiv ... Tibi


Družina se loti novega posla upravljanja gostišča "Obzorje" globoko v gorovju
zahodne Romunije. Čez nekaj časa ugotovijo, da vse skupaj, tudi njihova življenja,
nadzirata Zoli in njegova tolpa izobčencev.

Zakonca Lucian in Andra se po mnogih letih, ko sta srečo iskala v tujini, lotita
novega posla upravljanja gostišča "Obzorje" globoko v gorovju zahodne Romunije.
Družini ustreza nov izziv in vse je videti idealno – dokler čez čas ne ugotovijo,
da vse skupaj, tudi njihova življenja, nadzirata Zoli in njegova tolpa izobčencev,
ki nezakonito izsekava gozd. Družina in gostišče "Obzorje" se bosta kmalu zapletla
v nevaren spor med možmi postave in gozdarsko mafijo.


Superstitious Minds 2016 SloSubs TvRip 720p H264

Klikni za povečavo!
20-10-2017 07:27 naložil System
Sejalci: 0 / Odjemalci: 1 / Velikost: 654.96 MB / Dokončani: 10
Prenesi torrent Poročaj torrent Opis torrenta
Zvrst: Dokumentarni
Kategorija: FILMI > TVRip
Anonimen nalagalec

Vraževerje v sodobnem svetu Superstitious Minds
Dokumentarni / Družboslovje, Kanada
Dokumentarni film se poglobi v zanimivi svet praznoverja.
Potrkate na les, če želite, da se ne bi zgodilo nekaj slabega? Vam kaj pomeni, če ubijete pajka ali odprete dežnik v prostoru? Kaj je za vas petek trinajstega? Avtorji prepotujejo svet in raziščejo na tisoče primerov, poiščejo njihov izvor, predvsem pa jih zanima, kaj praznoverje pove o nas samih. Živimo v znanstveno in tehnološko najbolj naprednem svetu doslej, a še nikoli nismo bili tako praznoverni. Pregrešno drage stolpnice gradijo po posvetu z mojstri feng šuja, 80 odstotkov jih nima trinajstega nadstropja. V času sončevega mrka so vse borze zaprte in nekatere investicijske sklade pri nakupu in prodaji vodijo upoštevajoč praznoverje. Skoraj nihče ni neobčutljiv zanj. Atleti, arhitekti, igralci, ribiči, celo politiki in znanstveniki, vsi so prepričani, da bodo uspešni, če bodo upoštevali določene praznoverne obrede. Vemo, da je to nesmisel, toda instinkt je močnejši, ne moremo si pomagati.
Režija: Adrian Wills
Igrajo: Ann-Marie MacDonald


Format : AVI
Format : AVC
Format/Info : Advanced Video Codec
Format profile : High@L4.1
Format settings, CABAC : Yes
Format settings, ReFrames : 4 frames
Codec ID : H264
Duration : 41 min 19 s
Bit rate : 2 151 kb/s
Width : 1 280 pixels
Height : 720 pixels
Display aspect ratio : 16:9
Frame rate : 25.000 FPS
Bit depth : 8 bits
Scan type : Progressive
Bits/(Pixel*Frame) : 0.093
Stream size : 636 MiB (97%)
Writing library : x264 core 148 r2694bm 3b70645
Encoding settings : cabac=1 / ref=3 / deblock=1:0:0

Format : MPEG Audio
Format version : Version 2
Mode : Joint stereo
Mode extension : Intensity Stereo + MS Stereo
Codec ID/Hint : MP3
Bit rate mode : Constant
Bit rate : 56.0 kb/s
Channel(s) : 2 channels
Sampling rate : 22.05 kHz
Sucker.2015.SLOSubs.TVRip.XviD-metalcamp

Klikni za povečavo!
20-08-2017 11:22 naložil Ziva
Sejalci: 0 / Odjemalci: 0 / Velikost: 1.72 GB / Dokončani: 18
Prenesi torrent Poročaj torrent Opis torrenta NFO
Zvrst: Komedija
Kategorija: FILMI > TVRip



Naziv: Sucker.2015.SLOSubs.TVRip.XviD-metalcamp
Source: DVB-T
Leto izida .........: 2015
Velikost ...........: 1,70 GB
Dolžina ............: 93 Minut
Video ...............: 2465 Kbps | 720x304 | 25 fps
Zvok .................: Dolby Digital AC3 2.0 @192 kbps
Kodek...............: XviD
Zvrst………….: Komedija
Država………..: Avstralija
Jezik ................: Angleški
Podnapisi .........: Slovenski (RETAiL)
Prevod: Mediatranslations
Tehnična obdelava: DVD Rippers Slovenija


IMDb Info .......: http://www.imdb.com/title/tt3130302/

Režija…..: Ben Chessell
Scenarij…: Ben Chessell, Lawrence Leung


Timothy Spall ... The Professor
Kat Stewart ... Emma
Lily Sullivan ... Sarah
Jacek Koman ... Riley
Shaun Micallef ... Harry
Jacinta Stapleton ... Alice
Eddie Baroo ... Stu
Dalip Sondhi ... Rashid
Lawrence Leung ... Lawrence, Leung
Ferdinand Hoang ... Leo


Mladi Lawrence, ki ni uspel priti na študij medicine, spozna prevaranta
'Profesorja' in njegovo hčer Sarah. Oče ga uči starodavne obrti sleparstva,
dekle pa nameni Lawrenceu trdo lekcijo o neuslišani ljubezni.

Potem ko 18-letnega srednješolca Lawrencea zalotijo, kako goljufa pri zaključnem
izpitu iz matematike, so njegovi upi o tem, da bi se vpisal na študij medicine,
za vselej pokopani. Obsojen je na preživljanje poletnih počitnic pri svojem
čudaškem stricu. Tam po naključju spozna 'Profesorja', ostarelega poklicnega
prevaranta; ta ga povabi, naj se na izletu z avtomobilom pridruži njemu in njegovi
jezikavi hčeri Sarah. Med potjo čez vso državo za seboj puščajo lahkomiselne
naivneže in ogoljufane tepce; stari premetenec uči Lawrencea starodavne obrti
sleparstva, njegova hči Sarah pa mu nameni trdo lekcijo o neuslišani ljubezni
in življenjskih resnicah.




Duell.der.Bruder.2016.SLOSubs.TVRip.XviD-metalcamp

Klikni za povečavo!
13-12-2016 19:51 naložil Ziva
Sejalci: 0 / Odjemalci: 0 / Velikost: 2.11 GB / Dokončani: 11
Prenesi torrent Poročaj torrent Opis torrenta NFO
Kategorija: FILMI > TVRip



Naziv: Duell.der.Bruder.2016.SLOSubs.TVRip.XviD-metalcamp
Source: DVB-T (Cinemax)
Leto izida .........: 2016
Velikost ...........: 2,10 GB
Dolžina ............: 116 Minut
Video ...............: 2399 Kbps | 720x400 | 25 fps
Zvok .................: Dolby Digital AC3 2.0 @ 192 Kbps
Kodek.................: XviD
Zvrst………….: Biografski | Zgodovinski | Drama
Država .............: Nemčija
Jezik ................: nemški
Podnapisi .........: Slovenski (RETAiL)
Prevod: Mediatranslations
Priredil: metalcamp
Tehnična obdelava: DrSi

IMDb Info .......: http://www.imdb.com/title/tt5013980/


Režija.........: Vohn Regensburger
Scenarij.......: Vohn Regensburger


Ken Duken ... Adi Dassler
Torben Liebrecht ... Rudi Dassler
Jesse Albert ... Karl
Nadja Becker ... Friedl
Henk Buchholz ...Armin Dassler
David C. Bunners ... Josef Waitzer
Merle Collet ... Erika
Alexander Cudreasov ... Ferenc Puskás
Lars Doppler ... Bürgermeister Herzogenaurach
Christoph Gareisen ... Sepp Herberger
Annina Hellenthal ... Inge


Po resnični zgodbi med letoma 1924 in 1954 posneti film spremlja življenje,
delo in razdor nemških bratov Adolfa in Rudolfa Dasslerja, ki sta ustanovila
poslovna imperija športnih rekvizitov Adidas in Puma.

Sveta športa si ni mogoče predstavljati brez bratov Dassler. V majhnem nemškem mestu
sta živela Adolf "Adi" Dassler in njegov brat Rudolf, sila različna po značaju in
tako rekoč tudi vsem drugem. Edina stvar, glede katere sta se strinjala, je bilo njuno
življenjsko poslanstvo, da bi izdelala popolno športno obuvalo. Brata se idealno
dopolnjujeta, saj je Adi domiselni izumitelj, Rudi pa rojeni poslovnež – a kaj,
ko imata skupno tudi neko slabost: ženske. Ljubosumje se vname, ko Adijeva iznajdljiva
soproga sklene delati v podjetju, medtem ko se Rudi oklepa tradicije. Nesporazumi
vodijo v spor in ta naposled privede v propad podjetja. Brata se razideta in postaneta
tekmeca.





Pikovaya.dama.Chyornyy.obryad.2015.SLOSubs.TVRip.XviD-metalcamp

Klikni za povečavo!
13-07-2016 11:32 naložil Ziva
Sejalci: 0 / Odjemalci: 0 / Velikost: 1.6 GB / Dokončani: 9
Prenesi torrent Poročaj torrent Opis torrenta NFO
Zvrst: Grozljivka
Kategorija: FILMI > TVRip



Naziv: Pikovaya.dama.Chyornyy.obryad.2015.SLOSubs.TVRip.XviD-metalcamp
Source: DVB-T (TV 1000)
Leto izida .........: 2015
Velikost ...........: 1,60 GB
Dolžina ............: 89 Minut
Video ...............: 2375 Kbps | 720x384 | 25 fps
Zvok .................: Dolby Digital AC3 2.0 @ 192 Kbps
Kodek.................: XviD
Zvrst………….: Grozljivka
Država .............: Rusija
Jezik ................: Ruski
Podnapisi .........: Slovenski (RETAiL)
Prevod: Polona Mertelj
Tehnična obdelava: metalcamp


IMDb Info .......: http://www.imdb.com/title/tt4901756/

Režija.....: Svyatoslav Podgayevskiy


Alina Babak ... Anna
Valeriya Dmitrieva ... Katya
Igor Khripunov ... Father
Evgeniya Loza ... Mother
Sergey Pokhodaev ... Sergey
Valentin Sadiki ... Matvey
Vladimir Seleznyov ... Exorcist


Ljudje že od nekdaj verjamejo, da je lahko ogledalo prehod v svet mrtvih.

Eden najstarejših mističnih obredov je klicanje pikove dame. Štirje najstniki se odločijo, da bodo za šalo priklicali pikovo damo, pri tem pa se ne zavedajo, na kakšne grozote bodo obsodili sebe in svoje bližnje. Maščevalni duh ne bo
odnehal, dokler ne dobi njihovih duš.



Love.Under.the.Stars.2015.SLOSubs.TVRipXviD-ugorazd

Klikni za povečavo!
01-04-2016 15:05 naložil Ziva
Sejalci: 0 / Odjemalci: 0 / Velikost: 1.27 GB / Dokončani: 7
Prenesi torrent Poročaj torrent Opis torrenta NFO
Kategorija: FILMI > TVRip



Naziv.......: Love.Under.the.Stars.2015.SLOSubs.TVRip.XviD-ugorazd
Velikost.......: 1,27 GB
Dolžina.......: 83 min.
Leto.......: 2015
Video.......: 1815 Kbps / 720x400 / 25 fps / XviD
Zvok.......: AC3 5.1 384 Kbps
Žanr......: Romantična Komedija
Država.......: Kanada
Jezik.......: Angleški
Podnapisi.........: Slovenski RETAiL
Prevod......: MEDIATRANSLATIONS
Encoder......: ugorazd

IMDb http://www.imdb.com/title/tt4658578/
Režija.....: Terry Ingram
Scenarij......: Erik Patterson, Jessica Scott
Produkcija......: Two 4 The Money Media


Ashley Newbrough...Becca
Barry Bostwick...Walt
Wes Brown...Nate
Jessica Harmon...Amy
Jaeda Lily Miller...Emily
Juliana Monk...Jen
Blythe Morrison...Margaret
Qaeeza Ramji...Alicia
Chelan Simmons...Amber
Tom Tasse...Chuck


Diplomantka Becca se nepričakovano spoprijatelji z Emily, dekletom, ki je nedavno ostala brez matere. Ko se med Becco in Emilyjinim očetom vname ljubezen, se morata naučiti uravnotežiti svoj odnos ter družinske obveznosti.
Po srcu še vedno mlada diplomantka Becca se nepričakovano spoprijatelji z Emily, sramežljivim dekletom, ki je nedavno ostala brez matere. Vsakokrat, ko se družita in pogovarjata pod budnim očesom Emilyjinega očeta Nata, z Beccino pomočjo Emily postopoma razkriva svoja čustva in se uči žalovanja, v zameno pa svojo starejšo prijateljico uči odgovornosti odraslih. A ko se med Becco in Emilyjinim očetom nenadejano vname ljubezen, se morata naučiti uravnotežiti svoj odnos, družinske obveznosti očeta do svoje hčere in odgovornost Becce, da bi dokončala svoj študij.







Ena.zlahtna.storija.S03.E13-16.720p.IPTVRip.x264-s1ck

Klikni za povečavo!
25-03-2016 12:56 naložil Ziva
Sejalci: 0 / Odjemalci: 0 / Velikost: 3.99 GB / Dokončani: 15
Prenesi torrent Poročaj torrent Opis torrenta NFO
Kategorija: FILMI > TVRip



Ena žlahtna štorija (2016)
Slovenska romantična komedija
Tretja sezona, 13. - 16. epizode
Naziv..........: Ena.zlahtna.storija.S03.E13-16.720p.IPTVRip.x264-s1ck
Velikost.......: 4x ~ 1 GB
Dolžina........: 4x ~ 45 minut
Leto...........: 2015
Kodek..........: x264
Slika..........: 1 280 x 720 | 2 800 kbps | 25 fps
Zvok...........: AAC | 2
Jezik..........: Slovenski
Žanr...........: Komedija | Romantična
Podnapisi......: n/a
Encoder........: midade1 (s1ck)

Režija.........: Vojko Anzeljc, Tomaž Grubar, Sašo Kolari


- Ranko Babič,
- Vojko Belšak,
- Maja Blagovič,
- Ana Dolinar,
- Primož Forte,
- Kristijan Guček,
- Matjaž Javšnik,
- Vesna Jevnikar,
- Franko Korošec,
- Alenka Kozolc
- Medea Novak,
- Vesna Pernarčič,
- Ajda Smrekar,
- Janez Starina,
- Milan Vodopivec,
- Stane Tomazin.


Ena žlahtna štorija se odvija na primorskem, na prostranem posestvu, vrednem več milijonov evrov. Posestvo je v družini Špacapan že od leta 1789, lastnik posestva je Berto Špacan, vdovec, ki ima štiri hčere. Hčere se na posestvo in družinsko tradicijo Špacapanovih požvižgajo in so v času šolanja izkoristile priložnost, da so zbežale iz svojega rojstnega kraja ter postale mestne dekline. Pri tem je imela prste vmes tudi njihova mama Tonka – stroga in nepopustljiva Gorenjka, ki je vse svoje življenje družini poveljevala kot general.





Ena.zlahtna.storija.S03.E01-04.720p.IPTVRip.x264-s1ck

Klikni za povečavo!
17-03-2016 14:00 naložil Ziva
Sejalci: 0 / Odjemalci: 0 / Velikost: 3.68 GB / Dokončani: 8
Prenesi torrent Poročaj torrent Opis torrenta NFO
Kategorija: FILMI > TVRip



Ena žlahtna štorija (2016)
Slovenska romantična komedija
Tretja sezona, 01. - 04. epizode
Naziv..........: Ena.zlahtna.storija.S03.E01-04.720p.IPTVRip.x264-s1ck
Velikost.......: 4x ~ 1 GB
Dolžina........: 4x ~ 45 minut
Leto...........: 2015
Kodek..........: x264
Slika..........: 1 280 x 720 | 2 800 kbps | 25 fps
Zvok...........: AAC | 2
Jezik..........: Slovenski
Žanr...........: Komedija | Romantična
Podnapisi......: n/a
Encoder........: midade1 (s1ck)

Režija.........: Vojko Anzeljc, Tomaž Grubar, Sašo Kolari


- Ranko Babič,
- Vojko Belšak,
- Maja Blagovič,
- Ana Dolinar,
- Primož Forte,
- Kristijan Guček,
- Matjaž Javšnik,
- Vesna Jevnikar,
- Franko Korošec,
- Alenka Kozolc
- Medea Novak,
- Vesna Pernarčič,
- Ajda Smrekar,
- Janez Starina,
- Milan Vodopivec,
- Stane Tomazin.


Ena žlahtna štorija se odvija na primorskem, na prostranem posestvu, vrednem več milijonov evrov. Posestvo je v družini Špacapan že od leta 1789, lastnik posestva je Berto Špacan, vdovec, ki ima štiri hčere. Hčere se na posestvo in družinsko tradicijo Špacapanovih požvižgajo in so v času šolanja izkoristile priložnost, da so zbežale iz svojega rojstnega kraja ter postale mestne dekline. Pri tem je imela prste vmes tudi njihova mama Tonka – stroga in nepopustljiva Gorenjka, ki je vse svoje življenje družini poveljevala kot general.


Africa SAHARA 2013.avi

Klikni za povečavo!
15-12-2015 13:33 naložil Spartakus
Sejalci: 0 / Odjemalci: 1 / Velikost: 571.95 MB / Dokončani: 9
Prenesi torrent Poročaj torrent Opis torrenta NFO
Zvrst: Dokumentarni
Kategorija: FILMI > TVRip



Video
ID 0
Format AVC
FormatInfo Advanced Video Codec
Format profile High@L5.1
Format settings, CABAC Yes
Format settings, ReFrames 4 frames
Codec ID H264
Duration 48mn 33s
Bit rate 1 581 Kbps
Width 1 024 pixels
Height 576 pixels
Display aspect ratio 169
Frame rate 25.000 fps
Color space YUV
Chroma subsampling 420
Bit depth 8 bits
Scan type Progressive
Bits(PixelFrame) 0.107
Stream size 549 MiB (96%)
Writing library x264 core 130 r2274bm c832fe9
Encoding settings cabac=1 ref=3 deblock=100

Audio
ID 1
Format MPEG Audio
Format version Version 2
Format profile Layer 3
Mode Joint stereo
Mode extension Intensity Stereo + MS Stereo
Codec ID 55
Codec IDHint MP3
Duration 48mn 33s
Bit rate mode Constant
Bit rate 56.0 Kbps
Channel(s) 2 channels
Sampling rate 22.05 KHz
Compression mode Lossy
Stream size 19.4 MiB (3%)
Alignment Split accross interleaves
Interleave, duration 40 ms (1.00 video frame)
Interleave, preload duration 502 ms
Slosinhro


Sahara je začela nastajati pred dobrimi 6000 leti, ko se je zemeljska
os rahlo premaknila. Glavnina dežja se je premaknila južneje in prejšnja
savana je postajala puščava. Živa bitja enostavno niso imela časa za
prilagoditev. Ostali so najmočnejši.
Srebrne mravlje zdržijo do 54*c telesne temperature, a tudi one imajo
na voljo le 10 minut, da najdejo hrano, ko odidejo plenilci...

V severni Afriki leži največja puščava na svetu. Sahara je velika kot ZDA, zaradi žgočega sonca je tu najteže preživeti na planetu. Peščeni viharji sežejo na tisoče km daleč, dežuje pa komaj vsakih 50 let. A ni bilo vedno tako. To je zgodba o apokalipsi in o tem, kako v težkih časih nekateri zbežijo, drugi ostanejo, zelo redki pa izkoristijo priložnost in ustvarijo nov red.
Serija predstavi gorovje Atlas, Rt dobre nade, džunglo Konga, obale Atlantskega oceana, pragozd in puščave.
Igrajo: David Attenborough, Simon Blakeney, James Aldred
Vrtickanje.17.maj.2015.TvRip.H264

Klikni za povečavo!
17-05-2015 19:49 naložil System
Sejalci: 0 / Odjemalci: 0 / Velikost: 181.27 MB / Dokončani: 4
Prenesi torrent Poročaj torrent Opis torrenta NFO
Zvrst: Dokumentarni
Kategorija: FILMI > TVRip
Anonimen nalagalec

*Redkvice poznali že pred 5000 leti -sajenje redkvic.
Redkvice izredno zdravilne za prebavni trakt zaradi žveplovih spojin.
-----------------------------------------
*Sajenje/presajanje bučnic.




General
Complete name : 20150517 - Vrtičkanje.avi
Format : AVI
Format/Info : Audio Video Interleave
File size : 181 MiB
Duration : 21mn 38s
Overall bit rate : 1 171 Kbps
Writing library : VirtualDub build 35390/release

Video
ID : 0
Format : AVC
Format/Info : Advanced Video Codec
Format profile : High@L5.1
Format settings, CABAC : Yes
Format settings, ReFrames : 3 frames
Codec ID : H264
Duration : 21mn 38s
Bit rate : 1 105 Kbps
Width : 768 pixels
Height : 432 pixels
Display aspect ratio : 16:9
Frame rate : 25.000 fps
Color space : YUV
Chroma subsampling : 4:2:0
Bit depth : 8 bits
Scan type : Progressive
Bits/(Pixel*Frame) : 0.133
Stream size : 171 MiB (94%)
Writing library : x264 core 130 r2274bm c832fe9
Encoding settings : cabac=1 / ref=3 / deblock=1:-1:-1

Audio
ID : 1
Format : MPEG Audio
Format version : Version 2
Format profile : Layer 3
Mode : Joint stereo
Mode extension : Intensity Stereo + MS Stereo
Codec ID : 55
Codec ID/Hint : MP3
Duration : 21mn 38s
Bit rate mode : Constant
Bit rate : 56.0 Kbps
Channel(s) : 2 channels
Sampling rate : 22.05 KHz
Compression mode : Lossy
Stream size : 8.63 MiB (5%)
Alignment : Split accross interleaves
Interleave, duration : 40 ms (1.00 video frame)
Interleave, preload duration : 502 ms

Z.vrta.na.mizo-Smokavec.&.zlikrofi.2015.TvRip.H264

Klikni za povečavo!
15-05-2015 07:27 naložil System
Sejalci: 0 / Odjemalci: 0 / Velikost: 176.36 MB / Dokončani: 0
Prenesi torrent Poročaj torrent Opis torrenta
Zvrst: Dokumentarni
Kategorija: FILMI > TVRip
Anonimen nalagalec

Smokavec & zlikrofi tokrat nekoliko drugače.
Seveda s sestavinami iz domačega vrta oziroma visoke grede.



General
Complete name : Z vrta na mizo - Smokavec & zlikrofi 2015.avi
Format : AVI
Format/Info : Audio Video Interleave
File size : 176 MiB
Duration : 15mn 2s
Overall bit rate : 1 638 Kbps
Writing library : VirtualDub build 35390/release

Video
ID : 0
Format : AVC
Format/Info : Advanced Video Codec
Format profile : High@L5.1
Format settings, CABAC : Yes
Format settings, ReFrames : 3 frames
Codec ID : H264
Duration : 15mn 2s
Bit rate : 1 573 Kbps
Width : 1 024 pixels
Height : 576 pixels
Display aspect ratio : 16:9
Frame rate : 25.000 fps
Color space : YUV
Chroma subsampling : 4:2:0
Bit depth : 8 bits
Scan type : Progressive
Bits/(Pixel*Frame) : 0.107
Stream size : 169 MiB (96%)
Writing library : x264 core 130 r2274bm c832fe9
Encoding settings : cabac=1 / ref=3 / deblock=1:-1:-1 /
Audio
ID : 1
Format : MPEG Audio
Format version : Version 2
Format profile : Layer 3
Mode : Joint stereo
Mode extension : Intensity Stereo + MS Stereo
Codec ID : 55
Codec ID/Hint : MP3
Duration : 15mn 2s
Bit rate mode : Constant
Bit rate : 56.0 Kbps
Channel(s) : 2 channels
Sampling rate : 22.05 KHz
Compression mode : Lossy
Stream size : 6.00 MiB (3%)
Alignment : Split accross interleaves
Interleave, duration : 40 ms (1.00 video frame)
Interleave, preload duration : 502 ms

Vrtickanje.10.maj.2015.TvRip.H264

Klikni za povečavo!
15-05-2015 06:54 naložil System
Sejalci: 0 / Odjemalci: 0 / Velikost: 231.87 MB / Dokončani: 4
Prenesi torrent Poročaj torrent Opis torrenta NFO
Zvrst: Dokumentarni
Kategorija: FILMI > TVRip
Anonimen nalagalec

Poljudno o rastlinah, pripravi tradicinalnih in trendovskih pripomočkov
ter jedi iz naravnih sestavin.
Tokrat:
- nabiranje čemaža, čemažev pesto
- izbira, posaditev balkonskih rastlin glede na lego in zahteve rastlin



General
Complete name : 20150510 Vrtičkanje.avi
Format : AVI
Format/Info : Audio Video Interleave
File size : 232 MiB
Duration : 21mn 24s
Overall bit rate : 1 515 Kbps
Writing library : VirtualDub build 35390/release

Video
ID : 0
Format : AVC
Format/Info : Advanced Video Codec
Format profile : High@L5.1
Format settings, CABAC : Yes
Format settings, ReFrames : 3 frames
Codec ID : H264
Duration : 21mn 24s
Bit rate : 1 449 Kbps
Width : 768 pixels
Height : 432 pixels
Display aspect ratio : 16:9
Frame rate : 25.000 fps
Color space : YUV
Chroma subsampling : 4:2:0
Bit depth : 8 bits
Scan type : Progressive
Bits/(Pixel*Frame) : 0.175
Stream size : 222 MiB (96%)
Writing library : x264 core 130 r2274bm c832fe9
Encoding settings : cabac=1 / ref=3 / deblock=1:-1:-1

Audio
ID : 1
Format : MPEG Audio
Format version : Version 2
Format profile : Layer 3
Mode : Joint stereo
Mode extension : Intensity Stereo + MS Stereo
Codec ID : 55
Codec ID/Hint : MP3
Duration : 21mn 24s
Bit rate mode : Constant
Bit rate : 56.0 Kbps
Channel(s) : 2 channels
Sampling rate : 22.05 KHz
Compression mode : Lossy
Stream size : 8.53 MiB (4%)
Alignment : Split accross interleaves
Interleave, duration : 40 ms (1.00 video frame)
Interleave, preload duration : 502 ms


Izlet.2011.SLOVENiAN.IPTVRip.x264-midade1

Klikni za povečavo!
29-01-2015 12:35 naložil Ziva
Sejalci: 0 / Odjemalci: 0 / Velikost: 755.14 MB / Dokončani: 6
Prenesi torrent Poročaj torrent Opis torrenta NFO
Zvrst: Drama
Kategorija: FILMI > TVRip


INFO:
Naziv............: Izlet.2011.SLOVENiAN.IPTVRip.x264-midade1
Velikost.......: 755 MB
Dolžina….....: 82 minut
Leto.............: 2011
Kodek...........: x264
Slika.............: 1 024 x 576 | 1 283 kbps
Zvok.............: AAC | 2 channels
Jezik............: Slovenski
Žanr.............: Drama
Podnapisi.......: n/a
Ripper.......: midade1

IMDb:.................: http://www.imdb.com/title/tt1956534/
Ocena................: 6,9/10 od 636 glasov
Režija................: Nejc Gazvoda

IGRAJO:
Luka Cimpric ... Andrej
Jure Henigman ... Gregor
Nina Rakovec ... Živa

KRATKA VSEBINA:
Trije mladi prijatelji se odpravijo na morje, na nekajdnevni izlet, kot so to poceli ze v srednji soli. Gregor je vojak, ki je prisel na dopust z misije v tujini, Ziva je zivahno dekle, ki cuti do Gregorja vec, kot prizna, Andrej pa je njun najboljsi prijatelj, ki z ostrim jezikom napada svet, da bi prikril dejstvo, da je osamljen in nerazumljen. Na prvi pogled sicer navaden izlet postavi na kocko njihovo prijateljstvo, hkrati pa film skozi zivljenjske dialoge in situacije pove zgodbo o iscoci se generaciji, ki ne najde svojega mesta v razdrobljenem svetu.