A
B
C
D
E
F
G
H
I
J
K
L
M
N
O
P
Q
R
S
T
U
V
W
X
Y
Z
0-9
Dobri.vojak.Švejk.1957.SLOSubs.TVRip.720p.x264.ts-R77

Klikni za povečavo!
22-12-2020 14:47 naložil rado77
Sejalci: 3 / Odjemalci: 0 / Velikost: 1.54 GB / Dokončani: 3
Prenesi torrent Poročaj torrent Opis torrenta
Zvrst: Komedija | Vojni
Kategorija: FILMI > TVRip

Dobri.vojak.Švejk.1957.SLOSubs.TVRip.720p.x264.ts-R77

Dobrý voják Svejk (1957)


Dobri vojak Švejk




Vsebina:
Praški trgovec s psi Josef Švejk se na začetku prve svetovne vojne, tik po sarajevskem atentatu na nadvojvodo in prestolonaslednika Franza Ferdinanda, v svoji najljubši pivnici po neumnosti zaplete v izdajstvo in razžalitev cesarja. Po aretaciji odide v vojsko, čeprav je dobil diagnozo, da je sonček. Ko je v uniformi, spravi ob pamet svoje nadrejene – pijanega kaplana Katza in elegantnega poročnika Lukáša. Haškov roman je navdihnila pisateljeva osebna izkušnja iz prve svetovne vojne, gre pa seveda za znamenito satiro na položaj vojakov, ki ne razumejo političnih razlogov za svoje bojevanje in se borijo za deželo, do katere ne čutijo pripadnosti. Dobri vojak Švejk je posrečen, ponarodel komični lik vojaka, ki z (ne ve se, ali hlinjeno ali resnično) neumnostjo razkriva absurde vojaške oblasti in absurdne situacije, v katere se spravlja, izrablja kot obliko pasivnega upora proti vojni. Haškova zgodba je tudi polna satire na avtoriteto ter napada korupcijo in hinavščino oblasti.
Priredba legendarnega komičnega romana anarhista Jaroslava Haška.

Režija: Karel Steklý
Igrajo: Rudolf Hrusínský , Svatopluk Benes , Frantisek Filipovský , Josef Hlinomaz , Bozena Havlícková , Eva Svobodová , Milos Kopecký , Felix Le Breux , Libuse Bokrová , Bedrich Karen
Država: Čehoslovaška
Podnapisi: Slovenščina
Žanr: Komedija, vojni


Tehnične specifikacije:

ID : 1 (0x1)
Complete name : Dobri.vojak.Švejk.1957.SLOSubs.TVRip.720p.x264.ts-R77\Dobri vojak Švejk.ts
Format : MPEG-TS
File size : 1.54 GiB
Duration : 1 h 44 min
Overall bit rate mode : Variable
Overall bit rate : 2 111 kb/s

Video
ID : 256 (0x100)
Menu ID : 1 (0x1)
Format : AVC
Format/Info : Advanced Video Codec
Format profile : High@L4
Format settings : CABAC / 4 Ref Frames
Format settings, CABAC : Yes
Format settings, Reference frames : 4 frames
Codec ID : 27
Duration : 1 h 44 min
Bit rate mode : Constant
Nominal bit rate : 1 800 kb/s
Width : 1 280 pixels
Height : 720 pixels
Display aspect ratio : 16:9
Frame rate : 25.000 FPS
Standard : PAL
Color space : YUV
Chroma subsampling : 4:2:0
Bit depth : 8 bits
Scan type : Progressive
Bits/(Pixel*Frame) : 0.078
Color range : Limited
Color primaries : BT.709
Transfer characteristics : BT.709
Matrix coefficients : BT.709

Audio
ID : 257 (0x101)
Menu ID : 1 (0x1)
Format : AAC LC
Format/Info : Advanced Audio Codec Low Complexity
Format version : Version 4
Muxing mode : ADTS
Codec ID : 15-2
Duration : 1 h 44 min
Bit rate mode : Variable
Channel(s) : 2 channels
Channel layout : L R
Sampling rate : 44.1 kHz
Frame rate : 43.066 FPS (1024 SPF)
Compression mode : Lossy
Delay relative to video : -40 ms
Menu
ID : 4096 (0x1000)
Menu ID : 1 (0x1)
Duration : 1 h 44 min
List : 256 (0x100) (AVC) / 257 (0x101) (AAC)
Service name : Service01
Service provider : FFmpeg
Service type : digital television

KDOR SEJE TUDI ŽANJE!
Ljubezen.1984.SLOVENIJA.720p.TVRip.R77

Klikni za povečavo!
17-12-2020 18:10 naložil System
Sejalci: 1 / Odjemalci: 0 / Velikost: 1.33 GB / Dokončani: 1
Prenesi torrent Poročaj torrent Opis torrenta
Zvrst: Drama | Vojni
Kategorija: FILMI > TVRip
Anonimen nalagalec

Ljubezen.1984.SLOVENIJA.720p.TVRip.R77

Ljubezen
Celovečerni igrani film


Žanr: drama, vojni
Leto: 1984 Jugoslavija (Slovenija)
Jezik: Slovenščina
Režija:Rajko Ranfl
Trajanje: 94min[/color]
Igrajo:Jožica Avbelj, Ivo Barišič, Danilo Benedičič


Zgodba:
Leta 1940, tik pred izbruhom vojne, mladi Marjan živi brezskrbno življenje s svojo tolpo v ljubljanski četrti Zelena Jama in doživlja vse težave njegovih let. Z vrstnico Lenko doživlja svojo prvo ljubezen, istočasno pa odkriva spolnost. Italijanska okupacija prinese veliko sprememb, tolpa razpade, nekateri se pridružijo osvobodilnemu boju, drugi sodelujejo s kolaboracionisti. Marjan ostane neuvrščen. Italijani se predajo in v mesto vkorakajo Nemci. Milena, lahkoživa ženska, ki ima dobre zveze z Nemci, omreži Marjana, ki z njo izgubi nedolžnost. Vojne je konec in partizani zmagajo. Nove oblasti po pomoti zaprejo tudi Marjana.


Tehnični podatki:

Complete name : Ljubezen 1984\Ljubezen 1984.mkv
Format : Matroska
Format version : Version 4
File size : 1.33 GiB
Duration : 1 h 29 min
Overall bit rate mode : Variable
Overall bit rate : 2 117 kb/s
Encoded date : UTC 2016-04-28 20:02:41
Writing application : mkvmerge v6.3.0 ('You can't stop me!') built on Jun 28 2013 20:09:41
Writing library : libebml v1.3.0 + libmatroska v1.4.0
Video
ID : 1
Format : AVC
Format/Info : Advanced Video Codec
Format profile : High@L4.1
Format settings : CABAC / 4 Ref Frames
Format settings, CABAC : Yes
Format settings, Reference frames : 4 frames
Codec ID : V_MPEG4/ISO/AVC
Duration : 1 h 29 min
Bit rate : 2 034 kb/s
Width : 720 pixels
Height : 528 pixels
Display aspect ratio : 4:3
Frame rate mode : Constant
Frame rate : 25.000 FPS
Color space : YUV
Chroma subsampling : 4:2:0
Bit depth : 8 bits
Scan type : Progressive
Bits/(Pixel*Frame) : 0.214
Stream size : 1.27 GiB (96%)
Writing library : x264 core 130 r2274bm c832fe9
Default : Yes
Forced : No
Audio
ID : 2
Format : MPEG Audio
Format version : Version 2
Format profile : Layer 3
Codec ID : A_MPEG/L3
Codec ID/Hint : MP3
Duration : 1 h 29 min
Bit rate mode : Variable
Bit rate : 41.1 kb/s
Minimum bit rate : 8 000 b/s
Channel(s) : 1 channel
Sampling rate : 22.05 kHz
Frame rate : 38.281 FPS (576 SPF)
Compression mode : Lossy
Stream size : 26.4 MiB (2%)
Writing library : LAME3.99r
Encoding settings : -m m -V 4 -q 0 -lowpass 11 --vbr-new -b 8
Default : Yes
Forced : No

KDOR SEJE TUDI ŽANJE!
Marmaduke.2010.SloSinh.TVRip.XviD

Klikni za povečavo!
26-11-2020 11:24 naložil Ziva
Sejalci: 1 / Odjemalci: 0 / Velikost: 1.67 GB / Dokončani: 30
Prenesi torrent Poročaj torrent Opis torrenta NFO
Zvrst: Družinski
Kategorija: FILMI > TVRip



Marmaduke
Zvrst: komedija, družinski, pustolovski
Dolžina: 84 min
Država: ZDA
Leto: 2010
Jezik: slovenski


Režiser komedij Opoldanski obračun in Čez 30 in še pri tastarih predstavlja zabavno pasje življenje nenavadne doge Marmaduka. Ko se njegova družina preseli v Kalifornijo, se skuša najstniški pesjan Marmaduke vklopiti v novo okolico, toda ker ima štiri leve tace, za sabo vedno pusti zgolj popoln kaos. Kljub temu počasi spoznava nove prijatelje in simpatije, kot tudi zlobne nasprotnike, kar povzroči številne komične težave in zaplete.




Izgubljena hči_The Girl In The Park.SLOSubs.R

Klikni za povečavo!
12-10-2020 16:22 naložil rado77
Sejalci: 1 / Odjemalci: 0 / Velikost: 714.84 MB / Dokončani: 5
Prenesi torrent Poročaj torrent Opis torrenta
Zvrst: Drama
Kategorija: FILMI > TVRip

Izgubljena hči_The Girl In The Park.SLOSubs.R






Izgubljena hči

The Girl In The Park





2008 • 1 h 45 min • Drama







Zgodba:

Julia Sandburg ne more preboleti izginotja hčerke izpred 16 let. Zaprla se je vase in odtujila od moža in sina. Ko Julia spozna Louise, mlado žensko sumljive preteklosti, se ji odprejo vse stare duševne rane in v njej se prebudi nerazumno upanje, da je Louise pravzaprav njena pogrešana hči.


Direktor: David Auburn
Pisec: David Auburn
Igrajo: Sigourney Weaver , Kate Bosworth , Alessandro Nivola
Žanri: Drama

Podrobnosti:

Država: ZDA
Jezik: angleščina
Datum izdaje:5. december 2008 (UK)
Podnapisi: Slovenski


Tehnične specifikacije:

Izvajanje: 110 min | 109 min
Barva: Barva
Razmerje: 2.35 : 1




KDOR SEJE TUDI ŽANJE!