All torrents are Free between 01-12-2018 - 01-01-2019
A
B
C
D
E
F
G
H
I
J
K
L
M
N
O
P
Q
R
S
T
U
V
W
X
Y
Z
0-9
Muskarci.ne.placu.2017.SLOSubs.TVRip.XviD-metalcamp

Klikni za povečavo!
14-05-2018 12:28 naložil Ziva
Sejalci: 1 / Odjemalci: 0 / Velikost: 1.81 GB / Dokončani: 17
Prenesi torrent Poročaj torrent Opis torrenta NFO
Zvrst: Drama
Kategorija: FILMI > TVRip



Naziv: Muskarci.ne.placu.2017.SLOSubs.TVRip.XviD-metalcamp
Source: Muskarci.ne.placu.2017.DVB-T-Kvazdej
Leto izida .........: 2017
Velikost ...........: 1,80 GB
Dolžina ............: 94 Minut
Video ...............: 2533 Kbps | 720x304 | 25 fps
Zvok .................: Dolby Digital AC3 2.0 @ 192 Kbps
Kodek...............: XviD
Zvrst………….: Drama
Država .............: BiH | Slovenija | Hrvaška | Nemčija
Jezik ................: Bosanski
Podnapisi .........: Slovenski (RETAiL)
Prevod: Mediatranslations
Priredil: metalcamp
Tehnična obdelava: DVD Rippers Slovenija
IMDb Info .......: https://www.imdb.com/title/tt5239558/
IMDB Rating:

Režija.........: Alen Drljevic
Scenarij.......: Alen Drljevic, Zoran Solomun


Boris Isakovic ... Miki
Leon Lucev ... Valentin
Emir Hadzihafizbegovic ... Merim
Sebastian Cavazza ... Ivan
Ermin Bravo ... Ahmed
Boris Ler ... Jasmin
Ivo Gregurevic ... Josip
Primoz Petkovsek ... Andrija
Nermin Karacic ... Velimir
Mirko Zecevic-Tadic ... Tadija


Film predstavlja zgodbo vojnih veteranov iz različnih držav nekdanje Jugoslavije,
ki jih poveže humanitarna mirovna organizacija, da bi delili svoje vojne izkušnje
in med seboj vzpostavili zaupanje. Toda travme in močna čustva sovražnosti se znova
porajajo ob srečanju nekdanjih nasprotnikov. Tako nekdanji vojaki, ki se trdno
držijo svoje temeljne moškosti in lastnih predsodkov, zavrnejo razkritje nečlovečnosti
dogodkov, ne glede na to, ali so jih storili oni ali drugi.
Ta briljantno režirana drama govori o zmožnosti, da bi odpuščali drugim le po tem,
ko odpustimo sami sebi. V odlični igralski zasedbi blesti tudi slovenski igralec
Sebastian Cavazza.
V odmaknjenem gorskem hotelu se skoraj dve desetletji po koncu jugoslovanskih vojn
na terapevtski delavnici zberejo veterani različnih narodnosti in veroizpovedi,
da bi se spopadli s travmatičnimi izkušnjami. A v naelektrenem ozračju, polnem
predsodkov, nezaupanja, sovraštva in zamer, lahko vsaka nepremišljena beseda ali
napačen pogled znova sprožita konflikt.
Film bosanskega režiserja, navdahnjen z resničnimi dogodki in posnet z vrhunskimi
igralci z vseh koncev nekdanje države, je zgodba o tem, da moramo najprej oprostiti
sebi, šele potem bomo lahko oprostili tudi drugim.
Posebna nagrada žirije in nagrada Europa Cinemas v Karlovih Varih ter nagrada
FIPRESCI na LIFFu.




Avatar.Zadnji.Gospodar.Vetra.So2.SLOSINH.TVRip.XviD

Klikni za povečavo!
09-03-2018 05:45 naložil Reaper
Sejalci: 0 / Odjemalci: 1 / Velikost: 6.59 GB / Dokončani: 16
Prenesi torrent Poročaj torrent Opis torrenta NFO
Kategorija: FILMI > TVRip

Jezik : slovenski
Sezona 02:
Ul by: Reaper
Avatar.Zadnji.Gospodar.Vetra.So1.SLOSINH.TVRip.XviD

Klikni za povečavo!
09-03-2018 05:44 naložil Reaper
Sejalci: 1 / Odjemalci: 0 / Velikost: 6.67 GB / Dokončani: 16
Prenesi torrent Poročaj torrent Opis torrenta NFO
Kategorija: FILMI > TVRip

Jezik : slovenski
Sezona 01:
Ul by: Reaper
Flipper.1963.SLOSubs.TVRip.XviD-sc28

Klikni za povečavo!
17-02-2018 13:46 naložil Reaper
Sejalci: 1 / Odjemalci: 0 / Velikost: 1.37 GB / Dokončani: 13
Prenesi torrent Poročaj torrent Opis torrenta NFO
Kategorija: FILMI > TVRip

Jezik : slovenski (vgrajeni - Retail)
Prevod: Nina Zabukovec
Ul by: Reaper
Like.Share.Follow.2017.SLOSubs.TVRip.XviD-metalcamp

Klikni za povečavo!
20-11-2017 13:07 naložil Ziva
Sejalci: 0 / Odjemalci: 1 / Velikost: 1.81 GB / Dokončani: 9
Prenesi torrent Poročaj torrent Opis torrenta NFO
Kategorija: FILMI > TVRip



Naziv: Like.Share.Follow.2017.SLOSubs.TVRip.XviD-metalcamp
Source: DVB-T HBO (Kvazdej)
Leto izida .........: 2017
Velikost ...........: 1,80 GB
Dolžina ............: 86 Minut
Video ...............: 2617 Kbps | 720x384 | 25 fps
Zvok .................: Dolby Digital AC3 5.1 @384 kbps
Kodek...............: XviD
Zvrst………….: Grozljivka | Triler | Romantični
Država……….: ZDA
Jezik ................: Angleški
Podnapisi .........: Slovenski (RETAiL)
Prevod: Mediatranslations
Priredil: metalcamp
Tehnična obdelava: DVD Rippers Slovenija
IMDb Info .......: http://www.imdb.com/title/tt7441032/


Režija.........: Glenn Gers
Scenarij…..: Glenn Gers


Keiynan Lonsdale ... Garret
Ema Horvath ... Shell
Abraham Benrubi ... Detective Yarden
Michael Boatman ... Norman
Mikey Bolts ... Skeevix
Gabriel Conte ... Carbonite
Patrick Gorman ... Mr. Crossbow
Nate Hartley ... Lyle


Napeta zgodba govori o nevarnostih digitalne dobe in tveganju pri objavi svojega
življenja na spletu. Garrett je senzacija z YouTuba, obsedena oboževalka in
zalezovalka pa želi za vsako ceno osebno spoznati svojega vzornika.
Mojster za grozljivke Jason Blum prinaša še eno napeto zgodbo o nevarnostih
digitalne dobe in tveganju pri objavi svojega življenja na spletu. Mladi Garrett
(Keiynan Lonsdale) je najnovejša senzacija na videoportalu YouTube, obsedena
oboževalka in zalezovalka (Ema Horvath) pa želi za vsako ceno osebno spoznati
svojega spletnega vzornika.




Orizont.2015.SLOSubs.TVRip.XviD-metalcamp

Klikni za povečavo!
27-10-2017 12:06 naložil Ziva
Sejalci: 0 / Odjemalci: 0 / Velikost: 1.91 GB / Dokončani: 11
Prenesi torrent Poročaj torrent Opis torrenta NFO
Zvrst: Akcija | Drama | Kriminalka
Kategorija: FILMI > TVRip




Naziv: Orizont.2015.SLOSubs.TVRip.XviD-metalcamp
Leto izida .........: 2015
Velikost ...........: 1,90 GB
Dolžina ............: 88 Minut
Video ...............: 2703 Kbps | 720x304 | 25 fps
Zvok .................: Dolby Digital AC3 5.1 @384 kbps
Kodek...............: XviD
Zvrst………….: Akcija | Kriminalka | Drama
Država………..: Romunija
Jezik ................: Romunski
Podnapisi .........: Slovenski (RETAiL)
Prevod: Mediatranslations
Priredil: metalcamp
Tehnična obdelava: DrSi

IMDb Info .......: http://www.imdb.com/title/tt4568268/


Režija.........: Marian Crisan
Scenarij.......: Marian Crisan, Ioan Slavici (roman)


András Hatházi ... Lucian
Rodica Lazar ... Andra
Maria Seles ... Victoria
Zsolt Bogdán ... Zoli
Valeriu Andriuta ... Pintea
Niko Becker ... Mircea
Emilian Oprea ... Adi
Ioan Paraschiv ... Tibi


Družina se loti novega posla upravljanja gostišča "Obzorje" globoko v gorovju
zahodne Romunije. Čez nekaj časa ugotovijo, da vse skupaj, tudi njihova življenja,
nadzirata Zoli in njegova tolpa izobčencev.

Zakonca Lucian in Andra se po mnogih letih, ko sta srečo iskala v tujini, lotita
novega posla upravljanja gostišča "Obzorje" globoko v gorovju zahodne Romunije.
Družini ustreza nov izziv in vse je videti idealno – dokler čez čas ne ugotovijo,
da vse skupaj, tudi njihova življenja, nadzirata Zoli in njegova tolpa izobčencev,
ki nezakonito izsekava gozd. Družina in gostišče "Obzorje" se bosta kmalu zapletla
v nevaren spor med možmi postave in gozdarsko mafijo.


Superstitious Minds 2016 SloSubs TvRip 720p H264

Klikni za povečavo!
20-10-2017 07:27 naložil System
Sejalci: 1 / Odjemalci: 0 / Velikost: 654.96 MB / Dokončani: 10
Prenesi torrent Poročaj torrent Opis torrenta
Zvrst: Dokumentarni
Kategorija: FILMI > TVRip
Anonimen nalagalec

Vraževerje v sodobnem svetu Superstitious Minds
Dokumentarni / Družboslovje, Kanada
Dokumentarni film se poglobi v zanimivi svet praznoverja.
Potrkate na les, če želite, da se ne bi zgodilo nekaj slabega? Vam kaj pomeni, če ubijete pajka ali odprete dežnik v prostoru? Kaj je za vas petek trinajstega? Avtorji prepotujejo svet in raziščejo na tisoče primerov, poiščejo njihov izvor, predvsem pa jih zanima, kaj praznoverje pove o nas samih. Živimo v znanstveno in tehnološko najbolj naprednem svetu doslej, a še nikoli nismo bili tako praznoverni. Pregrešno drage stolpnice gradijo po posvetu z mojstri feng šuja, 80 odstotkov jih nima trinajstega nadstropja. V času sončevega mrka so vse borze zaprte in nekatere investicijske sklade pri nakupu in prodaji vodijo upoštevajoč praznoverje. Skoraj nihče ni neobčutljiv zanj. Atleti, arhitekti, igralci, ribiči, celo politiki in znanstveniki, vsi so prepričani, da bodo uspešni, če bodo upoštevali določene praznoverne obrede. Vemo, da je to nesmisel, toda instinkt je močnejši, ne moremo si pomagati.
Režija: Adrian Wills
Igrajo: Ann-Marie MacDonald


Format : AVI
Format : AVC
Format/Info : Advanced Video Codec
Format profile : High@L4.1
Format settings, CABAC : Yes
Format settings, ReFrames : 4 frames
Codec ID : H264
Duration : 41 min 19 s
Bit rate : 2 151 kb/s
Width : 1 280 pixels
Height : 720 pixels
Display aspect ratio : 16:9
Frame rate : 25.000 FPS
Bit depth : 8 bits
Scan type : Progressive
Bits/(Pixel*Frame) : 0.093
Stream size : 636 MiB (97%)
Writing library : x264 core 148 r2694bm 3b70645
Encoding settings : cabac=1 / ref=3 / deblock=1:0:0

Format : MPEG Audio
Format version : Version 2
Mode : Joint stereo
Mode extension : Intensity Stereo + MS Stereo
Codec ID/Hint : MP3
Bit rate mode : Constant
Bit rate : 56.0 kb/s
Channel(s) : 2 channels
Sampling rate : 22.05 kHz
Rosalie.Blum.2015.SLOSubs.TVRip.XviD-metalcamp

Klikni za povečavo!
20-08-2017 11:52 naložil Ziva
Sejalci: 0 / Odjemalci: 0 / Velikost: 1.8 GB / Dokončani: 4
Prenesi torrent Poročaj torrent Opis torrenta NFO
Zvrst: Komedija
Kategorija: FILMI > TVRip



Naziv: Rosalie.Blum.2015.SLOSubs.TVRip.XviD-metalcamp
Source: DVB-T
Leto izida .........: 2015
Velikost ...........: 1,80 GB
Dolžina ............: 91 Minut
Video ...............: 2616 Kbps | 720x304 | 25 fps
Zvok .................: Dolby Digital AC3 2.0 @192 kbps
Kodek...............: XviD
Zvrst………….: Komedija
Država………..: Francija
Jezik ................: Francoski
Podnapisi .........: Slovenski (RETAiL)
Prevod: Mediatranslations
Tehnična obdelava: DVD Rippers Slovenija
IMDb Info .......: http://www.imdb.com/title/tt4447076/


Režija…..: Julien Rappeneau
Scenarij…: Camille Jourdy


Noémie Lvovsky ... Rosalie Blum
Kyan Khojandi ... Vincent Machot
Alice Isaaz ... Aude Cerceau
Anémone ... Simone Machot
Philippe Rebbot ... Kolocataire
Sara Giraudeau ... Cécile
Camille Rutherford ... Laura
Nicolas Bridet ... Laurent


Tridesetletni Vincent je osamljeni frizer v majhnem mestu. Ima lepotni salon,
bratranca in izjemno vsiljivo mater. Nekega dne naleti na skrivnostno Rosalie.
Prepričan je, da jo je nekoč že srečal, ampak kje in kdaj je to bilo?

Tridesetletni Vincent Machot je osamljeni frizer v majhnem mestu. V dolgočasnem
življenju sta njegova edina prijatelja njegova vsiljiva, čudaška mati in bratranec,
ki je neutrudni ženskar. A vse to bi se lahko spremenilo, ko spozna skrivnostno
Rosalie Blum. Vincentu se zdi nenavadno znana in celo prepričan je, da jo je nekoč
že srečal, ampak kje in kdaj je to bilo? To sklene ugotoviti in začne jo zasledovati.
Vincent v vlogi nespretnega in predvidljivega detektiva seveda hitro pritegne
pozornost Rosalie. Petdesetletna gospa naroči svoji nečakinji Aude, naj poizveduje
za Vincentom. Kmalu je Aude za petami Vincentu, ki zasleduje Rosalie.
Očarljiva igra skrivalnic bo naposled vsem spremenila življenje.




Sucker.2015.SLOSubs.TVRip.XviD-metalcamp

Klikni za povečavo!
20-08-2017 11:22 naložil Ziva
Sejalci: 1 / Odjemalci: 0 / Velikost: 1.72 GB / Dokončani: 18
Prenesi torrent Poročaj torrent Opis torrenta NFO
Zvrst: Komedija
Kategorija: FILMI > TVRip



Naziv: Sucker.2015.SLOSubs.TVRip.XviD-metalcamp
Source: DVB-T
Leto izida .........: 2015
Velikost ...........: 1,70 GB
Dolžina ............: 93 Minut
Video ...............: 2465 Kbps | 720x304 | 25 fps
Zvok .................: Dolby Digital AC3 2.0 @192 kbps
Kodek...............: XviD
Zvrst………….: Komedija
Država………..: Avstralija
Jezik ................: Angleški
Podnapisi .........: Slovenski (RETAiL)
Prevod: Mediatranslations
Tehnična obdelava: DVD Rippers Slovenija


IMDb Info .......: http://www.imdb.com/title/tt3130302/

Režija…..: Ben Chessell
Scenarij…: Ben Chessell, Lawrence Leung


Timothy Spall ... The Professor
Kat Stewart ... Emma
Lily Sullivan ... Sarah
Jacek Koman ... Riley
Shaun Micallef ... Harry
Jacinta Stapleton ... Alice
Eddie Baroo ... Stu
Dalip Sondhi ... Rashid
Lawrence Leung ... Lawrence, Leung
Ferdinand Hoang ... Leo


Mladi Lawrence, ki ni uspel priti na študij medicine, spozna prevaranta
'Profesorja' in njegovo hčer Sarah. Oče ga uči starodavne obrti sleparstva,
dekle pa nameni Lawrenceu trdo lekcijo o neuslišani ljubezni.

Potem ko 18-letnega srednješolca Lawrencea zalotijo, kako goljufa pri zaključnem
izpitu iz matematike, so njegovi upi o tem, da bi se vpisal na študij medicine,
za vselej pokopani. Obsojen je na preživljanje poletnih počitnic pri svojem
čudaškem stricu. Tam po naključju spozna 'Profesorja', ostarelega poklicnega
prevaranta; ta ga povabi, naj se na izletu z avtomobilom pridruži njemu in njegovi
jezikavi hčeri Sarah. Med potjo čez vso državo za seboj puščajo lahkomiselne
naivneže in ogoljufane tepce; stari premetenec uči Lawrencea starodavne obrti
sleparstva, njegova hči Sarah pa mu nameni trdo lekcijo o neuslišani ljubezni
in življenjskih resnicah.




Junction.48.2016.SLOSubs.TVRip.XviD-metalcamp

Klikni za povečavo!
31-03-2017 10:43 naložil Ziva
Sejalci: 0 / Odjemalci: 0 / Velikost: 1.81 GB / Dokončani: 6
Prenesi torrent Poročaj torrent Opis torrenta NFO
Kategorija: FILMI > TVRip



Naziv: Junction.48.2016.SLOSubs.TVRip.XviD-metalcamp
Source: DVB-T
Leto izida .........: 2016
Velikost ...........: 1,80 GB
Dolžina ............: 93 Minut
Video ...............: 2595 Kbps | 720x304 | 25 fps
Zvok .................: Dolby Digital AC3 2.0 @ 192 kbps
Kodek.................: XviD
Zvrst………….: Akcija | Biografski | Kriminalka | Drama |Glasbeni | Triler
Država………..: Izrael | Nemčija | ZDA
Jezik ................: Arabski, Hebrejski
Podnapisi .........: Slovenski (RETAiL)
Prevod: Mediatranslations
Priredil in uredil: metalcamp
Tehnična obdelava: DVD Rippers Slovenija

IMDb Info .......: http://www.imdb.com/title/tt5140182/

Režija.........: Udi Aloni
Scenarij.......: Oren Moverman, Tamer Nafar


Tamer Nafar ... Kareem
Samar Qupty ... Manar
Salwa Nakkara ... Kareem's Mother
Saeed Dassuki ... Talal
Adeeb Safadi ... Yousef


Junction 48 je fikcijski film, posnet po resnični zgodbi.
Palestinski raper Kareem in njegovo dekle Manar se z ljubeznijo in glasbo borita
proti zunanjemu zatiranju izraelskega režima ter notranji opresiji svoje nazadnjaške
skupnosti, polne kriminala in krivic.

Kareemovo brezciljno življenje se odvija med čudaškimi deli in druženjem s prijatelji
v arabskem getu rasno mešanega mesta Lyd, polnem kriminala in nasilja. Družinska
tragedija ga zbliža z dekletom Manar, ki je pevka, in odloči se, da bo iz svojega
življenja naredil kaj več. Ko Kareem in njegova skupina končno dobita priložnost
za nastop v nekem hiphop klubu v Tel Avivu, zvezdniški potencial "prvega arabskega
raperja" naleti na veliko pozornost. Čeprav njihova besedila govorijo o tem, kako
niso politična, s svojimi skladbami izražajo lastne izkušnje trdega življenja
palestinske mladine. A pot do uspeha nikoli ni lahka. Kareem in njegova skupina
se morajo soočiti z nasilnimi, nacionalističnimi judovskimi raperji, uradnimi
oblastmi in nasilnim poseljevanjem ter težavnimi prijatelji, zasvojenimi z mamili.
Ko Manar njena družina zagrozi s kaznijo, če bo javno nastopila s Kareemom, nastopi
čas, da se Kareem bodisi vda zahtevam nazadnjaške tradicije bodisi postavi za dekle,
ki jo ljubi; za umetnico, ki jo spoštuje.




A.Monster.with.a.Thousand.Heads.2015.SLOSubs.TVRip.XviD-metalcamp

Klikni za povečavo!
15-01-2017 12:41 naložil Ziva
Sejalci: 0 / Odjemalci: 0 / Velikost: 1.31 GB / Dokončani: 7
Prenesi torrent Poročaj torrent Opis torrenta NFO
Zvrst: Drama | Triler
Kategorija: FILMI > TVRip



Naziv: A.Monster.with.a.Thousand.Heads.2015.SLOSubs.TVRip.XviD-metalcamp
Source: DVB-T (Cinemax)
Leto izida .........: 2015
Velikost ...........: 1,30 GB
Dolžina ............: 71 Minut
Video ...............: 2424 Kbps | 720x304 | 25 fps
Zvok .................: Dolby Digital AC3 2.0 @ 192 Kbps
Kodek.................: XviD
Zvrst………….: Drama | Triler
Država .............: Mehika
Jezik ................: Španski
Podnapisi .........: Slovenski (RETAiL)
Prevod: Mediatranslations
Priredil: metalcamp
Tehnična obdelava: DrSi

IMDb Info .......: http://www.imdb.com/title/tt4569240/


Režija.........: Rodrigo Plá
Scenarij.......: Laura Santullo


Jana Raluy ... Sonia Bonet
Sebastián Aguirre ... Dario
Hugo Albores ... Dr. Villalba
Emilio Echevarría ... Sandoval
Úrsula Pruneda ... Monica
Daniel Giménez Cacho ... Nicolas Pietro
Noé Hernández ... Doorman
Harold Torres ... Police Agent 1
Marisol Centeno ... Lorena Morgan's Assistant
Veronica Falcón ... Lorena Morgan


Ko zavarovalnica zavrne kritje stroškov za zdravljenje njenega moža, Sonia vzame
stvari v svoje roke. Neomajna birokracija in otopeli državni uslužbenci jo ženejo
do roba, ko se bo uprla brezčutnemu sistemu.

Sonia se zbudi sredi noči: njen mož Guillermo je v neznosnih bolečinah padel s postelje.
Izkaže se, da gre za neozdravljivo bolezen s smrtnim izidom. Čeprav je njegovo stanje
hudo in se še poslabšuje, zavarovalnica zavrne kritje stroškov za zdravljenje s sodobno
metodo. Sonia se s tem ne more sprijazniti in stvari sklene vzeti v svoje roke.
Zdravniku svojega moža sledi od bolnišnice domov. Po tem, ko ji zdravnik zaupa, kako
velike birokratske ovire so pred njo, Sonia ugotovi, da se bo morala osebno soočiti
z nekaterimi ključnimi dejavniki, ki se skrivajo v togem administrativnem sistemu
mehiškega zdravstva, te tisočglave pošasti.




I.Killed.My.BFF.2015.SLOSubs.TVRip.XviD-metalcamp

Klikni za povečavo!
11-01-2017 12:59 naložil Ziva
Sejalci: 0 / Odjemalci: 0 / Velikost: 1.6 GB / Dokončani: 12
Prenesi torrent Poročaj torrent Opis torrenta NFO
Zvrst: Kriminalka | Triler
Kategorija: FILMI > TVRip



Naziv: I.Killed.My.BFF.2015.SLOSubs.TVRip.XviD-metalcamp
Source: DVB-T (HBO)
Leto izida .........: 20165
Velikost ...........: 1,60 GB
Dolžina ............: 84 Minut
Video ...............: 2526 Kbps | 720x384 | 23,976 fps
Zvok .................: Dolby Digital AC3 2.0 @ 192 Kbps
Kodek.................: XviD
Zvrst………….: Triler | Kriminalka
Država .............: ZDA
Jezik ................: Angleški
Podnapisi .........: Slovenski (RETAiL)
Prevod: Mediatranslations
Priredil: metalcamp
Tehnična obdelava: DrSi

IMDb Info .......: http://www.imdb.com/title/tt4518272/


Režija.........: Seth Jarrett
Scenarij.......: Danny Abel, Blake Berris


Kim Baptiste ... Detective Lund
Annabel Barrett ... Jade
Katrina Bowden ... Shane Riley
Gerald Brodin ... Ken Lachan
Wes Cannon ... Connor Savage
Catherine Cappiello ... Susan Proctor
Olivia Crocicchia ... Heather Thomas
Erica Curtis ... Ali Lachan
Amber Davis ... Catty Girl
Susan Gallagher ... Kathleen


Shane in Heather se spoznata v porodnišnici in hitro postaneta prijateljici.
Vendar se njun odnos sprevrže v nevarno in morilsko razmerje, ko se ena od njiju
prepusti privlačnosti čednega fanta svoje nove znanke. Posneto po resnični zgodbi.

Shane Riley (Katrina Bowden) in Heather Thomas (Olivia Crocicchia) sta se spoznali
v porodnišnici, kjer sta rodili, ter hitro postali prijateljici. Dve leti pozneje
bodo eno od njiju našli surovo umorjeno. Mladi materi sta postali nerazdružljivi;
Shane si je želela pustiti svoj pečat v svetu, medtem ko se je Heather borila
s hudo duševno motnjo. Sprva podpirata druga drugo, a njuno prijateljstvo kmalu
naleti na čeri. Potem ko se izjalovi neka denarna investicija, vzame Shane stvari
v svoje roke, da bi na hitro kaj zaslužila. Heather se osredotoča na grenak pravni
boj za skrbništvo svoje hčere, vendar se ne more upreti nevarni privlačnosti
Shaninega čednega fanta. Obe ženski bosta morali sprejeti težko odločitev: rešiti
lastno družino ali žrtvovati najboljšo prijateljico.

Po resnični zgodbi posneti film prinaša divjo, surovo, čustveno intenzivno ter
nepopisno napeto tekmo s časom, v kateri bodo gledalci lahko le ugibali, katera
od obeh prijateljic bo končala kot žrtev in katera se bo izkazala kot neusmiljena
morilka.




50 odtenkov njive - Bostjan Gorenc, Pizama TvRip 576p H264.avi

Klikni za povečavo!
05-01-2017 14:06 naložil Ziva
Sejalci: 0 / Odjemalci: 0 / Velikost: 380.96 MB / Dokončani: 13
Prenesi torrent Poročaj torrent Opis torrenta NFO
Zvrst: Komedija
Kategorija: FILMI > TVRip




Tole je HDTVRip, toda posneto je s 720p kamerami....
Pižama pa mi je enako lep tudi na 576p z 10x manjšim bitrate.

General
Format : AVI
Format/Info : Audio Video Interleave
File size : 381 MiB
Duration : 1 h 2 min
Overall bit rate : 853 kb/s

Video
ID : 0
Format : AVC
Format/Info : Advanced Video Codec
Format profile : High@L4.1
Format settings, CABAC : Yes
Format settings, ReFrames : 4 frames
Codec ID : H264
Duration : 1 h 2 min
Bit rate : 787 kb/s
Width : 1 024 pixels
Height : 576 pixels
Display aspect ratio : 16:9
Frame rate : 25.000 FPS
Color space : YUV
Chroma subsampling : 4:2:0
Bit depth : 8 bits
Scan type : Progressive
Bits/(Pixel*Frame) : 0.053
Stream size : 352 MiB (92%)
Writing library : x264 core 125 r2200bm 999b753

Audio
ID : 1
Format : MPEG Audio
Format version : Version 2
Format profile : Layer 3
Mode : Joint stereo
Mode extension : Intensity Stereo + MS Stereo
Codec ID : 55
Codec ID/Hint : MP3
Duration : 1 h 2 min
Bit rate mode : Constant
Bit rate : 56.0 kb/s
Channel(s) : 2 channels
Sampling rate : 22.05 kHz
Compression mode : Lossy
Stream size : 24.9 MiB (7%)
Alignment : Split accross interleaves
Interleave, duration : 40 ms (1.00 video frame)
Interleave, preload duration : 502 ms


50 odtenkov njive - Bostjan Gorenc, Pizama TvRip 576p H264


StandUp se zdi,, ko 50 načinov neopaznega hujšanja pred publiko.
Obilica njegovih starih štosov.
-----------------------------------------------------------------------------------
"Med nabiranjem kilometrine tako v popularnih kot tudi v intelektualnih sferah je komik naletel na mnoštvo stičnih točk med popularno umetnostjo, groteskno politiko in večno priljubljenimi najnižjimi strastmi v nas, zaradi česar uspe v samostojni predstavi približati zahtevnejši humor sleherniku, slehernikove zablode pa narediti za zablode vseh zahtevnejših gledalcev oz. poslušalcev. In ob tem ne izpade zatežen - kar je uspeh že samo po sebi."
- Žiga Valetič, Pogledi






Duell.der.Bruder.2016.SLOSubs.TVRip.XviD-metalcamp

Klikni za povečavo!
13-12-2016 19:51 naložil Ziva
Sejalci: 0 / Odjemalci: 0 / Velikost: 2.11 GB / Dokončani: 11
Prenesi torrent Poročaj torrent Opis torrenta NFO
Kategorija: FILMI > TVRip



Naziv: Duell.der.Bruder.2016.SLOSubs.TVRip.XviD-metalcamp
Source: DVB-T (Cinemax)
Leto izida .........: 2016
Velikost ...........: 2,10 GB
Dolžina ............: 116 Minut
Video ...............: 2399 Kbps | 720x400 | 25 fps
Zvok .................: Dolby Digital AC3 2.0 @ 192 Kbps
Kodek.................: XviD
Zvrst………….: Biografski | Zgodovinski | Drama
Država .............: Nemčija
Jezik ................: nemški
Podnapisi .........: Slovenski (RETAiL)
Prevod: Mediatranslations
Priredil: metalcamp
Tehnična obdelava: DrSi

IMDb Info .......: http://www.imdb.com/title/tt5013980/


Režija.........: Vohn Regensburger
Scenarij.......: Vohn Regensburger


Ken Duken ... Adi Dassler
Torben Liebrecht ... Rudi Dassler
Jesse Albert ... Karl
Nadja Becker ... Friedl
Henk Buchholz ...Armin Dassler
David C. Bunners ... Josef Waitzer
Merle Collet ... Erika
Alexander Cudreasov ... Ferenc Puskás
Lars Doppler ... Bürgermeister Herzogenaurach
Christoph Gareisen ... Sepp Herberger
Annina Hellenthal ... Inge


Po resnični zgodbi med letoma 1924 in 1954 posneti film spremlja življenje,
delo in razdor nemških bratov Adolfa in Rudolfa Dasslerja, ki sta ustanovila
poslovna imperija športnih rekvizitov Adidas in Puma.

Sveta športa si ni mogoče predstavljati brez bratov Dassler. V majhnem nemškem mestu
sta živela Adolf "Adi" Dassler in njegov brat Rudolf, sila različna po značaju in
tako rekoč tudi vsem drugem. Edina stvar, glede katere sta se strinjala, je bilo njuno
življenjsko poslanstvo, da bi izdelala popolno športno obuvalo. Brata se idealno
dopolnjujeta, saj je Adi domiselni izumitelj, Rudi pa rojeni poslovnež – a kaj,
ko imata skupno tudi neko slabost: ženske. Ljubosumje se vname, ko Adijeva iznajdljiva
soproga sklene delati v podjetju, medtem ko se Rudi oklepa tradicije. Nesporazumi
vodijo v spor in ta naposled privede v propad podjetja. Brata se razideta in postaneta
tekmeca.





A.Remarkable.Life.2016.SLOSubs.TVRip.XviD-metalcamp

Klikni za povečavo!
10-12-2016 20:20 naložil Ziva
Sejalci: 0 / Odjemalci: 0 / Velikost: 1.71 GB / Dokončani: 12
Prenesi torrent Poročaj torrent Opis torrenta NFO
Kategorija: FILMI > TVRip



Naziv: A.Remarkable.Life.2016.SLOSubs.TVRip.XviD-metalcamp
Source: DVB-T (Cinemax)
Leto izida .........: 2016
Velikost ...........: 1,70 GB
Dolžina ............: 92 Minut
Video ...............: 2465 Kbps | 720x304 | 25 fps
Zvok .................: Dolby Digital AC3 2.0 @ 192 Kbps
Kodek.................: XviD
Zvrst………….: Drama | Glasbeni | Romantični
Država .............: ZDA
Jezik ................: Angleški
Podnapisi .........: Slovenski (RETAiL)
Prevod: Mediatranslations
Priredil: metalcamp
Tehnična obdelava: DrSi
IMDb Info .......: http://www.imdb.com/title/tt2172402/


Režija.........: Vohn Regensburger
Scenarij.......: Vohn Regensburger


Chris Bruno ... Lenny
Marie Avgeropoulos ... Chelsea
Daphne Zuniga ... Tracy
Mark Margolis ... Landon
Dylan Bruno ... Max
John O'Hurley ... Father David
Helen Slater ... Iris
Jack Horan ... Isaac
Eric Roberts ... Jack
Sean McNabb ... Fang


Po tem, ko je njegovega popolnega življenja konec, je Lenny prisiljen živeti
pri očetu. Med delom v njegovi zastavljalnici spozna mlado n svobodomiselno
Chelseo; ta mu pomaga, da se znebi preteklosti in zaživi na novo.

Lenny Babbitt je imel na videz popolno življenje: čedno ženo Tracy, ljubeč odnos
z avtističnim sinom Isaacom ter obetavno kariero novinarja pri denverskem časniku.
Idealna podoba se zruši v prah, ko ga v službi odpustijo, sinovo stanje se poslabša,
soprogo pa zaloti v postelji z drugo žensko. Ker nima kam, se je prisiljen preseliti
k očetu in razmisliti o svojem propadlem življenju. Dela v očetovi zastavljalnici
in nekoč tam spozna mlado, odločno in svobodomiselno Chelseo, s pomočjo katere se
postopno znebi preteklosti in na novo odkrije veselje v sebi. Zdaj se mora Lenny
odločiti, ali naj se oklepa preteklosti ali pa naj izkoristi novo priložnost za srečo.


Happy.Face.Killer.2014.SLOSubs.TVRip.XviD-ugorazd

Klikni za povečavo!
19-10-2016 12:35 naložil Ziva
Sejalci: 0 / Odjemalci: 0 / Velikost: 1.41 GB / Dokončani: 6
Prenesi torrent Poročaj torrent Opis torrenta NFO
Zvrst: Drama | Kriminalka
Kategorija: FILMI > TVRip



Vir..............: TVRip HBO
Velikost.........: 1,40 GB
Leto.............: 2014
Dolžina..........: 83 min.
Video............: 2 042 Kbps | 720x384 | 25 fps
Audio............: Dolby Digital AC3 2.0 384 Kbps
Kodek............: XviD
Jezik............: Angleški
Podnapisi........: Slovenski (RETAiL)
Prevod...........: MEDIATRANSLATIONS
Encoder..........: ugorazd
Info Link........: http://www.imdb.com/title/tt3320114/

Režija...........: Rick Bota
Scenarij.........: Richard Christian Matheson
Produkcija.......: Front Street Pictures, HBO Polska, Happy Face Productions
Žanr.............: kriminalka, drama
Država...........: Kanada | ZDA


David Arquette...Keith Hunter Jesperson
Gloria Reuben...Melinda Gand
Daryl Shuttleworth...Cotton
Stefanie von Pfetten...Diane Loftin
Melissa M. Montgomery...Felicia Boones
Emily Haine...Sissy Peyton
Jordana Largy...Candy
Josh Blacker...Peter


Resnična zgodba spremlja voznika tovornjaka, ki med službeno potjo v nekaj letih po vsej državi ubije več žensk. Kot izkrivljeno izpoved na kraju zločina vsakokrat pusti skrivnostno priznanje v obliki smeška.
Zgodba, ki so jo navdihnili resnični dogodki, spremlja lov in naposled prijetje ameriškega serijskega morilca Keitha Hunterja Jespersona. Voznik velikega tovornjaka s propadlim zakonom, ki je nekoč želel postati policist, je svojo prvo žrtev zadavil po prepiru, ki se je vnel med njima. Še istega dne se je vrnil za volan svojega vozila in v naslednjih petih letih je med službenimi potmi po vsej državi umoril še najmanj osem drugih žensk. Ko neka ženska lažno prizna, da sta z njenim fantom odgovorna za enega od njegovih umorov, ga to razburi in začne se norčevati iz policijskih preiskovalcev ter oblasti – novinarjem pošilja srhljiva pisma, na zidovih avtocestnih postajališč pa pušča pisna priznanja o tem, kako je užival pri umorih. Svoja skrivnostna sporočila podpiše z znakom nasmejanega obraza in si v medijih tako prisluži zloglasni vzdevek "morilec s smeškom".





Pikovaya.dama.Chyornyy.obryad.2015.SLOSubs.TVRip.XviD-metalcamp

Klikni za povečavo!
13-07-2016 11:32 naložil Ziva
Sejalci: 0 / Odjemalci: 0 / Velikost: 1.6 GB / Dokončani: 9
Prenesi torrent Poročaj torrent Opis torrenta NFO
Zvrst: Grozljivka
Kategorija: FILMI > TVRip



Naziv: Pikovaya.dama.Chyornyy.obryad.2015.SLOSubs.TVRip.XviD-metalcamp
Source: DVB-T (TV 1000)
Leto izida .........: 2015
Velikost ...........: 1,60 GB
Dolžina ............: 89 Minut
Video ...............: 2375 Kbps | 720x384 | 25 fps
Zvok .................: Dolby Digital AC3 2.0 @ 192 Kbps
Kodek.................: XviD
Zvrst………….: Grozljivka
Država .............: Rusija
Jezik ................: Ruski
Podnapisi .........: Slovenski (RETAiL)
Prevod: Polona Mertelj
Tehnična obdelava: metalcamp


IMDb Info .......: http://www.imdb.com/title/tt4901756/

Režija.....: Svyatoslav Podgayevskiy


Alina Babak ... Anna
Valeriya Dmitrieva ... Katya
Igor Khripunov ... Father
Evgeniya Loza ... Mother
Sergey Pokhodaev ... Sergey
Valentin Sadiki ... Matvey
Vladimir Seleznyov ... Exorcist


Ljudje že od nekdaj verjamejo, da je lahko ogledalo prehod v svet mrtvih.

Eden najstarejših mističnih obredov je klicanje pikove dame. Štirje najstniki se odločijo, da bodo za šalo priklicali pikovo damo, pri tem pa se ne zavedajo, na kakšne grozote bodo obsodili sebe in svoje bližnje. Maščevalni duh ne bo
odnehal, dokler ne dobi njihovih duš.



Love.Under.the.Stars.2015.SLOSubs.TVRipXviD-ugorazd

Klikni za povečavo!
01-04-2016 15:05 naložil Ziva
Sejalci: 0 / Odjemalci: 0 / Velikost: 1.27 GB / Dokončani: 7
Prenesi torrent Poročaj torrent Opis torrenta NFO
Kategorija: FILMI > TVRip



Naziv.......: Love.Under.the.Stars.2015.SLOSubs.TVRip.XviD-ugorazd
Velikost.......: 1,27 GB
Dolžina.......: 83 min.
Leto.......: 2015
Video.......: 1815 Kbps / 720x400 / 25 fps / XviD
Zvok.......: AC3 5.1 384 Kbps
Žanr......: Romantična Komedija
Država.......: Kanada
Jezik.......: Angleški
Podnapisi.........: Slovenski RETAiL
Prevod......: MEDIATRANSLATIONS
Encoder......: ugorazd

IMDb http://www.imdb.com/title/tt4658578/
Režija.....: Terry Ingram
Scenarij......: Erik Patterson, Jessica Scott
Produkcija......: Two 4 The Money Media


Ashley Newbrough...Becca
Barry Bostwick...Walt
Wes Brown...Nate
Jessica Harmon...Amy
Jaeda Lily Miller...Emily
Juliana Monk...Jen
Blythe Morrison...Margaret
Qaeeza Ramji...Alicia
Chelan Simmons...Amber
Tom Tasse...Chuck


Diplomantka Becca se nepričakovano spoprijatelji z Emily, dekletom, ki je nedavno ostala brez matere. Ko se med Becco in Emilyjinim očetom vname ljubezen, se morata naučiti uravnotežiti svoj odnos ter družinske obveznosti.
Po srcu še vedno mlada diplomantka Becca se nepričakovano spoprijatelji z Emily, sramežljivim dekletom, ki je nedavno ostala brez matere. Vsakokrat, ko se družita in pogovarjata pod budnim očesom Emilyjinega očeta Nata, z Beccino pomočjo Emily postopoma razkriva svoja čustva in se uči žalovanja, v zameno pa svojo starejšo prijateljico uči odgovornosti odraslih. A ko se med Becco in Emilyjinim očetom nenadejano vname ljubezen, se morata naučiti uravnotežiti svoj odnos, družinske obveznosti očeta do svoje hčere in odgovornost Becce, da bi dokončala svoj študij.







Ena.zlahtna.storija.S03.E13-16.720p.IPTVRip.x264-s1ck

Klikni za povečavo!
25-03-2016 12:56 naložil Ziva
Sejalci: 0 / Odjemalci: 0 / Velikost: 3.99 GB / Dokončani: 14
Prenesi torrent Poročaj torrent Opis torrenta NFO
Kategorija: FILMI > TVRip



Ena žlahtna štorija (2016)
Slovenska romantična komedija
Tretja sezona, 13. - 16. epizode
Naziv..........: Ena.zlahtna.storija.S03.E13-16.720p.IPTVRip.x264-s1ck
Velikost.......: 4x ~ 1 GB
Dolžina........: 4x ~ 45 minut
Leto...........: 2015
Kodek..........: x264
Slika..........: 1 280 x 720 | 2 800 kbps | 25 fps
Zvok...........: AAC | 2
Jezik..........: Slovenski
Žanr...........: Komedija | Romantična
Podnapisi......: n/a
Encoder........: midade1 (s1ck)

Režija.........: Vojko Anzeljc, Tomaž Grubar, Sašo Kolari


- Ranko Babič,
- Vojko Belšak,
- Maja Blagovič,
- Ana Dolinar,
- Primož Forte,
- Kristijan Guček,
- Matjaž Javšnik,
- Vesna Jevnikar,
- Franko Korošec,
- Alenka Kozolc
- Medea Novak,
- Vesna Pernarčič,
- Ajda Smrekar,
- Janez Starina,
- Milan Vodopivec,
- Stane Tomazin.


Ena žlahtna štorija se odvija na primorskem, na prostranem posestvu, vrednem več milijonov evrov. Posestvo je v družini Špacapan že od leta 1789, lastnik posestva je Berto Špacan, vdovec, ki ima štiri hčere. Hčere se na posestvo in družinsko tradicijo Špacapanovih požvižgajo in so v času šolanja izkoristile priložnost, da so zbežale iz svojega rojstnega kraja ter postale mestne dekline. Pri tem je imela prste vmes tudi njihova mama Tonka – stroga in nepopustljiva Gorenjka, ki je vse svoje življenje družini poveljevala kot general.





Ena.zlahtna.storija.S03.E09-12.720p.IPTVRip.x264-s1ck

Klikni za povečavo!
19-03-2016 15:53 naložil Ziva
Sejalci: 0 / Odjemalci: 0 / Velikost: 3.99 GB / Dokončani: 8
Prenesi torrent Poročaj torrent Opis torrenta NFO
Kategorija: FILMI > TVRip



Ena žlahtna štorija (2016)
Slovenska romantična komedija
Tretja sezona, 09. - 12. epizode
Naziv..........: Ena.zlahtna.storija.S03.E09-12.720p.IPTVRip.x264-s1ck
Velikost.......: 4x ~ 1 GB
Dolžina........: 4x ~ 45 minut
Leto...........: 2015
Kodek..........: x264
Slika..........: 1 280 x 720 | 2 800 kbps | 25 fps
Zvok...........: AAC | 2
Jezik..........: Slovenski
Žanr...........: Komedija | Romantična
Podnapisi......: n/a
Encoder........: midade1 (s1ck)

Režija.........: Vojko Anzeljc, Tomaž Grubar, Sašo Kolari


- Ranko Babič,
- Vojko Belšak,
- Maja Blagovič,
- Ana Dolinar,
- Primož Forte,
- Kristijan Guček,
- Matjaž Javšnik,
- Vesna Jevnikar,
- Franko Korošec,
- Alenka Kozolc
- Medea Novak,
- Vesna Pernarčič,
- Ajda Smrekar,
- Janez Starina,
- Milan Vodopivec,
- Stane Tomazin.


Ena žlahtna štorija se odvija na primorskem, na prostranem posestvu, vrednem več milijonov evrov. Posestvo je v družini Špacapan že od leta 1789, lastnik posestva je Berto Špacan, vdovec, ki ima štiri hčere. Hčere se na posestvo in družinsko tradicijo Špacapanovih požvižgajo in so v času šolanja izkoristile priložnost, da so zbežale iz svojega rojstnega kraja ter postale mestne dekline. Pri tem je imela prste vmes tudi njihova mama Tonka – stroga in nepopustljiva Gorenjka, ki je vse svoje življenje družini poveljevala kot general.




Ena.zlahtna.storija.S03.E05-08.720p.IPTVRip.x264-s1ck

Klikni za povečavo!
19-03-2016 15:50 naložil Ziva
Sejalci: 0 / Odjemalci: 0 / Velikost: 3.79 GB / Dokončani: 10
Prenesi torrent Poročaj torrent Opis torrenta NFO
Kategorija: FILMI > TVRip



Ena žlahtna štorija (2016)
Slovenska romantična komedija
Tretja sezona, 05. - 08. epizode
Naziv..........: Ena.zlahtna.storija.S03.E05-08.720p.IPTVRip.x264-s1ck
Velikost.......: 4x ~ 1 GB
Dolžina........: 4x ~ 45 minut
Leto...........: 2015
Kodek..........: x264
Slika..........: 1 280 x 720 | 2 800 kbps | 25 fps
Zvok...........: AAC | 2
Jezik..........: Slovenski
Žanr...........: Komedija | Romantična
Podnapisi......: n/a
Encoder........: midade1 (s1ck)

Režija.........: Vojko Anzeljc, Tomaž Grubar, Sašo Kolari


- Ranko Babič,
- Vojko Belšak,
- Maja Blagovič,
- Ana Dolinar,
- Primož Forte,
- Kristijan Guček,
- Matjaž Javšnik,
- Vesna Jevnikar,
- Franko Korošec,
- Alenka Kozolc
- Medea Novak,
- Vesna Pernarčič,
- Ajda Smrekar,
- Janez Starina,
- Milan Vodopivec,
- Stane Tomazin.


Ena žlahtna štorija se odvija na primorskem, na prostranem posestvu, vrednem več milijonov evrov. Posestvo je v družini Špacapan že od leta 1789, lastnik posestva je Berto Špacan, vdovec, ki ima štiri hčere. Hčere se na posestvo in družinsko tradicijo Špacapanovih požvižgajo in so v času šolanja izkoristile priložnost, da so zbežale iz svojega rojstnega kraja ter postale mestne dekline. Pri tem je imela prste vmes tudi njihova mama Tonka – stroga in nepopustljiva Gorenjka, ki je vse svoje življenje družini poveljevala kot general.


Ena.zlahtna.storija.S03.E01-04.720p.IPTVRip.x264-s1ck

Klikni za povečavo!
17-03-2016 14:00 naložil Ziva
Sejalci: 0 / Odjemalci: 0 / Velikost: 3.68 GB / Dokončani: 8
Prenesi torrent Poročaj torrent Opis torrenta NFO
Kategorija: FILMI > TVRip



Ena žlahtna štorija (2016)
Slovenska romantična komedija
Tretja sezona, 01. - 04. epizode
Naziv..........: Ena.zlahtna.storija.S03.E01-04.720p.IPTVRip.x264-s1ck
Velikost.......: 4x ~ 1 GB
Dolžina........: 4x ~ 45 minut
Leto...........: 2015
Kodek..........: x264
Slika..........: 1 280 x 720 | 2 800 kbps | 25 fps
Zvok...........: AAC | 2
Jezik..........: Slovenski
Žanr...........: Komedija | Romantična
Podnapisi......: n/a
Encoder........: midade1 (s1ck)

Režija.........: Vojko Anzeljc, Tomaž Grubar, Sašo Kolari


- Ranko Babič,
- Vojko Belšak,
- Maja Blagovič,
- Ana Dolinar,
- Primož Forte,
- Kristijan Guček,
- Matjaž Javšnik,
- Vesna Jevnikar,
- Franko Korošec,
- Alenka Kozolc
- Medea Novak,
- Vesna Pernarčič,
- Ajda Smrekar,
- Janez Starina,
- Milan Vodopivec,
- Stane Tomazin.


Ena žlahtna štorija se odvija na primorskem, na prostranem posestvu, vrednem več milijonov evrov. Posestvo je v družini Špacapan že od leta 1789, lastnik posestva je Berto Špacan, vdovec, ki ima štiri hčere. Hčere se na posestvo in družinsko tradicijo Špacapanovih požvižgajo in so v času šolanja izkoristile priložnost, da so zbežale iz svojega rojstnega kraja ter postale mestne dekline. Pri tem je imela prste vmes tudi njihova mama Tonka – stroga in nepopustljiva Gorenjka, ki je vse svoje življenje družini poveljevala kot general.


Africa SAHARA 2013.avi

Klikni za povečavo!
15-12-2015 13:33 naložil Spartakus
Sejalci: 1 / Odjemalci: 0 / Velikost: 571.95 MB / Dokončani: 9
Prenesi torrent Poročaj torrent Opis torrenta NFO
Zvrst: Dokumentarni
Kategorija: FILMI > TVRip



Video
ID 0
Format AVC
FormatInfo Advanced Video Codec
Format profile High@L5.1
Format settings, CABAC Yes
Format settings, ReFrames 4 frames
Codec ID H264
Duration 48mn 33s
Bit rate 1 581 Kbps
Width 1 024 pixels
Height 576 pixels
Display aspect ratio 169
Frame rate 25.000 fps
Color space YUV
Chroma subsampling 420
Bit depth 8 bits
Scan type Progressive
Bits(PixelFrame) 0.107
Stream size 549 MiB (96%)
Writing library x264 core 130 r2274bm c832fe9
Encoding settings cabac=1 ref=3 deblock=100

Audio
ID 1
Format MPEG Audio
Format version Version 2
Format profile Layer 3
Mode Joint stereo
Mode extension Intensity Stereo + MS Stereo
Codec ID 55
Codec IDHint MP3
Duration 48mn 33s
Bit rate mode Constant
Bit rate 56.0 Kbps
Channel(s) 2 channels
Sampling rate 22.05 KHz
Compression mode Lossy
Stream size 19.4 MiB (3%)
Alignment Split accross interleaves
Interleave, duration 40 ms (1.00 video frame)
Interleave, preload duration 502 ms
Slosinhro


Sahara je začela nastajati pred dobrimi 6000 leti, ko se je zemeljska
os rahlo premaknila. Glavnina dežja se je premaknila južneje in prejšnja
savana je postajala puščava. Živa bitja enostavno niso imela časa za
prilagoditev. Ostali so najmočnejši.
Srebrne mravlje zdržijo do 54*c telesne temperature, a tudi one imajo
na voljo le 10 minut, da najdejo hrano, ko odidejo plenilci...

V severni Afriki leži največja puščava na svetu. Sahara je velika kot ZDA, zaradi žgočega sonca je tu najteže preživeti na planetu. Peščeni viharji sežejo na tisoče km daleč, dežuje pa komaj vsakih 50 let. A ni bilo vedno tako. To je zgodba o apokalipsi in o tem, kako v težkih časih nekateri zbežijo, drugi ostanejo, zelo redki pa izkoristijo priložnost in ustvarijo nov red.
Serija predstavi gorovje Atlas, Rt dobre nade, džunglo Konga, obale Atlantskega oceana, pragozd in puščave.
Igrajo: David Attenborough, Simon Blakeney, James Aldred
Znan.obraz.ima.svoj.glas.TvRip.H264

Klikni za povečavo!
18-05-2015 09:55 naložil System
Sejalci: 0 / Odjemalci: 0 / Velikost: 1.32 GB / Dokončani: 3
Prenesi torrent Poročaj torrent Opis torrenta NFO
Zvrst: Družinski
Kategorija: FILMI > TVRip
Anonimen nalagalec

Finalna oddaja - zmagal en Bu.
Prav prijetno vzdušje, ko nebi bilo reklam, kot toče.
Tukaj reklame izrezane.



General
Complete name :20150517 Znan obraz ima svoj glas.avi
Format : AVI
Format/Info : Audio Video Interleave
File size : 1.32 GiB
Duration : 2h 11mn
Overall bit rate : 1 441 Kbps
Writing library : VirtualDub build 35390/release

Video
ID : 0
Format : AVC
Format/Info : Advanced Video Codec
Format profile : High@L5.1
Format settings, CABAC : Yes
Format settings, ReFrames : 3 frames
Codec ID : H264
Duration : 2h 11mn
Bit rate : 1 303 Kbps
Width : 768 pixels
Height : 432 pixels
Display aspect ratio : 16:9
Frame rate : 25.000 fps
Color space : YUV
Chroma subsampling : 4:2:0
Bit depth : 8 bits
Scan type : Progressive
Bits/(Pixel*Frame) : 0.157
Stream size : 1.19 GiB (90%)
Writing library : x264 core 130 r2274bm c832fe9
Encoding settings : cabac=1 / ref=3 / deblock=1:-1:-1

Audio
ID : 1
Format : MPEG Audio
Format version : Version 1
Format profile : Layer 3
Mode : Joint stereo
Mode extension : MS Stereo
Codec ID : 55
Codec ID/Hint : MP3
Duration : 2h 11mn
Bit rate mode : Constant
Bit rate : 128 Kbps
Channel(s) : 2 channels
Sampling rate : 44.1 KHz
Compression mode : Lossy
Stream size : 120 MiB (9%)
Alignment : Split accross interleaves
Interleave, duration : 40 ms (1.00 video frame)
Interleave, preload duration : 500 ms
Writing library : LAME3.98.2ŞŞŞŞŞŞŞŞŞŞ

Vrtickanje.17.maj.2015.TvRip.H264

Klikni za povečavo!
17-05-2015 19:49 naložil System
Sejalci: 0 / Odjemalci: 0 / Velikost: 181.27 MB / Dokončani: 4
Prenesi torrent Poročaj torrent Opis torrenta NFO
Zvrst: Dokumentarni
Kategorija: FILMI > TVRip
Anonimen nalagalec

*Redkvice poznali že pred 5000 leti -sajenje redkvic.
Redkvice izredno zdravilne za prebavni trakt zaradi žveplovih spojin.
-----------------------------------------
*Sajenje/presajanje bučnic.




General
Complete name : 20150517 - Vrtičkanje.avi
Format : AVI
Format/Info : Audio Video Interleave
File size : 181 MiB
Duration : 21mn 38s
Overall bit rate : 1 171 Kbps
Writing library : VirtualDub build 35390/release

Video
ID : 0
Format : AVC
Format/Info : Advanced Video Codec
Format profile : High@L5.1
Format settings, CABAC : Yes
Format settings, ReFrames : 3 frames
Codec ID : H264
Duration : 21mn 38s
Bit rate : 1 105 Kbps
Width : 768 pixels
Height : 432 pixels
Display aspect ratio : 16:9
Frame rate : 25.000 fps
Color space : YUV
Chroma subsampling : 4:2:0
Bit depth : 8 bits
Scan type : Progressive
Bits/(Pixel*Frame) : 0.133
Stream size : 171 MiB (94%)
Writing library : x264 core 130 r2274bm c832fe9
Encoding settings : cabac=1 / ref=3 / deblock=1:-1:-1

Audio
ID : 1
Format : MPEG Audio
Format version : Version 2
Format profile : Layer 3
Mode : Joint stereo
Mode extension : Intensity Stereo + MS Stereo
Codec ID : 55
Codec ID/Hint : MP3
Duration : 21mn 38s
Bit rate mode : Constant
Bit rate : 56.0 Kbps
Channel(s) : 2 channels
Sampling rate : 22.05 KHz
Compression mode : Lossy
Stream size : 8.63 MiB (5%)
Alignment : Split accross interleaves
Interleave, duration : 40 ms (1.00 video frame)
Interleave, preload duration : 502 ms