A
B
C
D
E
F
G
H
I
J
K
L
M
N
O
P
Q
R
S
T
U
V
W
X
Y
Z
0-9
Velo.Misto.S01.1980.HDTV.x264-R77

Klikni za povečavo!
03-04-2021 15:11 naložil rado77
Sejalci: 3 / Odjemalci: 0 / Velikost: 9.05 GB / Dokončani: 4
Prenesi torrent Poročaj torrent Opis torrenta
Kategorija: FILMI > TV - Serija

Velo.Misto.S01.1980.HDTV.x264-R77


Velo misto 1980/81


Ustvarjalec:Miljenko Smoje
Jezik/i:Čakavščina , srbohrvaščina , italijanščina , nemščina
Režiser je bil Joakim Marušić, glasbo je napisal Pero Gotovac


O SERIJI:

Osrednji lik je lastnik mestne brivnice Meštar (Boris Dvornik), okoli katere je mreža odnosov drugih protagonistov, kot sta Duje (Mustafa Nadarević), nogometni pionir v Splitu in ustanovitelj Hajduka, in njegovo podjetje "praški študentje" "Pegula (Mladen Barbarić) in Tonči (Milan Štrljić), ter njihovi ženi Violeta (Zdravka Krstulović) in Kate (Mira Furlan).
Spomnimo se tudi proletarskega Ferata (Aljoša Vučković), njegove Marijete (Vlasta Knezović) in sina Papundeka (Duško Valentić), pikaferja (Vjenceslav Kapural) in Škovčana (Špiro Guberina), ki je kot Strikan skupaj s svojim Netjakom (Ivo Gregurević) je ustvaril nepozaben par.
Serija je mešanica komedije in drame, zanjo pa je značilen učinkovito dočaran mediteranski ambient, pristen jezik, bogate kostume in scenografija ter presenetljivi igralski dosežki. Serija je med gledalci izjemno priljubljena že od samega začetka predvajanja, igralci, ki v njej nastopajo, pa so postali resnične televizijske zvezde.


IGRAJO:
Boris Dvornik...Mestar
Zdravka Krstulović...Violeta
Mustafa Nadarević...Duje
Špiro Guberina...Jozo
Mate Ergović...Pucanstvo
Ines Fančović...Mare
Mladen Barbarić...Pegula
Mira Furlan...Kate
Vlasta Knezović...Marjeta
Uglješa Kojadinović...Professor
Milan Štrljić...Tonci
Danko Ljuština...Mijo


EPIZODE: 14 epizod
Praški studenti (1910)
Konfužjun (1911)
Leva (1913-1914)
Morija mori (1917-1920)
Kruva i rada! (1920-1922)
Kriza (1926)
Antikrst (1927)
Simpatizer (1928)
Nikad više kompletni (1932-1935)
No pasaran (1936-1937)
Poveli smo, Meštre (1937-1939)
Okupacija (1941)
Kapitulacija (1942-1943)
Ispunjeno obećanje (1944-1947)


Tehnične specifikacije:

Popolno ime: Velo.Misto.S01.1980.HDTV.x264-R77
Oblika / informacije: Preplet avdio video
Velikost datoteke: 687 MiB
Trajanje: 1 h 20 min
Skupna bitna hitrost: 1 192 kb / s
Knjižnica za pisanje: VirtualDub build 13870 / release

Video
ID: 0
Oblika: MPEG-4 Visual
Nastavitve formata: BVOP
Nastavitve formata, BVOP: Da
Nastavitve formata, QPel: Ne
Nastavitve formata, GMC: Brez bojnih točk
Nastavitve formata, matrica: privzeto (H.263)
ID kodeka: DX50
ID kodeka / namig: DivX 5
Trajanje: 1 h 20 min
Bitna hitrost: 1 022 kb / s
Širina: 640 slikovnih pik
Višina: 480 slikovnih pik
Razmerje zaslona: 4: 3
Hitrost sličic: 25.000 FPS
Barvni prostor: YUV
Podvzorčenje kroma: 4: 2: 0
Globina bitov: 8 bitov
Vrsta optičnega branja: progresivno
Način stiskanja: Lossy
Bit / / (Pixel * Frame): 0,133
Velikost toka: 589 MiB (86%)
Knjižnica za pisanje: DivX 5.0.2 (UTC 16.5.2002)

Zvok
ID: 1
Oblika: MPEG Audio
Različica formata: različica 1
Profil oblike: 3. plast
ID kodeka: 55
ID kodeka / namig: MP3
Trajanje: 1 h 20 min
Način bitne hitrosti: konstantno
Bitna hitrost: 160 kb / s
Kanali: 2 kanala
Hitrost vzorčenja: 44,1 kHz
Način stiskanja: Lossy
Zamuda glede na video: 19 ms
Velikost toka: 92,2 MiB (13%)
Poravnava: razdeljena čez preplete
Preplet, trajanje: 40 ms (1,00 video okvir)
Preplet, trajanje prednalaganja: 499 ms


Uživajte in ne pozabite na sejanje!
Salas.u.malom.ritu..E01-13.HDTV.1080p.x264.H264-by Perikle

Klikni za povečavo!
23-03-2021 15:10 naložil rado77
Sejalci: 2 / Odjemalci: 0 / Velikost: 12.71 GB / Dokončani: 3
Prenesi torrent Poročaj torrent Opis torrenta
Zvrst: Drama | Vojni
Kategorija: FILMI > TV - Serija

Salas.u.malom.ritu..E01-13.HDTV.1080p.x264.H264-by Perikle



Salaš u Malom Ritu 1976

TV Serija - digitalizirana 1/13

Kmetija v Malem Ritu 1976


Žanr: drama, vojna
Založnik: Televizija Beograd
Scenarij: Arsen Diklić, Branko Bauer, Borislav Gvojić
Režija: Branko Bauer
Igrajo: Slavko Štimac, Miodrag Radovanović, Slobodan Perović, Miroljub Leso, Svetislav Gončič, Milivoje Tomić, Pavle Vuisic, Renata Ulmanski
Država: SFRJ
Število epizod: 13


O seriji:

Kmetija v Malem Ritu je jugoslovanska televizijska serija, ki jo je leta 1975 producirala Televizija Beograd. Premiera je bila od 29. februarja do 23. maja 1976. Serija spremlja dogodivščine dečka Milana Maljeviča (Slavko Štimac) med drugo svetovno vojno. Scenarij je po istoimenski knjigi Arsena Diklića napisal Branko Bauer. Serija je nastala iz istoimenskega filma iz leta 1976, film Zimovanje v Jakobsfeldu pa je bil montiran iz delov serije.
Zaplet serije se odvija v izmišljeni banatski vasici Mali Rit med drugo svetovno vojno. Mali Rit je na videz mirna banatska vas, katere prebivalci se ne upirajo nemški okupaciji. Dejansko se partizani vzdržijo napada na vas, ki jo uporabljajo kot tajno bazo, da ne bi pritegnili pozornosti Nemcev.

A idilo med okupacijo, ki jo občasno pokvari narednik Ridge, moti dogodek v sosednji vasi, ko so partizani zažgali žito, namenjeno Nemčiji. Manshafts jemljejo talce iz sosednje vasi skozi Mali Rit. Vasa, najboljši prijatelj in sosed Milana Maljeviča, ogorčen, ker se Nemcem ni nihče upiral, je talcem dal vodo, zato ga je Red premagal. Da bi se maščeval za pretepe in ponižanje, se je Vasa odločil zažgati žito, namenjeno pošiljanju v Nemčijo, v upanju, da bodo vojaki, ki so ga pretepli, kaznovani.

Ogenj je v vas pripeljal zvitega in brezobzirnega inšpektorja Shicerja, ki je takoj zasumil, da v vasi pred tem incidentom ni bilo protiokupacijskih akcij. Sicer pa v vasi odkrije mrežo partizanskih ilegalcev, ki jo med drugim sestavljajo gostilničar Paja, vaški britev in Vasin oče. Prepričan, da se je praskal pod površjem, se Shicer odloči, da bo vzel talce (med drugim tudi Milanovega brata Petra in Vasinega očeta), pri čemer mu grozi, da bo vsak dan ustrelil enega talca, dokler ne dobi iskanega odgovora. V strahu za življenje svojega sina in drugih vaščanov Milanova mama v vas pripelje partizane, ki osvojijo nemški garnizon in osvobodijo talce. Milan in Petar odideta s partizani.


Tehnične specifikacije:
Ime datoteke: Salas.u.malom.ritu..E01-13.HDTV.1080p.x264.H264-by Perikle.mp4
Oblika: MP4
Informacije o obliki: QuickTime / MOV
Trajanje: 00: 49: 24.955
Velikost datoteke: 1000,65 MB

Video informacije:
Video kodirnik: h264 (h.264 / avc / mpeg-4 avc / mpeg-4 del 10)
Ločljivost: 1920 * 1080
Širina: 1920
Višina: 1080
Razmerje zaslona: 16: 9
Hitrost sličic: 25 sličic na sekundo
Video bitna hitrost: 2697 kb / s
Barvni prostor: yuv420p (tv

Zvočne informacije:
Dajalnik zvoka: aac (napredno kodiranje zvoka)
Avdio bitna hitrost: 128 kb / s
Hitrost vzorčenja: 48000 Hz
Zvočni kanali: stereo
Jezik: und
Trajanje: 00: 49: 24.933


Želim vam hiter prenos in ne pozabite na sejanje!
Povratak.Otpisanih.S02.HDTVRip-R77

Klikni za povečavo!
21-03-2021 15:08 naložil rado77
Sejalci: 2 / Odjemalci: 0 / Velikost: 6.52 GB / Dokončani: 4
Prenesi torrent Poročaj torrent Opis torrenta
Zvrst: Akcija | Vojni
Kategorija: FILMI > TV - Serija

Povratak.Otpisanih.S02.HDTVRip-R77


Povratak otpisanih (1976)

VRNITEV ODPISANIH


Scenarij: Dragan Marković
Režija: Aleksandar Đorđević
Glasba: Milivoje Marković
Igrajo: Dragan Nikolic, Vojislav Brajovic, Zlata Petkovic, Pavle Vujisic, Aleksandar Bercek, Stevo Zigon, Tanasije Uzunovic, Mira Peic, Goran Sultanovic, Bozidar Savicevic in drugi.
Ideja za to serijo je temeljila na visokih ocenah serije "Odpisani" tako s strani občinstva kot kritikov.

Skupini partizanov, "odpisanih", je med drugim uspelo ujeti kvizlinškega ministra, prodreti v Beograd, da bi opravljala nevarne in občutljive naloge, kar jim je uspelo.
Zadnji dnevi vladavine Nemcev in Nedića. V pripravi je prevoz na Dunaj. Tu je naš človek "vstavljen".
V obleganem Beogradu ostaja le Krieger, ki še vedno seje smrt s svojega sedeža. Končno mora pobegniti. Preoblečen pride do Donave, a tam ga čaka past.

Vse to si boste ogledali v naslednjih 13 epizodah.

https://i.imgur.com/xBuQuuc.jpg

Tehnične specifikacije:

Ime datoteke: Povratak.Otpisanih.S02.HDTVRip-R77
Oblika: MP4
Informacije o obliki: QuickTime / MOV
Trajanje: 00: 57: 21.765
Velikost datoteke: 492,08 MB

Video informacije:
Video kodirnik: h264 (h.264 / avc / mpeg-4 avc / mpeg-4 del 10)
Ločljivost: 640 * 480
Širina: 640
Višina: 480
Razmerje zaslona: 4: 3
Hitrost sličic: 25 sličic na sekundo
Video bitna hitrost: 1064 kb / s
Barvni prostor: yuv420p

Zvočne informacije:
Dajalnik zvoka: aac (napredno kodiranje zvoka)
Avdio bitna hitrost: 128 kb / s
Hitrost vzorčenja: 44100 Hz
Zvočni kanali: stereo
Jezik: und
Trajanje: 00: 57: 21.690


NE POZABITE NA SEJANJE!

Veliko užitkov!
Otpisani.1974.HDRip.x264.E01-13-R77

Klikni za povečavo!
20-03-2021 09:51 naložil rado77
Sejalci: 3 / Odjemalci: 0 / Velikost: 7.01 GB / Dokončani: 5
Prenesi torrent Poročaj torrent Opis torrenta
Zvrst: Akcija | Drama | Vojni
Kategorija: FILMI > TV - Serija

Otpisani.1974.HDRip.x264.E01-13-R77



ODPISANI

TV Serija 13 epizod


Serija spremlja dogodivščine mladih ilegalcev v okupiranem Beogradu med drugo svetovno vojno . Temelji na istoimenski knjigi Dragana Markoviča.

Serijo je režiral Aleksandar Aca Đorđević , scenarij pa sta napisala Dragan Markovič in Siniša Pavić . Glavni junaki serije so bili takrat mladi igralci - Voja Brajović , Dragan Nikolić , Predrag Miki Manojlović , Čedomir Petrović in Aleksandar Berček , poleg njih pa so večje vloge odigrali tudi igralci - Stevo Žigon , Rade Marković , Dragomir Felba in Vasa Pantelić .
Televizijska serija "Otpisani" temelji na istoimenski knjigi in temelji na kombinaciji izmišljenih in resničnih dogodkov iz časa nezakonitega odpora okupatorju, med okupacijo Beograda med drugo svetovno vojno , od leta 1941 do 1945.

Serija je bila tako kot film zelo gledana in je v celotni Jugoslaviji dosegla kultni status, priljubljena pa je še danes, zato je med vsako ponovitvijo prikazana v udarnem terminu in je zato najbolj gledan program. Eden od razlogov za njegovo priljubljenost je, da v nasprotju s takratnimi filmi in serijami vojne ni prikazal z vidika komunistične partije, temveč z vidika običajnega sveta. Tudi liki iz serije so močno odstopali od stereotipov o komunističnih ilegalcih. Bili so navadni ljudje z družbenega roba, ulični junaki, tihotapci, študentje - z vsemi svojimi človeškimi vrlinami in napakami...

Žanr:akcija, drama, vojni
Scenarist: Dragan Markovič
Režiser: Aca Đorđević
Vloge:
Dragan Nikolic
Vojislav Brajovic
Predrag Manojlovic
Cedomir Petrovic
Vladan Holec
Aleksandar Bercek
Rade Markovic
Stevo Zigon
Vasa Pantelic
Jezik: Srbski
Trajanje: 45 min


Tehnične specifikacije:
Popolno ime: Otpisani.1974.HDRip.x264.E01-13-R77
Profil oblike: osnovni medij
ID kodeka: izom (isom / iso2 / avc1 / mp41)
Velikost datoteke: 402 MiB
Trajanje: 48 min 4 s
Splošni način bitne hitrosti: spremenljivka
Skupna bitna hitrost: 1 169 kb / s
Aplikacija za pisanje: Lavf55.33.100

Video
ID: 1
Oblika: AVC
Format / Info: Napredni video kodek
Profil oblike: Main @ L4
Nastavitve formata: okvirji CABAC / 12 Ref
Nastavitve formata, CABAC: Da
Nastavitve formata, referenčni okviri: 12 sličic
ID kodeka: avc1
ID / informacije kodeka: napredno kodiranje videa
Trajanje: 48 min 4 s
Bitna hitrost: 1 000 kb / s
Širina: 960 slikovnih pik
Višina: 720 slikovnih pik
Razmerje zaslona: 4: 3
Način hitrosti sličic: spremenljiv
Hitrost sličic: 25.000 FPS
Barvni prostor: YUV
Podvzorčenje kroma: 4: 2: 0
Globina bitov: 8 bitov
Vrsta optičnega branja: progresivno
Bit / / (Pixel * Frame): 0,058
Velikost toka: 343 MiB (85%)
Knjižnica za zapis: jedro x264 142 r2479 dd79a61
Barvno območje: omejeno
Barvne barve: BT.709
Značilnosti prenosa: BT.709
Matrični koeficienti: BT.709
Polje za konfiguracijo kodeka: avcC

Zvok
ID: 2
Oblika: AAC LC
Oblika / informacije: Napredni avdio kodek nizke zapletenosti
ID kodeka: mp4a-40-2
Trajanje: 48 min 4 s
Način bitne hitrosti: spremenljiv
Bitna hitrost: 165 kb / s
Največja bitna hitrost: 320 kb / s
Kanali: 2 kanala
Postavitev kanala: L R
Hitrost vzorčenja: 48,0 kHz
Hitrost sličic: 46,875 FPS (1024 SPF)
Način stiskanja: Lossy
Velikost toka: 56,9 MiB (14%)
Privzeto: Da
Nadomestna skupina: 1

VELIKO UŽITKOV!
Klan.S01.WEBRip.1080p.x264.R77

Klikni za povečavo!
17-03-2021 12:32 naložil rado77
Sejalci: 2 / Odjemalci: 1 / Velikost: 6.86 GB / Dokončani: 6
Prenesi torrent Poročaj torrent Opis torrenta
Kategorija: FILMI > TV - Serija

Klan.S01E01.WEBRip.1080p.x264.R77[/size]


Klan 2020

TV Serija


O seriji:

Klan je srbska serija, posneta med letoma 2019 in 2020.

Dvema povprečnima tatovoma se kljub številnim oviram s svojimi brezvestnimi in okrutnimi dejanji uspe povzpeti na sam vrh podzemlja. Umor Tigarja, največjega mafijskega šefa v tem delu Evrope, je srbsko podzemlje stresel na dno. Številni želijo zasesti njegovo mesto, karte so spet razdeljene, vsak si želi svoj kos plena in so pripravljeni storiti vse, da ga osvojijo ... Na robu tega sveta, Shock in Pasha, provincialci in ne preveč uspešni drobni tatovi , šele začenjajo svojo kariero, ki jih bo pripeljala do nepredstavljivih višin.
Sodobna akcijska drama, zasnovana kot globok in doslej neviden vpogled v srce kriminalnih združb in njihove številne zadeve, v besnem ritmu spremlja vzpon dveh drobnih kriminalcev v srbskem podzemlju.


Žanr:triler, komedija
Format:Televizijska serija
Scenario:Boban Skerlić
Režija:Boban Skerlić
Kreativni režiser:Boban Jevtić
Skladatelj:Mate Matišić
Država: Srbija
Lokacija:Beograd
Jezik:srpski
Št. sezona:2
Št. epizoda:8+
Čas trajanja:45 minuta


Produkcija:
Izvršni producent:Snežana van Hauvelingen
Producent:Ivana Miković
Supervizor produkcije: Miško Stevanović
Montažer: Đorđe Marković
Scenografija:Kiril Spaseski
Kinematografija:Maja Radošević


Tehnične specifikacije:

Informacije o datoteki
Ime datoteke: Klan.S01E01.WEBRip.1080p.x264.R77.avi
Oblika: AVI
Informacije o formatu: AVI (avdio video prepleteno)
Trajanje: 00: 50: 56.408
Velikost datoteke: 961,44 MB

Video informacije:
Video kodirnik: mpeg4 (mpeg-4 2. del)
Ločljivost: 1920 * 1080
Širina: 1920
Višina: 1080
Razmerje zaslona: 16: 9
Hitrost sličic: 97 sličic na sekundo
Video bitna hitrost: 2498 kb / s
Barvni prostor: yuv420p

Zvočne informacije:
Audio Encoder: mp3 (mpeg audio layer 3)
Avdio bitna hitrost: 128 kb / s
Hitrost vzorčenja: 48000 Hz
Zvočni kanali: stereo
Jezik: und
Trajanje: 00: 50: 56.309


Uživajte!
Mocvara.2020.S01.1080p.HDTVRip.x264.R77

Klikni za povečavo!
16-03-2021 14:20 naložil System
Sejalci: 4 / Odjemalci: 0 / Velikost: 8.54 GB / Dokončani: 9
Prenesi torrent Poročaj torrent Opis torrenta
Zvrst: Drama | Kriminalka | Triler
Kategorija: FILMI > TV - Serija
Anonimen nalagalec

Mocvara.2020.S01.1080p.HDTVRip.x264.R77


Močvara / 2020

MOČVIRJE

TV Serija / 10 epizod


Režija: Oleg Novkovic
Scenarij: Milena Marković


Igralci: Admir Šehović , Ana Franić , Andrej Miličević , Bojan Zirovic , Bojana Zečević , Boris Isakovič , Boris Milivojević , Branko Vidaković , Damjan Kecojevic , Dejan Dedič , Dejan Tončić , Dubravka Kovjanic , Filip Hajdukovic , Goran Bogdan , Gordana Đokić , Igor Borojević , Iva Milanović , Ivana Vuković , Jana Bjelica , Jasmina Avramovic, Jelena Ilic , Jelena Trkulja , Jovan Belobrkovic , Kristina Jakovljevic , Kristina Radosavljevic , Lina Teodorovic , Ljubisa Milisic , Marko Grabez , Marta Bjelica , Milan Cucilovic , Milana Nikic , Milica Mihajlovic , Milos Djordjevic , Milutin Milosevic , Minja Pekovic , Miona Markovic , Mirka Vlahovič , Nada Sargin , Nenad Gvozdenovič , Nenad Pečinar, Nina Nešković , Radoje Čupić , Relja Mandal , Sergej Totić , Slobodan Boda Ninković , Stefan Timotej Kalezić , Stefan Trifunović , Svetlana Bojković , Tamara Dragičević , Tanja Bošković , Uroš Jakovljevič , Vahidin Prelić , Vera Velisavljević , Vojislav 'Voja' Brajović , Vuk Kostić


Država: Srbija
Jezik: srbščina
Datum izdaje: 2020
Produkcija: Firefly Productions
Žanri: Drama, kriminalka, trilr


O seriji:

Močvara srpska je triler - dramska televizijska serija . Predogled prvih dveh epizod serije je bil na sarajevskem filmskem festivalu . Premiera serije je bila 6. septembra 2020 .

V vrelem Beogradu manijak na izredno krut, ritualističen način ubije tri ženske. Žrtve združuje svobodomiselni življenjski slog in dejstvo, da so matere sinov. Sinovi, ki nimajo očetov. Otroci, ki nočejo govoriti. Napeto policijsko iskanje maničnega serijskega morilca bo trajalo 10 epizod in razkrivalo temne skrivnosti iz preteklosti ter junake vleklo v spirale prevar, laži in tragičnih življenjskih skušnjav.

Serija spremlja inšpektorja Nikolo ( Goran Bogdan ), nekdanjega huligana, ki se mora soočiti s svojo temno preteklostjo in vsemi skrivnostmi, da bi odkril maničnega morilca. Bolj ko je bližje preiskavi, bolj prepričan je, da ga nekaj v bistvu povezuje in morilca. To je zgodba o grehu in hrepenenju, ljubezni in sovraštvu, to je zgodba o prijateljstvu, ki temelji na zločinu in skrivnostih. Prav tako je to zgodba o ljudeh, ki so hkrati odrešeniki in mučitelji, žrtve in krvniki. To je končno zgodba o mestu, ki počasi tone v močvirje svoje preteklosti.


Tehnične specifikacije:

Informacije o datoteki
Ime datoteke: Mocvara.2020.S01.1080p.HDTVRip.x264.R77.mp4
Oblika: MP4
Informacije o obliki: QuickTime / MOV
Trajanje: 00: 49: 03.973
Velikost datoteke: 899,13 MB

Video informacije:
Video kodirnik: h264 (h.264 / avc / mpeg-4 avc / mpeg-4 del 10)
Ločljivost: 1920 * 1080
Širina: 1920
Višina: 1080
Razmerje zaslona: 16: 9
Hitrost sličic: 25 sličic na sekundo
Video bitna hitrost: 2428 kb / s
Barvni prostor: yuv420p

Zvočne informacije:
Zvočni kodirnik: aac (napredno kodiranje zvoka)
Avdio bitna hitrost: 128 kb / s
Hitrost vzorčenja: 48000 Hz
Zvočni kanali: stereo
Jezik: und
Trajanje: 00: 49: 03.951

UŽIVAJTE!
1983.S01.2018.SRBSubs.720p.AAC-5.1.x264-ReEnc-Livada-R77

Klikni za povečavo!
14-03-2021 12:07 naložil rado77
Sejalci: 1 / Odjemalci: 0 / Velikost: 4.35 GB / Dokončani: 2
Prenesi torrent Poročaj torrent Opis torrenta
Zvrst: Drama | Kriminalka | Triler
Kategorija: FILMI > TV - Serija

1983.S01.2018.SRBSubs.720p.AAC-5.1.x264-ReEnc-Livada-R77


1983 (2018)

TV Serija


[align=center]Leto izdelave: 2018 ( sezona 1 )


Država: Poljska
Žanr: triler , drama , kriminal
Producent: Kasia Adamik , Olga Haidas , Agnieszka Holland , ...
Scenarij: Joshua Long , Dariush Glazer , Maciej Musyal
Producent: Andrzej Biesztak , Nicole Harjo , Agnieszka Holland , ...
Operater: Tomasz Naumyuk , Rafal Paradowski , Anna Rzepka , ...
Skladatelj: Anthony Lazarkiewicz , Marcin Masecki
Umetnik: Anna Anosovich , Katarzyna Levinska , Hanna Wujcikowska-Szymczak
Svetovna premiera: 30. november 2018 , ...
Digitalna izdaja: 30. november 2018 , "Netflix"
Čas: 58 minut
Podnapisi: srbohrvaški

Zgodba:

Globoko zamrznjena hladna vojna se segreva. Dvajset let po uničujočem terorističnem napadu leta 1983, ki je ustavil potek osvoboditve Poljske in poznejši propad Sovjetske zveze, se je idealistični študent prava in osramočeni policijski preiskovalec spotaknil o zaroto, ki je železno zaveso ohranila, Poljska pa živela pod represivna policijska država. Zdaj, leta 2003, po dveh desetletjih miru in blaginje, voditelji režima sprejmejo skrivni načrt, narejen z neverjetnim nasprotnikom v osemdesetih letih prejšnjega stoletja, ki bo korenito spremenil Poljsko in vplival na življenje vseh državljanov države - in sveta. Kar odkrijeta ta dva moška, ​​lahko sproži revolucijo in tisti, ki so na oblasti, se ne bodo nič ustavili, da bi to skrivali.


Tehnične specifikacije:

Complete name : 1983.S01.2018.720p.AAC-5.1.x264-ReEnc-Livada-R77
Format : Matroska
Format version : Version 4
File size : 572 MiB
Duration : 57 min 30 s
Overall bit rate : 1 390 kb/s
Encoded date : UTC 2020-05-12 15:03:15
Writing application : HandBrake 1.3.1 2020010400
Writing library : Lavf58.29.100
ErrorDetectionType : Per level 1

Video
ID : 1
Format : AVC
Format/Info : Advanced Video Codec
Format profile : High@L4.1
Format settings : CABAC / 5 Ref Frames
Format settings, CABAC : Yes
Format settings, Reference frames : 5 frames
Codec ID : V_MPEG4/ISO/AVC
Duration : 57 min 30 s
Nominal bit rate : 1 130 kb/s
Width : 1 280 pixels
Height : 640 pixels
Display aspect ratio : 2.000
Frame rate mode : Constant
Frame rate : 25.000 FPS
Color space : YUV
Chroma subsampling : 4:2:0
Bit depth : 8 bits
Scan type : Progressive
Bits/(Pixel*Frame) : 0.055
Default : Yes
Forced : No
Color range : Limited
Color primaries : BT.709
Transfer characteristics : BT.709
Matrix coefficients : BT.709

Audio
ID : 2
Format : AAC LC
Format/Info : Advanced Audio Codec Low Complexity
Codec ID : A_AAC-2
Duration : 57 min 30 s
Channel(s) : 6 channels
Channel layout : C L R Ls Rs LFE
Sampling rate : 48.0 kHz
Frame rate : 46.875 FPS (1024 SPF)
Compression mode : Lossy
Delay relative to video : -21 ms
Title : Surround
Language : Polish
Default : Yes
Forced : No [/size]

Uživajte!
Kosti.2020.S01.1080p.HDTV.x264-R77

Klikni za povečavo!
11-03-2021 11:01 naložil rado77
Sejalci: 1 / Odjemalci: 0 / Velikost: 7.11 GB / Dokončani: 8
Prenesi torrent Poročaj torrent Opis torrenta
Zvrst: Drama | Kriminalka | Triler
Kategorija: FILMI > TV - Serija

Kosti.2020.S01.1080p.HDTV.x264-R77

KOSTI

TV Serija 2020


Tri leta po hvaljeni "Mesi" na male zaslone prihaja drugi del načrtovane trilogije scenarista Nikole Pejakovića in režiserja Saše Hajdukovića. Pomembna opomba: v središču mojega pregleda so prve tri epizode serije "Kosti", v katerih so predstavljeni glavni junaki in zaplet, ki skupaj prinašajo napoved, kaj bo sledilo v preostalih dveh tretjinah sezone.
Pejaković in Hajduković predstavljala Meso in Kosti kot zaokroženo celoto, ki povezuje zločinsko razpoloženje in prizorišče, ki pa ju je mogoče spremljati tudi popolnoma neodvisno.
Serija Kosti prinaša zgodbo o Banjaluki, ki jo razjeda korupcija na vseh ravneh. Igrajoč se z naslovom sezone, Pejakovič dva glavna junaka imenuje z istim imenom - Kosta. Kosta Govoruša (igra Jovo Maksić), begunec iz Krajine, se trudi, da bi z najtežjim fizičnim delom držal glavo nad vodo.
Vzhajajoči politik Kosta Gajić (Ljubiša Savanović) in njegova odtujena žena Zorica (Milica Janevski), direktorica marketinške agencije, spadata med banjaluško elito. Usoda dveh Kost se seka po krvavem maščevanju na koncu tretje epizode (ključna beseda: kladivo), ki bo pretresla vse junake in vplivala na njihovo usodo...
Serija odlično in realno predstavi dejansko stanje v regiji brez olepševanja in neresnične dramatizacije!
Izkoristite priložnost, da to serijo doživite, Kosta in Kosti si vsekakor zaslužita vašo pozornost.

IMDB: ocena- 8.9 Link: https://www.imdb.com/title/tt10451240/


Režija: Saša Hajduković
Scenarij: Nikola Pejaković
Igrajo: Jovo Maksic, Ljubisa Savanovic, Nikola Pejakovic
Žanri: Drama, kriminalka, triler
Država: Bosna in Hercegovina | Srbija
Jezik: Srbščina | angleščina
Datum izdaje: 2020 (Srbija)
Število sezon:1
Število epizod:10
Čas trajanja:45 minut


Tehnične specifikacije:

Complete name : Kosti.2020.S01.1080p.HDTV.x264-R77
Format : MPEG-4
Format profile : Base Media
Codec ID : isom (isom/iso2/avc1/mp41)
File size : 962 MiB
Duration : 46 min 20 s
Overall bit rate mode : Constant
Overall bit rate : 2 904 kb/s
Writing application : Lavf58.12.100
Comment : by darks

Video
ID : 1
Format : AVC
Format/Info : Advanced Video Codec
Format profile : Main@L4
Format settings : CABAC / 1 Ref Frames
Format settings, CABAC : Yes
Format settings, Reference frames : 1 frame
Format settings, GOP : M=1, N=25
Codec ID : avc1
Codec ID/Info : Advanced Video Coding
Duration : 46 min 20 s
Source duration : 57 s 159 ms
Bit rate mode : Constant
Bit rate : 136 Mb/s
Nominal bit rate : 2 800 kb/s
Width : 1 920 pixels
Height : 1 080 pixels
Display aspect ratio : 16:9
Frame rate mode : Variable
Frame rate : 1 215.910 FPS
Minimum frame rate : 12.500 FPS
Maximum frame rate : 159.210 FPS
Original frame rate : 25.000 FPS
Color space : YUV
Chroma subsampling : 4:2:0
Bit depth : 8 bits
Scan type : Progressive
Bits/(Pixel*Frame) : 0.054
Stream size : 928 MiB (96%)
Source stream size : 928 MiB (96%)
mdhd_Duration : 2780098
Codec configuration box : avcC

Audio
ID : 2
Format : AAC LC
Format/Info : Advanced Audio Codec Low Complexity
Codec ID : mp4a-40-2
Duration : 46 min 20 s
Bit rate mode : Constant
Bit rate : 99.3 kb/s
Channel(s) : 2 channels
Channel layout : L R
Sampling rate : 48.0 kHz
Frame rate : 46.875 FPS (1024 SPF)
Compression mode : Lossy
Stream size : 32.9 MiB (3%)
Language : Serbian
Default : Yes
Alternate group : 1

VELIKO UŽITKOV!
Južni.vetar.2020.S01.HDTV.1080p.R77

Klikni za povečavo!
07-02-2021 09:54 naložil rado77
Sejalci: 1 / Odjemalci: 0 / Velikost: 13.67 GB / Dokončani: 8
Prenesi torrent Poročaj torrent Opis torrenta
Zvrst: Drama | Kriminalka | Triler
Kategorija: FILMI > TV - Serija

Južni.vetar.2020.S01.HDTV.1080p-R77


Južni vetar

TV Serija


O seriji:
Vznemirljiv kriminalni triler, posnet po scenariju Petra Mihajlovića in Miloša Avramovića, ki je tudi režiser filma, je spremenjen v 4 epizode, ki jim bo sledilo 10 novih.
"Južni veter" prikazuje sodobni Beograd skozi perspektivo določenega dela njegove populacije. Gre za poloblo, člane t.i. "underground", ki pripovedujejo eno, resnično zgodbo o vrsti neuspehov "malega" človeka v surovem okolju. Pravijo, da je poučna zgodba, namenjena mladim v Srbiji, pripovedovana skozi prepletene usode vrstnikov in vseh, ki so se v želji po boljšem življenju napačno odločili.


Igrajo:

Miloš Bikovič, Miodrag Radonjić, Dragan Bjelogrlič, Jovana Stojiljković, Nebojša Glogovac, Srđan Todorović, Miloš Timotijević, Jasna Đuričić, Bogdan Diklič, Hristo Šopov, Ivajlo Zahariev, Luka Grbič, Miloš Trojpec Petrovič, Aleksandar Gligorič, Slaviša, Slaviša, Slaviša, Slaviša Aleksandar Berček.

Ustvarjalec: Miloš Avramovic
Država: Srbija
Jezik: Srbski
Žanri: Drama, kriminalka, triler


Tehnične specifikacije:

Video
ID : 1
Format : AVC
Bit rate : 5 513 kb/s
Width : 1 920 pixels
Height : 1 080 pixels
Display aspect ratio : 16:9
Frame rate : 25.000 FPS
Color space : YUV
Audio
ID : 2
Format : AAC
Bit rate : 96.0 kb/s
Channel(s) : 2 channels
Channel positions : Front: L R
Sampling rate : 48.0 kHz

UŽIVAJTE!
La.Unidad.2020.SloSubs S01.720p WEBRip x264 AC3-R77

Klikni za povečavo!
05-02-2021 15:15 naložil System
Sejalci: 0 / Odjemalci: 1 / Velikost: 8.98 GB / Dokončani: 1
Prenesi torrent Poročaj torrent Opis torrenta
Zvrst: Akcija | Drama | Triler
Kategorija: FILMI > TV - Serija
Anonimen nalagalec

La.Unidad.2020.SloSubs S01.720p WEBRip x264 AC3-R77


La Unidad 2020

ENOTA
Izvirna serija S01

"La Unidad 'je ena najboljših španskih serij v zadnjem času"


O seriji:
La Unidad (tv-serija) , prevedena kot The Unit , je španska kriminalistična drama, ki se ne ukvarja samo s preganjanjem in tekom med policijo in teroristi, temveč tudi podrobno namiguje / vizualizira pritožbe obeh strani. La Unidad (tv serija), strukturiran v uravnoteženi pripovedi, noče zavzeti nobene strani. Predstavlja le potrebne korake, potrebne za nadzor ali zaustavitev prelivanja krvi.
Serija se začne z dvema obveščevalcema, ki bdita nad hišo v Melilli (špansko mesto). Kmalu napad pod krinko sproži La Unidad (enoto) pod nadzorom dveh višjih policistov, Marcosa ( Michel Noher ) in Sergia ( Luis Zahera ). V uspešni operaciji La Unidad ujame Salaha Al Garheeba, najbolj iskanega terorista na svetu.
La Unidad (tv-serija) nadalje raziskuje dilemo policistov "Enote", ki poskušajo rešiti manjkajočo uganko, zakaj je Al Garheeb prišel v Melillo sam, brez kakršne koli varnosti. Marcos in Sergio zaslišujeta Al Garheeba, a vse zaman, ker noče govoriti. Zaradi pritiska združenja za človekove pravice policisti niso mogli izvajati skrajnih ukrepov.
Ko novica o zajetju Al Garheeba prispe v Sirijo, njegov sin z vso močjo poveča teror v Španiji. Sem spada tolpa treh moških, ki načrtujejo napade s človeškimi bombami v Španiji. Konflikt enote je ugotoviti namen Al Garheeba in ustaviti pošastni napad, ki ga načrtuje, kar je raziskano v nadaljnjih epizodah serije.


Žanri: akcija , drama, triler
Ustvarjalci: Dani de la Torre , Alberto Marini
Igrajo: Nathalie Poza , Michel Noher , Marian Álvarez
Država: Španija
Jezik: španski
Datum izdaje:15. maj 2020
Podnapisi: Slovenščina


Tehnične specifikacije:

Complete name : La.Unidad.2020.SloSubs S01.720p WEBRip x264 AC3-R77
Format : Matroska
Format version : Version 4
File size : 1.54 GiB
Duration : 53 min 13 s
Overall bit rate : 4 136 kb/s
Movie name : La.Unidad.S01E01.1080p.WEB-DL.DD5.1.H.264-ROCCaT
Writing application : Lavf56.40.101
Writing library : Lavf56.40.101
ARTIST : WinX HD Video Converter Deluxe
Video
ID : 1
Format : AVC
Format/Info : Advanced Video Codec
Format profile : Baseline@L5
Format settings : 1 Ref Frames
Format settings, CABAC : No
Format settings, Reference frames : 1 frame
Format settings, GOP : M=1, N=12
Codec ID : V_MPEG4/ISO/AVC
Duration : 53 min 13 s
Bit rate : 3 862 kb/s
Width : 1 280 pixels
Height : 720 pixels
Display aspect ratio : 16:9
Frame rate mode : Constant
Frame rate : 25.000 FPS
Color space : YUV
Chroma subsampling : 4:2:0
Bit depth : 8 bits
Scan type : Progressive
Bits/(Pixel*Frame) : 0.168
Stream size : 1.44 GiB (93%)
Writing library : Lavc56.60.100 nvenc_h264
Default : Yes
Forced : No
Color range : Limited
Audio
ID : 2
Format : AC-3
Format/Info : Audio Coding 3
Commercial name : Dolby Digital
Codec ID : A_AC3
Duration : 53 min 13 s
Bit rate mode : Constant
Bit rate : 192 kb/s
Channel(s) : 2 channels
Channel layout : L R
Sampling rate : 48.0 kHz
Frame rate : 31.250 FPS (1536 SPF)
Bit depth : 32 bits
Compression mode : Lossy
Delay relative to video : -5 ms
Stream size : 146 MiB (9%)
Writing library : Lavc56.60.100 ac3
Language : Spanish
Service kind : Complete Main
Default : Yes
Forced : No


VELIKO UŽITKOV!
Atlantic.Crossing.aka.Z.druge.strani.Atlanktika.2020.SLOSubsS01.720.HDTVRip.AAC-R77

Klikni za povečavo!
23-01-2021 12:31 naložil System
Sejalci: 1 / Odjemalci: 0 / Velikost: 4.7 GB / Dokončani: 4
Prenesi torrent Poročaj torrent Opis torrenta
Zvrst: Drama | Zgodovinski
Kategorija: FILMI > TV - Serija
Anonimen nalagalec

Atlantic.Crossing.aka.Z.druge.strani.Atlanktika.2020.SLOSubsS01.720.HDTVRip.AAC-R77




Atlantic Crossing 2020
TV Serija

Z DRUGE STRANI ATLANKTIKA
Sezona 01


Opis:
Princ Olaf se vse bolj vdaja pijači. Kralj mu že leta ne dovoli drugega kot opazovati dogajanje, in to ga peha v malodušje. Norveška vlada zato sklene, da mu bo dodelila položaj vrhovnega poveljnika norveških čet. To je razlog, da znova odpotuje v Washington. Ko opazuje svojo družino, se zave, da že dolgo ni več njen del. Marta razmišlja o ločenem življenju, nato pa se vojna konča in Olaf sklene, da bo obrnil nov list in se zazrl v prihodnost. Marta se tako vrne v domovino in z možem se znova povežeta.


Država: Norveška, Nemčija, ZDA, Švedska, Danska
Scenarij: Alexander Eik, Linda May Kallestein
Režija: Alexander Eik, Janic Heen
V glavnih vlogah: Sofia Helin, Kyle MacLachlan, Tobias Santelmann, Harriet Sansom Harris, Daniel Betts, Søren Pilmark, Lucy Russell
Epizode: 8
Žanri: drama, zgodovina
Podnapisi: Slovenski


Tehnićne specifikacije:
Complete name : Z druge strani Atlantika.S01.E02.SLOSubs.R77.mp4
Format : MPEG-4
Format profile : Base Media
Codec ID : isom (isom/iso2/avc1/mp41)
File size : 583 MiB
Duration : 55 min 23 s
Overall bit rate : 1 471 kb/s
Writing application : Lavf58.20.100

Video
ID : 1
Format : AVC
Format/Info : Advanced Video Codec
Format profile : High@L3.1
Format settings : CABAC / 3 Ref Frames
Format settings, CABAC : Yes
Format settings, Reference frames : 3 frames
Codec ID : avc1
Codec ID/Info : Advanced Video Coding
Duration : 55 min 23 s
Bit rate : 1 338 kb/s
Width : 1 280 pixels
Height : 720 pixels
Display aspect ratio : 16:9
Frame rate mode : Constant
Frame rate : 25.000 FPS
Color space : YUV
Chroma subsampling : 4:2:0
Bit depth : 8 bits
Scan type : Progressive
Bits/(Pixel*Frame) : 0.058
Stream size : 530 MiB (91%)
Writing library : x264 core 148

Audio
ID : 2
Format : AAC LC
Format/Info : Advanced Audio Codec Low Complexity
Codec ID : mp4a-40-2
Duration : 55 min 23 s
Bit rate mode : Constant
Bit rate : 128 kb/s
Channel(s) : 2 channels
Channel layout : L R
Sampling rate : 44.1 kHz
Frame rate : 43.066 FPS (1024 SPF)
Compression mode : Lossy
Stream size : 50.7 MiB (9%)
Default : Yes
Alternate group : 1


Veliko užitkov!
Kampen.om.tungtvannet.S01.SRBSubs.720p.WEB.x264

Klikni za povečavo!
05-01-2021 12:49 naložil System
Sejalci: 1 / Odjemalci: 0 / Velikost: 2.74 GB / Dokončani: 7
Prenesi torrent Poročaj torrent Opis torrenta
Zvrst: Drama | Vojni | Zgodovinski
Kategorija: FILMI > TV - Serija
Anonimen nalagalec

Kampen.om.tungtvannet.S01.SRBSubs.720p.WEB.x264

Kampen om tungtvannet AKA The Saboteurs

TV Serija S01

Vojna s težko vodo



Zgodba o Hitlerjevem načrtu, da bi Nemčija med drugo svetovno vojno dobila atomsko bombo, in močne vodne sabotaže v Rjukanu na Norveškem, gledano s štirih zornih kotov, nemška stran, zavezniki, diverzanti in četa



OPIS DOGAJANJ:

Med drugo svetovno vojno je bil Vemork v Rjukanu v središču proizvodnje težke vode. Vojna s težko vodo je Nemce ustavila pri razvoju atomske bombe.
Če bi Nemci lahko nadaljevali z raziskovanjem težke vode, bi morda lahko zgradili atomsko bombo.
Takšen vtis so imeli zavezniški znanstveniki, medtem ko je bila druga svetovna vojna v polnem razvoju. Zaradi atomske bombe bi lahko zavezniki izgubili vojno.
Zavezniški znanstveniki so si neprestano prizadevali, da bi poskušali ustvariti jedrsko eksplozijo na podlagi drugih načel, vendar jih je čakala še dolga pot. In edini vir težke vode je bil na nemški okupirani Norveški, v Vemorku, v Rjukanu.
Sabotažne akcije, katerih namen je bil preprečiti Nemcem pridobivanje težke vode, so nekatera najbolj drzna in vznemirljiva dejanja druge svetovne vojne.
Vse se je začelo marca 1942, ko je padel samotni padalec, da bi zbral znanje o proizvodnji težke vode. 19. oktobra so v bližini Sognadalena, zahodno od Rjukana, spustili še štiri Norvežane. Vsi so bili lokalni fantje in so dobro poznali okolico. Njihova naloga je bila pripraviti diverzantsko akcijo in poslati radijska sporočila v Anglijo. Skupina je imela kodno ime "Grouse".
Potovanje skupine Grouse do predvidenega sedeža je bilo težko. Že stoletja so bili odrezani od zunanjega sveta, medtem ko so čakali na nove akumulatorje za radijsko postajo.
Mesec dni kasneje, 19. novembra 1942, je bila iz Anglije poslana britanska diverzantska skupina 34 posebej usposobljenih moških. Njihova naloga je bila napasti težko vodno tovarno v Vemorku in jo uničiti. Skupina Grouse naj bi delovala kot sprejemni odbor in pripravila pristanek na Skolandu blizu jezera Møsvatn.
Potem pa je prišlo do katastrofe. Moški so bili prepeljani z jadralnimi letali in eno letalo in jadralno letalo, ki ga je vleklo, je strmoglavilo v goro. Drugo jadralno letalo po izpustu ni uspelo pravilno pristati, pri čemer je nekaj njegovih prebivalcev umrlo, Nemci pa so preživele streljali.
Kljub temu nazadovanju je sestavljala skupina Grouse, čeprav so se spremenili v "Swallow". Zimo so bili prisiljeni preživeti skrite v surovi divjini gorske planote Hardangervidda, jesti, kar je ostalo od njihovih obrokov, in prehranjevati z mesom divjih severnih jelenov. Jedli so celo vsebino želodca severnih jelenov, da so dobili bistvena hranila.
16. februarja 1943 je nova skupina mladih Norvežanov, posebej usposobljenih za misijo, pristala na gorski planoti Hardangervidda. Pristala sta 50 km od predvidenega cilja in stopila naravnost v snežni metež. Trajalo je nekaj dni, preden je 6 članov nove skupine "Gunnerside" lahko združilo moči z nekdanjo skupino Grouse, zdaj preimenovano v Swallow.
27. februarja zvečer so bili diverzanti v Fjøsbudalenu, severno od obrata v Vemorku, in se pripravljali na napad.
Začeli so z nevarnim in izčrpavajočim spustom, prečkali sotesko, ki se je spuščala do obrata za težko vodo, in z ograjo prerezali žico.
Pokrovitelji so zavzeli svoje položaje in diverzantska skupina se je hitro odpravila do cilja.
Na posode za težko vodo so postavili eksplozivne naboje in jih večino uničili. Čudno je, da nobeden od nemških stražarjev ni ničesar opazil, dokler ni konec.
V tistem času pa diverzanti že dolgo niso več hodili po gorah in pospeševali pot po stari delovni cesti pod Krossobanenom. Sneg je ležal globoko in zelo se je temnilo. Bilo je težko potovanje, vendar so se vsi varno vrnili nazaj.
Skupina se je po počitku razdelila v dve skupini. Ena skupina je bila v celoti oborožena in v uniformi in je smučala celo čez Norveško do varnosti na Švedskem.
Druga skupina se je razširila in skrila po celotni gorski planoti Hardangervidda. Tri tisoč Nemcev je obkolilo območje in prečesalo divjino, da bi jih izsledilo, a nobenega od diverzantov ni uspelo ujeti. Radijska postaja je do konca vojne vzdrževala stike z zavezniškim poveljstvom v Londonu.
Nemci pa so obnovili obrat za težko vodo. Američani so to imeli za tako nevarno, da so se odločili bombardirati tovarno. 16. novembra 1943 je 160 letečih trdnjav priletelo nad Rjukan in bombardiralo Vemork, elektrarno in tovarno.
Nemci so bili prisiljeni opustiti načrte za proizvodnjo težke vode, vendar je napad zahteval več kot 20 norveških življenj.
Kasneje so diverzanti ugotovili, da nameravajo Nemci svoje zaloge polpredelane težke vode iz Rjukana preseliti v Nemčijo. Iz Londona so prejeli ukaz, da se pošiljka težke vode za vsako ceno in na kakršen koli način uniči.
Najšibkejši člen v transportni verigi je bil trajekt, ki je vozil vlak čez jezero Tinnsjø. Noč pred plovbo trajekta je diverzantom uspelo na plovilo vstaviti časovni naboj.
V nedeljo, 20. februarja 1944, ko je bil "Hydro" na pol poti čez jezero, je prišlo do eksplozije in trajekt se je v nekaj minutah potopil ter s seboj odnesel vitalno težko vodo, da je počivala na globini 460 metrov. Štirje Nemci in štirinajst Norvežanov so umrli, a bitka za težko vodo je bila na Norveškem končno končana.
Vir : Visitrjukan AS



Mesto tedanjih dogajanj je postalo Norveška priljubljena izletniška točka!




Igrajo:

Andreas Döhler , Robert Hunger-Bühler , Marc Ben Puch , Christoph Bach , Peri Baumeister , Espen Reboli Bjerke , Torstein Bjørklund , Ole Christoffer Ertvaag, Eirik Evjen, Anna Friel , Ragnhild H. Myntevik , Benjamin Helstad , Espen Klouman Høiner , Endre Joner Oftebro Ellefsen , Frank Kjosås , Rolf Kristian Larsen , Mads Sjøgård Pettersen , Søren Pilmark , Christian Rubeck , Maibritt Saerens , Audun Sandem , Tobias Santelmann , Dennis Storhøi , Pip Torrens , Stein Winge , David Zimmerschied , Julia Schacht , Clara Lien Sunde , Elg Elgesem , Corey Johnson , Uwe Preuss , Bjørn Iversen , Glenn Andre Kaada

Žanri:Drama, zgodovina, vojni




Podrobnosti

Država: Norveška | Danska | Združeno kraljestvo | Češka | Švedska
Jezik: Norveški | Angleščina | Nemščina | Danski
Datum izdaje:4. januar 2015 (Norveška)
Poznan tudi kot:Bitka za težko vodo
Lokacije snemanja: Praga, Češka
Izvajanje: 45 min | 267 min (skupni čas delovanja)


Tehnične specifikacije:

Complete name : Kampen.om.tungtvannet.S01.SRBSubs.720p.WEB.x264
Format : MPEG-4
Format profile : Base Media
Codec ID : isom (isom/iso2/avc1/mp41)
File size : 488 MiB
Duration : 44 min 53 s
Overall bit rate : 1 518 kb/s
Writing application : Lavf56.19.100

Video
ID : 1
Format : AVC
Format/Info : Advanced Video Codec
Format profile : High@L3.1
Format settings, CABAC : Yes
Format settings, RefFrames : 4 frames
Codec ID : avc1
Codec ID/Info : Advanced Video Coding
Duration : 44 min 53 s
Bit rate : 1 384 kb/s
Width : 1 280 pixels
Height : 720 pixels
Display aspect ratio : 16:9
Frame rate mode : Constant
Frame rate : 25.000 FPS
Color space : YUV
Chroma subsampling : 4:2:0
Bit depth : 8 bits
Scan type : Progressive
Bits/(Pixel*Frame) : 0.060
Stream size : 445 MiB (91%)
Writing library : x264 core 144 r2525 40bb568

Audio
ID : 2
Format : AAC
Format/Info : Advanced Audio Codec
Format profile : LC
Codec ID : 40
Duration : 44 min 53 s
Bit rate mode : Constant
Bit rate : 128 kb/s
Channel(s) : 2 channels
Channel positions : Front: L R
Sampling rate : 48.0 kHz
Frame rate : 46.875 FPS (1024 SPF)
Compression mode : Lossy
Stream size : 41.1 MiB (8%)
Default : Yes
Alternate group : 1

UŽIVAJTE!
12.Reči.2020.1080p.HDTV.x264.R77

Klikni za povečavo!
05-01-2021 12:26 naložil rado77
Sejalci: 0 / Odjemalci: 1 / Velikost: 15.78 GB / Dokončani: 3
Prenesi torrent Poročaj torrent Opis torrenta
Zvrst: Drama | Kriminalka
Kategorija: FILMI > TV - Serija

12.Reči.2020.1080p.HDTV.x264.R77

12 REČI 2020

12 BESED
tv serija - 12 epizod





Katere so vse skrivnosti podzemlja, ki se skrivajo za kodo 12 besed?




O SERIJI:

Mladi odvetnik s problematično preteklostjo se je zaposlil v pisarni znanega beograjskega odvetnika. Postane branilec v glavni tožbi proti mafijskemu šefu, katerega imperij je bil omajan.
Na poti svojih ambicij in napredka v svoji odvetniški karieri je bil vpet v igro velikega kapitala, hekerskega podzemlja in črnega denarnega toka. Soočen z osebno krizo in strukturami moči bo moral izbirati med zvestobo in pravičnostjo.
Dvanajstmesečna kriminalistična drama je serija o zagovorništvu v mreži organiziranega kriminala in sodstvu, pri čemer ima vse svoje cene, razen zaupanja.





IGRALCI
Viktor Savić...Miloš Ivanović
Tihomir Stanić...Tomislav Grubor
Ivana Vuković...Sara Popović
Petar Novaković...Igor Varagić
Filip Đuretić...Dušan Vuk
Filip Đurić...Robert
Denis Murić...Leon
Miloš Pejović...Nemanja Vlahović
Nikola Pejakovic...Zarko Cecerina
Rastko Micic...Saša Resanović
Dubravka Drakić...Tijana Stanojević
Dragana Varagić...Marina Ivanović
Mirsad Tuka...Mijo Drobnjak
Ivana Adžić...Andrea
Davor Golubović...Ivica Vasović
Jovan Savić...Gojko Ivanović
Goran Slavić...Stevan
Marija Bergam...Danica Vlahović
Draginja Voganjac...Ljilja Rešanovic
Božidar Zuber...Zujo
Maja Stojanović...Medicinska sestra
Slaviša Čurović...Doktor



REŽISER: Jelena Stolica
SCENARISTI:
Marijana Čulić-Vićentić
Marko Milosavljević
Nemanja Nikolić
Stevan Spasić
Jelena Stolica
Država: Srbija
Jezik: Srbsko
Datum izdaje:21. november 2020 (Srbija)
Žanri: Kriminalka, drama





Tehnične specifikacije:

Complete name : 12.Reči.2020.1080p.HDTV.x264.R77
Format : Matroska
Format version : Version 4
File size : 1.30 GiB
Duration : 46 min 1 s
Overall bit rate : 4 047 kb/s
Track name/Position : 0
Writing application : Lavf56.36.100
Writing library : Lavf56.36.100
DATE : 0

Video
ID : 1
Format : AVC
Format/Info : Advanced Video Codec
Format profile : Baseline@L1.3
Format settings : 2 Ref Frames
Format settings, CABAC : No
Format settings, Reference frames : 2 frames
Codec ID : V_MPEG4/ISO/AVC
Duration : 46 min 1 s
Nominal bit rate : 4 000 kb/s
Width : 1 920 pixels
Height : 1 080 pixels
Display aspect ratio : 4:3
Frame rate mode : Constant
Frame rate : 25.000 FPS
Color space : YUV
Chroma subsampling : 4:2:0
Bit depth : 8 bits
Scan type : Progressive
Bits/(Pixel*Frame) : 0.077
Writing library : x264 core 148 r2579 73ae2d1
Forced : No

Audio
ID : 2
Format : AAC LC
Format/Info : Advanced Audio Codec Low Complexity
Codec ID : A_AAC-2
Duration : 46 min 1 s
Channel(s) : 2 channels
Channel layout : L R
Sampling rate : 48.0 kHz
Frame rate : 46.875 FPS (1024 SPF)
Compression mode : Lossy
Delay relative to video : -38 ms
Writing library : Lavc56.41.100 libfaac
Default : Yes
Forced : No



UŽIVAJTE!
Arctic.Air.aka.Nebo.nad.Arktiko.S1.2012-2014.SLOSubs.HDTV.720p.x264.ts-R77

Klikni za povečavo!
31-12-2020 11:18 naložil System
Sejalci: 0 / Odjemalci: 1 / Velikost: 8.53 GB / Dokončani: 1
Prenesi torrent Poročaj torrent Opis torrenta
Zvrst: Drama
Kategorija: FILMI > TV - Serija
Anonimen nalagalec

Arctic.Air.aka.Nebo.nad.Arktiko.S1.2012-2014.SLOSubs.HDTV.720p.x264.ts-R77


Arctic Air

2012-2014 TV Serija

Nebo nad arktiko


Opis:

Arctic Air je enourna avanturistična serija, ki se odvija v cvetoči Arktiki, o letalski družbi maverick in nekonvencionalni družini, ki jo vodi. Ta svet je Yellowknife in Visoka Arktika, ki leži na kanadskih severozahodnih ozemljih.
Serija je posneta z zelo objektivnem okolju , brez bleščečih kustumov s pridihom okoliških prebivalcev!


Čas trajanja: 60 min
Država: Kanada
Jezik: angleščina
Datum izdaje:10. januar 2012 (Kanada)
Žanr : drama
Podnapisi: Slovenski


Igrajo:

Adam Beach kot Bobby Martin
Pascale Hutton kot Krista Ivarson
Kevin McNulty kot Mel Ivarson
Stephen Lobo kot Dev Panwar
Carmen Moore kot Loreen Cassway
John Reardon kot Blake Laviolette
Emilie Ullerup kot Astrid Poulsen
Timothy Webber kot Cece Cooper
Tanaya Beatty kot Caitlin Janvier
Lexa Doig kot Petra Hossa
Rebecca Marshall kot Lindsay Gallagher [3]
Niall Matter kot Tag Cummins [3]

1. sezona

1.1-1 10. januar 12Iz jasnega modrega neba
2.1-2 17. januar 12Vse v
3.1-3 24. januar 12Ugrabljen
4.1-4 31. januar 12Vse vitalne stvari
5.1-5 7. februar 12Severni sij
6.1-6 14. februar 12C-TVAK
7.1-7 21. februar 12Vancouver je tako zafrkano mesto
8.1-8 28. februar 12Strokovnjak
9.1-9 6. marec 12Novi sever
10.1-1013. marec 12Pridite na kosilo

2. sezona

11.2-1 9. januar 13Požar
12.2-2 16. januar 13Bombe proč
13.2-3 23. januar 13Odprta sezona
14.2-4 30. januar 13Nevihtno vreme
15.2-5 6. februar 13Stare rane
16.2-6 13. februar 13Nevaren tovor
17.2-7 27. februar 13Na njih je Thar Hills zlato
18.2-8 6. marec 13Skrivnosti in laži
19.2-9 20. marec 13Pekel nima besa
20.2-1027. marec 13Okostnjaki v omari
21.2-113. april 13Kri je gostejša od vode
22.2-1210. april 13Neumno me enkrat
23.2-1317. april 13Ts'inada

3. sezona

24.3-1 7. januar 14Reka
25.3-2 14. januar 14Visoka voda
26.3-3 21. januar 14Fling
27.3-4 28. januar 14Ciljna črta
28.3-5 4. februar 14Hudiči, ki jih poznate
29.3-6 25. februar 14Na robu
30.3-7 14. marec 14Letenje samostojno
31.3-8 11. marec 14Ubežnik
32.3-9 18. marec 14Obredi prehoda
33.3-1025. marec 14Zadnja kapljica
34.3-111. april 14Padec (1)
35.3-128. april 14Padec (2)


Tehnične specifikacije:

Complete name : Arctic.Air.aka.Nebo.nad.Arktiko.S1.2012-2014.SLOSubs.HDTV.720p.x264.ts-R77\Nebo nad Arktiko S1E1.ts
Format : MPEG-TS
File size : 873 MiB
Duration : 43 min 6 s
Overall bit rate mode : Variable
Overall bit rate : 2 830 kb/s

Video

ID : 256 (0x100)
Menu ID : 1 (0x1)
Format : AVC
Format/Info : Advanced Video Codec
Format profile : Main@L3
Format settings : CABAC / 4 Ref Frames
Format settings, CABAC : Yes
Format settings, Reference frames : 4 frames
Format settings, GOP : M=4, N=25
Codec ID : 27
Duration : 43 min 6 s
Bit rate mode : Variable
Maximum bit rate : 40.0 Mb/s
Width : 720 pixels
Height : 576 pixels
Display aspect ratio : 16:9
Frame rate : 25.000 FPS
Standard : PAL
Color space : YUV
Chroma subsampling : 4:2:0
Bit depth : 8 bits
Scan type : Progressive
Color range : Limited
Color primaries : BT.601 PAL
Transfer characteristics : BT.709
Matrix coefficients : BT.601

Audio

ID : 257 (0x101)
Menu ID : 1 (0x1)
Format : AAC LC
Format/Info : Advanced Audio Codec Low Complexity
Format version : Version 2
Muxing mode : ADTS
Codec ID : 15-2
Duration : 43 min 6 s
Bit rate mode : Variable
Channel(s) : 2 channels
Channel layout : L R
Sampling rate : 44.1 kHz
Frame rate : 43.066 FPS (1024 SPF)
Compression mode : Lossy

Menu

ID : 4096 (0x1000)
Menu ID : 1 (0x1)
Duration : 43 min 6 s
List : 256 (0x100) (AVC) / 257 (0x101) (AAC)
Service name : Service01
Service provider : FFmpeg
Service type : digital television


UŽIVAJTE!
Bozicni.ustanak.S01.Ep.01-09. TVRip.720p.x264.R77

Klikni za povečavo!
25-12-2020 16:27 naložil System
Sejalci: 1 / Odjemalci: 0 / Velikost: 4.7 GB / Dokončani: 7
Prenesi torrent Poročaj torrent Opis torrenta
Zvrst: Drama | Vojni | Zgodovinski
Kategorija: FILMI > TV - Serija
Anonimen nalagalec

Bozicni.ustanak.S01.Ep.01-09. TVRip.720p.x264.R77

Bozićni ustanak

TV serija S01 / 2017

Božični upor


Pristne in zgodovinske serije o državi, ki je izginila s sveta, čeprav je zmagala v 1. svetovni vojni. Resnična zgodba o junaškem črnogorskem boju za dobrobit Srbije, ki jo je kasneje srbska okupacija kaznovala.- napisal: markomr


Zgodba

Serija o koncu prve svetovne vojne, izgubi državnosti in božični vstaji - najbolj tragičnih dogodkih v zgodovini Črne gore. Zgodba je pripovedovana skozi ljubezensko zgodbo in družinske odnose v tistem obdobju v Črni gori.

Žanri: Drama | Zgodovina | Romantični | Vojna
Igrajo: Miodrag Radonjic, Sanja Popovic, Amar Bukvic

Podrobnosti:
Država: Črna gora
Datum izdaje:29. januar 2017 (Črna gora)
IMDb: https://www.imdb.com/title/tt4310408/?ref_=login


Tehnične specifikacije:

Complete name : Bozicni.ustanak.S01.Ep.01-09. TVRip.720p.x264.R77\Bozicni ustanak TVRip.720p.x264.Ep.01.mp4
Format : MPEG-4
Format profile : Base Media / Version 2
Codec ID : mp42 (isom/iso2/avc1/mp41)
File size : 430 MiB
Duration : 42 min 25 s
Overall bit rate mode : Variable
Overall bit rate : 1 416 kb/s
Encoded date : UTC 2017-02-02 13:43:34
Tagged date : UTC 2017-02-02 13:43:34
Writing application : HandBrake 0.10.3 2016012200

Video
ID : 1
Format : AVC
Format/Info : Advanced Video Codec
Format profile : Main@L4
Format settings : CABAC / 9 Ref Frames
Format settings, CABAC : Yes
Format settings, Reference frames : 9 frames
Codec ID : avc1
Codec ID/Info : Advanced Video Coding
Duration : 42 min 25 s
Bit rate : 1 250 kb/s
Width : 1 280 pixels
Height : 720 pixels
Display aspect ratio : 16:9
Frame rate mode : Constant
Frame rate : 25.000 FPS
Color space : YUV
Chroma subsampling : 4:2:0
Bit depth : 8 bits
Scan type : Progressive
Bits/(Pixel*Frame) : 0.054
Stream size : 379 MiB (88%)
Writing library : x264 core 142 r2479 dd79a61
Encoded date : UTC 2017-02-02 13:43:34
Tagged date : UTC 2017-02-02 13:43:34
Color range : Limited
Color primaries : BT.709
Transfer characteristics : BT.709
Matrix coefficients : BT.709
Codec configuration box : avcC
Audio
ID : 2
Format : AAC LC
Format/Info : Advanced Audio Codec Low Complexity
Codec ID : mp4a-40-2
Duration : 42 min 25 s
Bit rate mode : Variable
Bit rate : 160 kb/s
Channel(s) : 2 channels
Channel layout : L R
Sampling rate : 48.0 kHz
Frame rate : 46.875 FPS (1024 SPF)
Compression mode : Lossy
Stream size : 48.7 MiB (11%)
Title : Stereo / Stereo
Default : Yes
Alternate group : 1
Encoded date : UTC 2017-02-02 13:43:34
Tagged date : UTC 2017-02-02 13:43:34

UŽIVAJTE!
Caliphate.aka.Kalifat.S01.2020.SRBSubs.WEBRip.x264.ts-R77

Klikni za povečavo!
22-12-2020 14:15 naložil rado77
Sejalci: 1 / Odjemalci: 0 / Velikost: 3.55 GB / Dokončani: 4
Prenesi torrent Poročaj torrent Opis torrenta
Zvrst: Drama | Triler
Kategorija: FILMI > TV - Serija

Caliphate.aka.Kalifat.S01.2020.SRBSubs.WEBRip.x264.ts-R77


Kalifat

Caliphate

TV Serija-S01


Država: Švedska
Jezik: švedščina
Datum izdaje: 12. januar 2020 (Švedska)
Ločljivost: 1280x720
Izvajanje: 45 min
Podnapisi: Srbski
https://www.imdb.com/title/tt11398870/

Igralska zasedba:
Gizem Erdogan ... Pervin 8 epizod, 2020
Amed Bozan ... Husam 8 epizod, 2020
Aliette Opheim ... Fatima 8 epizod, 2020
Albin Grenholm ... Calle 8 epizod, 2020
Nora Rios ... Sulle 8 epizod, 2020
Amanda Sohrabi ... Kerima 8 epizod, 2020

Zaplet:
Agent Fatima dobi namig, da je na Švedskem načrtovano teroristično dejanje. Hkrati je najstnica Sulle odprla oči svojemu študentskemu asistentu, ki odpira vrata v nov fascinanten svet.
Več opisa preprosto ni potrebno, ker je serija tako dobra!

Tehnične specifikacije:
Complete name : Caliphate.aka.Kalifat.S01.2020.SRBSubs.WEBRip.x264.ts-R77\Kalifat.S01E01.WEBRip.x264-R77.mp4
Format : MPEG-4
Format profile : Base Media
Codec ID : isom (isom/iso2/avc1/mp41)
File size : 447 MiB
Duration : 46 min 46 s
Overall bit rate : 1 337 kb/s
Movie name : Kalifat.S01E01.WEBRip.x264-ION10
Encoded date : UTC 2020-03-21 16:06:12
Tagged date : UTC 2020-03-21 16:06:12
Writing application : Lavf58.0.101
Comment : Kalifat.S01E01.WEBRip.x264-ION10

Video
ID : 1
Format : AVC
Format/Info : Advanced Video Codec
Format profile : High@L3.1
Format settings : CABAC / 5 Ref Frames
Format settings, CABAC : Yes
Format settings, Reference frames : 5 frames
Codec ID : avc1
Codec ID/Info : Advanced Video Coding
Duration : 46 min 46 s
Bit rate : 1 100 kb/s
Width : 720 pixels
Height : 400 pixels
Display aspect ratio : 16:9
Frame rate mode : Constant
Frame rate : 25.000 FPS
Color space : YUV
Chroma subsampling : 4:2:0
Bit depth : 8 bits
Scan type : Progressive
Bits/(Pixel*Frame) : 0.153
Stream size : 360 MiB (80%)
Title : Kalifat.S01E01.WEBRip.x264-ION10
Writing library : x264 core 148 r2795M aaa9aa8
Tagged date : UTC 2020-03-21 16:06:12
Codec configuration box : avcC

Audio
ID : 2
Format : AAC LC
Format/Info : Advanced Audio Codec Low Complexity
Codec ID : mp4a-40-2
Duration : 46 min 46 s
Duration_LastFrame : -11 ms
Bit rate mode : Constant
Bit rate : 256 kb/s
Channel(s) : 2 channels
Channel layout : L R
Sampling rate : 48.0 kHz
Frame rate : 46.875 FPS (1024 SPF)
Compression mode : Lossy
Stream size : 85.7 MiB (19%)
Title : Kalifat.S01E01.WEBRip.x264-ION10
Language : Swedish
Default : Yes
Alternate group : 1
Encoded date : UTC 2020-03-21 16:06:12
Tagged date : UTC 2020-03-21 16:06:12

UŽIVAJTE!
Elite S02 SrbSubs SPANISH 1080p NF WEBRip DDP5 1 x264 MZABI

Klikni za povečavo!
30-10-2020 17:34 naložil rado77
Sejalci: 1 / Odjemalci: 0 / Velikost: 15.32 GB / Dokončani: 3
Prenesi torrent Poročaj torrent Opis torrenta
Zvrst: Drama | Kriminalka | Triler
Kategorija: FILMI > TV - Serija

Elite S02 SrbSubs SPANISH 1080p NF WEBRip DDP5 1 x264 MZABI


Izvirni naslov:

ÉLITE

(TV serija)

Leto: 2018
Čas izvajanja ep.: cca 50 min.
Država: Španija
Podnapisi: Srbščina


Direktor: Carlos Montero (Ustvarjalec), Darío Madrona (Ustvarjalec), Ramón Salazar, Dani de la Orden, Silvia Quer, Jorge Torregrossa
Scenarist: Carlos Montero , Darío Madrona , Breixo Corral , Abril Zamora , Jaime Vaca , Carlos C. Tomé , Almudena Ocaña , Andrés Seara
Glasba: Lucas Vidal
Kinematografija: Ricardo de Gracia , Daniel Sosa
Igralska zasedba:
Miguel Bernardeau, Mina El Hammani, Itzan Escamilla, Danna Paola, Ester Expósito, Arón Piper, Omar Ayuso, Álvaro Rico, Miguel Herrán, María Pedraza, Jaime Lorente, Claudia Salas, Jorge López, Ainhoa ​​Santamaría, Georgina Amorós, Leïti Sène, Eva Llorach, Sergio Momo, Elisabet Gelabert, Abdelatif Hwidar, Lola Marceli, Jorge Suquet, Rocío Muñoz-Cobo, Irene Arcos, Farah Hamed, Alfredo Villa, Marta Aledo, Ramón Esquinas, Yaiza Guimare, Jorge Clemente, Saturnino García, Carlos Olalla, Pol Granch
Producent: Zeta Audiovisual , Netflix España. Distribuira Netflix
Žanr-TV serija: Drama, Triler, Kriminalka

Povzetek / Opis:
Druga sezona: 8 epizod.

Las Encinas, najboljša in najekskluzivnejša šola v Španiji, kamor elita pošilja svoje otroke na študij, je prav tako sprejet trije otroci iz delavskega razreda, potem ko je njihovo akademijo uničil potres in je lokalni svet razdelil študente med različne šole v okolici. Spopad med tistimi, ki imajo vse, in tistimi, ki nimajo česa izgubiti, ustvari popolno nevihto, ki se na koncu konča z umorom. Kdo stoji za zločinom? Elite je druga španska serija Netflix-a po La Casa De Papel - Money Heist. Vrhunske zabave, bogati otroci, seks, mamila, drama .. kaj bi lahko šlo narobe?

Nagrade:
2018 : Ferozove nagrade: nominiran za najboljšo serijo (drama)
Tehnične specifikacije:
Izvajanje: 60 min
Zvočna mešanica: Stereo | Dolby Digital
Barva: Barva
Razmerje: 16: 9 HD



KDOR SEJE TUDI ŽANJE!
Elite 2018 SrbSubs S01 720p WEBRip x264 AC3 PACK

Klikni za povečavo!
22-10-2020 16:14 naložil rado77
Sejalci: 1 / Odjemalci: 0 / Velikost: 12.63 GB / Dokončani: 6
Prenesi torrent Poročaj torrent Opis torrenta
Zvrst: Drama | Kriminalka | Triler
Kategorija: FILMI > TV - Serija

Elite 2018 SrbSubs S01 720p WEBRip x264 AC3 PACK


Izvirni naslov:

ÉLITE
TV Serija


Leto: 2018
Čas izvajanja ep.: cca 50 min.
Država: Španija
Podnapisi: Srbščina


Direktor: Carlos Montero (Ustvarjalec), Darío Madrona (Ustvarjalec), Ramón Salazar, Dani de la Orden, Silvia Quer, Jorge Torregrossa
Scenarist: Carlos Montero , Darío Madrona , Breixo Corral , Abril Zamora , Jaime Vaca , Carlos C. Tomé , Almudena Ocaña , Andrés Seara

Glasba: Lucas Vidal
Kinematografija: Ricardo de Gracia , Daniel Sosa


Igralska zasedba:

Miguel Bernardeau, Mina El Hammani, Itzan Escamilla, Danna Paola, Ester Expósito, Arón Piper, Omar Ayuso, Álvaro Rico, Miguel Herrán, María Pedraza, Jaime Lorente, Claudia Salas, Jorge López, Ainhoa ​​Santamaría, Georgina Amorós, Leïti Sène, Eva Llorach, Sergio Momo, Elisabet Gelabert, Abdelatif Hwidar, Lola Marceli, Jorge Suquet, Rocío Muñoz-Cobo, Irene Arcos, Farah Hamed, Alfredo Villa, Marta Aledo, Ramón Esquinas, Yaiza Guimare, Jorge Clemente, Saturnino García, Carlos Olalla, Pol Granch

Producent: Zeta Audiovisual , Netflix España. Distribuira Netflix
Žanr-TV serija: Drama, Triler, Kriminalka


Povzetek / Opis:

Prva sezona: 8 epizod.
Las Encinas, najboljša in najekskluzivnejša šola v Španiji, kamor elita pošilja svoje otroke na študij, je prav tako sprejet trije otroci iz delavskega razreda, potem ko je njihovo akademijo uničil potres in je lokalni svet razdelil študente med različne šole v okolici. Spopad med tistimi, ki imajo vse, in tistimi, ki nimajo česa izgubiti, ustvari popolno nevihto, ki se na koncu konča z umorom. Kdo stoji za zločinom? Elite je druga španska serija Netflix-a po La Casa De Papel - Money Heist. Vrhunske zabave, bogati otroci, seks, mamila, drama .. kaj bi lahko šlo narobe?

Nagrade:
2018 : Ferozove nagrade: nominiran za najboljšo serijo (drama)

Tehnične specifikacije:
Izvajanje: 60 min
Zvočna mešanica: Stereo | Dolby Digital
Barva: Barva
Razmerje: 16: 9 HD





KDOR SEJE TUDI ŽANJE!
Pioneer One.R

Klikni za povečavo!
01-10-2020 09:35 naložil rado77
Sejalci: 1 / Odjemalci: 0 / Velikost: 2.33 GB / Dokončani: 3
Prenesi torrent Poročaj torrent Opis torrenta NFO
Zvrst: Drama
Kategorija: FILMI > TV - Serija



Pioneer One 2010



TV Serija






Žanr: Drama






Zgodba:
Relikvija hladne vojne se vrača med strahovi pred terorizmom, vendar se izkaže za pozabljeno sovjetsko vesoljsko misijo. Kar bo prineslo nazaj, bo imelo posledice za ves svet.






Podrobnosti:
Država: ZDA
Jezik: angleščina
Datum izdaje:16. junij 2010 (ZDA)
Podnapisi: srbo-hrvaški
IMDb: ocena 7.0 - link: https://www.imdb.com/title/tt1748166/
Tehnične specifikacije:


Barva: Barva
Razmerje: 16: 9 HD
Velikost: 2.67 GB / 344 MB
Dolžina: 32 min
Zvok: 2 x stereo
Vrsta elementa: MP4







KDOR SEJE TUDI ŽANJE!
Øyevitne - Eyewitness (2014) web-dl.h264 mp4+srt srb-subs R

Klikni za povečavo!
27-09-2020 15:18 naložil rado77
Sejalci: 0 / Odjemalci: 1 / Velikost: 4.6 GB / Dokončani: 3
Prenesi torrent Poročaj torrent Opis torrenta NFO
Zvrst: Drama | Kriminalka
Kategorija: FILMI > TV - Serija


Øyevitne - Eyewitness (2014) - OČIVIDEC



TV Mini-Series






SLO


Petnajstletna najstnika Philip in Henning živita v majhni vasici Mysen, blizu norveške meje s Švedsko . Sta sošolca in soseda, a tudi skrivaj zaljubljena. Med diskretno zvezo pri gramoznici v bližnjem gozdu sta pričai streljanju štirih članov kriminalne združbe. Tudi onadva sta ogrožena s strani morilca, vendar premagata morilca in pobegneta z orožjem za umor. Ker ne želita, da bi se njun odnos razkril, se fanta odločita, da bosta o tem molčala!
Šef lokalne policije Helen Sikkeland vodi preiskavo umora. Je tudi Filipova rejnica. Ko se nasilje tolp nadaljuje in preiskava dobiva več policijskih virov, se pakt o tajnosti fantov razplete. To zabije klin med Filipom in Henningom, ki si zelo želita, da ne bi razkril, zakaj sta bila tisto noč skupaj v gozdu. Medtem ko Helen trdo zasleduje resnico, morilec izsledi in napade Henninga. Izkazalo se je, da je morilec veliko bližje preiskavi, kot se vsi zavedajo.


SRB-CRO


Petnaestogodišnji tinejdžeri Philip i Henning žive u malom selu Mysen, u blizini norveške granice sa Švedskom. Oni su iz razreda i susjedi, ali i potajno zaljubljeni. Tijekom diskretne afere kod šljunkare u obližnjoj šumi svjedočili su pucnjavi četvorice članova kriminalne bande. I njima prijeti ubojica, ali pobjeđuju ubojicu i bježe s oružjem za ubojstvo. Ne želeći da se njihova veza otkrije, dječaci odluče o tome šutjeti!
Šefica lokalne policije Helen Sikkeland vodi istragu ubojstva. Ona je također Filipova udomiteljica. Kako se nasilje bandi nastavlja, a istraga dobiva sve više policijskih sredstava, tako se odvija i pakt tajnosti dječaka. To zabija klin između Philipa i Henninga, koji silno žele ne otkriti zašto su te noći bili zajedno u šumi. Dok Helen teško traži istinu, ubojica ulazi u trag i napada Henninga. Ispostavilo se da je ubojica puno bliži istrazi nego što je svima poznato.


Creator: Jarl Emsell Larsen
Stars: Per Kjerstad, Axel Bøyum, Odin Waage
Country: Norway
Podnapisi: Srbski
Release Date: 20 October 2014
IMDb ocena: 7,5 - link: https://www.imdb.com/title/tt2750688/


Technical Specs


Runtime: 59 min
Sound Mix: Dolby Digital (Dolby 5.1)
Color: Color
Aspect Ratio: 2.20 : 1





KDOR SEJE TUDI ŽANJE!