A
B
C
D
E
F
G
H
I
J
K
L
M
N
O
P
Q
R
S
T
U
V
W
X
Y
Z
0-9
House.of.Saddam.S01.2008.SLOSubs.WEBRip.x264-R77

Klikni za povečavo!
05-01-2021 15:14 naložil System
Sejalci: 1 / Odjemalci: 0 / Velikost: 2.29 GB / Dokončani: 1
Prenesi torrent Poročaj torrent Opis torrenta
Kategorija: FILMI > TV - Serija
Anonimen nalagalec

House.of.Saddam.S01.2008.SLOSubs.WEBRip.x264-R77


House of Saddam 2008
TV mini Serija
SADAMOVA HIŠA

Mini serija, ki raziskuje delovanje družine Sadama Huseina in njegov odnos z najbližjimi svetovalci.

1. I. del
1. del 4. Biografija iraškega predsednika Sadama Huseina (Igal Naor) zajema njegov vzpon na oblast leta 1979, vojno z Iranom v osemdesetih letih in afero, ki bi dejansko končala njegovo poroko s prvo ženo (Shohreh Aghdashloo). Uday: Philip Arditti.

2.
II.del
2. del 4. Biografija iraškega predsednika Sadama Huseina (Igal Naor) zajema posledice vojne z Iranom konec osemdesetih let, njegov nestanoviten odnos s sinom Udayem (Philip Arditti) in obrambo Kuvajta pod vodstvom ZDA po invazija leta 1990. Qusay: Mounir Margoum. Adnan Khairallah: Said Amadis.

3. III. Del
Tretji del štiridelne biografije iraškega predsednika Sadama Huseina (Igal Naor) se odpre leta 1995, ko je neizpolnjevanje inšpekcijskih pregledov OZN pripeljalo do sankcij, in podrobno opisuje nesrečno prebeg njegovega zeta v Jordanijo ( Amr Waked). Uday: Philip Arditti. Qusay: Mounir Margoum.

4. IV. Del
Zaključek biografije iraškega predsednika Sadama Huseina (Igal Naor) prikazuje njegovo skrivanje ameriškim silam po invaziji marca 2003, ki ga je ločila od njegovih sinov, Udaya in Qusaya, ki sta bila ubita julija. Qusay: Mounir Margoum. Uday: Philip Arditti.



Podrobnosti:

Igrajo: Igal Naor , Shohreh Aghdashloo , Makram Khoury
Žanri: Biografija, drama, zgodovina, vojni
IMDb: https://www.imdb.com/title/tt0936453
Izvajanje: 232 min (4 epizode)
Država: Združeno kraljestvo | ZDA
Jezik: Arabščina | angleščina
Podnapisi: Slovenski




Tehnične specifikacije:

Complete name : House.of.Saddam.S01.2008.SLOSubs.WEBRip.x264-R77
Format : MPEG-4
Format profile : Base Media
Codec ID : isom (isom/iso2/avc1/mp41)
File size : 604 MiB
Duration : 1 h 3 min
Overall bit rate : 1 340 kb/s
Movie name : House.of.Saddam.S01E01.WEBRip.x264-R77
Encoded date : UTC 2019-08-12 14:35:42
Tagged date : UTC 2019-08-12 14:35:42
Writing application : Lavf58.0.101
Comment : House.of.Saddam.S01E01.WEBRip.x264-R77

Video
ID : 1
Format : AVC
Format/Info : Advanced Video Codec
Format profile : High@L3.1
Format settings : CABAC / 5 Ref Frames
Format settings, CABAC : Yes
Format settings, Reference frames : 5 frames
Codec ID : avc1
Codec ID/Info : Advanced Video Coding
Duration : 1 h 3 min
Bit rate : 1 100 kb/s
Width : 720 pixels
Height : 406 pixels
Display aspect ratio : 16:9
Original display aspect ratio : 16:9
Frame rate mode : Constant
Frame rate : 23.976 (24000/1001) FPS
Color space : YUV
Chroma subsampling : 4:2:0
Bit depth : 8 bits
Scan type : Progressive
Bits/(Pixel*Frame) : 0.157
Stream size : 486 MiB (80%)
Title : House.of.Saddam.S01E01.WEBRip.x264-R77
Writing library : x264 core 148 r2795M aaa9aa8
Codec configuration box : avcC

Audio
ID : 2
Format : AAC LC
Format/Info : Advanced Audio Codec Low Complexity
Codec ID : mp4a-40-2
Duration : 1 h 3 min
Bit rate mode : Constant
Bit rate : 256 kb/s
Channel(s) : 2 channels
Channel layout : L R
Sampling rate : 48.0 kHz
Frame rate : 46.875 FPS (1024 SPF)
Compression mode : Lossy
Stream size : 115 MiB (19%)
Title : House.of.Saddam.S01E01.WEBRip.x264-R77
Language : English
Default : Yes
Alternate group : 1
Encoded date : UTC 2019-08-12 14:35:42
Tagged date : UTC 2019-08-12 14:35:42




UŽIVAJTE!
Kampen.om.tungtvannet.S01.SRBSubs.720p.WEB.x264

Klikni za povečavo!
05-01-2021 12:49 naložil System
Sejalci: 3 / Odjemalci: 0 / Velikost: 2.74 GB / Dokončani: 4
Prenesi torrent Poročaj torrent Opis torrenta
Zvrst: Drama | Vojni | Zgodovinski
Kategorija: FILMI > TV - Serija
Anonimen nalagalec

Kampen.om.tungtvannet.S01.SRBSubs.720p.WEB.x264

Kampen om tungtvannet AKA The Saboteurs

TV Serija S01

Vojna s težko vodo



Zgodba o Hitlerjevem načrtu, da bi Nemčija med drugo svetovno vojno dobila atomsko bombo, in močne vodne sabotaže v Rjukanu na Norveškem, gledano s štirih zornih kotov, nemška stran, zavezniki, diverzanti in četa



OPIS DOGAJANJ:

Med drugo svetovno vojno je bil Vemork v Rjukanu v središču proizvodnje težke vode. Vojna s težko vodo je Nemce ustavila pri razvoju atomske bombe.
Če bi Nemci lahko nadaljevali z raziskovanjem težke vode, bi morda lahko zgradili atomsko bombo.
Takšen vtis so imeli zavezniški znanstveniki, medtem ko je bila druga svetovna vojna v polnem razvoju. Zaradi atomske bombe bi lahko zavezniki izgubili vojno.
Zavezniški znanstveniki so si neprestano prizadevali, da bi poskušali ustvariti jedrsko eksplozijo na podlagi drugih načel, vendar jih je čakala še dolga pot. In edini vir težke vode je bil na nemški okupirani Norveški, v Vemorku, v Rjukanu.
Sabotažne akcije, katerih namen je bil preprečiti Nemcem pridobivanje težke vode, so nekatera najbolj drzna in vznemirljiva dejanja druge svetovne vojne.
Vse se je začelo marca 1942, ko je padel samotni padalec, da bi zbral znanje o proizvodnji težke vode. 19. oktobra so v bližini Sognadalena, zahodno od Rjukana, spustili še štiri Norvežane. Vsi so bili lokalni fantje in so dobro poznali okolico. Njihova naloga je bila pripraviti diverzantsko akcijo in poslati radijska sporočila v Anglijo. Skupina je imela kodno ime "Grouse".
Potovanje skupine Grouse do predvidenega sedeža je bilo težko. Že stoletja so bili odrezani od zunanjega sveta, medtem ko so čakali na nove akumulatorje za radijsko postajo.
Mesec dni kasneje, 19. novembra 1942, je bila iz Anglije poslana britanska diverzantska skupina 34 posebej usposobljenih moških. Njihova naloga je bila napasti težko vodno tovarno v Vemorku in jo uničiti. Skupina Grouse naj bi delovala kot sprejemni odbor in pripravila pristanek na Skolandu blizu jezera Møsvatn.
Potem pa je prišlo do katastrofe. Moški so bili prepeljani z jadralnimi letali in eno letalo in jadralno letalo, ki ga je vleklo, je strmoglavilo v goro. Drugo jadralno letalo po izpustu ni uspelo pravilno pristati, pri čemer je nekaj njegovih prebivalcev umrlo, Nemci pa so preživele streljali.
Kljub temu nazadovanju je sestavljala skupina Grouse, čeprav so se spremenili v "Swallow". Zimo so bili prisiljeni preživeti skrite v surovi divjini gorske planote Hardangervidda, jesti, kar je ostalo od njihovih obrokov, in prehranjevati z mesom divjih severnih jelenov. Jedli so celo vsebino želodca severnih jelenov, da so dobili bistvena hranila.
16. februarja 1943 je nova skupina mladih Norvežanov, posebej usposobljenih za misijo, pristala na gorski planoti Hardangervidda. Pristala sta 50 km od predvidenega cilja in stopila naravnost v snežni metež. Trajalo je nekaj dni, preden je 6 članov nove skupine "Gunnerside" lahko združilo moči z nekdanjo skupino Grouse, zdaj preimenovano v Swallow.
27. februarja zvečer so bili diverzanti v Fjøsbudalenu, severno od obrata v Vemorku, in se pripravljali na napad.
Začeli so z nevarnim in izčrpavajočim spustom, prečkali sotesko, ki se je spuščala do obrata za težko vodo, in z ograjo prerezali žico.
Pokrovitelji so zavzeli svoje položaje in diverzantska skupina se je hitro odpravila do cilja.
Na posode za težko vodo so postavili eksplozivne naboje in jih večino uničili. Čudno je, da nobeden od nemških stražarjev ni ničesar opazil, dokler ni konec.
V tistem času pa diverzanti že dolgo niso več hodili po gorah in pospeševali pot po stari delovni cesti pod Krossobanenom. Sneg je ležal globoko in zelo se je temnilo. Bilo je težko potovanje, vendar so se vsi varno vrnili nazaj.
Skupina se je po počitku razdelila v dve skupini. Ena skupina je bila v celoti oborožena in v uniformi in je smučala celo čez Norveško do varnosti na Švedskem.
Druga skupina se je razširila in skrila po celotni gorski planoti Hardangervidda. Tri tisoč Nemcev je obkolilo območje in prečesalo divjino, da bi jih izsledilo, a nobenega od diverzantov ni uspelo ujeti. Radijska postaja je do konca vojne vzdrževala stike z zavezniškim poveljstvom v Londonu.
Nemci pa so obnovili obrat za težko vodo. Američani so to imeli za tako nevarno, da so se odločili bombardirati tovarno. 16. novembra 1943 je 160 letečih trdnjav priletelo nad Rjukan in bombardiralo Vemork, elektrarno in tovarno.
Nemci so bili prisiljeni opustiti načrte za proizvodnjo težke vode, vendar je napad zahteval več kot 20 norveških življenj.
Kasneje so diverzanti ugotovili, da nameravajo Nemci svoje zaloge polpredelane težke vode iz Rjukana preseliti v Nemčijo. Iz Londona so prejeli ukaz, da se pošiljka težke vode za vsako ceno in na kakršen koli način uniči.
Najšibkejši člen v transportni verigi je bil trajekt, ki je vozil vlak čez jezero Tinnsjø. Noč pred plovbo trajekta je diverzantom uspelo na plovilo vstaviti časovni naboj.
V nedeljo, 20. februarja 1944, ko je bil "Hydro" na pol poti čez jezero, je prišlo do eksplozije in trajekt se je v nekaj minutah potopil ter s seboj odnesel vitalno težko vodo, da je počivala na globini 460 metrov. Štirje Nemci in štirinajst Norvežanov so umrli, a bitka za težko vodo je bila na Norveškem končno končana.
Vir : Visitrjukan AS



Mesto tedanjih dogajanj je postalo Norveška priljubljena izletniška točka!




Igrajo:

Andreas Döhler , Robert Hunger-Bühler , Marc Ben Puch , Christoph Bach , Peri Baumeister , Espen Reboli Bjerke , Torstein Bjørklund , Ole Christoffer Ertvaag, Eirik Evjen, Anna Friel , Ragnhild H. Myntevik , Benjamin Helstad , Espen Klouman Høiner , Endre Joner Oftebro Ellefsen , Frank Kjosås , Rolf Kristian Larsen , Mads Sjøgård Pettersen , Søren Pilmark , Christian Rubeck , Maibritt Saerens , Audun Sandem , Tobias Santelmann , Dennis Storhøi , Pip Torrens , Stein Winge , David Zimmerschied , Julia Schacht , Clara Lien Sunde , Elg Elgesem , Corey Johnson , Uwe Preuss , Bjørn Iversen , Glenn Andre Kaada

Žanri:Drama, zgodovina, vojni




Podrobnosti

Država: Norveška | Danska | Združeno kraljestvo | Češka | Švedska
Jezik: Norveški | Angleščina | Nemščina | Danski
Datum izdaje:4. januar 2015 (Norveška)
Poznan tudi kot:Bitka za težko vodo
Lokacije snemanja: Praga, Češka
Izvajanje: 45 min | 267 min (skupni čas delovanja)


Tehnične specifikacije:

Complete name : Kampen.om.tungtvannet.S01.SRBSubs.720p.WEB.x264
Format : MPEG-4
Format profile : Base Media
Codec ID : isom (isom/iso2/avc1/mp41)
File size : 488 MiB
Duration : 44 min 53 s
Overall bit rate : 1 518 kb/s
Writing application : Lavf56.19.100

Video
ID : 1
Format : AVC
Format/Info : Advanced Video Codec
Format profile : High@L3.1
Format settings, CABAC : Yes
Format settings, RefFrames : 4 frames
Codec ID : avc1
Codec ID/Info : Advanced Video Coding
Duration : 44 min 53 s
Bit rate : 1 384 kb/s
Width : 1 280 pixels
Height : 720 pixels
Display aspect ratio : 16:9
Frame rate mode : Constant
Frame rate : 25.000 FPS
Color space : YUV
Chroma subsampling : 4:2:0
Bit depth : 8 bits
Scan type : Progressive
Bits/(Pixel*Frame) : 0.060
Stream size : 445 MiB (91%)
Writing library : x264 core 144 r2525 40bb568

Audio
ID : 2
Format : AAC
Format/Info : Advanced Audio Codec
Format profile : LC
Codec ID : 40
Duration : 44 min 53 s
Bit rate mode : Constant
Bit rate : 128 kb/s
Channel(s) : 2 channels
Channel positions : Front: L R
Sampling rate : 48.0 kHz
Frame rate : 46.875 FPS (1024 SPF)
Compression mode : Lossy
Stream size : 41.1 MiB (8%)
Default : Yes
Alternate group : 1

UŽIVAJTE!
12.Reči.2020.1080p.HDTV.x264.R77

Klikni za povečavo!
05-01-2021 12:26 naložil rado77
Sejalci: 2 / Odjemalci: 0 / Velikost: 15.78 GB / Dokončani: 3
Prenesi torrent Poročaj torrent Opis torrenta
Zvrst: Drama | Kriminalka
Kategorija: FILMI > TV - Serija

12.Reči.2020.1080p.HDTV.x264.R77

12 REČI 2020

12 BESED
tv serija - 12 epizod





Katere so vse skrivnosti podzemlja, ki se skrivajo za kodo 12 besed?




O SERIJI:

Mladi odvetnik s problematično preteklostjo se je zaposlil v pisarni znanega beograjskega odvetnika. Postane branilec v glavni tožbi proti mafijskemu šefu, katerega imperij je bil omajan.
Na poti svojih ambicij in napredka v svoji odvetniški karieri je bil vpet v igro velikega kapitala, hekerskega podzemlja in črnega denarnega toka. Soočen z osebno krizo in strukturami moči bo moral izbirati med zvestobo in pravičnostjo.
Dvanajstmesečna kriminalistična drama je serija o zagovorništvu v mreži organiziranega kriminala in sodstvu, pri čemer ima vse svoje cene, razen zaupanja.





IGRALCI
Viktor Savić...Miloš Ivanović
Tihomir Stanić...Tomislav Grubor
Ivana Vuković...Sara Popović
Petar Novaković...Igor Varagić
Filip Đuretić...Dušan Vuk
Filip Đurić...Robert
Denis Murić...Leon
Miloš Pejović...Nemanja Vlahović
Nikola Pejakovic...Zarko Cecerina
Rastko Micic...Saša Resanović
Dubravka Drakić...Tijana Stanojević
Dragana Varagić...Marina Ivanović
Mirsad Tuka...Mijo Drobnjak
Ivana Adžić...Andrea
Davor Golubović...Ivica Vasović
Jovan Savić...Gojko Ivanović
Goran Slavić...Stevan
Marija Bergam...Danica Vlahović
Draginja Voganjac...Ljilja Rešanovic
Božidar Zuber...Zujo
Maja Stojanović...Medicinska sestra
Slaviša Čurović...Doktor



REŽISER: Jelena Stolica
SCENARISTI:
Marijana Čulić-Vićentić
Marko Milosavljević
Nemanja Nikolić
Stevan Spasić
Jelena Stolica
Država: Srbija
Jezik: Srbsko
Datum izdaje:21. november 2020 (Srbija)
Žanri: Kriminalka, drama





Tehnične specifikacije:

Complete name : 12.Reči.2020.1080p.HDTV.x264.R77
Format : Matroska
Format version : Version 4
File size : 1.30 GiB
Duration : 46 min 1 s
Overall bit rate : 4 047 kb/s
Track name/Position : 0
Writing application : Lavf56.36.100
Writing library : Lavf56.36.100
DATE : 0

Video
ID : 1
Format : AVC
Format/Info : Advanced Video Codec
Format profile : Baseline@L1.3
Format settings : 2 Ref Frames
Format settings, CABAC : No
Format settings, Reference frames : 2 frames
Codec ID : V_MPEG4/ISO/AVC
Duration : 46 min 1 s
Nominal bit rate : 4 000 kb/s
Width : 1 920 pixels
Height : 1 080 pixels
Display aspect ratio : 4:3
Frame rate mode : Constant
Frame rate : 25.000 FPS
Color space : YUV
Chroma subsampling : 4:2:0
Bit depth : 8 bits
Scan type : Progressive
Bits/(Pixel*Frame) : 0.077
Writing library : x264 core 148 r2579 73ae2d1
Forced : No

Audio
ID : 2
Format : AAC LC
Format/Info : Advanced Audio Codec Low Complexity
Codec ID : A_AAC-2
Duration : 46 min 1 s
Channel(s) : 2 channels
Channel layout : L R
Sampling rate : 48.0 kHz
Frame rate : 46.875 FPS (1024 SPF)
Compression mode : Lossy
Delay relative to video : -38 ms
Writing library : Lavc56.41.100 libfaac
Default : Yes
Forced : No



UŽIVAJTE!
Arctic.Air.aka.Nebo.nad.Arktiko.S1.2012-2014.SLOSubs.HDTV.720p.x264.ts-R77

Klikni za povečavo!
31-12-2020 11:18 naložil System
Sejalci: 1 / Odjemalci: 0 / Velikost: 8.53 GB / Dokončani: 1
Prenesi torrent Poročaj torrent Opis torrenta
Zvrst: Drama
Kategorija: FILMI > TV - Serija
Anonimen nalagalec

Arctic.Air.aka.Nebo.nad.Arktiko.S1.2012-2014.SLOSubs.HDTV.720p.x264.ts-R77


Arctic Air

2012-2014 TV Serija

Nebo nad arktiko


Opis:

Arctic Air je enourna avanturistična serija, ki se odvija v cvetoči Arktiki, o letalski družbi maverick in nekonvencionalni družini, ki jo vodi. Ta svet je Yellowknife in Visoka Arktika, ki leži na kanadskih severozahodnih ozemljih.
Serija je posneta z zelo objektivnem okolju , brez bleščečih kustumov s pridihom okoliških prebivalcev!


Čas trajanja: 60 min
Država: Kanada
Jezik: angleščina
Datum izdaje:10. januar 2012 (Kanada)
Žanr : drama
Podnapisi: Slovenski


Igrajo:

Adam Beach kot Bobby Martin
Pascale Hutton kot Krista Ivarson
Kevin McNulty kot Mel Ivarson
Stephen Lobo kot Dev Panwar
Carmen Moore kot Loreen Cassway
John Reardon kot Blake Laviolette
Emilie Ullerup kot Astrid Poulsen
Timothy Webber kot Cece Cooper
Tanaya Beatty kot Caitlin Janvier
Lexa Doig kot Petra Hossa
Rebecca Marshall kot Lindsay Gallagher [3]
Niall Matter kot Tag Cummins [3]

1. sezona

1.1-1 10. januar 12Iz jasnega modrega neba
2.1-2 17. januar 12Vse v
3.1-3 24. januar 12Ugrabljen
4.1-4 31. januar 12Vse vitalne stvari
5.1-5 7. februar 12Severni sij
6.1-6 14. februar 12C-TVAK
7.1-7 21. februar 12Vancouver je tako zafrkano mesto
8.1-8 28. februar 12Strokovnjak
9.1-9 6. marec 12Novi sever
10.1-1013. marec 12Pridite na kosilo

2. sezona

11.2-1 9. januar 13Požar
12.2-2 16. januar 13Bombe proč
13.2-3 23. januar 13Odprta sezona
14.2-4 30. januar 13Nevihtno vreme
15.2-5 6. februar 13Stare rane
16.2-6 13. februar 13Nevaren tovor
17.2-7 27. februar 13Na njih je Thar Hills zlato
18.2-8 6. marec 13Skrivnosti in laži
19.2-9 20. marec 13Pekel nima besa
20.2-1027. marec 13Okostnjaki v omari
21.2-113. april 13Kri je gostejša od vode
22.2-1210. april 13Neumno me enkrat
23.2-1317. april 13Ts'inada

3. sezona

24.3-1 7. januar 14Reka
25.3-2 14. januar 14Visoka voda
26.3-3 21. januar 14Fling
27.3-4 28. januar 14Ciljna črta
28.3-5 4. februar 14Hudiči, ki jih poznate
29.3-6 25. februar 14Na robu
30.3-7 14. marec 14Letenje samostojno
31.3-8 11. marec 14Ubežnik
32.3-9 18. marec 14Obredi prehoda
33.3-1025. marec 14Zadnja kapljica
34.3-111. april 14Padec (1)
35.3-128. april 14Padec (2)


Tehnične specifikacije:

Complete name : Arctic.Air.aka.Nebo.nad.Arktiko.S1.2012-2014.SLOSubs.HDTV.720p.x264.ts-R77\Nebo nad Arktiko S1E1.ts
Format : MPEG-TS
File size : 873 MiB
Duration : 43 min 6 s
Overall bit rate mode : Variable
Overall bit rate : 2 830 kb/s

Video

ID : 256 (0x100)
Menu ID : 1 (0x1)
Format : AVC
Format/Info : Advanced Video Codec
Format profile : Main@L3
Format settings : CABAC / 4 Ref Frames
Format settings, CABAC : Yes
Format settings, Reference frames : 4 frames
Format settings, GOP : M=4, N=25
Codec ID : 27
Duration : 43 min 6 s
Bit rate mode : Variable
Maximum bit rate : 40.0 Mb/s
Width : 720 pixels
Height : 576 pixels
Display aspect ratio : 16:9
Frame rate : 25.000 FPS
Standard : PAL
Color space : YUV
Chroma subsampling : 4:2:0
Bit depth : 8 bits
Scan type : Progressive
Color range : Limited
Color primaries : BT.601 PAL
Transfer characteristics : BT.709
Matrix coefficients : BT.601

Audio

ID : 257 (0x101)
Menu ID : 1 (0x1)
Format : AAC LC
Format/Info : Advanced Audio Codec Low Complexity
Format version : Version 2
Muxing mode : ADTS
Codec ID : 15-2
Duration : 43 min 6 s
Bit rate mode : Variable
Channel(s) : 2 channels
Channel layout : L R
Sampling rate : 44.1 kHz
Frame rate : 43.066 FPS (1024 SPF)
Compression mode : Lossy

Menu

ID : 4096 (0x1000)
Menu ID : 1 (0x1)
Duration : 43 min 6 s
List : 256 (0x100) (AVC) / 257 (0x101) (AAC)
Service name : Service01
Service provider : FFmpeg
Service type : digital television


UŽIVAJTE!
Shadow.Lines.aka.Senčne.črte.2019.S01.SLOSubs.HDTV.720p.x264.ts-R77

Klikni za povečavo!
25-12-2020 16:41 naložil rado77
Sejalci: 2 / Odjemalci: 0 / Velikost: 10.65 GB / Dokončani: 2
Prenesi torrent Poročaj torrent Opis torrenta
Zvrst: Triler
Kategorija: FILMI > TV - Serija

Shadow.Lines.aka.Senčne.črte.2019.S01.SLOSubs.HDTV.720p.x264.ts-R77

Nyrkki

2019-10x45min epizod
TV Serija

Shadow Lines

SENČNE ČRTE

vohunska serija



Poleti 1955 se v Helsinkih zaostruje hladna vojna. Tako Sovjetska zveza kot ZDA se bojijo, da bi se Finska približala predsedniškim volitvam.

Opis:

Helsinki 1955. Ko se približujejo finske predsedniške volitve, sta CIA in KGB pripravljena storiti vse, da njihovi kandidati postanejo naslednji finski predsednik. Fist, zelo tajna finska delovna skupina, mora za vsako ceno zaščititi neodvisnost Finske. Toda njihovo poslanstvo je ogroženo, ko jih njihov najnovejši član ogrozi, da bi ugotovili resnico o njeni preteklosti.

Žanr: vohunski triler
Direktor: AJ Annila,Alli Haapasalo
Jezik: Finski, Angleščina, Ruščina, Švedsko
Podnaposi: Slovenščina
Pisatelj: Katri Manninen in Kirsti Manninen

Igralska zasedba:

Emmi Parviainen
Olavi Uusivirta
HP Björkman
Sampo Sarkola
Katja Küttner
Jonna Järnefelt
Jessica Grabowsky


Tehnične specifikacije:

ID : 1 (0x1)
Complete name : Shadow.Lines.aka.Senčne.črte.2019.S01.SLOSubs.HDTV.720p.x264.ts-R77\Shadow.Lines.aka.Senčne.črte. S1E1.ts
Format : MPEG-TS
File size : 1.12 GiB
Duration : 45 min 17 s
Overall bit rate mode : Variable
Overall bit rate : 3 544 kb/s
Video
ID : 256 (0x100)
Menu ID : 1 (0x1)
Format : AVC
Format/Info : Advanced Video Codec
Format profile : Main@L3.1
Format settings : CABAC / 4 Ref Frames
Format settings, CABAC : Yes
Format settings, Reference frames : 4 frames
Codec ID : 27
Duration : 45 min 17 s
Bit rate mode : Variable
Maximum bit rate : 40.0 Mb/s
Width : 1 280 pixels
Height : 720 pixels
Display aspect ratio : 16:9
Frame rate : 25.000 FPS
Color space : YUV
Chroma subsampling : 4:2:0
Bit depth : 8 bits
Scan type : Progressive
Color range : Limited
Color primaries : BT.709
Transfer characteristics : BT.709
Matrix coefficients : BT.709

Audio
ID : 257 (0x101)
Menu ID : 1 (0x1)
Format : AAC LC
Format/Info : Advanced Audio Codec Low Complexity
Format version : Version 2
Muxing mode : ADTS
Codec ID : 15-2
Duration : 45 min 17 s
Bit rate mode : Variable
Channel(s) : 2 channels
Channel layout : L R
Sampling rate : 44.1 kHz
Frame rate : 43.066 FPS (1024 SPF)
Compression mode : Lossy

Menu
ID : 4096 (0x1000)
Menu ID : 1 (0x1)
Duration : 45 min 17 s
List : 256 (0x100) (AVC) / 257 (0x101) (AAC)
Service name : Service01
Service provider : FFmpeg
Service type : digital television

KDOR SEJE TUDI ŽANJE!
Bozicni.ustanak.S01.Ep.01-09. TVRip.720p.x264.R77

Klikni za povečavo!
25-12-2020 16:27 naložil System
Sejalci: 1 / Odjemalci: 0 / Velikost: 4.7 GB / Dokončani: 5
Prenesi torrent Poročaj torrent Opis torrenta
Zvrst: Drama | Vojni | Zgodovinski
Kategorija: FILMI > TV - Serija
Anonimen nalagalec

Bozicni.ustanak.S01.Ep.01-09. TVRip.720p.x264.R77

Bozićni ustanak

TV serija S01 / 2017

Božični upor


Pristne in zgodovinske serije o državi, ki je izginila s sveta, čeprav je zmagala v 1. svetovni vojni. Resnična zgodba o junaškem črnogorskem boju za dobrobit Srbije, ki jo je kasneje srbska okupacija kaznovala.- napisal: markomr


Zgodba

Serija o koncu prve svetovne vojne, izgubi državnosti in božični vstaji - najbolj tragičnih dogodkih v zgodovini Črne gore. Zgodba je pripovedovana skozi ljubezensko zgodbo in družinske odnose v tistem obdobju v Črni gori.

Žanri: Drama | Zgodovina | Romantični | Vojna
Igrajo: Miodrag Radonjic, Sanja Popovic, Amar Bukvic

Podrobnosti:
Država: Črna gora
Datum izdaje:29. januar 2017 (Črna gora)
IMDb: https://www.imdb.com/title/tt4310408/?ref_=login


Tehnične specifikacije:

Complete name : Bozicni.ustanak.S01.Ep.01-09. TVRip.720p.x264.R77\Bozicni ustanak TVRip.720p.x264.Ep.01.mp4
Format : MPEG-4
Format profile : Base Media / Version 2
Codec ID : mp42 (isom/iso2/avc1/mp41)
File size : 430 MiB
Duration : 42 min 25 s
Overall bit rate mode : Variable
Overall bit rate : 1 416 kb/s
Encoded date : UTC 2017-02-02 13:43:34
Tagged date : UTC 2017-02-02 13:43:34
Writing application : HandBrake 0.10.3 2016012200

Video
ID : 1
Format : AVC
Format/Info : Advanced Video Codec
Format profile : Main@L4
Format settings : CABAC / 9 Ref Frames
Format settings, CABAC : Yes
Format settings, Reference frames : 9 frames
Codec ID : avc1
Codec ID/Info : Advanced Video Coding
Duration : 42 min 25 s
Bit rate : 1 250 kb/s
Width : 1 280 pixels
Height : 720 pixels
Display aspect ratio : 16:9
Frame rate mode : Constant
Frame rate : 25.000 FPS
Color space : YUV
Chroma subsampling : 4:2:0
Bit depth : 8 bits
Scan type : Progressive
Bits/(Pixel*Frame) : 0.054
Stream size : 379 MiB (88%)
Writing library : x264 core 142 r2479 dd79a61
Encoded date : UTC 2017-02-02 13:43:34
Tagged date : UTC 2017-02-02 13:43:34
Color range : Limited
Color primaries : BT.709
Transfer characteristics : BT.709
Matrix coefficients : BT.709
Codec configuration box : avcC
Audio
ID : 2
Format : AAC LC
Format/Info : Advanced Audio Codec Low Complexity
Codec ID : mp4a-40-2
Duration : 42 min 25 s
Bit rate mode : Variable
Bit rate : 160 kb/s
Channel(s) : 2 channels
Channel layout : L R
Sampling rate : 48.0 kHz
Frame rate : 46.875 FPS (1024 SPF)
Compression mode : Lossy
Stream size : 48.7 MiB (11%)
Title : Stereo / Stereo
Default : Yes
Alternate group : 1
Encoded date : UTC 2017-02-02 13:43:34
Tagged date : UTC 2017-02-02 13:43:34

UŽIVAJTE!
Caliphate.aka.Kalifat.S01.2020.SRBSubs.WEBRip.x264.ts-R77

Klikni za povečavo!
22-12-2020 14:15 naložil rado77
Sejalci: 1 / Odjemalci: 0 / Velikost: 3.55 GB / Dokončani: 3
Prenesi torrent Poročaj torrent Opis torrenta
Zvrst: Drama | Triler
Kategorija: FILMI > TV - Serija

Caliphate.aka.Kalifat.S01.2020.SRBSubs.WEBRip.x264.ts-R77


Kalifat

Caliphate

TV Serija-S01


Država: Švedska
Jezik: švedščina
Datum izdaje: 12. januar 2020 (Švedska)
Ločljivost: 1280x720
Izvajanje: 45 min
Podnapisi: Srbski
https://www.imdb.com/title/tt11398870/

Igralska zasedba:
Gizem Erdogan ... Pervin 8 epizod, 2020
Amed Bozan ... Husam 8 epizod, 2020
Aliette Opheim ... Fatima 8 epizod, 2020
Albin Grenholm ... Calle 8 epizod, 2020
Nora Rios ... Sulle 8 epizod, 2020
Amanda Sohrabi ... Kerima 8 epizod, 2020

Zaplet:
Agent Fatima dobi namig, da je na Švedskem načrtovano teroristično dejanje. Hkrati je najstnica Sulle odprla oči svojemu študentskemu asistentu, ki odpira vrata v nov fascinanten svet.
Več opisa preprosto ni potrebno, ker je serija tako dobra!

Tehnične specifikacije:
Complete name : Caliphate.aka.Kalifat.S01.2020.SRBSubs.WEBRip.x264.ts-R77\Kalifat.S01E01.WEBRip.x264-R77.mp4
Format : MPEG-4
Format profile : Base Media
Codec ID : isom (isom/iso2/avc1/mp41)
File size : 447 MiB
Duration : 46 min 46 s
Overall bit rate : 1 337 kb/s
Movie name : Kalifat.S01E01.WEBRip.x264-ION10
Encoded date : UTC 2020-03-21 16:06:12
Tagged date : UTC 2020-03-21 16:06:12
Writing application : Lavf58.0.101
Comment : Kalifat.S01E01.WEBRip.x264-ION10

Video
ID : 1
Format : AVC
Format/Info : Advanced Video Codec
Format profile : High@L3.1
Format settings : CABAC / 5 Ref Frames
Format settings, CABAC : Yes
Format settings, Reference frames : 5 frames
Codec ID : avc1
Codec ID/Info : Advanced Video Coding
Duration : 46 min 46 s
Bit rate : 1 100 kb/s
Width : 720 pixels
Height : 400 pixels
Display aspect ratio : 16:9
Frame rate mode : Constant
Frame rate : 25.000 FPS
Color space : YUV
Chroma subsampling : 4:2:0
Bit depth : 8 bits
Scan type : Progressive
Bits/(Pixel*Frame) : 0.153
Stream size : 360 MiB (80%)
Title : Kalifat.S01E01.WEBRip.x264-ION10
Writing library : x264 core 148 r2795M aaa9aa8
Tagged date : UTC 2020-03-21 16:06:12
Codec configuration box : avcC

Audio
ID : 2
Format : AAC LC
Format/Info : Advanced Audio Codec Low Complexity
Codec ID : mp4a-40-2
Duration : 46 min 46 s
Duration_LastFrame : -11 ms
Bit rate mode : Constant
Bit rate : 256 kb/s
Channel(s) : 2 channels
Channel layout : L R
Sampling rate : 48.0 kHz
Frame rate : 46.875 FPS (1024 SPF)
Compression mode : Lossy
Stream size : 85.7 MiB (19%)
Title : Kalifat.S01E01.WEBRip.x264-ION10
Language : Swedish
Default : Yes
Alternate group : 1
Encoded date : UTC 2020-03-21 16:06:12
Tagged date : UTC 2020-03-21 16:06:12

UŽIVAJTE!
Elite S02 SrbSubs SPANISH 1080p NF WEBRip DDP5 1 x264 MZABI

Klikni za povečavo!
30-10-2020 17:34 naložil rado77
Sejalci: 1 / Odjemalci: 0 / Velikost: 15.32 GB / Dokončani: 2
Prenesi torrent Poročaj torrent Opis torrenta
Zvrst: Drama | Kriminalka | Triler
Kategorija: FILMI > TV - Serija

Elite S02 SrbSubs SPANISH 1080p NF WEBRip DDP5 1 x264 MZABI


Izvirni naslov:

ÉLITE

(TV serija)

Leto: 2018
Čas izvajanja ep.: cca 50 min.
Država: Španija
Podnapisi: Srbščina


Direktor: Carlos Montero (Ustvarjalec), Darío Madrona (Ustvarjalec), Ramón Salazar, Dani de la Orden, Silvia Quer, Jorge Torregrossa
Scenarist: Carlos Montero , Darío Madrona , Breixo Corral , Abril Zamora , Jaime Vaca , Carlos C. Tomé , Almudena Ocaña , Andrés Seara
Glasba: Lucas Vidal
Kinematografija: Ricardo de Gracia , Daniel Sosa
Igralska zasedba:
Miguel Bernardeau, Mina El Hammani, Itzan Escamilla, Danna Paola, Ester Expósito, Arón Piper, Omar Ayuso, Álvaro Rico, Miguel Herrán, María Pedraza, Jaime Lorente, Claudia Salas, Jorge López, Ainhoa ​​Santamaría, Georgina Amorós, Leïti Sène, Eva Llorach, Sergio Momo, Elisabet Gelabert, Abdelatif Hwidar, Lola Marceli, Jorge Suquet, Rocío Muñoz-Cobo, Irene Arcos, Farah Hamed, Alfredo Villa, Marta Aledo, Ramón Esquinas, Yaiza Guimare, Jorge Clemente, Saturnino García, Carlos Olalla, Pol Granch
Producent: Zeta Audiovisual , Netflix España. Distribuira Netflix
Žanr-TV serija: Drama, Triler, Kriminalka

Povzetek / Opis:
Druga sezona: 8 epizod.

Las Encinas, najboljša in najekskluzivnejša šola v Španiji, kamor elita pošilja svoje otroke na študij, je prav tako sprejet trije otroci iz delavskega razreda, potem ko je njihovo akademijo uničil potres in je lokalni svet razdelil študente med različne šole v okolici. Spopad med tistimi, ki imajo vse, in tistimi, ki nimajo česa izgubiti, ustvari popolno nevihto, ki se na koncu konča z umorom. Kdo stoji za zločinom? Elite je druga španska serija Netflix-a po La Casa De Papel - Money Heist. Vrhunske zabave, bogati otroci, seks, mamila, drama .. kaj bi lahko šlo narobe?

Nagrade:
2018 : Ferozove nagrade: nominiran za najboljšo serijo (drama)
Tehnične specifikacije:
Izvajanje: 60 min
Zvočna mešanica: Stereo | Dolby Digital
Barva: Barva
Razmerje: 16: 9 HD



KDOR SEJE TUDI ŽANJE!
Elite 2018 SrbSubs S01 720p WEBRip x264 AC3 PACK

Klikni za povečavo!
22-10-2020 16:14 naložil rado77
Sejalci: 1 / Odjemalci: 0 / Velikost: 12.63 GB / Dokončani: 6
Prenesi torrent Poročaj torrent Opis torrenta
Zvrst: Drama | Kriminalka | Triler
Kategorija: FILMI > TV - Serija

Elite 2018 SrbSubs S01 720p WEBRip x264 AC3 PACK


Izvirni naslov:

ÉLITE
TV Serija


Leto: 2018
Čas izvajanja ep.: cca 50 min.
Država: Španija
Podnapisi: Srbščina


Direktor: Carlos Montero (Ustvarjalec), Darío Madrona (Ustvarjalec), Ramón Salazar, Dani de la Orden, Silvia Quer, Jorge Torregrossa
Scenarist: Carlos Montero , Darío Madrona , Breixo Corral , Abril Zamora , Jaime Vaca , Carlos C. Tomé , Almudena Ocaña , Andrés Seara

Glasba: Lucas Vidal
Kinematografija: Ricardo de Gracia , Daniel Sosa


Igralska zasedba:

Miguel Bernardeau, Mina El Hammani, Itzan Escamilla, Danna Paola, Ester Expósito, Arón Piper, Omar Ayuso, Álvaro Rico, Miguel Herrán, María Pedraza, Jaime Lorente, Claudia Salas, Jorge López, Ainhoa ​​Santamaría, Georgina Amorós, Leïti Sène, Eva Llorach, Sergio Momo, Elisabet Gelabert, Abdelatif Hwidar, Lola Marceli, Jorge Suquet, Rocío Muñoz-Cobo, Irene Arcos, Farah Hamed, Alfredo Villa, Marta Aledo, Ramón Esquinas, Yaiza Guimare, Jorge Clemente, Saturnino García, Carlos Olalla, Pol Granch

Producent: Zeta Audiovisual , Netflix España. Distribuira Netflix
Žanr-TV serija: Drama, Triler, Kriminalka


Povzetek / Opis:

Prva sezona: 8 epizod.
Las Encinas, najboljša in najekskluzivnejša šola v Španiji, kamor elita pošilja svoje otroke na študij, je prav tako sprejet trije otroci iz delavskega razreda, potem ko je njihovo akademijo uničil potres in je lokalni svet razdelil študente med različne šole v okolici. Spopad med tistimi, ki imajo vse, in tistimi, ki nimajo česa izgubiti, ustvari popolno nevihto, ki se na koncu konča z umorom. Kdo stoji za zločinom? Elite je druga španska serija Netflix-a po La Casa De Papel - Money Heist. Vrhunske zabave, bogati otroci, seks, mamila, drama .. kaj bi lahko šlo narobe?

Nagrade:
2018 : Ferozove nagrade: nominiran za najboljšo serijo (drama)

Tehnične specifikacije:
Izvajanje: 60 min
Zvočna mešanica: Stereo | Dolby Digital
Barva: Barva
Razmerje: 16: 9 HD





KDOR SEJE TUDI ŽANJE!
Pioneer One.R

Klikni za povečavo!
01-10-2020 09:35 naložil rado77
Sejalci: 1 / Odjemalci: 0 / Velikost: 2.33 GB / Dokončani: 3
Prenesi torrent Poročaj torrent Opis torrenta NFO
Zvrst: Drama
Kategorija: FILMI > TV - Serija



Pioneer One 2010



TV Serija






Žanr: Drama






Zgodba:
Relikvija hladne vojne se vrača med strahovi pred terorizmom, vendar se izkaže za pozabljeno sovjetsko vesoljsko misijo. Kar bo prineslo nazaj, bo imelo posledice za ves svet.






Podrobnosti:
Država: ZDA
Jezik: angleščina
Datum izdaje:16. junij 2010 (ZDA)
Podnapisi: srbo-hrvaški
IMDb: ocena 7.0 - link: https://www.imdb.com/title/tt1748166/
Tehnične specifikacije:


Barva: Barva
Razmerje: 16: 9 HD
Velikost: 2.67 GB / 344 MB
Dolžina: 32 min
Zvok: 2 x stereo
Vrsta elementa: MP4







KDOR SEJE TUDI ŽANJE!
Øyevitne - Eyewitness (2014) web-dl.h264 mp4+srt srb-subs R

Klikni za povečavo!
27-09-2020 15:18 naložil rado77
Sejalci: 0 / Odjemalci: 0 / Velikost: 4.6 GB / Dokončani: 3
Prenesi torrent Poročaj torrent Opis torrenta NFO
Zvrst: Drama | Kriminalka
Kategorija: FILMI > TV - Serija


Øyevitne - Eyewitness (2014) - OČIVIDEC



TV Mini-Series






SLO


Petnajstletna najstnika Philip in Henning živita v majhni vasici Mysen, blizu norveške meje s Švedsko . Sta sošolca in soseda, a tudi skrivaj zaljubljena. Med diskretno zvezo pri gramoznici v bližnjem gozdu sta pričai streljanju štirih članov kriminalne združbe. Tudi onadva sta ogrožena s strani morilca, vendar premagata morilca in pobegneta z orožjem za umor. Ker ne želita, da bi se njun odnos razkril, se fanta odločita, da bosta o tem molčala!
Šef lokalne policije Helen Sikkeland vodi preiskavo umora. Je tudi Filipova rejnica. Ko se nasilje tolp nadaljuje in preiskava dobiva več policijskih virov, se pakt o tajnosti fantov razplete. To zabije klin med Filipom in Henningom, ki si zelo želita, da ne bi razkril, zakaj sta bila tisto noč skupaj v gozdu. Medtem ko Helen trdo zasleduje resnico, morilec izsledi in napade Henninga. Izkazalo se je, da je morilec veliko bližje preiskavi, kot se vsi zavedajo.


SRB-CRO


Petnaestogodišnji tinejdžeri Philip i Henning žive u malom selu Mysen, u blizini norveške granice sa Švedskom. Oni su iz razreda i susjedi, ali i potajno zaljubljeni. Tijekom diskretne afere kod šljunkare u obližnjoj šumi svjedočili su pucnjavi četvorice članova kriminalne bande. I njima prijeti ubojica, ali pobjeđuju ubojicu i bježe s oružjem za ubojstvo. Ne želeći da se njihova veza otkrije, dječaci odluče o tome šutjeti!
Šefica lokalne policije Helen Sikkeland vodi istragu ubojstva. Ona je također Filipova udomiteljica. Kako se nasilje bandi nastavlja, a istraga dobiva sve više policijskih sredstava, tako se odvija i pakt tajnosti dječaka. To zabija klin između Philipa i Henninga, koji silno žele ne otkriti zašto su te noći bili zajedno u šumi. Dok Helen teško traži istinu, ubojica ulazi u trag i napada Henninga. Ispostavilo se da je ubojica puno bliži istrazi nego što je svima poznato.


Creator: Jarl Emsell Larsen
Stars: Per Kjerstad, Axel Bøyum, Odin Waage
Country: Norway
Podnapisi: Srbski
Release Date: 20 October 2014
IMDb ocena: 7,5 - link: https://www.imdb.com/title/tt2750688/


Technical Specs


Runtime: 59 min
Sound Mix: Dolby Digital (Dolby 5.1)
Color: Color
Aspect Ratio: 2.20 : 1





KDOR SEJE TUDI ŽANJE!
BONANZA 1959-1973 Cro Sub 720p-AE

Klikni za povečavo!
24-05-2020 18:13 naložil bubar
Sejalci: 0 / Odjemalci: 0 / Velikost: 117.9 GB / Dokončani: 4
Prenesi torrent Poročaj torrent Opis torrenta
Zvrst:
Kategorija: FILMI > TV - Serija





BONANZA 1959-1973 Cro Sub




Ranč Ponderosa na tisuću četvornih milja Cartwright nalazi se u blizini Virginia Citya, Nevada, mjesta Comstock Silver Lode, tijekom i nakon građanskog rata. Svaki od sinova rođen je drugom Benovom suprugom; nitko od majki još nije živ. Avanture su tipične zapadnjačke igre, a ima i mnogo osobnih odnosa / problema.







Ovo je vjerojatno bio jedan od najutjecajnijih zapadnih serija svih vremena. Uz „Gunsmoke“ ovo je također bila jedna od najdugovječnijih serija u povijesti televizije. Ono što ga je učinilo odličnim bilo je to što je s vremenom mogao postati bolji. Na primjer, u mnogim ranim epizodama, Ben i njegovi sinovi imali su gotovo antagonistički odnos s bilo kime tko dođe na njihovo imanje. Zapravo, Cartwrightsi su prvi zamalo pucali, postavljali pitanja kasnije odnos prema bilo kojem strancu koji bi mogao lutati na Ponderosu. Međutim, kad je Lorne Greene sugerirao da Cartwrightsi postanu gostoljubiviji, tada je show počeo krenuti. Također, Adam, Hoss i Joe nisu se najbolje slagali jedno s drugim tijekom ranih dana showa, ali kako je vrijeme odmicalo njih troje su se sve više zbližavali i pokazivali svoju naklonost jedni drugima, posebno Hossu i Malom Joeu. No stvar koja ga je stvarno učinila je činjenica da su glumci i ekipa uspjeli preći iz ozbiljne drame u neke vrlo lagane epizode i učiniti je više od samo zapadne, nego obiteljske drame s pričama koje bi se lako mogle uklopiti u bilo koje doba , Ovo je zaista predstava za vjekove.

Na IMDb-u piše da ima 14 sezona,ovde jih 11...ako ima tko još preostale tri neka jih postavi.
General

Complete name : Bonanza 1959-1973.mkv
Format : Matroska
Format version : Version 4
Overall bit rate : 1 096 kb/s


Video

Format : AVC
Format/Info : Advanced Video Codec
Bit rate mode : Variable
Nominal bit rate : 1 000 kb/s
Maximum bit rate : 4 000 kb/s
Width : 704 pixels
Height : 528 pixels
Frame rate : 25.000 FPS


Audio

Format : AAC LC
Format/Info : Advanced Audio Codec Low Complexity
Channel(s) : 2 channels
Channel layout : L R
Sampling rate : 48.0 kHz
Frame rate : 46.875 FPS (1024 SPF)