A
B
C
D
E
F
G
H
I
J
K
L
M
N
O
P
Q
R
S
T
U
V
W
X
Y
Z
0-9
Dara.Iz.Jasenovca.2020.1080p.HDTV.x264

Klikni za povečavo!
22-02-2021 15:29 naložil rado77
Sejalci: 5 / Odjemalci: 0 / Velikost: 3.51 GB / Dokončani: 9
Prenesi torrent Poročaj torrent Opis torrenta
Zvrst: Drama | Vojni
Kategorija: FILMI > HDTV

Dara.Iz.Jasenovca.2020.1080p.HDTV.x264


DARA IZ JASENOVCA (2020)


Zgodba:
Zgodba teče okoli mladega dekleta po imenu Dara, ki je bila poslana v najhujše koncentracijsko taborišče na balkanu: Jasenovac.
Film je postavljen v Ustaško državo NDH (Neodvisna Država Hrvaška) med drugo svetovno vojno. Predstavljen je skozi oči dekleta Dare. Prikazuje koncentracijsko taborišče Jasenovac, pod vodstvom sadističnega poveljnika Vjekoslava "Maksa" Luburića.
To je prvi moderni film o drugi svetovni vojni, ki se dogaja in prikazuje taborišča pod nadzorom NDH.










Igrajo:
Igor Đorđević ... Ante Vrban
Marko Janketić ... Vjekoslav "Maks" Luburić
Biljana Cekić ... Dara
Nataša Drakulić ... Jovanka Konča in drugi


Leto izdaje ... 2021
Dolžina ... 130 minut
Velikost ... 3.50 GB
Rezolucija ... 1920 x 1080
Država ... Srbija
Jezik ... Srbski, Hrvaški, Nemški


TO NI LE FILM - TO JE OPOMIN!
Sjene.aka.Sence.2014.1080p.HDTVx264-R77

Klikni za povečavo!
18-02-2021 15:42 naložil System
Sejalci: 1 / Odjemalci: 0 / Velikost: 354.32 MB / Dokončani: 0
Prenesi torrent Poročaj torrent Opis torrenta
Kategorija: FILMI > HDTV
Anonimen nalagalec

Sjene.aka.Sence.2014.1080p.HDTVx264-R77

Sjene (2014)

Sence

ŽANR: kratki, biografija, drama, zgodovina, vojni
REŽISER: Miloš Ljubomirović
IGRALCI: Aleksandar Radojičić , Nikola Rakočevič , Nebojša Glogovac , Dragan Petrovič-Pele , Luka Mijatović , Lazar Đukič , Nikola Glišič
SCENARIST: Srdjan Banović , Muharem Bazdulj , Miloš Ljubomirovic
PRODUCENT: Masa Čumić , Simon DeKarić , Milos Ljubomirović , Miodrag Milosavljevic
ČAS TRAJANJA: 24 min

POVZETEK:

Sence so film, ki temelji na resničnih dogodkih in prinaša zgodbo o usodi atentatorja nadvojvode Franca Ferdinanda iz Avstrije. Ta atentat je eden najpomembnejših dogodkov v zgodovini človeštva, ker je služil kot domnevni motiv za začetek, kar se bo kasneje izkazalo, največje vojne, ki jo je kdaj videl svet. To je film o mladeničih, ki so njegovo ime v zgodovino vpisali za večnost. Zgodba zajema obdobje po atentatu in je postavljena v češki zapor Terezin, kamor je bil atentator poslan na dvajsetletno kazen. Dogajanje v zaporu razkriva značaj atentatorja, njegovo psihološko stanje, motive, ki so ga gnali, in njegov zagrenjen boj, ne samo s stražarji, ampak tudi s samim seboj. Shadows govori o človeški dobroti, ki jo najdemo kjer koli in ki je nad nacionalnostjo in pripadnostjo eni strani. Film o mladih fantih, ki želijo pomagati svojim ...



TEHNIČNE SPECIFIKACIJE:
Complete name : Sjene.aka.Sence.2014.1080p.HDTVx264-R77
Format : Matroska
Format version : Version 2
File size : 354 MiB
Duration : 26 min 13 s
Overall bit rate : 1 889 kb/s
Encoded date : UTC 2018-05-06 16:19:48
Writing application : mkvmerge v7.7.0 ('Six Voices') 32bit built on Feb 28 2015 23:23:00
Writing library : libebml v1.3.1 + libmatroska v1.4.2
Video
ID : 1
Format : AVC
Format/Info : Advanced Video Codec
Format profile : High@L4.1
Format settings : CABAC / 4 Ref Frames
Format settings, CABAC : Yes
Format settings, Reference frames : 4 frames
Codec ID : V_MPEG4/ISO/AVC
Duration : 26 min 13 s
Bit rate : 1 791 kb/s
Width : 1 280 pixels
Height : 528 pixels
Display aspect ratio : 2.40:1
Frame rate mode : Constant
Frame rate : 25.000 FPS
Color space : YUV
Chroma subsampling : 4:2:0
Bit depth : 8 bits
Scan type : Progressive
Bits/(Pixel*Frame) : 0.106
Stream size : 336 MiB (95%)
Default : Yes
Forced : No
Audio
ID : 2
Format : AAC LC
Format/Info : Advanced Audio Codec Low Complexity
Codec ID : A_AAC-2
Duration : 26 min 13 s
Bit rate : 96.0 kb/s
Channel(s) : 2 channels
Channel layout : L R
Sampling rate : 48.0 kHz
Frame rate : 46.875 FPS (1024 SPF)
Compression mode : Lossy
Delay relative to video : 9 ms
Stream size : 18.0 MiB (5%)
Language : Serbian
Default : Yes
Forced : No

Uživajte!
Le.Vieux.Fusil.1975.aka.Stara.pistola.SRBSubs.DVDRip-R77

Klikni za povečavo!
14-02-2021 15:22 naložil rado77
Sejalci: 1 / Odjemalci: 0 / Velikost: 1.09 GB / Dokončani: 1
Prenesi torrent Poročaj torrent Opis torrenta
Zvrst: Drama | Triler | Vojni
Kategorija: FILMI > DVDRip

Le.Vieux.Fusil.1975.aka.Stara.pistola.SRBSubs.DVDRip-R77


Le VIEUX FUSIL (1975)
Stara pištola

Podrobnosti o filmu:

Igrajo:Philippe Noiret Romy Schneider Jean Bouise
Direktor:Robert Enrico
Države:Francija, Zvezna republika Nemčija
Leto:1975
Žanr:Drama, triler, vojni
Izvajanje: 103 min
Jezik: Francoščina , Nemško
Podnapisi: Srbski


Zgodba:

V Montaubanu leta 1944 Julien Dandieu kot kirurg v lokalni bolnišnici. Prestrašen zaradi nemške vojske, ki je vstopila v Montauban, prosi prijatelja Francoisa, naj odpelje njegovo ženo in hčerko v vasico, kjer ima Julien star grad. Teden dni kasneje se je Julien odločil, da se nato srečata za konec tedna, toda Nemci že zasedajo vas.


Film prikazuje grozodejstva ki so jih storili nemški vojaki, med drugimi tudi umor otroka...


Tehnične specifikacije:

Format: MKV
Ločljivost: 674 x 574
Video Kodek: H264
Velikost: 1,08 GB
avdio kodek: AC-3
Taxa de Biltrate: 192 Kbps
Ocena IMDB: 7,7


TO JE LE FILM VREDEN OGLEDA!
Operation.Red.Sea.2018.SLOSubs.720p.BRRip.H265-DrSi

Klikni za povečavo!
06-02-2021 11:25 naložil Ziva
Sejalci: 5 / Odjemalci: 0 / Velikost: 3.62 GB / Dokončani: 12
Prenesi torrent Poročaj torrent Opis torrenta NFO
Zvrst: Akcija | Triler | Vojni
Kategorija: FILMI >  BRRip



Naziv: Operation.Red.Sea.2018.SLOSubs.720p.BRRip.H265-DrSi
Leto..........: 2018
Velikost......: 3,60 GB
Dolžina.......: 138 min.
Video.........: 3 280 Kbps | 1280x536 | 24 fps | H265
Zvok..........: Dolby Digital AC3 5.1 @ 448 Kbps
Jezik.........: Mandarinski | Angleški | Arabski
Žanr..........: Vojni | Triler | Akcija
Država .......: Kitajska | Hong Kong
Podnapisi.....: Slovenski (RETAiL)
Prevod........:
Priredil in uredil: HrBt
Tehnična obdelava DVD Rippers Slovenija

IMDb Ocena....: 6,7/10
Režija........: Dante Lam
Scenarij......: Zhuzhu Chen, Ji Feng
Produkcija....: Bona Film Group, The P.L.A Navy Government TV Art Central of China, Star Dream Studio Media


Yi Zhang as Yang Rui
Johnny Huang as Gu Shun
Hai-Qing as Xia Nan
Jiang Du as Xu Hong
Luxia Jiang as Tong Li
Sanâa Alaoui as Ina
Fang Yin as Li Dong
Yutian Wang as Zhang Tiande
Jiahao Guo as Lu Chen
Henry Prince Mak as Zhuang Yu


Skupina za posebne naloge kitajske mornarice je znana
po svojih spretnostih in učinkovitosti. Po uspešnem
prevzemu tovorne ladje, ki so jo pirati ugrabili v bližini
somalijske obale, je skupina zaupana še bolj tvegani misiji.
Po politični revoluciji v eni od severnoafriških republik
je življenje kitajskih prebivalcev v nevarnosti.



Triage.2009.SLOSubs.DVDRip.XviD-R77

Klikni za povečavo!
30-01-2021 15:07 naložil rado77
Sejalci: 0 / Odjemalci: 0 / Velikost: 1.37 GB / Dokončani: 4
Prenesi torrent Poročaj torrent Opis torrenta
Zvrst: Drama | Vojni
Kategorija: FILMI > DVDRip

Triage.2009.SLOSubs.DVDRip.XviD-R77





Triage 2009


Triaža







Država: Irska, Španija, Belgija, Francija
Leto: 2009
Žanri: Drama, Vojni
Dolžina: 99 minut
Režija: Danis Tanović
Scenarij: Danis Tanović po romanu Scota Andersona
Podnapisi: slovenščina



Igrajo:
Colin Farrell ... Mark Walsh
Jamie Sives ... David
Paz Vega ... Elena Morales
Kelly Reilly ... Diane
Branko Djurić ... Dr. Talzani
Mozaffar Shafeie ... Talzani's Assitant
Karzan Sherabayani ... Wounded Man
Luis Callejo ... Pesh Merga Commander
Alex Spijksma ... Pesh Merga Sergeant (as Alejandro Sánchez)
Ian McElhinney ... Ivan
Juliet Stevenson ... Amy
Michelle Hartman ... Nurse
Eileen Walsh ... Dr. Christopher
Nick Dunning ... Dr. Hersbach
Christopher Lee ... Joaquín Morales



Vsebina:
Režiser z oskarjem nagrajene vojne drame Nikogaršnja
zemlja prikazuje zgodbo fotografa Marka, ki se konec
80. let s prijateljem Davidom odpravi v Kurdistan.
Surova vojna med prijateljema povzroči moralne dileme
in spore, zato se razideta. Po Markovi vrnitvi v
domovino želi njegova žena Elena izvedeti, kaj se je
zgodilo, a ker se čustveno strti Mark ne želi odpreti,
na pomoč priskoči Elenin oče. Izkušeni psihiater odpre
Markove duševne rane in ga prisili, da se sooči s
svojimi občutki krivde.





Tehnične specifikacije:



Complete name : Triage.2009.SLOSubs.DVDRip.XviD-R77

Format : AVI
Format/Info : Audio Video Interleave
File size : 1.37 GiB
Duration : 1 h 39 min
Overall bit rate : 1 968 kb/s
Writing application : VirtualDubMod 1.5.4.1 (build 2178/release)
Writing library : VirtualDubMod build 2178/release


Video

ID : 0
Format : MPEG-4 Visual
Format profile : Advanced Simple@L5
Format settings : BVOP1 / Custom Matrix
Format settings, BVOP : 1
Format settings, QPel : No
Format settings, GMC : No warppoints
Format settings, Matrix : Custom
Codec ID : XVID
Codec ID/Hint : XviD
Duration : 1 h 39 min
Bit rate : 1 513 kb/s
Width : 720 pixels
Height : 416 pixels
Display aspect ratio : 1.731
Frame rate : 23.976 (24000/1001) FPS
Color space : YUV
Chroma subsampling : 4:2:0
Bit depth : 8 bits
Scan type : Progressive
Compression mode : Lossy
Bits/(Pixel*Frame) : 0.211
Stream size : 1.05 GiB (77%)
Writing library : XviD 1.2.1 (UTC 2008-12-04)


Audio

ID : 1
Format : AC-3
Format/Info : Audio Coding 3
Commercial name : Dolby Digital
Codec ID : 2000
Duration : 1 h 39 min
Bit rate mode : Constant
Bit rate : 448 kb/s
Channel(s) : 6 channels
Channel layout : L R C LFE Ls Rs
Sampling rate : 48.0 kHz
Frame rate : 31.250 FPS (1536 SPF)
Compression mode : Lossy
Stream size : 319 MiB (23%)
Alignment : Split across interleaves
Interleave, duration : 96 ms (2.30 video frames)
Interleave, preload duration : 96 ms
Language : English
Service kind : Complete Main



Uživajte!
Doroga.Na.Berlin.aka.Road.to.Berlin.2015.SLOSubs.BDRip-R77

Klikni za povečavo!
30-01-2021 14:55 naložil rado77
Sejalci: 1 / Odjemalci: 0 / Velikost: 1.46 GB / Dokončani: 4
Prenesi torrent Poročaj torrent Opis torrenta
Zvrst: Drama | Vojni
Kategorija: FILMI >  BRRip

Doroga.Na.Berlin.aka.Road.to.Berlin.2015.SLOSubs.BDRip-R77





Road to Berlin (2015)

[
img]https://i.imgur.com/cvU2Gov.jpg[/img]


Doroga na Berlin (2015)


Pot v Berlin (2015)

(Na poti do Berlina)






Režija: Sergej Popov
Scenarij: Evgeniy Nikishov
Država: Rusija
Jezik: Ruščina, Nemško
Podnapisi: Slovenščina
Žanr: drama, vojni
Dolžina: 82 min





Zgodba:

Poleti 1942 je mladi komunikacijski častnik, obtožen strahopetnosti, obsojen na smrt z streljanjem. Presenetljiv napad Nemcev odloži usmrtitev in obsojenec in njegova straža morata pobegniti. Medtem ko poskušata obsojenca dostaviti na štab, se med stražarjem in njegovim ujetnikom razvije tiho prijateljstvo, ko premagujeta ovire, da bi se prebila skozi obroč in se spopadeta z Nemci...





Tehnične specifikacije:



Complete name : Doroga.Na.Berlin.aka.Road.to.Berlin.2015.SLOSubs.BDRip-R77

Format : AVI
Format/Info : Audio Video Interleave
File size : 1.46 GiB
Duration : 1 h 25 min
Overall bit rate : 2 436 kb/s
Writing application : VirtualDubMod 1.5.10.3 | www.virtualdub-fr.org || (build 2550/release)
Writing library : VirtualDubMod build 2550/release


Video

ID : 0
Format : MPEG-4 Visual
Format profile : Advanced Simple@L5
Format settings : BVOP1 / Custom Matrix
Format settings, BVOP : 1
Format settings, QPel : No
Format settings, GMC : No warppoints
Format settings, Matrix : Custom
Codec ID : XVID
Codec ID/Hint : XviD
Duration : 1 h 25 min
Bit rate : 1 978 kb/s
Width : 720 pixels
Height : 384 pixels
Display aspect ratio : 1.85:1
Frame rate : 23.976 (24000/1001) FPS
Color space : YUV
Chroma subsampling : 4:2:0
Bit depth : 8 bits
Scan type : Progressive
Compression mode : Lossy
Bits/(Pixel*Frame) : 0.298
Stream size : 1.19 GiB (81%)
Writing library : XviD 73


Audio

ID : 1
Format : AC-3
Format/Info : Audio Coding 3
Commercial name : Dolby Digital
Codec ID : 2000
Duration : 1 h 25 min
Bit rate mode : Constant
Bit rate : 448 kb/s
Channel(s) : 6 channels
Channel layout : L R C LFE Ls Rs
Sampling rate : 48.0 kHz
Frame rate : 31.250 FPS (1536 SPF)
Compression mode : Lossy
Stream size : 275 MiB (18%)
Alignment : Split across interleaves
Interleave, duration : 42 ms (1.00 video frame)
Interleave, preload duration : 500 ms
Service kind : Complete Main





UŽIVAJTE!
The.Wind.That.Shakes.the.Barley.2006.SLOSUB.DVDRip.XviD-remom

Klikni za povečavo!
23-01-2021 14:43 naložil rado77
Sejalci: 0 / Odjemalci: 0 / Velikost: 1.37 GB / Dokončani: 4
Prenesi torrent Poročaj torrent Opis torrenta
Zvrst: Drama | Vojni | Zgodovinski
Kategorija: FILMI > DVDRip

The.Wind.That.Shakes.the.Barley.2006.SLOSUB.DVDRip.XviD-remom


The Wind That Shakes the Barley 2006

Veter ki trese ječmen


Dolžina : 120 min
Leto : 2006
Država : USA
Žanr : Drama | History | War
iMBD info : http://www.imdb.com/title/tt0460989/
iMDB ocena : 7.6/10 (46,377 glasov)
Zvok : AC3 5.1 English
Podnapisi : Slovenski
Režija : Ken Loach

[
b]Igrajo:[/b]
Cillian Murphy ... Damien
Padraic Delaney ... Teddy
Liam Cunningham ... Dan
Orla Fitzgerald ... Sinead
Mary O'Riordan ... Peggy
Mary Murphy ... Bernadette
Laurence Barry ... Micheail
Damien Kearney ... Finbar
Frank Bourke ... Leo
Myles Horgan ... Rory
Martin Lucey ... Congo
Aidan O'Hare ... Steady Boy
Shane Casey ... Kevin
John Crean ... Chris
Mairtin de Cogain ... Sean


Opis:

Irec Damien se pripravlja na študij medicine v Londonu, med tem ko se
njegov brat bori za samostojnost dežele. Ko Damien vidi grozote, ki jih
izvajajo britanski vojaki, se tudi sam pridruži upornikom, toda kmalu se
ne more več iztrgati iz začaranega kroga krutega nasilja, ki Irsko vodi v
državljansko vojno, v kateri se na nasprotni strani znajde tudi njegov brat.
Film, ki temelji na resničnih dogodkih, je prejel zlato palmo za najboljši
film v Cannesu.


Uživajte!
Bon.voyage.2003.SLOSub.bdrip.x264-R77

Klikni za povečavo!
23-01-2021 12:19 naložil System
Sejalci: 1 / Odjemalci: 0 / Velikost: 700.04 MB / Dokončani: 0
Prenesi torrent Poročaj torrent Opis torrenta
Kategorija: FILMI >  BRRip
Anonimen nalagalec

Bon.voyage.2003.SLOSub.bdrip.x264-R77
Bon Voyage 2003
LEPO POTOVANJE
Režija: Jean-Paul Rappeneau
Scenarij: Jean-Paul Rappeneau , Patrick Modiano
Igrajo: Isabelle Adjani, Gérard Depardieu, Virginie Ledoyen
Zgodba:
Na začetku druge svetovne vojne usoda svobodnega sveta visi na koncu v luksuznem hotelu Splendide v Bordeauxu. Člani kabineta, novinarji, fiziki in vohuni vseh prepričanj se zberejo, da bi se izognili nacistični okupaciji Pariza. Družbeniki visoke družbe se družijo z zaporniki. Ubijajo spletke, znanstvene skrivnosti in ljubezenske zadeve.
Viviane, slavna igralka stori umor, in njen prijatelj Frédéric Auger, pisatelj, je obsojen. S prijateljem bi pobegnil iz zapora, ko bo nacistična vojska prišla v Pariz. .. Pobegnili bodo do Bordeauxa in spoznali Jean-Etiennea Beauforta, francoskega ministra, ki ga je igral Depardieun in je zaljubljen v igralko. Prav tako bodo morali pomagati Camille (Ledoyen) pri pošiljanju pomembnih del v Anglijo.
Žanri: Komedija, Drama, Skrivnost, Romantični, Triler, Vojna


Podrobnosti:
Država: Francija
Jezik: Francoščina | Nemščina | Angleščina | Italijansko
Datum izdaje:27. maj 2004
Podnapisi: Slovenščina

Tehnične specifikacije:
Izvajanje: 114 min
Zvočna mešanica: DTS | Dolby Digital
Barva: Črno in belo | Barva
Razmerje: 2.35 : 1


VELIKO UŽITKOV!
Podolskiye Kursanty 2020 SrbSubs 720p WEBRip XviD AC3 Unknown

Klikni za povečavo!
23-01-2021 10:55 naložil Ziva
Sejalci: 2 / Odjemalci: 0 / Velikost: 4.71 GB / Dokončani: 7
Prenesi torrent Magnet Link Poročaj torrent Opis torrenta NFO
Zvrst: Akcija | Vojni
Kategorija: FILMI > WEBRip-720



Podolskiye Kursanty 2020 720p WEBRip XviD AC3 Unknown
Language(s): Russian
Size: 4.70 GB | Duration: 2hr 16mn | Container: AVI
Audio: AC-3 | 448 Kbps | 6 Channels
Video: XviD | 4488 Kbps | 1280 x 536
Genre: Action | Drama | War


Artyom Gubin, Lubov Konstantinova, Igor Yudin


The film tells the story of the Podolsk cadets' heroic stand outside Moscow in October 1941. Cadets from the Podolsk infantry and artillery schools were sent to the Ilyinsky line of defense, fighting alongside units from the Soviet 43rd Army to hold back the German advance until reinforcements arrived. Hopelessly outnumbered, young men in their teens laid down their lives in a battle lasting almost two weeks to obstruct the far superior German forces advancing towards Moscow. This film is not only about war. It is also about love, true camaraderie, and the path from boyhood to manhood. Around 3,500 cadets and their commanding officers were sent to hold up the last line of defense outside Moscow. Most of them remained there for eternity.



Snayper 2 Tungus S01 SrbSubs 720p HDTV x264 PACK

Klikni za povečavo!
20-01-2021 15:26 naložil Ziva
Sejalci: 1 / Odjemalci: 0 / Velikost: 4.55 GB / Dokončani: 8
Prenesi torrent Poročaj torrent Opis torrenta NFO
Zvrst: Vojni
Kategorija: FILMI > HDTV



Mini serija
Snayper 2 Tungus S01 720p HDTV x264 PACK
Language(s): Russian
Size: 4.55 GB | Duration: 4 x 40mn | Container: MKV
Audio: MP-2 | 192 Kbps | 2 Channels
Video: AVC | 3800 Kbps | 1280 x 720
Genre: War
Podnapisi: srbski


World War 2 - Eastern Front: A new batch of raw, inexperienced female Soviet snipers arrive at the front. To bolster them a commander picks a Tungus medic whose people are known for their hunting skills and marksmanship to lead them in battle. Soon a merciless duel with an elite German sniper develops. The main character is based on the top Soviet sniper SEMYON NOMOKONOV who had 367 kills to his credit.



Spasti.Leningrad.aka.Saving.Leningrad.2019.SLOSubs.BRRip.XviD-DrSi

Klikni za povečavo!
16-01-2021 11:47 naložil Ziva
Sejalci: 1 / Odjemalci: 0 / Velikost: 2.2 GB / Dokončani: 1
Prenesi torrent Poročaj torrent Opis torrenta NFO
Zvrst: Akcija | Drama | Vojni
Kategorija: FILMI >  BRRip



Naziv: Spasti.Leningrad.aka.Saving.Leningrad.2019.SLOSubs.BRRip.XviD-DrSi
Source: Spasti.Leningrad.2019.1080p.Bluray.DTS.5.1.x264-OllandGroup
Leto izida ........: 2019
Velikost ...........: 2,20 GB
Dolžina ............: 97 Minut
Video ...............: 2783 Kbps | 720x304 | 24 fps
Zvok .................: Dolby Digital AC3 5.1 @ 448 Kbps
Kodek.................: XviD
Zvrst………….: Akcija | Vojni | Drama
Država .............: Rusija
Jezik ................: Ruski
Podnapisi .........: Slovenski (custom)
Prevod: denycare –Hvala!
Tehnična obdelava: DVD Rippers Slovenija

Režija.........: Aleksey Kozlov
Scenarij.......: Aleksey Kozlov


Maria Melnikova ... Nastya
Andrey Mironov-Udalov ... Kostya
Gela Meskhi ... Petruchik
Anastasiya Melnikova ... Mariya Nikolayevna
Valeriy Degtyar ... Aleksandr Naumovich
Marina Komarova ... Anastasiya Aleksandrovna
Vitaliy Kishchenko ... Gorelov
Aleksey Shevchenkov ... Yerofeyev


Spremljamo izmišljeno zgodbo ob resničnih dogodkih med 2. sv. vojno,
ko so Nemci oblegali takrat imenovani Leningrad. Kostya je mlad
ruski kadet topništva, ki se s svojim dekletom preko noči namerava
z barko evakuirati iz mesta preko bližnjega jezera Ladoga.
Toda barka povsem razpada, ob enem pa jim iz zraka grozijo
še nemška bojna letala, ki jih ves čas obletavajo.
Tako mora okoli 1500 ljudi na krovu preživeti svojo najdaljšo noč.





House.of.Saddam.S01.2008.SLOSubs.WEBRip.x264-R77

Klikni za povečavo!
05-01-2021 15:14 naložil System
Sejalci: 1 / Odjemalci: 0 / Velikost: 2.29 GB / Dokončani: 1
Prenesi torrent Poročaj torrent Opis torrenta
Kategorija: FILMI > TV - Serija
Anonimen nalagalec

House.of.Saddam.S01.2008.SLOSubs.WEBRip.x264-R77


House of Saddam 2008
TV mini Serija
SADAMOVA HIŠA

Mini serija, ki raziskuje delovanje družine Sadama Huseina in njegov odnos z najbližjimi svetovalci.

1. I. del
1. del 4. Biografija iraškega predsednika Sadama Huseina (Igal Naor) zajema njegov vzpon na oblast leta 1979, vojno z Iranom v osemdesetih letih in afero, ki bi dejansko končala njegovo poroko s prvo ženo (Shohreh Aghdashloo). Uday: Philip Arditti.

2.
II.del
2. del 4. Biografija iraškega predsednika Sadama Huseina (Igal Naor) zajema posledice vojne z Iranom konec osemdesetih let, njegov nestanoviten odnos s sinom Udayem (Philip Arditti) in obrambo Kuvajta pod vodstvom ZDA po invazija leta 1990. Qusay: Mounir Margoum. Adnan Khairallah: Said Amadis.

3. III. Del
Tretji del štiridelne biografije iraškega predsednika Sadama Huseina (Igal Naor) se odpre leta 1995, ko je neizpolnjevanje inšpekcijskih pregledov OZN pripeljalo do sankcij, in podrobno opisuje nesrečno prebeg njegovega zeta v Jordanijo ( Amr Waked). Uday: Philip Arditti. Qusay: Mounir Margoum.

4. IV. Del
Zaključek biografije iraškega predsednika Sadama Huseina (Igal Naor) prikazuje njegovo skrivanje ameriškim silam po invaziji marca 2003, ki ga je ločila od njegovih sinov, Udaya in Qusaya, ki sta bila ubita julija. Qusay: Mounir Margoum. Uday: Philip Arditti.



Podrobnosti:

Igrajo: Igal Naor , Shohreh Aghdashloo , Makram Khoury
Žanri: Biografija, drama, zgodovina, vojni
IMDb: https://www.imdb.com/title/tt0936453
Izvajanje: 232 min (4 epizode)
Država: Združeno kraljestvo | ZDA
Jezik: Arabščina | angleščina
Podnapisi: Slovenski




Tehnične specifikacije:

Complete name : House.of.Saddam.S01.2008.SLOSubs.WEBRip.x264-R77
Format : MPEG-4
Format profile : Base Media
Codec ID : isom (isom/iso2/avc1/mp41)
File size : 604 MiB
Duration : 1 h 3 min
Overall bit rate : 1 340 kb/s
Movie name : House.of.Saddam.S01E01.WEBRip.x264-R77
Encoded date : UTC 2019-08-12 14:35:42
Tagged date : UTC 2019-08-12 14:35:42
Writing application : Lavf58.0.101
Comment : House.of.Saddam.S01E01.WEBRip.x264-R77

Video
ID : 1
Format : AVC
Format/Info : Advanced Video Codec
Format profile : High@L3.1
Format settings : CABAC / 5 Ref Frames
Format settings, CABAC : Yes
Format settings, Reference frames : 5 frames
Codec ID : avc1
Codec ID/Info : Advanced Video Coding
Duration : 1 h 3 min
Bit rate : 1 100 kb/s
Width : 720 pixels
Height : 406 pixels
Display aspect ratio : 16:9
Original display aspect ratio : 16:9
Frame rate mode : Constant
Frame rate : 23.976 (24000/1001) FPS
Color space : YUV
Chroma subsampling : 4:2:0
Bit depth : 8 bits
Scan type : Progressive
Bits/(Pixel*Frame) : 0.157
Stream size : 486 MiB (80%)
Title : House.of.Saddam.S01E01.WEBRip.x264-R77
Writing library : x264 core 148 r2795M aaa9aa8
Codec configuration box : avcC

Audio
ID : 2
Format : AAC LC
Format/Info : Advanced Audio Codec Low Complexity
Codec ID : mp4a-40-2
Duration : 1 h 3 min
Bit rate mode : Constant
Bit rate : 256 kb/s
Channel(s) : 2 channels
Channel layout : L R
Sampling rate : 48.0 kHz
Frame rate : 46.875 FPS (1024 SPF)
Compression mode : Lossy
Stream size : 115 MiB (19%)
Title : House.of.Saddam.S01E01.WEBRip.x264-R77
Language : English
Default : Yes
Alternate group : 1
Encoded date : UTC 2019-08-12 14:35:42
Tagged date : UTC 2019-08-12 14:35:42




UŽIVAJTE!
Kampen.om.tungtvannet.S01.SRBSubs.720p.WEB.x264

Klikni za povečavo!
05-01-2021 12:49 naložil System
Sejalci: 2 / Odjemalci: 0 / Velikost: 2.74 GB / Dokončani: 6
Prenesi torrent Poročaj torrent Opis torrenta
Zvrst: Drama | Vojni | Zgodovinski
Kategorija: FILMI > TV - Serija
Anonimen nalagalec

Kampen.om.tungtvannet.S01.SRBSubs.720p.WEB.x264

Kampen om tungtvannet AKA The Saboteurs

TV Serija S01

Vojna s težko vodo



Zgodba o Hitlerjevem načrtu, da bi Nemčija med drugo svetovno vojno dobila atomsko bombo, in močne vodne sabotaže v Rjukanu na Norveškem, gledano s štirih zornih kotov, nemška stran, zavezniki, diverzanti in četa



OPIS DOGAJANJ:

Med drugo svetovno vojno je bil Vemork v Rjukanu v središču proizvodnje težke vode. Vojna s težko vodo je Nemce ustavila pri razvoju atomske bombe.
Če bi Nemci lahko nadaljevali z raziskovanjem težke vode, bi morda lahko zgradili atomsko bombo.
Takšen vtis so imeli zavezniški znanstveniki, medtem ko je bila druga svetovna vojna v polnem razvoju. Zaradi atomske bombe bi lahko zavezniki izgubili vojno.
Zavezniški znanstveniki so si neprestano prizadevali, da bi poskušali ustvariti jedrsko eksplozijo na podlagi drugih načel, vendar jih je čakala še dolga pot. In edini vir težke vode je bil na nemški okupirani Norveški, v Vemorku, v Rjukanu.
Sabotažne akcije, katerih namen je bil preprečiti Nemcem pridobivanje težke vode, so nekatera najbolj drzna in vznemirljiva dejanja druge svetovne vojne.
Vse se je začelo marca 1942, ko je padel samotni padalec, da bi zbral znanje o proizvodnji težke vode. 19. oktobra so v bližini Sognadalena, zahodno od Rjukana, spustili še štiri Norvežane. Vsi so bili lokalni fantje in so dobro poznali okolico. Njihova naloga je bila pripraviti diverzantsko akcijo in poslati radijska sporočila v Anglijo. Skupina je imela kodno ime "Grouse".
Potovanje skupine Grouse do predvidenega sedeža je bilo težko. Že stoletja so bili odrezani od zunanjega sveta, medtem ko so čakali na nove akumulatorje za radijsko postajo.
Mesec dni kasneje, 19. novembra 1942, je bila iz Anglije poslana britanska diverzantska skupina 34 posebej usposobljenih moških. Njihova naloga je bila napasti težko vodno tovarno v Vemorku in jo uničiti. Skupina Grouse naj bi delovala kot sprejemni odbor in pripravila pristanek na Skolandu blizu jezera Møsvatn.
Potem pa je prišlo do katastrofe. Moški so bili prepeljani z jadralnimi letali in eno letalo in jadralno letalo, ki ga je vleklo, je strmoglavilo v goro. Drugo jadralno letalo po izpustu ni uspelo pravilno pristati, pri čemer je nekaj njegovih prebivalcev umrlo, Nemci pa so preživele streljali.
Kljub temu nazadovanju je sestavljala skupina Grouse, čeprav so se spremenili v "Swallow". Zimo so bili prisiljeni preživeti skrite v surovi divjini gorske planote Hardangervidda, jesti, kar je ostalo od njihovih obrokov, in prehranjevati z mesom divjih severnih jelenov. Jedli so celo vsebino želodca severnih jelenov, da so dobili bistvena hranila.
16. februarja 1943 je nova skupina mladih Norvežanov, posebej usposobljenih za misijo, pristala na gorski planoti Hardangervidda. Pristala sta 50 km od predvidenega cilja in stopila naravnost v snežni metež. Trajalo je nekaj dni, preden je 6 članov nove skupine "Gunnerside" lahko združilo moči z nekdanjo skupino Grouse, zdaj preimenovano v Swallow.
27. februarja zvečer so bili diverzanti v Fjøsbudalenu, severno od obrata v Vemorku, in se pripravljali na napad.
Začeli so z nevarnim in izčrpavajočim spustom, prečkali sotesko, ki se je spuščala do obrata za težko vodo, in z ograjo prerezali žico.
Pokrovitelji so zavzeli svoje položaje in diverzantska skupina se je hitro odpravila do cilja.
Na posode za težko vodo so postavili eksplozivne naboje in jih večino uničili. Čudno je, da nobeden od nemških stražarjev ni ničesar opazil, dokler ni konec.
V tistem času pa diverzanti že dolgo niso več hodili po gorah in pospeševali pot po stari delovni cesti pod Krossobanenom. Sneg je ležal globoko in zelo se je temnilo. Bilo je težko potovanje, vendar so se vsi varno vrnili nazaj.
Skupina se je po počitku razdelila v dve skupini. Ena skupina je bila v celoti oborožena in v uniformi in je smučala celo čez Norveško do varnosti na Švedskem.
Druga skupina se je razširila in skrila po celotni gorski planoti Hardangervidda. Tri tisoč Nemcev je obkolilo območje in prečesalo divjino, da bi jih izsledilo, a nobenega od diverzantov ni uspelo ujeti. Radijska postaja je do konca vojne vzdrževala stike z zavezniškim poveljstvom v Londonu.
Nemci pa so obnovili obrat za težko vodo. Američani so to imeli za tako nevarno, da so se odločili bombardirati tovarno. 16. novembra 1943 je 160 letečih trdnjav priletelo nad Rjukan in bombardiralo Vemork, elektrarno in tovarno.
Nemci so bili prisiljeni opustiti načrte za proizvodnjo težke vode, vendar je napad zahteval več kot 20 norveških življenj.
Kasneje so diverzanti ugotovili, da nameravajo Nemci svoje zaloge polpredelane težke vode iz Rjukana preseliti v Nemčijo. Iz Londona so prejeli ukaz, da se pošiljka težke vode za vsako ceno in na kakršen koli način uniči.
Najšibkejši člen v transportni verigi je bil trajekt, ki je vozil vlak čez jezero Tinnsjø. Noč pred plovbo trajekta je diverzantom uspelo na plovilo vstaviti časovni naboj.
V nedeljo, 20. februarja 1944, ko je bil "Hydro" na pol poti čez jezero, je prišlo do eksplozije in trajekt se je v nekaj minutah potopil ter s seboj odnesel vitalno težko vodo, da je počivala na globini 460 metrov. Štirje Nemci in štirinajst Norvežanov so umrli, a bitka za težko vodo je bila na Norveškem končno končana.
Vir : Visitrjukan AS



Mesto tedanjih dogajanj je postalo Norveška priljubljena izletniška točka!




Igrajo:

Andreas Döhler , Robert Hunger-Bühler , Marc Ben Puch , Christoph Bach , Peri Baumeister , Espen Reboli Bjerke , Torstein Bjørklund , Ole Christoffer Ertvaag, Eirik Evjen, Anna Friel , Ragnhild H. Myntevik , Benjamin Helstad , Espen Klouman Høiner , Endre Joner Oftebro Ellefsen , Frank Kjosås , Rolf Kristian Larsen , Mads Sjøgård Pettersen , Søren Pilmark , Christian Rubeck , Maibritt Saerens , Audun Sandem , Tobias Santelmann , Dennis Storhøi , Pip Torrens , Stein Winge , David Zimmerschied , Julia Schacht , Clara Lien Sunde , Elg Elgesem , Corey Johnson , Uwe Preuss , Bjørn Iversen , Glenn Andre Kaada

Žanri:Drama, zgodovina, vojni




Podrobnosti

Država: Norveška | Danska | Združeno kraljestvo | Češka | Švedska
Jezik: Norveški | Angleščina | Nemščina | Danski
Datum izdaje:4. januar 2015 (Norveška)
Poznan tudi kot:Bitka za težko vodo
Lokacije snemanja: Praga, Češka
Izvajanje: 45 min | 267 min (skupni čas delovanja)


Tehnične specifikacije:

Complete name : Kampen.om.tungtvannet.S01.SRBSubs.720p.WEB.x264
Format : MPEG-4
Format profile : Base Media
Codec ID : isom (isom/iso2/avc1/mp41)
File size : 488 MiB
Duration : 44 min 53 s
Overall bit rate : 1 518 kb/s
Writing application : Lavf56.19.100

Video
ID : 1
Format : AVC
Format/Info : Advanced Video Codec
Format profile : High@L3.1
Format settings, CABAC : Yes
Format settings, RefFrames : 4 frames
Codec ID : avc1
Codec ID/Info : Advanced Video Coding
Duration : 44 min 53 s
Bit rate : 1 384 kb/s
Width : 1 280 pixels
Height : 720 pixels
Display aspect ratio : 16:9
Frame rate mode : Constant
Frame rate : 25.000 FPS
Color space : YUV
Chroma subsampling : 4:2:0
Bit depth : 8 bits
Scan type : Progressive
Bits/(Pixel*Frame) : 0.060
Stream size : 445 MiB (91%)
Writing library : x264 core 144 r2525 40bb568

Audio
ID : 2
Format : AAC
Format/Info : Advanced Audio Codec
Format profile : LC
Codec ID : 40
Duration : 44 min 53 s
Bit rate mode : Constant
Bit rate : 128 kb/s
Channel(s) : 2 channels
Channel positions : Front: L R
Sampling rate : 48.0 kHz
Frame rate : 46.875 FPS (1024 SPF)
Compression mode : Lossy
Stream size : 41.1 MiB (8%)
Default : Yes
Alternate group : 1

UŽIVAJTE!
1944 2015 SrbSubs DVDRip x264 AAC k2rbseseen

Klikni za povečavo!
31-12-2020 10:30 naložil rado77
Sejalci: 2 / Odjemalci: 0 / Velikost: 2.51 GB / Dokončani: 7
Prenesi torrent Poročaj torrent Opis torrenta
Zvrst: Drama | Vojni | Zgodovinski
Kategorija: FILMI > DVDRip

1944 2015 SrbSubs DVDRip x264 AAC k2rbseseen


1944 (2015)


Direktor: Elmo Nüganen
Pisec: Leo Kunnas
Igrajo: Kaspar Velberg , Kristjan Üksküla , Maiken Pius
Žanri: Drama , Zgodovina , Vojna
Podnapisi: Srbski


Zgodba:

V filmu "1944" režiser Elmo Nüganen prikazuje resnične dogodke na vzhodni fronti v Estoniji leta 1944, od bitke pri Tannenburgu, julijskih spopadov na gričih Sinimäed, do novembra, ko je polotok Sorve že osvojila sovjetska vojska. Vojna je prikazana z očmi udeležencev dogodkov na obeh vojskujočih se straneh - Estoncev, ki so se borili na strani nemške vojske v 20. estonski diviziji Waffen-SS, in kot del 8. estonskega strelskega korpusa sovjetske vojske . Za prebivalce Estonije je bila to vojna, v kateri se vsak sam odloča. S tako težkimi odločitvami se soočajo glavna junaka filma - vojaka nasprotnih strani Carl Tammik in Urey Jogi - pa tudi njihovi tovariši, sorodniki, prijatelji in celo neznanci. Prispeval Ahmed Tanvir


Podrobnosti

Država: Estonija | Finska
Jezik: Estonski | Ruščina | Nemško
Datum izdaje:20. februar 2015 (Estonija)
Lokacije snemanja: Hribi Sinimäed, občina Narva-Jõesuu, okrožje Ida-Viru, Estonija
Izvajanje: 100 min

IMDb: https://www.imdb.com/title/tt3213684


Tehnične specifikacije:

Complete name : 1944 2015 SrbSubs DVDRip x264 AAC k2rbseseen\1944 2015 DVDRip x264 AAC k2rbseseen.mp4
Format : MPEG-4
Format profile : Base Media
Codec ID : isom (isom/iso2/mp41)
File size : 2.51 GiB
Duration : 1 h 36 min
Overall bit rate mode : Variable
Overall bit rate : 3 740 kb/s
Encoded date : UTC 1970-01-01 00:00:00
Tagged date : UTC 1970-01-01 00:00:00
Writing application : Lavf52.104.0

Video
ID : 1
Format : MPEG-4 Visual
Format profile : Simple@L3
Format settings, BVOP : No
Format settings, QPel : No
Format settings, GMC : No warppoints
Format settings, Matrix : Default (H.263)
Codec ID : mp4v-20
Duration : 1 h 36 min
Bit rate : 3 608 kb/s
Width : 1 280 pixels
Height : 720 pixels
Display aspect ratio : 16:9
Frame rate mode : Constant
Frame rate : 25.000 FPS
Color space : YUV
Chroma subsampling : 4:2:0
Bit depth : 8 bits
Scan type : Progressive
Compression mode : Lossy
Bits/(Pixel*Frame) : 0.157
Stream size : 2.42 GiB (96%)
Writing library : XviD 1.2.1 (UTC 2008-12-04)
Language : English
Encoded date : UTC 1970-01-01 00:00:00
Tagged date : UTC 1970-01-01 00:00:00

Audio
ID : 2
Format : AAC LC
Format/Info : Advanced Audio Codec Low Complexity
Codec ID : mp4a-40-2
Duration : 1 h 35 min
Bit rate mode : Variable
Bit rate : 128 kb/s
Channel(s) : 2 channels
Channel layout : L R
Sampling rate : 44.1 kHz
Frame rate : 43.066 FPS (1024 SPF)
Compression mode : Lossy
Stream size : 87.8 MiB (3%)
Language : English
Encoded date : UTC 1970-01-01 00:00:00
Tagged date : UTC 1970-01-01 00:00:00


Uživajte!
The.Zookeepers.Wife.2017.SLOSubs.720p.BRRip.X264.AC3-R77

Klikni za povečavo!
31-12-2020 10:21 naložil rado77
Sejalci: 1 / Odjemalci: 0 / Velikost: 2.77 GB / Dokončani: 0
Prenesi torrent Poročaj torrent Opis torrenta
Kategorija: FILMI >  BRRip

The.Zookeepers.Wife.2017.SLOSubs.720p.BRRip.X264.AC3-R77


The Zookeeper's Wife (2017)

ŽENA ČUVAJA ŽIVALSKEGA VRTA


Direktor: Niki Caro
Pisatelji: Angela Workman (scenarij), Diane Ackerman (po knjigi avtorja)
Igrajo: Jessica Chastain, Johan Heldenbergh, Daniel Brühl
Žanri: Biografija, Drama, Zgodovina, Vojna
Podnapisi: Slovenski


Zgodba:

Ko se vojna leta 1939 konča, in medtem ko življenje še teče, Nemci postopoma občutijo svojo prisotnost, Adolf Hitler pa se na skrivaj pripravlja na invazijo na Poljsko. V teh nestanovitnih okoliščinah par Jan Zabinski in Antonina Zabinskanadaljujte z vsakdanjo rutino kot lastniki varšavskega živalskega vrta; vendar se bodo njihova življenjska dela in mesto pretvorili v pepel, ko bodo grozljivi Stuki Luftwaffeja začeli klati prestolnico. Zdaj, ko je živalski vrt likvidiran zaradi vojnih prizadevanj in številne njegove živali, ki so tragično umrle, je bila nekoč zverinja, zdaj bo služila kot svetišče, kjer bo par veterinarjev lahko na vidnem mestu skril preganjano poljsko-judovsko ljudstvo. To je bil dejansko nevaren načrt dveh altruistov, ki sta se, ne glede na posledice, pred nacistično grožnjo zavrnila in tristo sovražnih moških, žensk in otrok zaščitila pred nosom. Se bo svet spomnil žene čuvarja živalskega vrta? Napisal Nick Riganas
PO RESNIČNIH DOGODKIH!

Podrobnosti:

Država: Češka | Združeno kraljestvo | ZDA
Jezik: Angleščina | Nemščina | Hebrejščina
Datum izdaje:31. marec 2017 (Češka)
Lokacije snemanja: Praga, Češka
Izvajanje: 127 min

Tehnične specifikacije:

Complete name : The.Zookeepers.Wife.2017.SLOSubs.720p.BRRip.X264.AC3-R77\The.Zookeepers.Wife.2017.SLOSubs.720p.BRRip.X264.AC3-R77.mkv
Format : Matroska
Format version : Version 4
File size : 2.77 GiB
Duration : 2 h 6 min
Overall bit rate : 3 131 kb/s
Encoded date : UTC 2017-06-19 22:35:15 / UTC 2017-06-19T22:16:33Z
Writing application : mkvmerge v6.7.0 ('Back to the Ground') 64bit built on Jan 8 2014 15:10:52
Writing library : libebml v1.3.0 + libmatroska v1.4.1 / Lavf55.12.0

Video
ID : 1
Format : AVC
Format/Info : Advanced Video Codec
Format profile : High@L4.1
Format settings : CABAC / 4 Ref Frames
Format settings, CABAC : Yes
Format settings, Reference frames : 4 frames
Codec ID : V_MPEG4/ISO/AVC
Duration : 2 h 6 min
Bit rate : 2 700 kb/s
Width : 1 280 pixels
Height : 536 pixels
Display aspect ratio : 2.40:1
Frame rate mode : Constant
Frame rate : 23.976 (24000/1001) FPS
Color space : YUV
Chroma subsampling : 4:2:0
Bit depth : 8 bits
Scan type : Progressive
Bits/(Pixel*Frame) : 0.164
Stream size : 2.32 GiB (84%)
Writing library : x264 core 142 r2479 dd79a61
Default : Yes
Forced : No
Color range : Limited
Color primaries : BT.709
Transfer characteristics : BT.709
Matrix coefficients : BT.709

Audio
ID : 2
Format : AC-3
Format/Info : Audio Coding 3
Commercial name : Dolby Digital
Codec ID : A_AC3
Duration : 2 h 6 min
Bit rate mode : Constant
Bit rate : 448 kb/s
Channel(s) : 6 channels
Channel layout : L R C LFE Ls Rs
Sampling rate : 48.0 kHz
Frame rate : 31.250 FPS (1536 SPF)
Compression mode : Lossy
Delay relative to video : -5 ms
Stream size : 405 MiB (14%)
Title : Surround
Language : English
Service kind : Complete Main
Default : Yes
Forced : No

UŽIVAJTE!
Bozicni.ustanak.S01.Ep.01-09. TVRip.720p.x264.R77

Klikni za povečavo!
25-12-2020 16:27 naložil System
Sejalci: 1 / Odjemalci: 0 / Velikost: 4.7 GB / Dokončani: 5
Prenesi torrent Poročaj torrent Opis torrenta
Zvrst: Drama | Vojni | Zgodovinski
Kategorija: FILMI > TV - Serija
Anonimen nalagalec

Bozicni.ustanak.S01.Ep.01-09. TVRip.720p.x264.R77

Bozićni ustanak

TV serija S01 / 2017

Božični upor


Pristne in zgodovinske serije o državi, ki je izginila s sveta, čeprav je zmagala v 1. svetovni vojni. Resnična zgodba o junaškem črnogorskem boju za dobrobit Srbije, ki jo je kasneje srbska okupacija kaznovala.- napisal: markomr


Zgodba

Serija o koncu prve svetovne vojne, izgubi državnosti in božični vstaji - najbolj tragičnih dogodkih v zgodovini Črne gore. Zgodba je pripovedovana skozi ljubezensko zgodbo in družinske odnose v tistem obdobju v Črni gori.

Žanri: Drama | Zgodovina | Romantični | Vojna
Igrajo: Miodrag Radonjic, Sanja Popovic, Amar Bukvic

Podrobnosti:
Država: Črna gora
Datum izdaje:29. januar 2017 (Črna gora)
IMDb: https://www.imdb.com/title/tt4310408/?ref_=login


Tehnične specifikacije:

Complete name : Bozicni.ustanak.S01.Ep.01-09. TVRip.720p.x264.R77\Bozicni ustanak TVRip.720p.x264.Ep.01.mp4
Format : MPEG-4
Format profile : Base Media / Version 2
Codec ID : mp42 (isom/iso2/avc1/mp41)
File size : 430 MiB
Duration : 42 min 25 s
Overall bit rate mode : Variable
Overall bit rate : 1 416 kb/s
Encoded date : UTC 2017-02-02 13:43:34
Tagged date : UTC 2017-02-02 13:43:34
Writing application : HandBrake 0.10.3 2016012200

Video
ID : 1
Format : AVC
Format/Info : Advanced Video Codec
Format profile : Main@L4
Format settings : CABAC / 9 Ref Frames
Format settings, CABAC : Yes
Format settings, Reference frames : 9 frames
Codec ID : avc1
Codec ID/Info : Advanced Video Coding
Duration : 42 min 25 s
Bit rate : 1 250 kb/s
Width : 1 280 pixels
Height : 720 pixels
Display aspect ratio : 16:9
Frame rate mode : Constant
Frame rate : 25.000 FPS
Color space : YUV
Chroma subsampling : 4:2:0
Bit depth : 8 bits
Scan type : Progressive
Bits/(Pixel*Frame) : 0.054
Stream size : 379 MiB (88%)
Writing library : x264 core 142 r2479 dd79a61
Encoded date : UTC 2017-02-02 13:43:34
Tagged date : UTC 2017-02-02 13:43:34
Color range : Limited
Color primaries : BT.709
Transfer characteristics : BT.709
Matrix coefficients : BT.709
Codec configuration box : avcC
Audio
ID : 2
Format : AAC LC
Format/Info : Advanced Audio Codec Low Complexity
Codec ID : mp4a-40-2
Duration : 42 min 25 s
Bit rate mode : Variable
Bit rate : 160 kb/s
Channel(s) : 2 channels
Channel layout : L R
Sampling rate : 48.0 kHz
Frame rate : 46.875 FPS (1024 SPF)
Compression mode : Lossy
Stream size : 48.7 MiB (11%)
Title : Stereo / Stereo
Default : Yes
Alternate group : 1
Encoded date : UTC 2017-02-02 13:43:34
Tagged date : UTC 2017-02-02 13:43:34

UŽIVAJTE!