A
B
C
D
E
F
G
H
I
J
K
L
M
N
O
P
Q
R
S
T
U
V
W
X
Y
Z
0-9
Alone.in.Berlin.2016.SrbSubs.HDRip.XviD.AC3-R77

Klikni za povečavo!
Petek at 13:22 naložil rado77
Sejalci: 3 / Odjemalci: 0 / Velikost: 1.33 GB / Dokončani: 4
Prenesi torrent Poročaj torrent Opis torrenta
Zvrst: Drama | Vojni | Zgodovinski
Kategorija: FILMI > HDTV

Alone.in.Berlin.2016.SrbSubs.HDRip.XviD.AC3-R77



Alone in Berlin (2016)

Izvirni naslov: Seul dans Berlin

Sam v Berlinu


Režija:Vincent Perez
Scenarij:Vincent Perez , Achim von Borries
Igralska zasedba:Emma Thompson , Brendan Gleeson , Daniel Brühl
Žanri: Drama, Zgodovina, Vojna
Država: Združeno kraljestvo, Francija, Nemčija
Jezik: angleščina
Podnapisi: Srbski



Zgodba:

Leta 1940 je med francosko kampanjo v akciji umorjen nemški vojak Hans Quangel (Louis Hofmann). Njegovi starši, Otto (Brendan Gleeson) in Anna (Dame Emma Thompson), so zaradi izgube uničeni, njihova žalost pa ni ublažena zaradi vesele histerije ob zmagi Nemčije. Ko se je odločil, da sta za to tragedijo in še veliko več odgovorni Führer Adolf Hitler in njegov nacistični režim, Otto ne more več stati ob strani. Kot tak Otto začne ustvarjati ročno napisane karte, ki obsojajo zlorabe in laži režima, ki jih skrivaj deponira po Berlinu, medtem ko razočarana Anna vztraja, da mu pomaga. Ko se subverzivne karte z leti kopičijo, je policijski detektiv Escherich (Daniel Brühl) zadolžen, da izsledi letaka, medtem ko ga njegov vse bolj nestrpni nadrejeni SS pritiska na aretacijo zaradi te "izdaje", ne glede na dejansko krivdo. Ko se vlogi povečujejo, tudi ko se bliža dan obračuna nacistične Nemčije, sta Otto in Anna odločena širiti resnico ne glede na verjetnost, ...


Tehnične specifikacije:

Ime datoteke: Alone.in.Berlin.2016.SrbSubs.HDRip.XviD.AC3-R77.avi
Oblika: AVI
Informacije o formatu: AVI (avdio video prepleteno)
Trajanje: 01: 43: 01.120
Velikost datoteke: 1,33 GB

Video informacije:
Video kodirnik: mpeg4 (mpeg-4 2. del)
Ločljivost: 720 * 304
Širina: 720
Višina: 304
Razmerje zaslona: 45:19
Hitrost sličic: 24 sličic na sekundo
Video bitna hitrost: 1464 kb / s
Barvni prostor: yuv420p


Zvočne informacije:
Dajalnik zvoka: atsc a / 52a (ac-3)
Avdio bitna hitrost: 384 kb / s
Hitrost vzorčenja: 48000 Hz
Zvočni kanali: 5,1 (stranski)
Jezik: und
Trajanje: 01: 43: 01.120


Uživajte in ne pozabite na sejanje!
April.9th.2015.SRBSubs.1080p.WEB-DL.x264-R77

Klikni za povečavo!
Sreda at 08:36 naložil rado77
Sejalci: 5 / Odjemalci: 0 / Velikost: 1.77 GB / Dokončani: 6
Prenesi torrent Magnet Link Poročaj torrent Opis torrenta
Zvrst: Drama | Vojni
Kategorija: FILMI > BluRay-1080

April.9th.2015.SRBSubs.1080p.WEB-DL.x264-R77


9. april (2015)


Režija: Roni Ezra
Scenarij: Tobias Lindholm
Kamera: Philippe Kress
Glasba: Jonas Struck
Igrajo: Pilou Asbæk , Lars Mikkelsen , Gustav Dyekjær Giese , Martin Greis-Rosenthal , Joachim Fjelstrup , Jannik Lorenzen , Elliott CROSSET Hove , Mikkel Bentzen , Ari Alexander , Mathias Lundkvist , Sebastian Bull Sarning , Jan Jürgensen , Mette Munk Plum , Simon Sears , Michael Brostr , Jan Dose , Pelle Emil Hebsgaard , Jesper Hagelskær Paasch
Žanr: Drama / vojna
Država: Danska
Podnapisi: Srbski
Trajanje: 93 min


O filmu:

9. aprila 1940 je Nemčija napadla Dansko. Za obrambo so skrbeli le majhni in razpršeni mejni stražarji in Jutlandska divizija, za predajo Danske niso izvedeli. Četrta četa na polotoku Jutland je branila svojo državo pred veliko sovražnikovo silo. Vojaki niso uspeli ohraniti obrambe na območju Krusaa in so kapitulirali pred mestom Haderslev. Šele nato so odkrili, da se je Danska pred njimi predala. Napadala je nemška 170. pehotna divizija generalmajorja Witteja.
2. kolesarska eskadrila pod poveljstvom poročnika Sanda in 2. motociklistični vod Bundgaardep ni vzdržal obrambe na območju Kruse in mesta Lundtoftebjerg...


Tehnične specifkacije:

Popolno ime: April.9th.2015.SRBSubs.1080p.WEB-DL.x264-R77
Oblika / niz: MPEG-4
Format_Profile: osnovni medij
CodecID / String: izom (isom / iso2 / avc1 / mp41)
Velikost datoteke / niza: 1,77 GiB
Trajanje / niz: 1h 32mn
Celotna hitrost / niz: 2745 Kbps
Kodirana_Aplikacija / niz: Lavf56.15.100

Video
ID / niz: 1
Oblika / niz: AVC
Format / Info: Napredni video kodek
Format_Profile: High @ L4
Format_Settings: Okvirji za ref. CABAC / 3
Format_Settings_CABAC / String: Da
Format_Settings_RefFrames / String: 3 frame
ID kode: avc1
CodecID / Info: napredno kodiranje videa
Trajanje / niz: 1h 32mn
BitRate / niz: 2612 Kbps
Širina / niz: 1920 slikovnih pik
Višina / niz: 1024 slikovnih pik
DisplayAspectRatio / String: 1,85: 1
FrameRate_Mode / String: CFR
Hitrost sličice / niz: 24.000 sličic na sekundo
ColorSpace: YUV
ChromaSubsampling / String: 4: 2: 0
BitDepth / niz: 8 bitov
ScanType / String: Progresivno
Bit - (Pixel * Frame): 0,055
Velikost / niz niza: 1,69 GiB (95%)
barvni_obseg: omejeno
colour_primaries: BT.709
lastnosti_prenosa: BT.709
matrični_koeficienti: BT.709
CodecConfigurationBox: avcC

Zvok
ID / niz: 2
Oblika / niz: AAC LC
Oblika / informacije: Napredni avdio kodek nizke zapletenosti
KodekID: mp4a-40-2
Trajanje / niz: 1h 32mn
BitRate_Mode / niz: CBR
BitRate / niz: 128 Kbps
Kanal (-i) / niz: 2-kanalni
Postavitev kanala: L R
Hitrost vzorčenja / niz: 44,1 KHz
Hitrost / niz: 43.066 sličic na sekundo (1024 SPF)
Način stiskanja / niz: Lossy
Velikost / niz niza: 84,7 MiB (5%)
Privzeto / niz: Da
Nadomestna skupina / niz: 1


Uživajte in ne pozabite na sejanje!
Acceleration (2019)SLO-Subs [WEBRip] [720p] [YTS.LT]

Klikni za povečavo!
03-04-2021 11:51 naložil BlackDevil
Sejalci: 7 / Odjemalci: 0 / Velikost: 779.68 MB / Dokončani: 16
Prenesi torrent Magnet Link Poročaj torrent Opis torrenta
Zvrst: Akcija | Triler
Kategorija: FILMI > WEBRip-720

CoverCity - DVD Covers & Labels - Acceleration


Info:
Naziv:Acceleration (2019) SLO-Subs [WEBRip] [720p] [YTS.LT]
Velikost.........: 779 MB
Dolžina..........:85 min
Leto...............:2019
Slika..............: 1280x714 1099kbps 23.976fps
Zvok..............:Dolby Digital AC3 174kb/s
Kodek............:XviD
Država...........:ZDA
Jezik..............:Angleški
Žanr...............:Akcijski | Triler
Podnapisi........:Slovenski


IMDb:
Link..........: https://www.imdb.com/title/tt9534808/
Ocena........: 4,4/10 (1.114 glasov)
Režija.........: Michael Merino, Daniel Zirilli
Scenarij.......: Michael Merino


Cast:
Sean Patrick Flanery ... Kane
Dolph Lundgren ... Vladik
Chuck Liddell ... Hannibal
Natalie Burn ... Rhona
Quinton 'Rampage' Jackson ... Eli
Danny Trejo ... Santos
Al Sapienza ... Jack
Olya Banar ... Katrina
Riccardo Berdini ... Caviglia
Ryan Carnes ... David


Plot:
Ko ga pretenta največja zaupnica med operativci, se neusmiljeni zločinski šef
maščuje z ugrabitvijo njenega sina. Prestrašena operativka ima eno noč časa,
da se odkupi za svoje napake in sistematično eliminira njegove sovražnike.
Ure tečejo, na temačnih mestnih ulicah, ki postajajo brutalna in krvava bojišča,
pa postaja čedalje bolj napeto.
Analyze.This.1999.MultiSubs.PAL.DVDR

Klikni za povečavo!
03-04-2021 06:26 naložil System
Sejalci: 0 / Odjemalci: 0 / Velikost: 4.19 GB / Dokončani: 0
Prenesi torrent Poročaj torrent Opis torrenta
Kategorija: FILMI > DVD
Anonimen nalagalec

Analyze This (1999)
Analiza pa taka (1999)


-------------
INFO:
-------------
Source..........: DVD
Format..........: 16:9
Standard........: PAL
Release Size....: 4,19 GB
iMDB Link.......: KLIK
iMDB Rating.....: 6,7/10 (146.470)
Genre...........: Comedy, Crime
Country.........: USA/ Australia
Language........: English
Video...........: /
Audio...........: AC3 5.1-ch English/ Czech/ Polish
................: AC3 2-ch English - Director's Comment
Subs............: English, Czech, Hungarian, Polish,
................: Croatian, Serbian, Slovenian
Extras..........: yes
Regija..........: Prosto
Runtime.........: 100 min
Čas predvajanja.: 01:39.14 h

-------------
IGRALCI:
-------------
Robert De Niro ... Paul Vitti
Billy Crystal ... Dr. Ben Sobel
Lisa Kudrow ... Laura MacNamara Sobel
Chazz Palminteri ... Primo Sidone
Kresh Novakovic ... '50s Gangster
Bart Tangredi ... Young Vitti Sr.
Michael Straka ... Young Dominic Manetta
Joseph Rigano ... Dominic Manetta
Joe Viterelli ... Jelly
Richard C. Castellano ... Jimmy Boots
Molly Shannon ... Caroline
Max Casella ... Nicky Shivers
Frank Pietrangolare ... Tuna
Kyle Sabihy ... Michael Sobel
Bill Macy ... Dr. Isaac Sobel

-------------
OPIS:
-------------
Paul Vitti (Robert De Niro) je eden najvplivnejših newyorških gangsterjev.
Odraščal je med mafijci in njegov drugi oče in mentor Manetta ga je temeljito
pripravil na življenje in naloge, ki ga čakajo (pravega očeta so Paulu namreč
pred leti ustrelili). Toda ko mora prevzeti mesto voditelja svoje mafijske
družine, se nenadoma ne počuti več dobro. Mučijo ga težave z dihanjem, ne more
spati, ob ženi in otrocih se ne zna sprostiti, ljubice si ne želi več. Njegovim
pajdašem je kmalu jasno, da je s šefom nekaj hudo narobe. Toda kako naj Paul Vitti
v takšnem stanju vodi mafijske posle? Kaj bo, če druge mafijske družine izvejo,
da ga mučijo napadi panike? Panika bi morala grabiti kvečjemu druge, ki bi se ga
morali bati, ne pa njega...



Andre.Rieu-Magic of the musicals.MultiSubs.1080p.DTS-HD.LPCM

Klikni za povečavo!
01-04-2021 14:03 naložil rado77
Sejalci: 2 / Odjemalci: 0 / Velikost: 10.85 GB / Dokončani: 1
Prenesi torrent Poročaj torrent Opis torrenta
Zvrst: Glasbeni
Kategorija: GLASBA > Video

Andre.Rieu-Magic of the musicals.MultiSubs.1080p.DTS-HD.LPCM


André Rieu - Magic of the Musicals

Čarobni muzikali



(kompilacija)


Nizozemski violinist in orkester Johanna Straussa izvajajo številne glasbene uspešnice. Andr Rieu je eden najbolj prodajanih sodobnih klasičnih umetnikov, saj ima za seboj več kot 20 milijonov prodaj po vsem svetu in vrsto uspešnih turnej. Rieu je leta 1987 ustanovil orkester Johanna Straussa z dvojnim ciljem promocije glasbe, ki jo ima rad, hkrati pa širši publiki približa užitke klasične glasbe. Tu Rieu in njegov orkester pozornost usmerjata na nepozabne pesmi iz odrskih muzikalov, s čimer si priskrbijo številne priljubljene melodije.


Podnapisi: Nizozemski, nemški, francoski, portugalski, španski, angleški


André Rieu skozi 18 prijetnih skladb razpre zavese in odnese glasbeni oder v vaš dom. Na tem albumu so pesmi iz številnih muzikalov, od katerih je vsaka skrbno izbrana.


Spisek izbranih skladb:
01. The Sound Of Music
02. I Will Follow Him
03. Music Of The Night
04. Somewhere Over The Rainbow
05. The Impossible Dream
06. Cinderella Waltz
07. Wishing You Were Somehow Here Again
08. All I Ask Of You
09. I Could Have Danced All Night
10. With A Little Bit Of Luck
11. Send In The Clowns
12. Supercalifragilisticexpialidocious
13. Feed The Birds
14. Don’t Cry For Me Argentina
15. Trumpet Voluntary
16. I Belong To Me
17. Memory
18. You’ll Never Walk Alone


Tehnične specifikacije:


Popolno ime: Andre.Rieu-Magic of the musicals.MultiSubs.1080p.DTS-HD.LPCM
Oblika: Matroska
Različica formata: različica 4
Velikost datoteke: 10,8 GiB
Trajanje: 1 h 31 min
Splošni način bitne hitrosti: spremenljivka
Skupna bitna hitrost: 17,0 Mb / s
Zakodiran datum: UTC 2021-03-18 16:41:47
Aplikacija za pisanje: mkvmerge v55.0.0 ('Waiting For Space'), 64-bitna
Knjižnica za pisanje: libebml v1.4.2 + libmatroska v1.6.4

Video
ID: 1
Oblika: AVC
Format / Info: Napredni video
Profil oblike: Main @ L4
Nastavitve formata: CABAC / 4 Ref
Nastavitve formata, CABAC: Da
Nastavitve formata, referenčni okviri: 4 sličice
ID kodeka: V_MPEG4 / ISO / AVC
Trajanje: 1 h 31 min
Bitna hitrost: 10 000 kb / s
Širina: 1 920 slikovnih pik
Višina: 1 080 slikovnih pik
Razmerje zaslona: 16: 9
Način hitrosti sličic: konstantno
Hitrost sličic: 29.970 FPS
Barvni prostor: YUV
Podvzorčenje kroma: 4: 2: 0
Globina bitov: 8 bitov
Vrsta optičnega branja: progresivno
Bit / / (Pixel * Frame): 0,161
Velikost toka: 6,37 GiB (59%)
Knjižnica za pisanje: jedro x264 157 r2935
Jezik: angleščina
Privzeto: Da
Prisilno: Ne
Barvno območje: omejeno
Barvne barve: BT.709
Značilnosti prenosa: BT.709
Matrični koeficienti: BT.709

Zvok št. 1
ID: 2
Oblika: DTS XLL
Format / informacije: Digitalno gledališče
Trgovsko ime: DTS-HD Troll
ID kodeka: A_DTS
Trajanje: 1 h 31 min
Način bitne hitrosti: spremenljiv
Bitna hitrost: 4.722 kb / s
Kanali: 6 kanalov
Postavitev kanala: C L R Ls Rs LFE
Hitrost vzorčenja: 48,0 kHz
Hitrost sličic: 93.750 FPS (512 SPF)
Globina bitov: 24 bitov
Način stiskanja: brez izgub
Velikost toka: 3,01 GiB (28%)
Privzeto: Da
Prisilno: Ne

[b]Zvok št. 2[/b]
ID: 3
Oblika: PCM
Nastavitve formata: malo / podpisano
ID kodeka: A_PCM / INT / LIT
Trajanje: 1 h 31 min
Način bitne hitrosti: konstantno
Bitna hitrost: 2 304 kb / s
Kanali: 2 kanala
Hitrost vzorčenja: 48,0 kHz
Hitrost sličic: 200.000 FPS (240 SPF)
Globina bitov: 24 bitov
Velikost toka: 1,47 GiB (14%)
Privzeto: Ne
Prisilno: Ne


Veliko užitkov in ne pozabite na sejanje!
AnalOnly.com - Dixie Lynn

Klikni za povečavo!
28-03-2021 08:26 naložil Timoreck
Sejalci: 1 / Odjemalci: 0 / Velikost: 1.71 GB / Dokončani: 7
Prenesi torrent Poročaj torrent Opis torrenta NFO
Kategorija: FILMI > xxx

AnalOnly.com - Dixie Lynn
Year : 26.03,2021
Country : USA
Genre : All Sex, Anal, Blowjob, Gonzo, Hardcore, Oil
Studio : https://analonly.com/
Duration : 00:46:49
Video : MPEG4 (h264), 1920x1080, 59.94 fps, 5000 kb/s
Audio : AAC, 48000 Hz, Stereo, 256 kb/s
Starring : Dixie Lynn




Alibi.com.SLOSub.HDTVRip.720p.x264-R77

Klikni za povečavo!
26-03-2021 14:08 naložil rado77
Sejalci: 5 / Odjemalci: 0 / Velikost: 1.53 GB / Dokončani: 15
Prenesi torrent Poročaj torrent Opis torrenta
Zvrst: Komedija
Kategorija: FILMI > HDTV

Alibi.com.SLOSub.HDTVRip.720p.x264-R77


Alibi.com (2017)


Originalni naslov: ALIBI.COM
Leto produkcije: 2017
Država: Francija
Podnapisi: Slovenščina
Žanr: komedija
Režija: Philippe Lacheau
Scenarij: Philippe Lacheau, Julien Arruti in Pierre Dudan
Igrajo: Philippe Lacheau, Tarek Boudali, Elodie Fontan, Nathalie Baye, Didier Bourdon
Trajanje: 1 ur 25 min. 43 s


Opis:

Odbita francoska komedija, ob kateri se boste do solz nasmejali novemu nasledniku De Funesa in Bourvila, priljubljenemu in vsestranskemu Philippu Lacheauju, ki je pred časom navdušil s komedijama Babysitting in Vsi na jug.
Njegova pisana druščina se spet znajde v vrtincu zmešnjav in dvoumnih položajev, iz zagat pa jih (bolj ko ne na videz) rešuje podjetje Alibi.com, nekakšen start up, ki ga ob pomoči sodelavcev Augustina in Medhija vodi premeteni in zapeljivi Greg. Osnovna dejavnost, s katero se fantje, ki so pravi magnet za težave in smešne prigode, ukvarjajo, je, da svojim strankam na vse mogoče načine omogočajo nemoteno dvojno življenje. Tako se vsaj zdi na prvi pogled. Zapletena zgodba se zaplete v neslutene razsežnosti, ko spremljamo, kako se iz nje rešujejo glavni liki filma in kaj vse jih čaka na poti do resnice.



Tehnične specifikacije:

Ime datoteke: Alibi.com.SLOSub.HDTVRip.720p.x264-R77.mp4
Oblika: MP4
Informacije o obliki: QuickTime / MOV
Trajanje: 01: 25: 34,605
Velikost datoteke: 1,53 GB


Video informacije:
Video kodirnik: h264 (h.264 / avc / mpeg-4 avc / mpeg-4 del 10)
Ločljivost: 1280 * 720
Širina: 1280
Višina: 720
Razmerje zaslona: 16: 9
Hitrost sličic: 25 sličic na sekundo
Video bitna hitrost: 2431 kb / s
Barvni prostor: yuv420p

Zvočne informacije:
Zvočni kodirnik: aac (napredno kodiranje zvoka)
Avdio bitna hitrost: 128 kb / s
Hitrost vzorčenja: 44100 Hz
Zvočni kanali: stereo
Jezik: francoski
Trajanje: 01: 25: 34.570


Uživajte in ne pozabite sejati!
Aleska Diamond - Pack

Klikni za povečavo!
25-03-2021 08:12 naložil Timoreck
Sejalci: 1 / Odjemalci: 0 / Velikost: 142.01 GB / Dokončani: 0
Prenesi torrent Poročaj torrent Opis torrenta NFO
Kategorija: FILMI > xxx

Aleska Diamond - Pack
Year : 2008-2016
Country : EU(Hungary)- USA
Genre : All Sex, Hardcore, Blowjob, Anal, Oral, Lesbo,..
Studio : https://www.iafd.com/person.rme/perfid=aleska/gender=f/aleska-diamond.htm
Duration : various
Video : various
Audio : various
Starring : Aleska Diamond,..







Agatha.The.Body.in.the.Library.2004.Ex.Yu.Sub.PAL.DVDR-Churchill

Klikni za povečavo!
20-03-2021 16:05 naložil System
Sejalci: 0 / Odjemalci: 0 / Velikost: 3.55 GB / Dokončani: 6
Prenesi torrent Poročaj torrent Opis torrenta
Kategorija: FILMI > DVD
Anonimen nalagalec

The Body in the Library (2004)
Truplo v knjižnici (2004)


-------------
INFO:
-------------

Source..........: DVD
Format..........: 16:9
Standard........: PAL
Release Size....: 3,55 GB
iMDB Link.......: KLIK
iMDB Rating.....: 7,1/10 (1.780)
Genre...........: Crime, Drama, Mystery
Country.........: UK/ USA
Language........: English
Video...........: Untouched
Audio...........: AC3 2-ch English
Subs............: Cro/ Slo/ Srb
Extras..........: /
Regija..........: Prosto
Runtime.........: 94 min
Čas predvajanja.: 01:33.35 h

-------------
IGRALCI:
-------------

Geraldine McEwan ... Miss Marple
Ian Richardson ... Conway Jefferson
Tara Fitzgerald ... Adelaide Jefferson
Jamie Theakston ... Mark Gaskell
Giles Oldershaw ... Edwards
Florence Hoath ... Pamela Reeves
Joanna Lumley ... Dolly Bantry
James Fox ... Colonel Arthur Bantry
Simon Callow ... Colonel Melchett
Ben Miller ... Basil Blake
Emma Cooke ... Dinah Lee
Robin Soans ... Dr. Haydock
Bruce Mackinnon ... Scamper
Jack Davenport ... Superintendent Harper
Mary Stockley ... Josie Turner

-------------
OPIS:
-------------

Zjutraj v knjižnici gospe Bantrys najdejo truplo mlade žene, oblečene
v večerno obleko in razkošno naličene. Nihče ne ve, kdo je, kako je prišla
v hišo do knjižnice. Vsi tudi le ugibajo, ali obstaja povezava s truplom
mladega dekleta, ki so ga našli v zapuščenem kamnolomu v bližini. Gospa
Bantrys pokliče na pomoč gospodično Marple, saj je prepričana, da bo ta
zlahka razrešila primer...

Alexia Anders - BBC Fantasy (30.01.21)

Klikni za povečavo!
18-03-2021 08:43 naložil BlackDevil
Sejalci: 1 / Odjemalci: 0 / Velikost: 451.17 MB / Dokončani: 13
Prenesi torrent Poročaj torrent Opis torrenta
Kategorija: FILMI > xxx

[BBCPie.com] Alexia Anders - BBC Fantasy (30.01.21) [2021 г., All Sex, Asian, Blowjob, Cum Shot, Creampie, IR, Teen, Gonzo, Hardcore, 480p]

Alexia Anders - BBC Fantasy
Actress name: Alexia Anders - BBC Fantasy
Video title: BBC Fantasy
Subsite and site: BBCPie.com
Manufacture date: 2021
Genre: All Sex, Asian, Blowjob, Cum Shot, Creampie, IR, Teen, Gonzo, Hardcore
Duration: 00:39:17
Description: Alexia has been fantasizing about BBC and finally gets to fulfill her desires.
Video format: MP4
Video: MPEG4 Video (H264) 852x480 59.940fps 1501kbps
Audio: AAC 48.0KHz stereo 96kbps

Ansambel bratov Poljanšek - Collection

Klikni za povečavo!
15-03-2021 06:26 naložil System
Sejalci: 1 / Odjemalci: 0 / Velikost: 201.94 MB / Dokončani: 6
Prenesi torrent Poročaj torrent Opis torrenta
Kategorija: GLASBA > Glasba
Anonimen nalagalec

Ansambel bratov Poljanšek - Stari slovenski ansambli
Ansambel Bratov Poljansek - Polka za soferje
Ansambel Bratov Poljansek - Vencek uspesnic
Ansambel bratov Poljanšek - Ti si pa en dob'r stik'lc
Ansambel Bratov Poljanšek - Biseri Tuhinjske doline (2003)
Ansambel bratov Poljanšek - Bratje za mejo
Ansambel Bratov Poljanšek - Če bratu brat je tujec (2003)
Ansambel bratov Poljanšek - Furmanska
Ansambel Bratov Poljanšek - Gasilska
Ansambel Bratov Poljanšek - Godec
Ansambel Bratov Poljanšek - Harmonika
Ansambel Bratov Poljanšek - Holcar polka
Ansambel bratov Poljanšek- - Holcar polka
Ansambel Bratov Poljanšek - Kadar je srce nemirno (2003)
Ansambel Bratov Poljanšek - Kadar srečam tvojo hčerko
Ansambel Bratov Poljanšek - Kje si očka moj
Ansambel Bratov Poljanšek - Lepi spomini (2003)
Ansambel Bratov Poljanšek - Ljubezen
Ansambel bratov Poljanšek - Mami, zakaj
Ansambel Bratov Poljanšek - Mamini spomini
Ansambel Bratov Poljanšek - Mehke steze
Ansambel Bratov Poljanšek - Na pikniku
Ansambel BratovPoljanšek - Mi smo muzikantje
Ansambel Bratov Poljanšek - Najlepša leta
Ansambel Bratov Poljanšek - Najmlajši
Ansambel Bratov Poljanšek - Nasvidenje
Ansambel Bratov Poljanšek - Nevljica šumi
Ansambel Bratov Poljanšek - Oba sva abrahama
Ansambel Bratov Poljanšek - Oče prosimo te vsi (2003)
Ansambel Bratov Poljanšek - Petindvajset let
Ansambel Bratov Poljanšek - Pika poka
Ansambel Bratov Poljanšek - Polka
Ansambel Bratov Poljanšek - Prikrita resnica (2003)
Ansambel Bratov Poljanšek - Roža rož
Ansambel Bratov Poljanšek - Sam brez tebe (2003)
Ansambel Bratov Poljanšek - Slavček
Ansambel bratov Poljanšek - Slepec(valček)
Ansambel Bratov Poljanšek - Slepec
Ansambel Bratov Poljanšek - Slovenski Šopek
Ansambel Bratov Poljanšek - Spet smo se skupaj zbrali
Ansambel Bratov Poljanšek - Tjaša
Ansambel Bratov Poljanšek - To je moja domovina
Ansambel Bratov Poljanšek - Tuhinjska polka
Ansambel Bratov Poljanšek - Uboga tašča (2003)
Ansambel Bratov Poljanšek - V Tuhinjsko dolino
Ansambel bratov Poljanšek - Večerni zvon
Ansambel Bratov Poljanšek - Veselo v Kamnik
Ansambel Bratov Poljanšek - Veselo zavriskaj
Ansambel Bratov Poljanšek - Vse dobro ti želim dežela moja (2003)
Ansambel Bratov Poljanšek - Zahvala gasilcem (2003)
Ansambel bratov Poljanšek - Žena
Admiral.2008.SloSubs.720p.BRrip.DD5.1.x264-R77

Klikni za povečavo!
14-03-2021 12:17 naložil rado77
Sejalci: 1 / Odjemalci: 0 / Velikost: 2.15 GB / Dokončani: 6
Prenesi torrent Poročaj torrent Opis torrenta
Kategorija: FILMI >  BRRip

Admiral.2008.SloSubs.720p.BRrip.DD5.1.x264-R771


Admiral (2008)



Admiral ( rusko : Адмиралъ ) je biografija o Alexandru Kolchaku , vice-admiralu ruske mornarice in vodja anti-komunističnega Belega gibanja v času ruske državljanske vojne . Film prikazuje tudi ljubezenski trikotnik med admiralom, njegovo ženo in pesnico Anno Timirjovo .

Iz razširjene različice filma je nastala 10-delna TV-serija.

Zaplet:

Filmski dogodki se odvijajo v obdobju 1915-1920. Kolčakse predstavi, najprej kot admiral v cesarski ruski mornarici med prvo svetovno vojno. Nato doživimo propad ruske revolucije, rusko februarsko in oktobrsko revolucijo in poznejšo državljansko vojno.

Po negotovem premagovanju nemške bojne križarke se Kolčak vrne v mornariško oporišče Kronstadt blizu Sankt Peterburga. Tam ga seznani z Anno Timirevo, ženo enega od njegovih nižjih častnikov. Čeprav sta oba z Anno poročena, sta njuna ljubezen očitna tako njima kot zakoncema.

Kolchak prejme napredovanje za poveljnika črnomorske flote. In tako se z ženo preselita v Sevastopol. Zanj je to srečna poteza, saj ko pride februarska revolucija leta 1917, so vsi častniki v Kronstadtu usmrčeni. Vsi, razen Ane in njenega moža.


Po februarski revoluciji se Kolčak sestane z začasnim šefom ruske vlade Aleksandrom Kerenskim. Čeprav se Kerensky najprej predlaga, da bi Kolchaka imenoval za obrambnega ministra, oba padeta. Kerensky na koncu izžene Kolchaka.

Hitro naprej do leta 1919. Kolčak se je vrnil v Rusijo in zdaj poveljuje preostali ruski regiji, ki jo nadzirajo Belorusi - Sibiriji. Med evakuacijo iz Omska v Irkutsk Kolchak izve, da Anna dela kot medicinska sestra v njegovi bližini. Oba se ponovno združita in poročita.

Kmalu zatem so boljševiki napadli Irkutsk. Ko je mesto očitno izgubljeno, voditelji francoske in češkoslovaške legije Kolčaka predajo boljševikom. Kmalu je usmrčen, njegovo telo pa je vrženo v led.


Direktor: Andreja Kravčuka
Scenarij: Zoya Kudrya , Vladimir Valutskiy
Vodilne vloge: Konstantin Khabenskiy , Elizaveta Boyarskaya , Sergey Bezrukov


Žanri: Biografija , drama , zgodovina
Država: Rusija
Jezik: Ruščina | Francosko
Podnapisi: Slovenščina
Izvajanje: 124 min

ADMIRAL JE NAJDRAŽJI FILM V ZGODOVINI RUSKE KINEMATOGRAFIJE!


Tehnične specifikacije:

Complete name : Admiral.2008.SloSubs.720p.BRrip.DD5.1.x264-R77
Format : MPEG-4
Format profile : Base Media
Codec ID : isom (isom/iso2/avc1/mp41)
File size : 2.15 GiB
Duration : 2 h 4 min
Overall bit rate : 2 476 kb/s
Movie name : Admiral (2008)
Writing application : Lavf58.29.100

Video
ID : 1
Format : AVC
Format/Info : Advanced Video Codec
Format profile : High@L3.1
Format settings : CABAC / 2 Ref Frames
Format settings, CABAC : Yes
Format settings, Reference frames : 2 frames
Codec ID : avc1
Codec ID/Info : Advanced Video Coding
Duration : 2 h 4 min
Bit rate : 2 344 kb/s
Width : 1 280 pixels
Height : 538 pixels
Display aspect ratio : 2.40:1
Frame rate mode : Constant
Frame rate : 23.976 (23976/1000) FPS
Color space : YUV
Chroma subsampling : 4:2:0
Bit depth : 8 bits
Scan type : Progressive
Bits/(Pixel*Frame) : 0.142
Stream size : 2.03 GiB (95%)
Language : Russian
Codec configuration box : avcC

Audio
ID : 2
Format : AAC LC
Format/Info : Advanced Audio Codec Low Complexity
Codec ID : mp4a-40-2
Duration : 2 h 4 min
Bit rate mode : Constant
Bit rate : 129 kb/s
Channel(s) : 2 channels
Channel layout : L R
Sampling rate : 48.0 kHz
Frame rate : 46.875 FPS (1024 SPF)
Compression mode : Lossy
Stream size : 114 MiB (5%)
Language : Russian
Default : Yes
Alternate group : 1


Uživajte!
And.Then.We.Danced.2019.1080p.BluRay.x265-R77

Klikni za povečavo!
13-03-2021 16:03 naložil rado77
Sejalci: 2 / Odjemalci: 0 / Velikost: 1.75 GB / Dokončani: 2
Prenesi torrent Magnet Link Poročaj torrent Opis torrenta
Zvrst: Drama | Romantični
Kategorija: FILMI > BluRay-1080

[align=center]And.Then.We.Danced.2019.SrbSubs.1080p.BluRay.x265-R77


[color=#FF0000]And Then We Danced (2019)

IN POTEM SMO PLESALI


[size=5]Strastna zgodba o polnoletnosti, postavljena med konservativne okvire sodobnega Tbilisija, spremlja Merab, tekmovalno plesalko ...

Igralci: Levan Gelbakhiani, Bachi Valishvili, Ana Javakishvili, Kakha Gogidze, Ana Makharadze, Nino Gabisonia, Levan Gabrava, Dachi Babunashvili, Saba Abashidze, Giorgi Aladashvili, Soso Abramishvili, Salome Nadaraia, Tsitsino Kobiahhazhazz Mida

Žanr: Drama, romanca
Režija in scenarij: Levan Akin
Država: Švedska | Gruzija | Francija
Jezik: Gruzijski
Datum izdaje:13. september 2019 (Švedska)
[b]Podnapisi: Srbski
Izvajanje: 113 min
Barva: Barva in Črno in bela (arhivski posnetki)

Zgodba:

Strastna zgodba o ljubezni in osvoboditvi je nastala sredi konzervativnih meja sodobne gruzijske družbe. Nato pa smo plesali, sledi Merabu, predanemu plesalcu, ki že leta trenira s svojo partnerico Mary za mesto v nacionalnem gruzijskem ansamblu. Prihod drugega moškega plesalca, nadarjenega Iraklija s popolno formo in opremljenega z uporniško žilico, Meraba spravi iz ravnotežja, kar sproži tako močno rivalstvo kot romantično željo, zaradi katere lahko tvega svojo plesno prihodnost in tudi odnose z Marijo in njegovo družino.

Tehnične specifikacije:

Informacije o datoteki
Ime datoteke: And.Then.We.Danced.2019.1080p.BluRay.x265-R77.mp4
Oblika: MP4
Informacije o obliki: QuickTime / MOV
Trajanje: 01: 53: 04.155
Velikost datoteke: 1,75 GB

Video informacije:
Video kodirnik: hevc (h.265 / hevc (visoko učinkovito video kodiranje))
Ločljivost: 1920 * 1080
Širina: 1920
Višina: 1080
Razmerje zaslona: 16: 9
Hitrost sličic: 98 sličic na sekundo
Video bitna hitrost: 1989 kb / s
Barvni prostor: yuv420p10le (tv)

Zvočne informacije:
Zvočni kodirnik: aac (napredno kodiranje zvoka)
Avdio bitna hitrost: 224 kb / s
Hitrost vzorčenja: 48000 Hz
Zvočni kanali: 5.1
Jezik: gruzijski
Trajanje: 01: 53: 04.112


[size=7][b][color=#FF6600]Uživajte!
Ansambel Franca Potočarja.izbor.MP3.MP4.R77

Klikni za povečavo!
01-03-2021 10:54 naložil System
Sejalci: 1 / Odjemalci: 0 / Velikost: 409.93 MB / Dokončani: 7
Prenesi torrent Poročaj torrent Opis torrenta
Zvrst: Glasbeni
Kategorija: GLASBA > Video
Anonimen nalagalec

Ansambel Franca Potočarja.izbor.MP3.MP4.R77

Ansambla Franca Potočarja
Želja uporabnika: silvoa
Komponist in dolgoletni vodja Ansambla Franca Potočarja.

Njegova glasbena pot se je začela leta 1960, ko je navdušen oprtal očetovo harmoniko. Vredno je omeniti, da je bil Francev oče, prav tako Franc Potočar, znan dolenjski ohcetni godec in hkrati velik vzornik Lojzetu Slaku.
Čas izvajanja: 1 h 34 min 45 s



Tehnične specifikacije:
MP3:
Audio
Format : MPEG Audio / MP3
Format version : Version 1
Format profile : Layer 3
Format settings : Joint stereo
Bit rate mode : Constant
Bit rate : 160 kb/s
Channel(s) : 2 channels
Sampling rate : 44.1 kHz
Frame rate : 38.281 FPS (1152 SPF)
Compression mode : Lossy
Stream size : Audio
omplete name : Ansambel Franca Potočarja.izbor.MP3.MP4.R77
Format : MPEG-4
Format profile : Base Media / Version 2
Codec ID : mp42 (isom/mp42)
File size : 90.2 MiB
Duration : 1 h 34 min 45 s
Overall bit rate mode : Variable
Overall bit rate : 218 kb/s
Encoded date : UTC 2018-11-12 18:35:33
Tagged date : UTC 2018-11-12 18:35:33
Video
ID : 1
Format : AVC
Format/Info : Advanced Video Codec
Format profile : Baseline@L1.3
Format settings : 1 Ref Frames
Format settings, CABAC : No
Format settings, Reference frames : 1 frame
Format settings, GOP : M=1, N=60
Codec ID : avc1
Codec ID/Info : Advanced Video Coding
Duration : 57 min 45 s
Duration_LastFrame : -1 ms
Bit rate : 120 kb/s
Width : 342 pixels
Height : 224 pixels
Display aspect ratio : 3:2
Frame rate mode : Constant
Frame rate : 29.818 FPS
Color space : YUV
Chroma subsampling : 4:2:0
Bit depth : 8 bits
Scan type : Progressive
Bits/(Pixel*Frame) : 0.052
Stream size : 49.5 MiB (55%)
Title : ISO Media file produced by Google Inc. Created on: 11/12/2018.
Encoded date : UTC 2018-11-12 18:35:33
Tagged date : UTC 2018-11-12 18:35:33
Codec configuration box : avcC
Audio
ID : 2
Format : AAC LC
Format/Info : Advanced Audio Codec Low Complexity
Codec ID : mp4a-40-2
Duration : 1 h 34 min 45 s
Bit rate mode : Variable
Bit rate : 96.0 kb/s
Channel(s) : 2 channels
Channel layout : L R
Sampling rate : 44.1 kHz
Frame rate : 43.066 FPS (1024 SPF)
Compression mode : Lossy
Stream size : 39.7 MiB (44%)
Title : ISO Media file produced by Google Inc. Created on: 11/12/2018.
Encoded date : UTC 2018-11-12 18:35:33
Tagged date : UTC 2018-11-12 18:35:33
Uživajte!
ABBA_Live.At.Wembley.Arena.720p.HDTVRip-R77

Klikni za povečavo!
24-02-2021 15:18 naložil rado77
Sejalci: 2 / Odjemalci: 0 / Velikost: 2.28 GB / Dokončani: 7
Prenesi torrent Poročaj torrent Opis torrenta
Zvrst: Glasbeni
Kategorija: GLASBA > Video

ABBA_Live.At.Wembley.Arena.720p.HDTVRip-R77


ABBA Live At Wembley Arena


"V živo na areni Wembley"
Kako je skupina ABBA z nastopom v živo presegla vsa pričakovanja


Če pogledamo nazaj, se zdi, da je za sedež na enem od šestih londonskih koncertov ABBA, na njihovi turneji leta 1979, popolna zlata vvstopnica. Tudi takrat je bilo povpraševanje več kot preseženo, vendar nihče ne bi mogel uganiti, da bo to zadnja priložnost oboževalcev, da švedsko superskupino ujamejo v živo v Veliki Britaniji. Za tiste, ki so ga zamudili, album Live At Wembley Arena , ki je bil prvotno izdan v Evropi 29. septembra 2014, ponuja vse dokaze, ki jih potrebujete za dokaz, da je ABBA v svojih najboljših letih na zalost vseh praktično izginila iz javnosti!
Znameniti švedski pop kvartet perfekcionistov je bil vedno raje v snemalnem studiu, da pričara njihov slavni zvok, in z nastopi v živo ni bil nikoli povsem zadovoljen. ABBA pa je popustila s to izdajo albuma v živo, ki prihaja 35 let po začetku druge, zadnje svetovne turneje, ki zajema Severno Ameriko, Evropo in Japonsko.
Nekaj posnetkov je bilo predvajanih že v prejšnjih zbirkah video-spotov. Verjemite vse kar sem vam naložil do sedaj je bil le uvod v spektakelj, ki je pred vami!
Prepričan sem , da si ga boste ogledali večkrat!
Datum koncerta: 10. novembra 1979

Tehnične specifikacije:

Complete name : ABBA_Live At Wembley Arena_R77
Format : MPEG-4
Format profile : Base Media
Codec ID : isom (mp41)
File size : 2.28 GiB
Duration : 1 h 18 min
Overall bit rate mode : Variable
Overall bit rate : 4 161 kb/s
Encoded date : UTC 2014-08-28 04:15:00
Tagged date : UTC 2014-08-28 04:15:00
Video
ID : 2
Format : AVC
Format/Info : Advanced Video Codec
Format profile : Baseline@L3.1
Format settings : 1 Ref Frames
Format settings, CABAC : No
Format settings, Reference frames : 1 frame
Format settings, GOP : M=1, N=29
Muxing mode : Container profile=Baseline@3.0
Codec ID : avc1
Codec ID/Info : Advanced Video Coding
Duration : 1 h 18 min
Bit rate mode : Variable
Bit rate : 4 004 kb/s
Maximum bit rate : 4 800 kb/s
Width : 1 280 pixels
Height : 720 pixels
Display aspect ratio : 16:9
Frame rate mode : Constant
Frame rate : 29.970 (30000/1001) FPS
Color space : YUV
Chroma subsampling : 4:2:0
Bit depth : 8 bits
Scan type : Progressive
Bits/(Pixel*Frame) : 0.145
Stream size : 2.19 GiB (96%)
Language : English
Codec configuration box : avcC
Audio
ID : 1
Format : AAC LC
Format/Info : Advanced Audio Codec Low Complexity
Codec ID : mp4a-40-2
Duration : 1 h 18 min
Bit rate mode : Constant
Bit rate : 152 kb/s
Channel(s) : 2 channels
Channel layout : L R
Sampling rate : 44.1 kHz
Frame rate : 43.066 FPS (1024 SPF)
Compression mode : Lossy
Stream size : 85.1 MiB (4%)
Language : English


UŽIVAJTE !
ABBA.Music.Videos.Collection.720p.TVRip.R77

Klikni za povečavo!
15-02-2021 12:22 naložil rado77
Sejalci: 1 / Odjemalci: 1 / Velikost: 2.67 GB / Dokončani: 4
Prenesi torrent Poročaj torrent Opis torrenta
Zvrst: Glasbeni
Kategorija: GLASBA > Video

ABBA.Music.Videos.Collection.720p.TVRip.R77


ABBA Music Videos Collection


ABBA video collection.mp4"
Video-spoti: 2h 15min


ABBA - The Day Before You Came 1981.mp4"
ABBA - Chiquitita 1979.mp4"
ABBA - The Name Of The Game 1977.mp4"
ABBA - The Winner Takes It All 1980.mp4"
ABBA - Estoy Sonando (I Have A Dream) 1979.mp4"
ABBA - One Man, One Woman 1977.mp4"
ABBA - Happy New Year 1980.mp4"
ABBA - Felicidad (Happy New Year) 1980.mp4"
ABBA - Fernando 1976.mp4"
ABBA - On And On And On 1980.mp4"
ABBA - Voulez-Vous 1979.mp4"
ABBA - Super Trooper 1980.mp4"
ABBA - Knowing Me, Knowing You 1976.mp4"
ABBA - Take A Chance On Me 1977.mp4"
ABBA - Dancing Queen 1976.mp4"
ABBA - One Of Us 1981.mp4"
ABBA - Eagle 1977.mp4"
ABBA - Under Attack 1982.mp4"
ABBA - Thank You For The Music 1977.mp4"
ABBA - Dancing Queen (Live At The Swedish Royal Opera) 1976.mp4"
ABBA - Head Over Heels 1981.mp4"
ABBA - Summer Night City 1978.mp4"
ABBA - Mamma Mia 1975.mp4"
ABBA - Gimme Gimmie Gimmie (A Man After Midnight) 1979.mp4"
ABBA - No Hay A Quien Culpar (When All Is Said And Done) 1981.mp4"
ABBA - I Do I Do I Do I Do I Do 1975.mp4"
ABBA - SOS 1975.mp4"
ABBA - When All Is Said And Done 1981.mp4"
ABBA - That-s Me 1977.mp4"
ABBA - Money, Money, Money 1976.mp4"
ABBA - Does Your Mother Know 1979.mp4"
ABBA - Ring Ring 1973.mp4"
ABBA - Bang-A-Boomerang 1974.mp4"
ABBA - When I Kissed the Teacher 1976.mp4"
ABBA - Waterloo 1974.mp4"

DODATEK:
ABBA - Video Picture Gallery.mp4"
Video-spoti s slikami: 21 min

DODATEK:
ABBA. Daba Du.Documentary.avi"
Dokumentarni film o skupini


O skupini ABBA:
ABBA je bila švedska pop skupina, ustanovljena v Stockholmu leta 1972, v kateri so bili Agnetha Fältskog, Björn Ulvaeus, Benny Andersson in Anni-Frid Lyngstad. ABBA je kratica prvih črk imen članov skupine in je včasih stilizirana kot registrirana blagovna znamka ABBA. Skupina je postala eno komercialno najuspešnejših zasedb v zgodovini popularne glasbe, ki je bila od leta 1975 do 1982. na lestvici po vsem svetu. Zmagala je tudi na Evroviziji 1974, s čimer je Švedska prvič zmagala v zgodovini tekmovanja in postala najbolj uspešna skupina, ki se je kdaj udeležila tekmovanja.


Tehnične specifikacije:
Complete name : ABBA video collection
Format : MPEG-4
Format profile : Base Media
Codec ID : isom (isom/iso2/avc1/mp41)
File size : 1.62 GiB
Duration : 2 h 15 min
Overall bit rate : 1 708 kb/s

Video
ID : 1
Format : AVC
Format/Info : Advanced Video Codec
Format profile : Main@L3.1
Format settings : CABAC / 1 Ref Frames
Format settings, CABAC : Yes
Format settings, Reference frames : 1 frame
Codec ID : avc1
Codec ID/Info : Advanced Video Coding
Duration : 2 h 15 min
Bit rate : 1 511 kb/s
Width : 768 pixels
Height : 576 pixels
Display aspect ratio : 4:3
Frame rate mode : Variable
Frame rate : 25.000 FPS
Minimum frame rate : 10.000 FPS
Maximum frame rate : 25.000 FPS
Color space : YUV
Chroma subsampling : 4:2:0
Bit depth : 8 bits
Scan type : Progressive
Bits/(Pixel*Frame) : 0.137
Stream size : 1.43 GiB (88%)
Codec configuration box : avcC

Audio
ID : 2
Format : AAC LC
Format/Info : Advanced Audio Codec Low Complexity
Codec ID : mp4a-40-2
Duration : 2 h 15 min
Bit rate mode : Constant
Bit rate : 192 kb/s
Channel(s) : 2 channels
Channel layout : L R
Sampling rate : 48.0 kHz
Frame rate : 46.875 FPS (1024 SPF)
Compression mode : Lossy
Stream size : 190 MiB (11%)
Default : Yes
Alternate group : 1

SE NADALJUJE!

Veliko užitkov!
ABBA.More.GOLD.720p.TVRip.R77

Klikni za povečavo!
13-02-2021 15:16 naložil rado77
Sejalci: 1 / Odjemalci: 0 / Velikost: 1.46 GB / Dokončani: 3
Prenesi torrent Poročaj torrent Opis torrenta
Zvrst: Glasbeni
Kategorija: GLASBA > Video

ABBA.More.GOLD.720p.TVRip.R77


ABBA More GOLD


Žanr: Pop
Slog: Europop , Disco
Leto: 1993

Opombe:
Vključuje avdio in video
Leto glavne izdaje: 1993, 1999 (preoblikovano)


Video formati vključujejo samo 13 skladb, na katerih je 9 skladb, od katerih video obstaja (v enakem vrstnem redu, kot so prikazani v zvočnih formatih), sledijo pa še štirje dodatni videoposnetki: "Bang-A-Boomerang", "One Man, One Woman" , "To sem jaz" in "Srečno novo leto".


Seznam skladb:

Summer Night City3:28
Angeleyes4:16
The Day Before You Came5:47
Eagle4:23
I Do, I Do, I Do, I Do, I Do3:16
So Long3:06
Honey, Honey2:53
The Visitors4:27
Our Last Summer4:19
On And On And On3:38
Ring Ring3:00
I Wonder (Departure)4:34
Lovelight3:18
Head Over Heels3:45
When I Kissed The Teacher3:00
I Am The City4:00
Cassandra4:50
Under Attack3:44
When All Is Said And Done3:16
The Way Old Friends Do2:52


Tehnične specifikacije:

Complete name : ABBA.More.GOLD.720p.TVRip.R77\ABBA More GOLD.mp4
Format : MPEG-4
Format profile : Base Media
Codec ID : isom (isom/iso2/avc1/mp41)
File size : 1.46 GiB
Duration : 50 min 36 s
Overall bit rate : 4 123 kb/s
Writing application : Lavf58.29.100

Video
ID : 1
Format : AVC
Format/Info : Advanced Video Codec
Format profile : High@L3
Format settings : CABAC / 2 Ref Frames
Format settings, CABAC : Yes
Format settings, Reference frames : 2 frames
Codec ID : avc1
Codec ID/Info : Advanced Video Coding
Duration : 50 min 36 s
Bit rate : 3 986 kb/s
Width : 720 pixels
Height : 576 pixels
Display aspect ratio : 5:4
Frame rate mode : Constant
Frame rate : 25.000 FPS
Standard : PAL
Color space : YUV
Chroma subsampling : 4:2:0
Bit depth : 8 bits
Scan type : Progressive
Bits/(Pixel*Frame) : 0.384
Stream size : 1.41 GiB (97%)
Codec configuration box : avcC

Audio
ID : 2
Format : AAC LC
Format/Info : Advanced Audio Codec Low Complexity
Codec ID : mp4a-40-2
Duration : 50 min 36 s
Bit rate mode : Constant
Bit rate : 128 kb/s
Channel(s) : 2 channels
Channel layout : L R
Sampling rate : 44.1 kHz
Frame rate : 43.066 FPS (1024 SPF)
Compression mode : Lossy
Stream size : 46.5 MiB (3%)
Default : Yes
Alternate group : 1


SE NADALJUJE!

Veliko užitkov!
Ara.Malikian-una.vida.entre.las.cuerdas.2019.SLOSubs.720p.HDTVRip-R77

Klikni za povečavo!
31-01-2021 15:38 naložil rado77
Sejalci: 1 / Odjemalci: 0 / Velikost: 2.05 GB / Dokončani: 2
Prenesi torrent Poročaj torrent Opis torrenta
Zvrst: Glasbeni
Kategorija: GLASBA > Video

Ara.Malikian-una.vida.entre.las.cuerdas.2019.SLOSubs.720p.HDTVRip-R77





Ara Malikian: una vida entre las cuerdas (2019)

Življenje med strunami






Režija Nata Moreno

Scenarij: Nacho R. Piedra (pisatelj), Nata Moreno
Žanr: celovečerni dokumentarni
Država: Španija
Jezik: Španščina, angleščina
Podnapisi: Slovenski

Glavna vloga: Ara Malikian


Povzetek:


Potovanje skozi življenje violinista Ara Malikiana in njegov nedvomen prispevek k klasični in sodobni glasbi. Nadaljevanje med njegovo zadnjo simfonično turnejo po Španiji in državah, kot so Libanon, Francija, Anglija, Kitajska, Rusija ...

Hkrati pove svojo fascinantno osebno zgodbo: glasba mu je rešila življenje z begom pred vojno. Ara je zapustil Bejrut pri 14 letih in od takrat živi kot nomad, ki svojo glasbo popelje po vsem svetu.

Film ki gledalca zelo pritegne, mu postavi marsikatero vprašanje in hkrati odgovore!





Tehnične specifikacije:


Complete name : Ara.Malikian-una.vida.entre.las.cuerdas.2019.SLOSubs.720p.HDTVRip-R77
Format : MPEG-4
Format profile : Base Media
Codec ID : isom (isom/iso2/avc1/mp41)
File size : 2.05 GiB
Duration : 1 h 28 min
Overall bit rate : 3 302 kb/s
Writing application : Lavf58.29.100

Video
ID : 1
Format : AVC
Format/Info : Advanced Video Codec
Format profile : High@L3.1
Format settings : CABAC / 3 Ref Frames
Format settings, CABAC : Yes
Format settings, Reference frames : 3 frames
Codec ID : avc1
Codec ID/Info : Advanced Video Coding
Duration : 1 h 28 min
Bit rate : 3 167 kb/s
Width : 1 280 pixels
Height : 720 pixels
Display aspect ratio : 16:9
Frame rate mode : Constant
Frame rate : 25.000 FPS
Color space : YUV
Chroma subsampling : 4:2:0
Bit depth : 8 bits
Scan type : Progressive
Bits/(Pixel*Frame) : 0.137
Stream size : 1.97 GiB (96%)
Codec configuration box : avcC

Audio

ID : 2
Format : AAC LC
Format/Info : Advanced Audio Codec Low Complexity
Codec ID : mp4a-40-2
Duration : 1 h 28 min
Bit rate mode : Constant
Bit rate : 128 kb/s
Channel(s) : 2 channels
Channel layout : L R
Sampling rate : 44.1 kHz
Frame rate : 43.066 FPS (1024 SPF)
Compression mode : Lossy
Stream size : 81.6 MiB (4%)
Default : Yes
Alternate group : 1


UŽIVAJTE!
Abba.za.vedno.aka.ABBA.Forever-The.Winner.Takes.It.All.2019.SLOSubs.720p.TVRip.R77

Klikni za povečavo!
31-01-2021 14:32 naložil rado77
Sejalci: 1 / Odjemalci: 0 / Velikost: 705.75 MB / Dokončani: 12
Prenesi torrent Poročaj torrent Opis torrenta
Zvrst: Glasbeni
Kategorija: GLASBA > Video

Abba.za.vedno.aka.ABBA.Forever-The.Winner.Takes.It.All.2019.SLOSubs.720p.TVRip.R77





ABBA Forever - The Winner Takes It All (2019)


ABBA ZA VEDNO: Zmagovalec vzame vse






O filmu:

Agnetha, Bjorn, Benny in Anni-Frid so se srečali pred petimi desetletji in ustanovili zasedbo Abba; ime skupine je sestavljeno iz začetnic njihovih imen. Prodali so več kot 400 milijonov plošč, pred dvajsetimi leti pa je na londonskem West Endu zaživel še muzikal s 27 njihovimi pesmimi. Predstavo Mamma Mia! si je ogledalo kar 60 milijonov ljudi. Čeravno je Abba obstajala le približno desetletje – razšli so se leta 1982 –, člani še danes dobivajo pisma najstniških oboževalcev.
Ta dokončni glasbeni dokumentarni film z glasbenim posnetkom največjih uspešnic in obilico klasičnih izvedbenih posnetkov ponuja notranji pogled na to, kako je nastala glasba švedska pop skupine ABBA, saj nekdanji člani in različni kolegi pripovedujejo svojo zgodbo od dni pred ABBA in dalje.





Režija: Chris Hunt

Kinematografija: Martin Hailey , Steve Haskett , Simon Wagen , Paul Wheeler
Igrajo : Agnetha Fältskog , Benny Andersson , Björn Ulvaeus , Anni-Frid
Žanr: Dokumentarni
Jezik: angleščina , švedščina
Podnapisi: Slovenski




Tehnične specifikacije:



Complete name : Abba.za.vedno.aka.ABBA.Forever-The.Winner.Takes.It.All.2019.SLOSubs.720p.TVRip.R77.mp4

Format : MPEG-4
Format profile : Base Media
Codec ID : isom (isom/iso2/avc1/mp41)
File size : 706 MiB
Duration : 51 min 4 s
Overall bit rate mode : Variable
Overall bit rate : 1 932 kb/s

Video
ID : 2
Format : AVC
Format/Info : Advanced Video Codec
Format profile : High@L4
Format settings : CABAC / 4 Ref Frames
Format settings, CABAC : Yes
Format settings, Reference frames : 4 frames
Codec ID : avc1
Codec ID/Info : Advanced Video Coding
Duration : 51 min 4 s
Source duration : 51 min 4 s
Bit rate mode : Constant
Bit rate : 1 800 kb/s
Width : 1 280 pixels
Height : 720 pixels
Display aspect ratio : 16:9
Frame rate mode : Variable
Frame rate : 25.000 FPS
Minimum frame rate : 6.250 FPS
Maximum frame rate : 75.000 FPS
Standard : PAL
Color space : YUV
Chroma subsampling : 4:2:0
Bit depth : 8 bits
Scan type : Progressive
Bits/(Pixel*Frame) : 0.078
Stream size : 657 MiB (93%)
Source stream size : 657 MiB (93%)
Color range : Limited
Color primaries : BT.709
Transfer characteristics : BT.709
Matrix coefficients : BT.709
mdhd_Duration : 3064400
Codec configuration box : avcC

Audio

ID : 3
Format : AAC LC
Format/Info : Advanced Audio Codec Low Complexity
Codec ID : mp4a-40-2
Duration : 51 min 4 s
Bit rate mode : Variable
Bit rate : 126 kb/s
Maximum bit rate : 427 kb/s
Channel(s) : 2 channels
Channel layout : L R
Sampling rate : 44.1 kHz
Frame rate : 43.066 FPS (1024 SPF)
Compression mode : Lossy
Stream size : 45.9 MiB (7%)






UŽIVAJTE!
A.White.White.Day.2019.SLOSubs.BRRip.XviD-DrSi

Klikni za povečavo!
28-01-2021 10:41 naložil Ziva
Sejalci: 1 / Odjemalci: 0 / Velikost: 2.5 GB / Dokončani: 6
Prenesi torrent Poročaj torrent Opis torrenta NFO
Zvrst: Drama
Kategorija: FILMI >  BRRip



Naziv: A.White.White.Day.2019.SLOSubs.BRRip.XviD-DrSi
Source: A.White.White.Day.2019.1080p.BluRay.x264-SCARE
Leto izida ........: 2019
Velikost ...........: 2,50 GB
Dolžina ............: 108 Minut
Video ...............: 2833 Kbps | 720x304 | 24 fps
Zvok .................: Dolby Digital AC3 5.1 @ 448 Kbps
Kodek.................: XviD
Zvrst………….: Drama
Država .............: Islandija | Danska | Švedska
Jezik ................: Islandski
Podnapisi .........: Slovenski, Hrvaški (oboji RETAiL)
Prevod: Mediatranslations
Za HD priredil: metalcamp
Tehnična obdelava: DVD Rippers Slovenija

Režija.........: Hlynur Palmason
Scenarij......: Hlynur Palmason


Ingvar Sigurdsson ... Ingimundur
Ída Mekkín Hlynsdóttir ... Salka
Hilmir Snær Guðnason ... Olgeir
Sara Dögg Ásgeirsdóttir ... Ingimundur's Wife
Björn Ingi Hilmarsson... Trausti
Elma Stefania Agustsdottir ... Elín
Haraldur Stefansson ... Stefán
Laufey Elíasdóttir ... Ingibjörg

V odmaknjenem islandskem mestecu začne policijski načelnik (Ingvar Sigurdsson) sumiti nekega sokrajana, da je bil skrivni ljubimec njegove žene, ki je pred dvema letoma umrla v tragični avtomobilski nesreči. Njegova obsedenost, da bi prišel resnici do dna, se čedalje bolj stopnjuje in kmalu začenja neogibno
ogrožati sebe in svoje ljubljene.
Film režiserja Hlynura Palmasona prinaša dramo o žalovanju, maščevanju in
brezpogojni ljubezni.




Avseniki.v.mednarodnih.koprodukcijah.1990.720p.TVRip.R77

Klikni za povečavo!
23-01-2021 14:25 naložil rado77
Sejalci: 2 / Odjemalci: 0 / Velikost: 807.18 MB / Dokončani: 2
Prenesi torrent Poročaj torrent Opis torrenta
Zvrst: Glasbeni
Kategorija: GLASBA > Video

Avseniki.v.mednarodnih.koprodukcijah.1990.720p.TVRip.R77

Avseniki v mednarodnih koprodukcijah


LEPO JE BITI MUZIKANT in

SENIK Z GODCI- MUSIKANTEN STADEL
1990


Dva koprodukcijska koncerta združena v en posnetek je bila verjetno najbolj gledana oddaja v zgodovini slovenske televizije.
Ob premieri si ju je ogledalo milijone gledalcev po svetu. Zaradi priljubljenosti ANSAMBLA BRATOV AVSENIK in velikanskega avditorija, ki ga ima popularni SENIK Z GODCI- MUSIKANTEN STADEL v nemško govorečih deželah. Oddaji sta bili narejeni v Sloveniji- LEPO JE BITI MUZIKANT- ob 60 letnici Slavka Avsenika, na Bledu in SENIK Z GODCI v Mariboru, obe leta 1990. Zanimivo, v obeh se v voditeljski vlogi pojavlja mlada MARTA KOS ob dveh zelo popularnih voditeljih -KARLU MOIKU in GERHARDU LIPPERTU.
Vir: RTV-SLO


Tehnične specifikacije:

Complete name : Avseniki v mednarodnih koprodukcijah.1990\Avseniki v mednarodnih koprodukcijah.avi
Format : AVI
Format/Info : Audio Video Interleave
File size : 807 MiB
Duration : 58 min 54 s
Overall bit rate : 1 916 kb/s
Writing library : VirtualDub build 32842/release

Video
ID : 0
Format : AVC
Format/Info : Advanced Video Codec
Format profile : High@L5.1
Format settings : CABAC / 3 Ref Frames
Format settings, CABAC : Yes
Format settings, Reference frames : 3 frames
Codec ID : H264
Duration : 58 min 54 s
Bit rate : 1 647 kb/s
Width : 768 pixels
Height : 548 pixels
Display aspect ratio : 1.401
Frame rate : 25.000 FPS
Color space : YUV
Chroma subsampling : 4:2:0
Bit depth : 8 bits
Scan type : Progressive
Bits/(Pixel*Frame) : 0.157
Stream size : 694 MiB (86%)
Writing library : x264 core 130 r2274bm c832fe9

Audio
ID : 1
Format : MPEG Audio
Format version : Version 1
Format profile : Layer 3
Codec ID : 55
Codec ID/Hint : MP3
Duration : 58 min 54 s
Bit rate mode : Constant
Bit rate : 32.0 kb/s
Channel(s) : 2 channels
Sampling rate : 44.1 kHz
Compression mode : Lossy
Stream size : 108 MiB (13%)
Alignment : Aligned on interleaves
Interleave, duration : 26 ms (0.65 video frame)
Interleave, preload duration : 65 ms
Writing library : LAME3.99.5


UŽIVAJTE!
Atlantic.Crossing.aka.Z.druge.strani.Atlanktika.2020.SLOSubsS01.720.HDTVRip.AAC-R77

Klikni za povečavo!
23-01-2021 12:31 naložil System
Sejalci: 1 / Odjemalci: 0 / Velikost: 4.7 GB / Dokončani: 4
Prenesi torrent Poročaj torrent Opis torrenta
Zvrst: Drama | Zgodovinski
Kategorija: FILMI > TV - Serija
Anonimen nalagalec

Atlantic.Crossing.aka.Z.druge.strani.Atlanktika.2020.SLOSubsS01.720.HDTVRip.AAC-R77




Atlantic Crossing 2020
TV Serija

Z DRUGE STRANI ATLANKTIKA
Sezona 01


Opis:
Princ Olaf se vse bolj vdaja pijači. Kralj mu že leta ne dovoli drugega kot opazovati dogajanje, in to ga peha v malodušje. Norveška vlada zato sklene, da mu bo dodelila položaj vrhovnega poveljnika norveških čet. To je razlog, da znova odpotuje v Washington. Ko opazuje svojo družino, se zave, da že dolgo ni več njen del. Marta razmišlja o ločenem življenju, nato pa se vojna konča in Olaf sklene, da bo obrnil nov list in se zazrl v prihodnost. Marta se tako vrne v domovino in z možem se znova povežeta.


Država: Norveška, Nemčija, ZDA, Švedska, Danska
Scenarij: Alexander Eik, Linda May Kallestein
Režija: Alexander Eik, Janic Heen
V glavnih vlogah: Sofia Helin, Kyle MacLachlan, Tobias Santelmann, Harriet Sansom Harris, Daniel Betts, Søren Pilmark, Lucy Russell
Epizode: 8
Žanri: drama, zgodovina
Podnapisi: Slovenski


Tehnićne specifikacije:
Complete name : Z druge strani Atlantika.S01.E02.SLOSubs.R77.mp4
Format : MPEG-4
Format profile : Base Media
Codec ID : isom (isom/iso2/avc1/mp41)
File size : 583 MiB
Duration : 55 min 23 s
Overall bit rate : 1 471 kb/s
Writing application : Lavf58.20.100

Video
ID : 1
Format : AVC
Format/Info : Advanced Video Codec
Format profile : High@L3.1
Format settings : CABAC / 3 Ref Frames
Format settings, CABAC : Yes
Format settings, Reference frames : 3 frames
Codec ID : avc1
Codec ID/Info : Advanced Video Coding
Duration : 55 min 23 s
Bit rate : 1 338 kb/s
Width : 1 280 pixels
Height : 720 pixels
Display aspect ratio : 16:9
Frame rate mode : Constant
Frame rate : 25.000 FPS
Color space : YUV
Chroma subsampling : 4:2:0
Bit depth : 8 bits
Scan type : Progressive
Bits/(Pixel*Frame) : 0.058
Stream size : 530 MiB (91%)
Writing library : x264 core 148

Audio
ID : 2
Format : AAC LC
Format/Info : Advanced Audio Codec Low Complexity
Codec ID : mp4a-40-2
Duration : 55 min 23 s
Bit rate mode : Constant
Bit rate : 128 kb/s
Channel(s) : 2 channels
Channel layout : L R
Sampling rate : 44.1 kHz
Frame rate : 43.066 FPS (1024 SPF)
Compression mode : Lossy
Stream size : 50.7 MiB (9%)
Default : Yes
Alternate group : 1


Veliko užitkov!