A
B
C
D
E
F
G
H
I
J
K
L
M
N
O
P
Q
R
S
T
U
V
W
X
Y
Z
0-9
Underverden.aka.Darkland.2017.SLOSubs.BRRip.XviD-DrSi(1)

Klikni za povečavo!
Petek at 10:10 naložil ViHaR
Sejalci: 4 / Odjemalci: 0 / Velikost: 2.51 GB / Dokončani: 5
Prenesi torrent Magnet Link Poročaj torrent Opis torrenta NFO
Kategorija: FILMI > BRRip


Naziv: Underverden.aka.Darkland.2017.SLOSubs.BRRip.XviD-DrSi
Source: Underverden.aka.Darkland.2017.SLOSub.720p.BluRay.x264-DrSi
Leto izida .........: 2017
Velikost ...........: 2,50 GB
Dolžina ............: 113 Minut
Video ...............: 2712 Kbps | 720x304 | 24 fps
Zvok .................: Dolby Digital AC3 5.1 @448 kbps
Kodek...............: XviD
Zvrst………….: Akcija | Kriminalka | Drama | Triler
Država………..: Danska
Jezik ................: Danski
Podnapisi .........: Slovenski (custom)
Prevod in priredba: Lorelei
Uredil: metalcamp
Tehnična obdelava: DVD Rippers Slovenija

IMDb Ocena ...: 6,6/10 (5.396 glasov)
IMDb Info .......: http://www.imdb.com/title/tt5431082/

Scenarij: Fenar Ahmad
Režija: Fenar Ahmad, Adam August

IGRAJO :
Dar Salim ... Zaid
Stine Fischer Christensen ... Stine
Ali Sivandi ... Semion
Dulfi Al-Jabouri ... Alex
Jakob Ulrik Lohmann ... Torben
Roland Møller ... Claus
B. Branco ... Branco
Anis Alobaidi ... Yasin
Brian Siva ... Hassan
Hamza Al-Jabouri ... Zaids far

VSEBINA:
Uspešen zdravnik, ki izgubi brata zaradi krutega in nasilnega vodje tolpe,
kateri je pripadal, postane maskirani bojevnik in maščuje bratovo smrt.


Ureah Heep - The Best of . . .Part 1 - Remastered - [FLAC]

18-07-2020 11:28 naložil andrejap
Sejalci: 1 / Odjemalci: 0 / Velikost: 420.91 MB / Dokončani: 2
Prenesi torrent Poročaj torrent Opis torrenta NFO
Zvrst: Glasbeni
Kategorija: GLASBA > Glasba

---------------------------------------------------------------------
Uriah Heep - The Best of... Part 1
---------------------------------------------------------------------
Artist...............: Uriah Heep
Album................: The Best of... Part 1
Genre................: Rock
Source...............: CD
Year.................: 1996
Ripper...............: EAC (Secure mode) / LAME 3.92 & Asus CD-S520
Codec................: Free Lossless Audio Codec (FLAC)
Version..............: reference libFLAC 1.2.1 20070917
Quality..............: Lossless, (avg. compression: 62 %)
Channels.............: Stereo / 44100 HZ / 16 Bit
Tags.................: VorbisComment
Information..........:
Ripped by............: somebody on 18. 07. 2020
Posted by............: somebody on 18. 07. 2020
News Server..........: news.astraweb.com
News Group(s)........: alt.binaries.sounds.mp3.m
Included.............: NFO
Covers...............: Front Back CD
---------------------------------------------------------------------
Tracklisting
---------------------------------------------------------------------
1. Uriah Heep - Gypsy [02:58]
2. Uriah Heep - Bird of Prey [04:14]
3. Uriah Heep - Lady in Black [04:45]
4. Uriah Heep - Salisbury [02:59]
5. Uriah Heep - July Morning [10:33]
6. Uriah Heep - Look at Yourself [05:10]
7. Uriah Heep - Easy Livin' [02:37]
8. Uriah Heep - The Wizard [03:00]
9. Uriah Heep - Sweet Lorraine [04:15]
10. Uriah Heep - Stealin' [04:51]
11. Uriah Heep - Suicidal Man [03:40]
12. Uriah Heep - Return to Fantasy [05:51]
13. Uriah Heep - Misty Eyes [04:18]
14. Uriah Heep - Easy Livin' [Live] [03:01]
15. Uriah Heep - Stealin' [Live] [05:45]
Playing Time.........: 01:08:03
Total Size...........: 420,68 MB
NFO generated on.....: 18. 07. 2020 13:29:13
Un.couteau.dans.le.coeur.aka.KnifeHeart.2018.SLOSubs.BRRip.XviD-DrSi(1)

15-07-2020 12:48 naložil ViHaR
Sejalci: 1 / Odjemalci: 0 / Velikost: 2.3 GB / Dokončani: 2
Prenesi torrent Magnet Link Poročaj torrent Opis torrenta NFO
Kategorija: FILMI > BRRip



Release: Un.couteau.dans.le.coeur.aka.KnifeHeart.2018.SLOSubs.BRRip.XviD-DrSi
Source: KnifeHeart.2018.720p.BluRay.x264-CREEPSHOW
Leto izida ........: 2018
Velikost ...........: 2,30 GB
Dolžina ............: 102 Minuti
Video ...............: 2764 Kbps | 720x304 | 24 fps
Zvok ................: Dolby Digital AC3 5.1 @ 448 Kbps
Kodek...............: XviD
Zvrst………….: Grozljivka | Drama | Misterij | Triler | Romantični
Država .............: Francija | Mehika | Švica
Jezik ................: Francoski
Podnapisi ........: Slovenski (RETAiL-DrSi)
Prevod: Blitz Film
TVRip: Toyan –Hvala!!
Za HD priredil: metalcamp
Tehnična obdelava: DVD Rippers Slovenija

IMDb Ocena ...: 6.3/10 (3,169 glasov)
IMDb Info .......: https://www.imdb.com/title/tt6426028/
Režija..........: Yann Gonzalez
Scenarij.......: Yann Gonzalez, Cristiano Mangione


Vanessa Paradis ... Anne Parèze
Nicolas Maury ... Archibald Langevin
Kate Moran ... Loïs McKenna
Jonathan Genet ... Guy
Félix Maritaud ... Thierry
Khaled Alouach ... Nans / Fouad
Noé Hernández ... José
Thibault Servière ... Misia


Pariz, poleti 1979. Anne producira tretjerazredni gejevski pornografski film.
Ko jo zapusti njena montažerka in ljubimka Lois, se skuša spraviti k sebi
s snemanjem svojega najambicioznejšega filma do sedaj s svojim zvestim
pomočnikom Archibaldom. Vendar pa enega od igralcev kruto ubijejo in Anne
se znajde v čudni preiskavi, ki ji življenje obrne na glavo.

UglyDolls.2019.SLOSiNH.BRRip.XviD-DrSi

Klikni za povečavo!
25-05-2020 17:38 naložil NERON
Sejalci: 2 / Odjemalci: 0 / Velikost: 1.9 GB / Dokončani: 33
Prenesi torrent Magnet Link Poročaj torrent Opis torrenta
Kategorija: FILMI > BRRip

UGLYDOLLS (2019)
GRDELUTKE: Popolno nepopolne
animirana družinska komedija

Slovenska sinhronizacija!




Naziv: UglyDolls.2019.SLOSiNH.BRRip.XviD-DrSi
Source: UglyDolls.2019.1080p.BluRay.DD+7.1.x264-DON

Leto izida ........: 2019
Velikost ...........: 1,90 GB
Dolžina ............: 88 Minut
Video ...............: 2641 Kbps | 720x384 | 23,976 fps
Zvok ................: Dolby Digital AC35.1 @448 kbps
Kodek...............: XviD
Zvrst………….: Animirani | Pustolovski |Komedija | Družinski |Muzikal
Država……….: Kitajska | Kanada | ZDA
Jezik ................:
Slovenski
Zvokovna obdelava: Toyan –HVALA!!
Podnapisi ........: Slovenski (RETAiL-DrSi)
Tehnična obdelava: DVD Rippers Slovenija

Režija.........: Kelly Asbury
Scenarij.......: Alison Peck, Robert Rodriguez


Perpetuum Jazzile (Katja Kovačič, Katja Stropnik, Neža Bukovec, Klemen Brezavšček)


Lutke svobodnega duha in nenavadnega izgleda se soočajo s tem, kaj pomeni biti drugačen,
se boriti z željo po ljubezni in na koncu odkriti svojo resnično identiteto in vrednote,
ki štejejo največ. Ko zapustijo svoje domovanje, naletijo na mesto, kjer so vsi popolni,
kar pa ne pomeni, da so tudi srečni. Ugotovijo, da je lepše biti popolno nepopoln.
Skladbe v animiranem muzikalu bo odpela znana slovenska skupina Perpetuum Jazzile.

NAPOVEDNIK:







Untogether.2018.SloSub.1080p.WEB.x264-[cyd]

Klikni za povečavo!
01-04-2020 18:41 naložil
Sejalci: 1 / Odjemalci: 0 / Velikost: 1.89 GB / Dokončani: 1
Prenesi torrent Poročaj torrent Opis torrenta NFO
Zvrst: Drama
Kategorija: FILMI > WEBRip-1080

——————————————————————————————————————————————————————————————————
IMDb info:
◎ Naslov, leto: Untogether (2018)
◎ Zvrst: drama,
◎ Jezik: angleški
◎ Ocena: 5,2
◎ Povzetek: Andrea is a recently sober writer whose career has stalled since she published her debut novel several years ago.
———————————————————————————————————————————————————————————
YouTube URADNI NAPOVEDNIK:
——————————————————————————————————————————————————————————————————
PODNAPISI:
◎ Jezik : slovenski [vstavljeni / softcoded / multiplexed]
——————————————————————————————————————————————————————————————————
VIR:
◎ Source:
Untogether.2018.1080p.WEBRip.x264-RARBG.mp4
◎ After coding:
Untogether.2018.SloSub.1080p.WEB.x264-[cyd].mkv
———————————————————————————————————————————————————————————
CONNECTION:
◎ Seedbox, speed Limit: NO
———————————————————————————————————————————————————————————
Underwater.2020.Slo&SrbSubs.1080p.HDRip.x264-[cyd]

Klikni za povečavo!
27-03-2020 12:07 naložil
Sejalci: 0 / Odjemalci: 0 / Velikost: 3.32 GB / Dokončani: 28
Prenesi torrent Poročaj torrent Opis torrenta NFO
Zvrst: Akcija | Drama
Kategorija: FILMI > HDRip

——————————————————————————————————————————————————————————————————
IMDb info:
◎ Naslov, leto: Underwater 2020
◎ Zvrst: akcija, drama
◎ Jezik: angleški
◎ Ocena: 6,2
◎ Povzetek: A crew of aquatic researchers work to get to safety after an earthquake devastates their subterranean laboratory. But the crew has more than the ocean seabed to fear.
———————————————————————————————————————————————————————————
YouTube URADNI NAPOVEDNIK:
——————————————————————————————————————————————————————————————————
PODNAPISI:
◎ Jezik : slovenski, srbski [vstavljeni / softcoded / multiplexed]
——————————————————————————————————————————————————————————————————
VIR:
◎ Source:
Underwater.2020.1080p.HDRip.x264.AAC2.0-STUTTERSHIT.mp4
◎ After coding:
Underwater.2020.Slo&SrbSubs.1080p.HDRip.x264-[cyd].mkv
———————————————————————————————————————————————————————————
CONNECTION:
◎ Seedbox, speed Limit: NO
———————————————————————————————————————————————————————————
Uncut.Gems.2019.SrbSub.1080p.BluRay.x264-[cyd]

Klikni za povečavo!
28-12-2019 07:16 naložil
Sejalci: 1 / Odjemalci: 0 / Velikost: 2.11 GB / Dokončani: 50
Prenesi torrent Magnet Link Poročaj torrent Opis torrenta NFO
Kategorija: FILMI > BluRay-1080

——————————————————————————————————————————————————————————————————
IMDb info:
◎ Naslov: Uncut Gems
◎ Leto: 2019
◎ Zvrst: kriminalka, drama, skrivnosten
◎ Jezik: angleški
◎ Ocena: 8,1
◎ Povzetek: A charismatic New York City jeweler always on the lookout for the next big score, makes a series of high-stakes bets that could lead to the windfall of a lifetime. Howard must perform a precarious high-wire act, balancing business, family, and encroaching adversaries on all sides, in his relentless pursuit of the ultimate win.
———————————————————————————————————————————————————————————
YouTube URADNI NAPOVEDNIK:
——————————————————————————————————————————————————————————————————
PODNAPISI:
◎ Jezik : srbski latinica [vstavljeni / softcoded / multiplexed]
——————————————————————————————————————————————————————————————————
VIR:
◎ Source:
Uncut.Gems.2019.1080p.BluRay.x264-[YTS.LT].mp4
◎ After coding:
Uncut.Gems.2019.SrbSub.1080p.BluRay.x264-[cyd].mkv
————————————————————————————————————————————————————-——————
POVEZAVA:
◎ Seedbox NO Speed Limit
—————————————————————————————————————————————-—————————————
Us.2019.SloSub.1080p.WEBx264.AAC-[cyd]

Klikni za povečavo!
18-07-2019 11:17 naložil
Sejalci: 1 / Odjemalci: 0 / Velikost: 2.22 GB / Dokončani: 12
Prenesi torrent Poročaj torrent Opis torrenta NFO
Zvrst: Grozljivka | Triler
Kategorija: FILMI > WEBRip-1080

———————————————————————————————————————————————————————————
IMDb info:
◎ Naslov: Mi (Us)
◎ Leto: 2019
◎ Zvrst: grozljivka triler
◎ Jezik: angleški
◎ Ocena: ★★★★★★★ (7,0)
◎ Povzetek: Jordan Peel bo svojo briljantno satirično grozljivko Zbeži! nasledil s filmom Us (Mi), ki bo v vode žanrskega filma zakorakal še odločneje, vključno s pošastmi, strašljivimi maskami in nadnaravnimi elementi. Winston Duke in Lupita Nyong'o igrata zakonca, ki morata sebe in svoja otroka obvarovati pred napadom skupine vsiljivcev, ki so videti kot njihove zrcalne podobe. "Zgodbe o pošastih so eden najboljših načinov, kako se dokopati do globljih resnic in se spopasti s strahovi, ki imajo družbo v primežu," o svojem pristopu k žanru pravi Peele.
Vir: rtvslo.si
———————————————————————————————————————————————————————————
YouTube URADNI NAPOVEDNIK:
———————————————————————————————————————————————————————————
PODNAPISI:
◎ Jezik : slovenski [vstavljeni / softcoded / multiplexed]
———————————————————————————————————————————————————————————
VIR:
◎ Source:
Us.2019.1080p.WEBRip.x264-RARBG.mp4
◎ After coding:
Us.2019.SloSub.1080p.WEBx264.AAC-[cyd].mkv
———————————————————————————————————————————————————————————
UFC.237.Main.Event.Namajunas.vs.Andrade.1080p.

Klikni za povečavo!
12-05-2019 07:39 naložil System
Sejalci: 1 / Odjemalci: 0 / Velikost: 5.85 GB / Dokončani: 0
Prenesi torrent Poročaj torrent Opis torrenta
Zvrst: Sportni
Kategorija: FILMI > HDTV
Anonimen nalagalec

UFC.237.Main.Event.Namajunas.vs.Andrade.1080p.
Expand Code:
General
Complete name                            : G:StahováníUFC.237.Namajunas.vs.Andrade.1080p.WEB-WDTeam.mp4
Format                                   : MPEG-4
Format profile                           : Base Media
Codec ID                                 : isom
File size                                : 5.85 GiB
Duration                                 : 2h 37mn
Overall bit rate                         : 5 311 Kbps
Encoded date                             : UTC 2019-05-11 04:46:12
Tagged date                              : UTC 2019-05-11 04:46:12

Video
ID                                       : 1
Format                                   : AVC
Format/Info                              : Advanced Video Codec
Format profile                           : High@L4.2
Format settings, CABAC                   : Yes
Format settings, ReFrames                : 4 frames
Codec ID                                 : avc1
Codec ID/Info                            : Advanced Video Coding
Duration                                 : 2h 37mn
Source duration                          : 2h 37mn
Bit rate                                 : 4 896 Kbps
Width                                    : 1 920 pixels
Height                                   : 1 080 pixels
Display aspect ratio                     : 16:9
Frame rate mode                          : Constant
Frame rate                               : 50.000 fps
Color space                              : YUV
Chroma subsampling                       : 4:2:0
Bit depth                                : 8 bits
Scan type                                : Progressive
Bits/(Pixel*Frame)                       : 0.047
Stream size                              : 5.40 GiB (92%)
Source stream size                       : 5.63 GiB (96%)
Tagged date                              : UTC 2019-05-11 04:47:59

Audio
ID                                       : 2
Format                                   : AAC
Format/Info                              : Advanced Audio Codec
Format profile                           : LC
Codec ID                                 : 40
Duration                                 : 2h 37mn
Bit rate mode                            : Constant
Bit rate                                 : 196 Kbps
Channel(s)                               : 2 channels
Channel positions                        : Front: L R
Sampling rate                            : 48.0 KHz
Compression mode                         : Lossy
Stream size                              : 221 MiB (4%)
Tagged date                              : UTC 2019-05-11 04:47:59

Upgrade.2018.SLOSubs.BRRip.XviD-DrSi

Klikni za povečavo!
13-01-2019 16:25 naložil Ziva
Sejalci: 1 / Odjemalci: 0 / Velikost: 2.2 GB / Dokončani: 4
Prenesi torrent Magnet Link Poročaj torrent Opis torrenta NFO
Zvrst: Akcija | Triler | Z.F.
Kategorija: FILMI > BRRip



Naziv: Upgrade.2018.SLOSubs.BRRip.XviD-DrSi
Source: Upgrade.2018.720p.BluRay.DD5.1x264-SbR
Source notes: Debanding filter was applied.
Leto izida ........: 2018
Velikost ...........: 2,20 GB
Dolžina ............: 100 Minut
Video ...............: 2695 Kbps | 720x304 | 23,976 fps
Zvok ................: Dolby Digital AC3 5.1 @ 448 Kbps
Kodek...............: XviD
Zvrst………….: Akcija | ZF | Triler
Država .............: ZDA
Jezik ................: Angleški
Podnapisi .........: Slovenski (RETAiL)
Uredil: metalcamp
Tehnična obdelava: DVD Rippers Slovenija
IMDb : IMDB Rating:

Režija.........: Leigh Whannell
Scenarij.......: Leigh Whannell


Logan Marshall-Green ... Grey Trace
Melanie Vallejo ... Asha Trace
Steve Danielsen ... Jeff Handley
Abby Craden ... Kara
Harrison Gilbertson ... Eron Keen
Benedict Hardie ... Fisk
Richard Cawthorne ... Serk
Christopher Kirby ... Tolan
Richard Anastasios ... Wen
Kenny Low ... Police Driver


Po nesreči z avtomobilom, skupina ljudi na ulici hladnokrvno ubije Greyevo ženo,
medtem ko Grey preživi in postane tetraplegik. Prijatelj Eron mu ponudi pomoč.
Greyevo edino upanje po maščevanju je eksperimentalni implantant računalniškega
tipa imenovan Stem.

Up.2009.SLOSiNH.BRRip.XviD-DrSi

Klikni za povečavo!
04-12-2018 00:26 naložil System
Sejalci: 1 / Odjemalci: 0 / Velikost: 1.77 GB / Dokončani: 50
Prenesi torrent Magnet Link Poročaj torrent Opis torrenta
Kategorija: FILMI > BRRip
Anonimen nalagalec

UP (2009)
V VIŠAVE

Žanr ............................: Animirani | Avantura | Komedija

Dolžina .......................: 92 minut

Leto ............................: 2009

Država ........................: ZDA

Kodek .........................: XviD

Slika ............................: 720 x 400 | 2170 kbps | 23,976 FPS

Zvok ............................: Dolby Digital AC3 5.1 448 KB/s

Jezik ............................: Slovenski

Podnapisi ...................: /

Tehnična obdelava ...: DVD Rippers Slovenija

Glasovi:
Carl Fredricksen ... Drago K. Razboršek

Charles Muntz ... Iztok Jereb

Russell ... Matic Blagonič

Dug ... Jernej Kuntner

Beta ... Jurij Strajnar

Gamma ... Gregor Stavbič

Alpha ... Jan Bučar

Construction Foreman ... Tom Luka Per

Newsreel Announcer ... Predrag Lalič

Young Ellie ... Klara Šmuc

Young Carl ... Rok Kuntner

Police Officer Edith ... Ana Hribar

Construction Worker Steve ... Simon Šimat

Nurse George ... Igor Potočnik

Nurse AJ ... Jernej Kuntner

CampTroll Strauch ... Igor Potočnik

Na kratko o filmu:
Življenje 78-letnega upokojenca Karla je vedno potekalo mirno in neopazno, zato se na stara leta odloči uresničiti svoje sanje ter izpolniti dolgoletno obljubo. S pomočjo tisočih balonov, ki jih naveže na svojo hišo, poleti naproti fantastičnim avanturam, a s seboj nevede odnese tudi radovednega tabornika. Čeprav čemerni možakar v mladeniču sprva vidi le nadlego, se nenavadni par počasi spoprijatelji in skupaj se spopadeta z divjimi viharji, spoznata govorečega psa in se soočita z norim znanstvenikom.

NAPOVEDNIK

Ultimate Amazon Seller Course

Klikni za povečavo!
27-11-2018 04:03 naložil
Sejalci: 0 / Odjemalci: 0 / Velikost: 3.93 GB / Dokončani: 4
Prenesi torrent Poročaj torrent Opis torrenta NFO
Kategorija: PROGRAMI > E-Knjiga





Your Ticket To Success And Financial Freedom in 2018!

It’s Time For You To Tap Into This NEW One Of A Kind Opportunity And Create A Profitable Amazon Business!`

We already have many very successful students who have completed the course and have gone on to build successful six-figure plus incomes from their Amazon businesses! You can too!

I will become your business mentor and help you every step of the way until you become successful!

Please check out my YouTube channel dedicated to Amazon FBA:

https://www.youtube.com/c/philipacovington

  • No previous knowledge or experienced required!
  • No catches!
  • No gimmicks!
  • No loopholes!
  • The Most Up To Date Course on Amazon FBA Available!
  • Unlimited Lifetime Mentoring By Me Personally - Not An Assistant!
  • No Amazon Guru Empty Promises or Scammy Tactics!
  • The ONLY Amazon FBA Course that offers Hot Product Picks to help you succeed! (See FAQ below)

Don't miss out! Enrollment in this course is limited

Ask Yourself These Questions:

  • Are you tired of living paycheck to paycheck?
  • Hate your dead-end 9 to 5 job?
  • Don't want to do the 9 to 5 grind?
  • Graduated College but have no hope for your financial future?
  • Want to start your own business but don't know where to start?
  • Are you unemployed, and are looking for something that can help you live a dream life?
  • Worried about your financial future? Have no direction in your life?

If you answer ‘YES’ to any of these, pay close attention. I suggest you close all the other tabs, grab a coffee, shut the door and read each and every word on this page. It may transform your life!

A word of warning : This opportunity is for SERIOUS people only. If you are looking for a get rich quick scheme, this course is not for you. If you are someone who is really serious about building an Amazon business and ultimately creating financial freedom, this is definitely for you!

The best way to predict your future is to create it. -Abraham Lincoln

Check out this statistic chart from Amazon: More than 39% of current Amazon Sellers are making $100,000 or more a year!

You could be one of the 39%!

And with some additional work you can reach the 14% that earn more than $1,000,000 a year from Amazon!

I will show you how step-by-step in this outstanding and award winning course!

Discover the exact blueprint to quit your 9-5 and make more money than you ever would in a lifetime at your dead end job!

Un Profil Pour Deux 2017 CroSubs FRENCH 1080p BRRip x264 TicaDow

Klikni za povečavo!
18-01-2018 13:19 naložil Ziva
Sejalci: 1 / Odjemalci: 0 / Velikost: 2.21 GB / Dokončani: 5
Prenesi torrent Magnet Link Poročaj torrent Opis torrenta NFO
Kategorija: FILMI > BRRip



Un Profil Pour Deux 2017 FRENCH 1080p BRRip x264 TicaDow
Language(s): French
1hr 40mn | 1080p BRRip | 1920 x 1036 | Matroska | 2.20 GB
Genre(s): Comedy | Romance
IMDb : http://www.imdb.com/title/tt4693612/

Podnapisi : hrvaški


Pierre Richard ... Pierre Stein
Yaniss Lespert ... Alex
Fanny Valette ... Flora
Stéphane Bissot ... Sylvie
Stéphanie Crayencour ... Juliette


Pierre, a 75 year old widower, discovers online dating websites. Using the profile picture of Alex, his grand daughter's boyfriend, Pierre meets Flora. Charmed by his elegant conversations and intimate confessions, she asks him on a date, face to face. Excited by this unexpected adventure, Monsieur Pierre asks Alex to go in his place.




Un.Gallo.con.muchos.Huevos.2015.SLOSiNH.DVDRip.XviD-DrSi

Klikni za povečavo!
13-11-2017 12:21 naložil Ziva
Sejalci: 1 / Odjemalci: 0 / Velikost: 1.37 GB / Dokončani: 65
Prenesi torrent Poročaj torrent Opis torrenta NFO
Kategorija: FILMI > DVDRip



Naziv: Un.Gallo.con.muchos.Huevos.2015.SLOSiNH.DVDRip.XviD-DrSi
Source: PAL.DVDR
Leto .........: 2015
Velikost .....: 1,37 GB
Dolžina ......: 94 min.
Video ........: 1 628 Kbps | 720x400 | 25 fps | XviD
Zvok .........: Dolby Digital AC3 5.1 @ 448 Kbps
Jezik ........: SLOVENSKI
Režija........: Gabriel Riva Palacio Alatriste, Rodolfo Riva-Palacio Alatriste
Scenarij......: Marqus Bobesich, Andrzej Rattinger
Produkcija....: Simka Entertainment
Žanr..........: Animacija | Avantura | Komedija | Družinski
Država .......: Mehika
Tehnična obdelava DVD Rippers Slovenija

IMDb Link........: http://www.imdb.com/title/tt4643580/



SLOVENSKA SINHRONIZACIJA:
Andrej Murenc
Borut Veselko
Gašper Jarni
Maja Kunšič
Vesna Pernarčič
Bojan Emeršič


Mladi petelin Roki odrašča na majhni kmetiji, toda bolj kot običajni petelinji opravki, ga zanima boksanje. Prepričan je, da se bo nekoč lahko spopadel s pravimi petelinjimi borci, želja pa se mu nenadejano uresniči, ko njegovo kmetijo ogrozi lakomni bogataš. Da bi zbral dovolj denarja in rešil kmetijo, se Toto odloči udeležiti boksarskega tekmovanja. Pred tem ga morajo živalski prijatelji naučiti, kako naj v sebi prebudi pravo živalsko naravo, potrebno za enakovreden spopad z izkušenimi bojevniki.




Una.2016.LiMiTED.SLOSubs.BRRip.XviD-DrSi

Klikni za povečavo!
22-10-2017 10:30 naložil Ziva
Sejalci: 1 / Odjemalci: 0 / Velikost: 2 GB / Dokončani: 7
Prenesi torrent Magnet Link Poročaj torrent Opis torrenta NFO
Zvrst: Drama
Kategorija: FILMI > BRRip



Naziv: Una.2016.LiMiTED.SLOSubs.BRRip.XviD-DrSi
Source: Una 2017 LiMiTED 1080p BluRay x264-VETO
Leto izida .........: 2016 / 2017
Velikost ...........: 2,00 GB
Dolžina ............: 94 Minut
Video ...............: 2580 Kbps | 720x304 | 24 fps
Zvok .................: Dolby Digital AC3 5.1 @448 kbps
Kodek...............: XviD
Zvrst………….: Drama
Država………..: VB | ZDA | Kanada
Jezik ................: Angleški
Podnapisi .........: Slovenski (RETAiL)
Prevod: Mediatranslations
Za HD priredil in uredil: metalcamp
Tehnična obdelava: DVD Rippers Slovenija
IMDb Info .......: http://www.imdb.com/title/tt2315582/


Režija.........: Benedict Andrews
Scenarij.......: David Harrower (po njegovi igri "Blackbird")


Ruby Stokes ... Young Una
Rooney Mara ... Una
Ben Mendelsohn ... Ray
Tara Fitzgerald ... Andrea
Riz Ahmed ... Scott
David Shields ... Man in Nightclub
Madeleine Brolly ... Courtroom Clerk
Richard Cunningham ... Prosecutor
Gary Finnerty ... Truck Driver
Maciej Krupianik ... Foreman


Mlada Una v službi nepričakovano obišče precej starejšega Raya in pri
njem išče odgovore. Vendar njuno soočenje razkrije skrivnosti in potlačeno
poželenje, ki bi lahko njuno življenje zasukali na glavo.

Zgodba je posneta po dramski igri "Blackbird" avtorja Davida Harrowerja
in spremlja pot mlade ženske, ki bi rada dobila nazaj del svoje preteklosti.
Pred petnajstimi leti je tedaj 13-letna Una pobegnila s precej starejšim Rayem –
to je bil zaradi njene mladoletnosti zločin, zaradi katerega so ga aretirali
in poslali v ječo. Po tem, ko naleti na njegovo sliko v neki komercialni reviji,
ga Una poišče in se nenapovedano prikaže v njegovi službi. Njen nenadni obisk
grozi, da bo uničil Rayevo novo življenje in omajal njeno značajsko gotovost.
Na površje pridejo zatajene skrivnosti in zamolčani spomini, ko se Una in Ray
podajata v svojo skupno, težavno preteklost. Njuno soočenje sproži neodgovorjena
vprašanja ter razkrije potlačeno poželenje; to bo oba pretreslo do obisti.

Psihološka drama "Una" se dotika uničujoče oblike ljubezni in se sprašuje,
ali je ob tem sploh mogoča odrešitev.





Un.Plus.Une.2015.SLOSubs.DVDRip.XviD-DrSi

Klikni za povečavo!
04-03-2017 13:33 naložil Ziva
Sejalci: 1 / Odjemalci: 0 / Velikost: 1.96 GB / Dokončani: 13
Prenesi torrent Poročaj torrent Opis torrenta NFO
Kategorija: FILMI > DVDRip




Naziv: Un.Plus.Une.2015.SLOSubs.DVDRip.XviD-DrSi
Source: R2 PAL DVDR
Leto izida .........: 2015
Velikost ...........: 1,95 GB
Dolžina ............: 110 Minut
Video ...............: 2107 Kbps | 720x304 | 25 fps
Zvok .................: Dolby Digital AC3 5.1 @ 448 kbps
Kodek.................: XviD
Zvrst………….: Komedija | Drama | Romantični
Država………..: Francija
Jezik ................: Francoski
Podnapisi .........: Slovenski (RETAiL)
Prevod po angleški predlogi: Miša Šavor
Tehnična obdelava: DVD Rippers Slovenija

IMDb Info .......: http://www.imdb.com/title/tt1918911/


Režija.........: Claude Lelouch
Scenarij.......: Claude Lelouch, Valérie Perrin


Jean Dujardin ... Antoine Abeilard
Elsa Zylberstein ... Anna Hamon
Christopher Lambert ... Samuel Hamon
Alice Pol ... Alice Hanel
Rahul Vohra ... Rahul Abhi
Shriya Pilgaonkar ... Ayanna
Abhishek Krishnan ... Sanjay
Venantino Venantini ... Henri
Hélene Médigue ... L'amie d'Anna
Olias Lelouch ... Le petit Antoine


Šarmantni pariški skladatelj Antoine ljubezenskih zvez nikoli ne jemlje preveč resno,
dokler se ne odpravi na službeno pot v Indijo. Med pripravami na indijsko različico
večne romance o Romeu in Juliji spozna ženo francoskega ambasadorja Anno, ki ga s
svojo radoživostjo povsem očara. Odloči se, da ji bo sledil na njenem duhovnem
popotovanju na jug Indije, nenavadna pustolovščina pa ju nepričakovano zbliža
in romantično poveže. Toda Annin mož in Antoinovo pariško dekle še nista rekla
zadnje besede, zato je nova ljubezen postavljena pred velike preizkušnje.

Underworld Blood Wars 2016 SrbSubs 1080p WEB-DL x264 AC3-JYK

Klikni za povečavo!
11-02-2017 17:21 naložil System
Sejalci: 0 / Odjemalci: 0 / Velikost: 2.52 GB / Dokončani: 5
Prenesi torrent Magnet Link Poročaj torrent Opis torrenta
Zvrst: Akcija | Grozljivka
Kategorija: FILMI > WEBRip
Anonimen nalagalec



INFO:
Format.......: Matroska
File Size....: 2.52 GiB
Duration.....: 1h 31mn
Bitrate......: 3 934 Kbps
Bitrate......: 384 Kbps
Channels.....:6 channels
Sampling Rate: 48.0 KHz
Frame Rate...: 23.976 fps
Width........: 1 920 pixels
Height.......: 796 pixels
Language.....: English
Subtitles....: SRBSKI

IMDb Link........:http://www.imdb.com/title/tt3717252/
IMDb Ocena.......:6.4



Podzemlje: Krvave vojne
Underworld: Blood Wars akcijska domišljijska grozljivka



Leto: 2016
Država: ZDA
Jezik: angleščina
Scenarij: Cory Goodman, Jayson Rothwell
Režija: Anna Foerster
Igrajo: Kate Beckinsale, Theo James, Lara Pulver, Tobias Menzies, Bradley James, James Faulkner, Charles Dance

OPIS:
Usodna vampirska bojevnica Selena nadaljuje večno vojno med krvoločnimi volkodlaki in nesmrtnimi krvosesi, ki so jo izdali. Ujeta med dvema ognjema mora najprej zaščititi hčerko, katere krvi si želijo vampirji, nato pa z zaveznikoma Davidom in njegovim očetom Thomasom skujejo načrt, kako enkrat za vselej končati nesmiselne spopade. Toda zagrizeni nasprotniki so ji pripravili številne pasti, osupljivo nevarne in smrtonosne bitke pa Seleno peljejo proti nezavidljivi odločitvi, če je za končni mir pripravljena tudi na najbolj boleče žrtve.





Uncle John 2015 SloSubs LiMiTED DVDRip x264 LPD

Klikni za povečavo!
07-01-2017 13:06 naložil Ziva
Sejalci: 1 / Odjemalci: 0 / Velikost: 779.52 MB / Dokončani: 9
Prenesi torrent Poročaj torrent Opis torrenta NFO
Kategorija: FILMI > DVDRip



Uncle John 2015 LiMiTED DVDRip x264 LPD
Language(s): English
1hr 54mn | DVDRip | 720 x 300 | Matroska | 779 MB
Genre(s): Crime | Drama | Mystery
IMDb : http://www.imdb.com/title/tt3219194/

Podnapisi : slovenski


John Ashton ... John
Alex Moffat ... Ben
Jenna Lyng ... Kate
Ronnie Gene Blevins ... Danny


John je prijazen in spoštovan starec v majhnem podeželskem mestu. Pravkar je domnevno umoril moža po imenu Dutch. Ta je storil veliko slabega mnogim dobrim ljudem in nihče od sokrajanov noče v umor vpletati Johna – razen Dutchovega nasilnega in zapitega brata Dannyja. Iz Chicaga v svoj rojstni kraj prispe Johnov nečak Ben, medtem ko se njegov stric trudi izogniti sumu in čedalje bolj otipljivim Dannyjevim grožnjam. Mojstrsko prikazana spletka v majhnem mestu prinaša zgodbo o tem, kako lahko potreba po maščevanju enega človeka stane življenja mnogih.

U Gori Raste Zelen Bor 1971 XViD

Klikni za povečavo!
17-12-2016 13:10 naložil Ziva
Sejalci: 0 / Odjemalci: 0 / Velikost: 800.56 MB / Dokončani: 4
Prenesi torrent Poročaj torrent Opis torrenta NFO
Zvrst: Drama | Vojni
Kategorija: FILMI > XviD



Naziv...........U gori raste zelen bor
Velikost......... : 800MB
Dolžina…......... :1h 21 minut
Leto............. : 1971
Država........... :Yugoslavia
Kodek............ : XviD
Slika............ : 320 x 256 | 25 fps
Zvok............. : MPEG Audio 2 STEREO 22kHz 64 kb/s
IMDb : http://www.imdb.com/title/tt0067895/
Jezik............ : Srbo-Hrvaški
Žanr.............: Vojni Drama


Boris Dvornik- Dikan
Ivica Vidović- Ivan
Veljko Milojević (Charles Millot)- Domobranski satnik Srbin
Boris Buzančić- Ivo Jurica
Mate Ergović- Nikola zvani Miš
Zvonimir Lepetić- harmonikaš Jura
Inge Appelt- Mara
Ilija Ivezić- Ićan Likota
Kole Angelovski- Markeza
Rade Šerbedžija- Domobranski časnik
Fabijan Šovagović- Lazo
Zvonko Lepetić - Jura
Uglješa Kojadinović - Ustaša
Nada Subotić - Nikolina žena
Edo Peročević - Ustaša
Franjo Fruk - Zapovjednik utvrde Grabovac
Kruno Valentić - Domobran Štef
Đuro Utješanović - Učitelj
Petar Dobrić - Domobran
Branka Vrdoljak - Ivanova supruga
Mirko Boman - Domobran


Partizanski komesar Ivan (Ivica Vidović) poslan je u jedno nizinsko selo sa zadaćom nadzirati partizanski odred sastavljen od stanovnika tog sela. Usprkos razlikama u stajalištima, brzo se sprijatelji sa zapovjednikom tog odreda Dikanom (Boris Dvornik). Radnja filma se usredotoči na odnos Dikana i Ivana te Ivanovo prilagođavanje surovom ratu koji se vodi na tom području. Akcije koje se odvijaju tijekom filma uglavnom se odnose na plan evakuacije Glavnog štaba i Dikanovu osobnu osvetu domobranskom časniku srpskog podrijetla (Charles Millot), koji je neizravno odgovoran[Zar se ne radi o jednom drugom časniku?] za smrt jednog njegovog borca..



UK Top 100 MP4 - UK Top 40 Singles Chart (16 June 2016)

17-06-2016 08:13 naložil System
Sejalci: 1 / Odjemalci: 0 / Velikost: 5.92 GB / Dokončani: 3
Prenesi torrent Poročaj torrent Opis torrenta
Kategorija: GLASBA
Anonimen nalagalec



---------------------------------------------------------------------
Tracklisting
---------------------------------------------------------------------

Drake - One Dance feat. Kyla & Wizkid (Lyrics)
uporabnika Aldeeb Saleh TOP 5
2:13

CAN'T STOP THE FEELING! (From DreamWorks Animation's "Trolls") (Official Video)
uporabnika justintimberlakeVEVO
4:46

Calvin Harris - This Is What You Came For (Audio Clip) ft. Rihanna
uporabnika CalvinHarrisVEVO
1:31

Akon - Be With You (Nedu Remix)
uporabnika FreshMixes
4:12

Kungs vs Cookin’ on 3 Burners - This Girl
uporabnika KungsVEVO
3:18

Clean Bandit - Tears ft. Louisa Johnson [Official Snippet]
uporabnika Clean Bandit
1:29

Sia - Cheap Thrills (Lyric Video) ft. Sean Paul
uporabnika SiaVEVO
4:22

Timbaland ft. OneRepublic - Apologize (OutaMatic Remix)
uporabnika AxeSound
3:50

gnash - i hate u, i love u (ft. olivia o'brien) [music video]
uporabnika gnash
3:48

Galantis - No Money (Official Video)
uporabnika Galantis
3:22

Mike Posner - I Took A Pill In Ibiza (Seeb Remix) (Explicit)
uporabnika MikePosnerVEVO
3:57

Sia - Chandelier (ViLLAGE Remix)
uporabnika Tan Music
3:58

Cheat Codes x Kris Kross Amsterdam - SEX (Official Music Video)
uporabnika Spinnin' Records
4:18

Desiigner - Panda
uporabnika DesiignerVEVO
4:03

Fifth Harmony - Work from Home ft. Ty Dolla $ign
uporabnika FifthHarmonyVEVO
3:40

2Pac x B.o.B. x Owl City - Smile For Airplanes And Fireflies (Nedu Mix)
uporabnika FreshMixes
5:38

DNCE - Cake By The Ocean
uporabnika DNCEVEVO
4:18

Tinie Tempah - Girls Like ft. Zara Larsson (Official Video)
uporabnika Tinie Tempah
3:23

DJ Snake - Middle (Audio) ft. Bipolar Sunshine
uporabnika DJSnakeVEVO
3:41

Ed Sheeran - Drunk In Love (Davidson Remix)
uporabnika Pirucul
4:14

Zara Larsson - Lush Life
uporabnika ZaraLarssonMusicVEVO
3:22

Little Mix - Hair (Official Video) ft. Sean Paul
uporabnika littlemixVEVO
3:57

P!nk - Just Like Fire (From the Original Motion Picture "Alice Through The Looking Glass")
uporabnika PinkVEVO
3:53

Years & Years - Shine (Jax Jones Remix)
uporabnika Leon James
4:19

Alan Walker - Faded
uporabnika Alan Walker
3:33

Lukas Graham - 7 Years [OFFICIAL MUSIC VIDEO]
uporabnika Lukas Graham
4:00

Travis Scott - Antidote (Free Slice Remix)
uporabnika MitMusic
4:18

Work
uporabnika Rihanna - Topic
3:40

Jonas Blue feat. Dakota - Fast Car (Audio)
uporabnika FreshMixes
3:33

Adele - Send My Love (To Your New Lover)
uporabnika AdeleVEVO
3:46

Calum Scott - "Dancing On My Own" by Robyn COVER (Music Arranged by Jamie Cleaton)
uporabnika Calum Scott
4:41

Major Lazer - Light It Up (feat. Nyla & Fuse ODG) [Remix] (Official Lyric Video)
uporabnika majorlazer
2:47

The Chainsmokers - Don't Let Me Down (Audio) ft. Daya
uporabnika ChainsmokersVEVO
3:30

OneRepublic - Wherever I Go (Audio)
uporabnika OneRepublicVEVO
2:50

Shawn Mendes - Treat You Better
uporabnika Shawn Mendes Handwritten
3:01

Coldplay - Hymn For The Weekend (Official video)
uporabnika Coldplay Official
4:21

twenty one pilots: Stressed Out [OFFICIAL VIDEO]
uporabnika Fueled By Ramen
3:46

Justin Bieber - Sorry (PURPOSE : The Movement)
uporabnika JustinBieberVEVO
3:26

Justin Bieber - Love Yourself (PURPOSE : The Movement)
uporabnika JustinBieberVEVO
4:33

Blonde and Craig David - Nothing Like This (Official Video)
uporabnika Blonde
3:07

Ariana Grande - Dangerous Woman
uporabnika ArianaGrandeVevo
3:56

Shawn Mendes - Stitches Lyrics ¦
uporabnika Phantom Fun¦
3:34

Nick Jonas - Close ft. Tove Lo
uporabnika NickJonasVEVO
3:58

Ariana Grande - Into You
uporabnika ArianaGrandeVevo
4:15

The Chainsmokers - Roses (Audio) ft. ROZES
uporabnika ChainsmokersVEVO
3:49

will.i.am - Boys & Girls ft. Pia Mia
uporabnika williamVEVO
4:05

G-Eazy X Bebe Rexha - Me, Myself & I (Audio)
uporabnika GEazyMusicVEVO
4:15

Dua Lipa - Hotter Than Hell (Official Video)
uporabnika Dua Lipa
3:48

Reggie 'N' Bollie - New Girl (Official Video)
uporabnika ReggieNBollieVEVO
3:45

David Guetta ft. Zara Larsson - This One's For You (Official Audio) (UEFA EURO 2016™ Official Song)
uporabnika David Guetta
3:28

Rihanna - Needed Me
uporabnika RihannaVEVO
3:15

Jonas Blue - Perfect Strangers (Preview) ft. JP Cooper
uporabnika JonasBlueVEVO
1:21

Kygo - Raging ft. Kodaline
uporabnika KygoOfficialVEVO
3:45

Craig David - One More Time (Official Video)
uporabnika CraigDavidVEVO
3:16

MK & Becky Hill - Piece of Me (Official Video)
uporabnika MKVEVO
2:52

Benny Benassi & Chris Brown - Paradise (Official Video)
uporabnika Ultra Music
4:22

Sigala - Say You Do (Official Audio) ft. Imani, DJ Fresh
uporabnika SigalaVEVO
3:23

Sigma ft. Take That - Cry (Official Music Video)
uporabnika 3 Beat
3:29

Jason Derulo - "If It Ain't Love" (Official Music Video)
uporabnika Jason Derulo
4:04

ZAYN - PILLOWTALK
uporabnika ZaynVEVO
3:27

Kiiara - Gold (Official Video)
uporabnika Kiiara
3:38

Coldplay - Adventure Of A Lifetime (Official video)
uporabnika Coldplay Official
5:16

Rihanna - Kiss It Better (Explicit)
uporabnika RihannaVEVO
4:09

Zara Larsson, MNEK - Never Forget You
uporabnika ZaraLarssonMusicVEVO
4:03

Jay Sean - Make My Love Go (Official Video) ft. Sean Paul
uporabnika JaySeanVEVO
3:37

Justin Bieber - What Do You Mean? (Lyric Video)
uporabnika JustinBieberVEVO
3:26

Mike Will Made-It, Rihanna - Nothing Is Promised
uporabnika MikeWillMadeitVEVO
2:50

Meghan Trainor - NO
uporabnika MeghanTrainorVEVO
3:43

Shawn Mendes, Camila Cabello - I Know What You Did Last Summer (Official Video)
uporabnika ShawnMendesVEVO
3:49

Snakehips - All My Friends ft. Tinashe, Chance The Rapper
uporabnika SnakehipsVEVO
3:51

Justin Bieber - Company
uporabnika JustinBieberVEVO
3:28

One Direction - History (Official Video)
uporabnika OneDirectionVEVO
3:16

WALK THE MOON - Shut Up and Dance
uporabnika WalkTheMoonVEVO
4:07

Major Lazer & DJ Snake - Lean On (feat. MO) (Official Music Video)
uporabnika majorlazer
2:59

Years & Years - Desire ft. Tove Lo
uporabnika YearsAndYearsVEVO
3:44

Little Mix - Secret Love Song (Official Video) ft. Jason Derulo
uporabnika littlemixVEVO
4:21

Coldplay - Up&Up (Official video)
uporabnika Coldplay Official
4:11

Disturbed - The Sound Of Silence [Official Music Video]
uporabnika Disturbed
4:20

Drake - Hotline Bling
uporabnika DrakeVEVO
4:56

Tom Odell - Magnetised (Official Video)
uporabnika TomOdellVEVO
4:00

Charlie Puth - One Call Away [Official Video]
uporabnika Charlie Puth
4:02

Selena Gomez - Hands To Myself
uporabnika SelenaGomezVEVO
3:48

Kygo - Stay ft. Maty Noyes (Lyric Video)
uporabnika Ultra Music
4:13

Ed Sheeran - Photograph (Official Music Video)
uporabnika Ed Sheeran
4:35

DJ Kenno - Will Grigg's On Fire - official Single
uporabnika BounceNation
3:36

Kent Jones - Dont Mind (EXPLICIT)
uporabnika Kent Jones
3:19

James Bay - Let It Go
uporabnika JamesBayVEVO
4:19

Adele - Hello
uporabnika AdeleVEVO
6:07

Sia - Chandelier (Official Video)
uporabnika SiaVEVO
3:52

Alicia Keys - In Common
uporabnika aliciakeysVEVO
3:32

The Weeknd - The Hills
uporabnika TheWeekndVEVO
3:55

Sigala - Sweet Lovin' (Official Video) Feat. Bryn Christopher
uporabnika SigalaVEVO
3:35

Alessia Cara - Wild Things
uporabnika AlessiaCaraVEVO
3:57

Sigala - Give Me Your Love (Official Video) ft. John Newman, Nile Rodgers
uporabnika SigalaVEVO
3:49

Alan Walker - Sing Me To Sleep
uporabnika Alan Walker
3:12

Jess Glynne - Take Me Home [Official Video]
uporabnika Jess Glynne
4:33

The Weeknd - Can't Feel My Face
uporabnika TheWeekndVEVO
3:39

Ed Sheeran - Thinking Out Loud [Official Video]
uporabnika Ed Sheeran
4:57

99 Souls - The Girl Is Mine (featuring Destiny's Child & Brandy) [Official Video]
uporabnika 99SoulsVEVO
3:44


Robin Schulz - Sugar (feat. Francesco Yates) (OFFICIAL MUSIC VIDEO)
uporabnika Robin Schulz
3:43




General
Complete name : D:\Gotovi Utorent\UK Top 100 MP4 - UK Top 40 Singles Chart (16 June 2016)\1 Drake - One Dance feat. Kyla & Wizkid (Lyrics).mp4
Format : MPEG-4
Format profile : Base Media
Codec ID : isom (isom/iso2/avc1/mp41)
File size : 8.13 MiB
Duration : 2mn 12s
Overall bit rate : 516 Kbps
Writing application : Lavf54.63.104

Video
ID : 1
Format : AVC
Format/Info : Advanced Video Codec
Format profile : Main@L3.1
Format settings, CABAC : Yes
Format settings, ReFrames : 3 frames
Codec ID : avc1
Codec ID/Info : Advanced Video Coding
Duration : 2mn 12s
Bit rate : 383 Kbps
Width : 1 280 pixels
Height : 720 pixels
Display aspect ratio : 16:9
Frame rate mode : Constant
Frame rate : 30.000 fps
Color space : YUV
Chroma subsampling : 4:2:0
Bit depth : 8 bits
Scan type : Progressive
Bits/(Pixel*Frame) : 0.014
Stream size : 6.03 MiB (74%)
Color range : Limited
Color primaries : BT.709
Transfer characteristics : BT.709
Matrix coefficients : BT.709

Audio
ID : 2
Format : AAC
Format/Info : Advanced Audio Codec
Format profile : LC
Codec ID : 40
Duration : 2mn 12s
Bit rate mode : Constant
Bit rate : 126 Kbps
Channel(s) : 2 channels
Channel positions : Front: L R
Sampling rate : 44.1 KHz
Frame rate : 43.066 fps (1024 spf)
Compression mode : Lossy
Stream size : 1.98 MiB (24%)
Default : Yes
Alternate group : 1

Up.2009.SloSINH.DVDRip.XviD-Churchill

Klikni za povečavo!
01-01-2016 17:32 naložil System
Sejalci: 1 / Odjemalci: 0 / Velikost: 1.5 GB / Dokončani: 168
Prenesi torrent Poročaj torrent Opis torrenta
Kategorija: FILMI > Risanke
Anonimen nalagalec

V višave (2009)
Up (2009)



INFO:
-------------
Codec : XVID
Format : AVI
Size : 1.50 GiB
Bit rate : 1 943 Kbps
Width : 720-pixels
Height : 400-pixels
Aspect ratio : 16/9
Audio 1 : AC-3
Bit rate : 384 Kbps
Channel(s) : 6 channels
Channel positions: Front: L C R, Surround: L R, LFE
Sampling rate : 48.0 KHz
Genre : Animation, Adventure, Comedy, Family
Country : USA
Language : Slo sinhro. (orig. English)
Subtitles : /
Runtime : 92mn
Čas predvajanja : 1h 32mn

IMDb user Rating : 8,3/10 from 608.306 users
IMDb Link : KLIK

Slovenska zasedba glasov:
------------------------
Carl Fredricksen ... Drago K. Razboršek
Charles Muntz ... Iztok Jereb
Russell ... Matic Blagonič
Dug ... Jernej Kuntner
Beta ... Jurij Strajnar
Gamma ... Gregor Stavbič
Alpha ... Jan Bučar
Construction Foreman Tom ... Luka Per
Newsreel Announcer ... Predrag Lalič
Young Ellie ... Klara Šmuc
Young Carl ... Rok Kuntner
Police Officer Edith ... Ana Hribar
Construction Worker Steve... Simon Šimat
Nurse George ... Igor Potočnik
Nurse AJ ... Jernej Kuntner
CampTroll Strauch ... Igor Potočnik

OPIS:
-------------
78-letni prodajalec balonov Carl Fredricksen si je že kot otrok
želel oditi na veličastno pustolovščino, toda vedno je kaj prišlo
vmes. Ko pa se idilična hiška, v kateri je srečno živel s svojo
prav tako sanjaško ženo, znajde sredi betonske džungle, se končno
odloči uresničiti svoje sanje. Na hišo naveže ogromno balonov in z
njo odleti v južnoameriško divjino. Pri tem prepozno odkrije, da
ima slepega potnika. Zagnani 8-letni tabornik Russell se znajde na
verandi, ko hiša poleti, in Fredricksen nima druge izbire, kot da
pot nadaljuje v družbi svoje najhujše more. Odletita v izgubljeni
svet, kjer srečata nenavadne, smešne, eksotične in presenetljive
prebivalce, obenem pa odkrijeta, kaj je pravo prijateljstvo in kaj
je prava pustolovščina...