A
B
C
D
E
F
G
H
I
J
K
L
M
N
O
P
Q
R
S
T
U
V
W
X
Y
Z
0-9
DJ VIHAR & DJ AJDA - BOZICNI MIX 2020

Klikni za povečavo!
12-12-2020 17:49 naložil Ajda
Sejalci: 4 / Odjemalci: 0 / Velikost: 115.24 MB / Dokončani: 19
Prenesi torrent Poročaj torrent Opis torrenta NFO
Kategorija: GLASBA > Glasba




*******************************************************************************
~ DJ VIHAR & DJ AJDA - BOŽIČNI MIX 2020 ~ kapakapadol
*******************************************************************************
-------------------------------------------------------------------------------
Avdio podatki santa
-------------------------------------------------------------------------------
General
Complete name : DJ VIHAR & DJ AJDA - BOZICNI MIX 2020.mp3
Format : MPEG Audio
File size : 115 MiB
Duration : 50mn 6s
Overall bit rate mode : Constant
Overall bit rate : 320 Kbps
Encoded by : Lavf52.39.0
Writing library : LAME3.98

Audio
Format : MPEG Audio
Format version : Version 1
Format profile : Layer 3
Mode : Joint stereo
Duration : 50mn 6s
Bit rate mode : Constant
Bit rate : 320 Kbps
Channel(s) : 2 channels
Sampling rate : 48.0 KHz
Compression mode : Lossy
Stream size : 115 MiB (100%)
Writing library : LAME3.98
-------------------------------------------------------------------------------
Vsebina santa
-------------------------------------------------------------------------------

01. DARJA GAJŠEK - Božične zvezdice
02. VIGOR - Badnja večer
03. ŽIGA DERŠEK - Božič bo
04. LUKA BASI - Sretan božič ljubavi
05. TARAPANA BAND - Zagrljaj za božič
06. LJUBAVNICI - Poljubi me ovog božiča
07. TONČI HULJIČ / MARKO TOLJA - Od božiča do božiča
08. MIA - Božič bez tebe
09. ŠPELA GROŠELJ / DOMEN /ILDIVJI - Za božič tebe si želim
10. NIKA ZORJAN - Poljubi me na božič
11. JELENA ROZGA - Fritula
12. KASTELO - Zvezda upanja
13. DAVOR BORNO - San božične noči
14. NAVEZA /MAJA ODERLAP - Najlepše praznike

DJ VIHAR & DJ AJDA - SLO & HR MIX 62

Klikni za povečavo!
17-11-2020 16:48 naložil Ajda
Sejalci: 7 / Odjemalci: 0 / Velikost: 160.84 MB / Dokončani: 20
Prenesi torrent Poročaj torrent Opis torrenta NFO
Zvrst: Glasbeni
Kategorija: GLASBA > Glasba




-------------------------------------------------------------------------------
Avdio podatki
-------------------------------------------------------------------------------
Complete name : DJ VIHAR & DJ AJDA - SLO & HR MIX 62..mp3
Format : MPEG Audio
File size : 160 MiB
Duration : 1h 10mn
Overall bit rate mode : Constant
Overall bit rate : 320 Kbps
Encoded by : Lavf52.39.0
Writing library : LAME3.98

Audio
Format : MPEG Audio
Format version : Version 1
Format profile : Layer 3
Mode : Joint stereo
Duration : 1h 10mn
Bit rate mode : Constant
Bit rate : 320 Kbps
Channel(s) : 2 channels
Sampling rate : 48.0 KHz
Compression mode : Lossy
Stream size : 160 MiB (100%)
Writing library : LAME3.98
-------------------------------------------------------------------------------
Vsebina
-------------------------------------------------------------------------------

01. MLADEN GRDOVIČ NINA DONELI - Samo jedna je dalmacija
02. ŠARMERI - Hajde milo moje
03. DINO PETRIČ KATARINA GRUJO - 100 života
04. UČITELJICE - Apsolutno
05. TRI MUŠKETIRA - Kad če zora svanuti
06. VILI RESNIK EROSI - Moja generacija
07. TANJA ŽAGAR - Rada sem tvoja
08. SKUPINA CHICAS - Nocoj s tebo
09. MLADEN GRDOVIČ MATE BULIČ - Dvi sestre
10. MANCA ŠPIK GADI - Tiho potiho
11. DARJA GAJŠEK - S teboj živim
12. DOMEN KUMER ŠPELA GROŠELJ - Vino in kitara
13.MALIGANI - Svi znaju
14. MEJAŠI - Nova godina
15. FEHTARJI - Štorklje
16. ALEN VOGRINEC GOCA - Jedini jedina
17. ŽIGA DERŠEK - Svoje barke krmar
18. DRAŽEN ZEČIČ - Volim samo nju
19. UROŠ IN TJAŠA - Zaljubljen par
20. MARIJAN SMODE - Mati ti jim reci ( posvečeno Kičotu)






Dark.Blue.S01-S02.Slosub.TVRip.720p.x264.R77

Klikni za povečavo!
Petek at 16:48 naložil rado77
Sejalci: 1 / Odjemalci: 0 / Velikost: 7.41 GB / Dokončani: 0
Prenesi torrent Poročaj torrent Opis torrenta
Zvrst: Drama
Kategorija: FILMI > TVRip

Dark.Blue.S01-S02.Slosub.TVRip.720p.x264.R77





Dark Blue
TV serija (2009–2010)


TEMNO MODRA





Država: Združene države

Direktor: Danny Cannon (ustvarjalec), Doug Jung (ustvarjalec), Jeffrey G. Hunt





Igralska zasedba:


Dylan McDermott , Omari Hardwick , Logan Marshall-Green , Nicki Aycox , Meta Golding , Tyrees Allen , Noah Bean

Žanr: TV serija , Drama , Triler, Policajski
Jezik: angleščina
Podnapisi: Slovenski


Povzetek:



Temno modra spremlja življenje tajne ekipe policistov iz Los Angelesa tako prikrito, da mnogi njihovi lastni kolegi sploh ne vedo, da so vpleteni. Ekipo nadzira poročnik Carter Shaw (Dylan McDermott), ki s svojimi nadrejenimi pogosto trka v glavo nad tveganji, ki jih je ekipa pripravljena uničiti.






Tehnične specifikacije:



Complete name : Dark.Blue.S01-S02.Slosub.TVRip.720p.x264.R77

Format : Matroska
Format version : Version 2
File size : 406 MiB
Duration : 43 min 47 s
Overall bit rate : 1 295 kb/s
Writing application : Lavf52.94.0
Writing library : Lavf52.94.0


Video

ID : 1
Format : AVC
Format/Info : Advanced Video Codec
Format profile : High@L3
Format settings : CABAC / 2 Ref Frames
Format settings, CABAC : Yes
Format settings, Reference frames : 2 frames
Codec ID : V_MPEG4/ISO/AVC
Duration : 43 min 47 s
Bit rate : 1 100 kb/s
Width : 720 pixels
Height : 408 pixels
Display aspect ratio : 16:9
Frame rate mode : Constant
Frame rate : 25.000 FPS
Color space : YUV
Chroma subsampling : 4:2:0
Bit depth : 8 bits
Scan type : Progressive
Bits/(Pixel*Frame) : 0.150
Stream size : 337 MiB (83%)
Writing library : x264 core 112 r1834 a51816a
Default : Yes
Forced : No


Audio

ID : 2
Format : AC-3
Format/Info : Audio Coding 3
Commercial name : Dolby Digital
Codec ID : A_AC3
Duration : 43 min 47 s
Bit rate mode : Constant
Bit rate : 192 kb/s
Channel(s) : 2 channels
Channel layout : L R
Sampling rate : 48.0 kHz
Frame rate : 31.250 FPS (1536 SPF)
Bit depth : 16 bits
Compression mode : Lossy
Stream size : 60.1 MiB (15%)
Service kind : Complete Main
Default : Yes
Forced : No


Veliko užitkov!
Deep.Impact.1998.MultiSub.PAL.DVDR

Klikni za povečavo!
17-01-2021 12:32 naložil System
Sejalci: 1 / Odjemalci: 0 / Velikost: 4.36 GB / Dokončani: 2
Prenesi torrent Poročaj torrent Opis torrenta
Kategorija: FILMI > DVD
Anonimen nalagalec

Deep Impact (1998)
Zadnji udarec (1998)



-------------

INFO:
-------------
Source..........: DVD
Format..........: 16:9
Standard........: PAL
Release Size....: 4,35 GB
iMDB Link.......: KLIK
iMDB Rating.....: 6,2/10 (164.177)
Genre...........: Action, Drama, Romance, Sci-Fi, Thriller
Country.........: USA
Language........: English/ Russian
Video...........: Untouched
Audio...........: AC3 5.1-ch Russian/ English
Subs............: Russian/ Croatian/ Slovenian/ Serbian
Extras..........: yes
Regija..........: Prosto
Runtime.........: 117 min
Čas predvajanja.: 01:56.10 h

-------------
IGRALCI:
-------------
Robert Duvall ... Spurgeon Tanner
Tea Leoni ... Jenny Lerner
Elijah Wood ... Leo Biederman
Vanessa Redgrave ... Robin Lerner
Morgan Freeman ... President Beck
Maximilian Schell ... Jason Lerner
James Cromwell ... Alan Rittenhouse
Ron Eldard ... Oren Monash
Jon Favreau ... Gus Partenza
Laura Innes ... Beth Stanley
Mary McCormack ... Andrea Baker
Richard Schiff ... Don Biederman
Leelee Sobieski ... Sarah Hotchner
Blair Underwood ... Mark Simon
Dougray Scott ... Eric Vennekor

-------------
OPIS:
-------------
Najstnik Leo Beiderman se pridruži šolskemu astrološkemu krožku v upanju,
da ga bo opazila lepa sošolka Sarah. Še najmanj pričakuje, da bo odkril
nekaj, kar bo pretreslo svet. Fotografija, ki jo posname z malim teleskopom,
prikazuje komet, za katerega znanstveniki zatrjujejo, da bo trčil z Zemljo.
Zdaj vsi upi človeštva ležijo v posebnem vesoljskem plovilu, ki naj bi
pristalo na kometu in ga uničilo, še preden bi prišlo do katastrofe. Toda
bolj ko se bliža usodni dan, bolj napeti so odzivi ljudi...



Dark.Shadows.2012.SloSub.DVDRip.XviD-Churchill

Klikni za povečavo!
08-01-2021 17:08 naložil System
Sejalci: 1 / Odjemalci: 0 / Velikost: 1.4 GB / Dokončani: 3
Prenesi torrent Poročaj torrent Opis torrenta
Kategorija: FILMI > XviD
Anonimen nalagalec

Dark Shadows (2012)
Temne sence (2012)



INFO:
-------------
Codec : XVID
Format : AVI
Size : 1.40 GiB
Bit rate : 1 451 kb/s
Width : 720 pixels
Height : 384 pixels
Aspect ratio : 16/9
Audio 1 : AC-3
Bit rate : 384 kb/s
Channel(s) : 6 channels
Channel positions: L R C LFE Ls Rs
Sampling rate : 48.0 kHz
Genre : Comedy, Fantasy, Horror
Country : USA/ Australia/ UK
Language : English
Subtitles : Slovenski
Runtime : 108 min
Čas predvajanja : 1 h 48 min

IMDb user Rating: 6,2/10 (246.843)
IMDb Link: KLIK

IGRALCI:
-------------
Johnny Depp ... Barnabas Collins
Michelle Pfeiffer ... Elizabeth Collins Stoddard
Helena Bonham Carter ... Dr. Julia Hoffman
Eva Green ... Angelique Bouchard
Jackie Earle Haley ... Willie Loomis
Jonny Lee Miller ... Roger Collins
Bella Heathcote ... Victoria Winters / Josette DuPres
Chloe Grace Moretz ... Carolyn Stoddard
Gulliver McGrath ... David Collins
Ray Shirley ... Mrs. Johnson
Christopher Lee ... Clarney
Alice Cooper ... Alice Cooper
Ivan Kaye ... Joshua Collins
Susanna Cappellaro ... Naomi Collins
Josephine Butler ... David's Mother

OPIS:
-------------
Režiser slikovitih srhljivk Brezglavi jezdec in Sweeney Todd: Hudičev
brivec, predstavlja zgodbo premožnega mladeniča Barnabasa, ki ga je
ljubosumna čarovnica v 18. stoletju oropala ljubezni, spremenila v
vampirja in zakopala v temačni grob. Leta 1972 Barnabas znova vstane
od mrtvih in priskoči na pomoč obubožanim in necenjenim potomcem svoje
družine. Toda težko privajanje na tehnološki napredek in divji časi
brezmejne ljubezni, drog in rock'n'rolla ga privedejo v številne
zabavne težave, naposled pa se mora soočiti tudi s še vedno živo in
zelo vplivno smrtno sovražnico...





Def Leppard ‎– Greatest Hits (2010) FLAC

Klikni za povečavo!
05-01-2021 17:03 naložil System
Sejalci: 2 / Odjemalci: 0 / Velikost: 1.11 GB / Dokončani: 4
Prenesi torrent Poročaj torrent Opis torrenta NFO
Zvrst: Glasbeni
Kategorija: GLASBA > Glasba
Anonimen nalagalec

---------------------------------------------------------------------
Def Leppard - Def Leppard Greatest Hits
---------------------------------------------------------------------
Artist...............: Def Leppard
Album................: Def Leppard Greatest Hits
Genre................: Hard rock
Source...............: CD
Year.................: 2010
Ripper...............: EAC (Secure mode) / LAME 3.92 & Asus CD-S520
Codec................: Free Lossless Audio Codec (FLAC)
Version..............: Lavf56.30.100
Quality..............: Lossless, (avg. compression: 71 %)
Channels.............: Stereo / 44100 HZ / 16 Bit
Tags.................: VorbisComment
I
News Server..........: news.astraweb.com
News Group(s)........: alt.binaries.sounds.mp3.m
Included.............: NFO
Covers...............: Front Back CD
---------------------------------------------------------------------
Tracklisting CD1
---------------------------------------------------------------------
1. Def Leppard - Nine Lives (feat. Tim McGraw) [03:32]
2. Def Leppard - Now [03:59]
3. Def Leppard - Promises [03:59]
4. Def Leppard - Two Steps Behind (Acoustic Version) [04:16]
5. Def Leppard - Slang [02:37]
6. Def Leppard - Rocket [04:07]
7. Def Leppard - Let's Get Rocked [04:56]
8. Def Leppard - Love Bites [05:46]
9. Def Leppard - Photograph [04:08]
10. Def Leppard - Animal [04:04]
11. Def Leppard - Let It Go [04:43]
12. Def Leppard - Goodbye [03:35]
13. Def Leppard - Rock Of Ages [04:08]
14. Def Leppard - Make Love Like A Man [04:15]
15. Def Leppard - When Love & Hate Collide [04:17]
16. Def Leppard - Long Long Way To Go [04:38]
17. Def Leppard - Action [03:40]
18. Def Leppard - Work It Out [04:49]
19. Def Leppard - Love [04:17]
Playing Time.........: 01:19:56
Total Size...........: 573,29 MB
---------------------------------------------------------------------
Tracklisting CD2
---------------------------------------------------------------------
1. Def Leppard - C'mon C'mon [04:11]
2. Def Leppard - No Matter What [02:53]
3. Def Leppard - Everyday [03:10]
4. Def Leppard - Bad Actress [03:05]
5. Def Leppard - Miss You In A Heartbeat [04:06]
6. Def Leppard - Paper Sun [05:29]
7. Def Leppard - All I Want Is Everything [05:22]
8. Def Leppard - Armageddon It [05:25]
9. Def Leppard - High 'n' Dry (Saturday Night) [03:28]
10. Def Leppard - Too Late For Love [04:28]
11. Def Leppard - Pour Some Sugar On Me [04:29]
12. Def Leppard - Heaven Is [03:35]
13. Def Leppard - Foolin' [04:35]
14. Def Leppard - Hysteria [05:56]
15. Def Leppard - Have You Ever Needed Someone So Bad [05:25]
16. Def Leppard - Women [05:45]
17. Def Leppard - Wasted [03:47]
18. Def Leppard - Bringin' On The Heartbreak [04:33]
Playing Time.........: 01:19:50
Total Size...........: 556,24 MB
Doberdob-roman.upornika.2015.Slovenija.720p.WEBRip.x264-R77

Klikni za povečavo!
23-12-2020 15:54 naložil rado77
Sejalci: 1 / Odjemalci: 0 / Velikost: 1.09 GB / Dokončani: 1
Prenesi torrent Poročaj torrent Opis torrenta
Zvrst: Zgodovinski
Kategorija: FILMI > Dokumentarni

Doberdob-roman.upornika.2015.Slovenija.720p.WEBRip.x264-R77

DOBERDOB-ROMAN UPORNIKA



EKIPA:

Scenarij in režija MARTIN TURK
Producentka IDA WEISS
Direktor fotografije RADOVAN ČOK
Montažer JURIJ MOŠKON
Skladatelj glasbe CHRIS ECKMAN
Avtor ilustracij DAMIJAN STEPANČIČ
Zvok MIHA JARAMAZ, VJEKOSLAV MIKEZ
Scenograf MARCO JURATOVEC
Kostumograf EMIL CERAR
Oblikovalka maske PETRA HARTMAN

Vsebina:

Leta 1930 Cankarjeva založba napove izid vojnega romana „Doberdob“ pisatelja Prežihovega Voranca. Roman bo popisal tragične zgodbe vojakov, ki so se borili na Doberdobski planoti, na kateri je po mnenju zgodovinarjev izkrvavelo največ slovenskih vojakov, ki so se borili v prvi svetovni vojni in na kateri se je bojeval tudi takrat dvaindvajsetletni pisatelj s pravim imenom Lovro Kuhar.
Roman dejansko izide šele leta 1940, pisatelj pa roman v desetih letih od napovedi izida napiše kar trikrat, saj rokopis nekajkrat izgine v nenavadnih okoliščin. Obdobje pisanja romana namreč sovpada z aktivnim političnim življenjem Prežihovega Voranca. Bil je eden prvih komunistov na slovenskem, leta 1937 pa postane celo organizacijski sekretar ter s tem drugi človek jugoslovanske komunistične partije. Bil je agent kominterne, popotnik, ki je govoril 5 jezikov ter bil v stikih z nekaterimi najvidnejšimi politiki tistega časa. Hkrati je ves čas ohranjal osebno skromnost in vero v malega človeka ter vrednote, ki sčasoma niso bile več v duhu vse trše partijske ideologije.
Roman Doberdob je nastajal v obdobju, ki ga je Voranc zaradi aktivnega političnega življenja, večinoma preživel v ilegali in velja za edini slovenski avtobiografski roman na temo prve svetovne vojne.


IGRALCI & SOGOVORNIKI:

SREČKO KERMAVNER (Prežihov Voranc)
ALEŠ VALIČ (Interpretacija odlomkov iz romana "Doberdob, Vojni Roman Slovenskega Naroda")
Sogovorniki:
METKA PETRIČ, vnukinja Prežihovega Voranca
DDr. IGOR GRDINA, zgodovinar in literarni zgodovinar
Mag. Dr. FABIAN HAFNER, slavist
Mag. MARKO ŠTEPEC, zgodovinar
Dr. MIRAN HLADNIK, literarni zgodovinar
DARIO FRANDOLIČ, profesor in ljubiteljski zgodovinar
Mag. VASJA KLAVORA, publicist
Dr. VIDA DEŽELAK BARIČ, zgodovinarka
MIROSLAV OSOJNIK, upokojeni strokovni sodelavec Koroškega prokrajinskega muzeja




PRODUKCIJA:
BELA FILM v koprodukciji z
RTV SLOVENIJA
Vodja projekta: Mateja Erika Smisl
Dokumentarni program
Urednik: Peter Povh
Producent: Jaka Hemler
in
RAI FURLANIJA JULIJSKA KRAJINA
Odgovorna urednica za Slovenski program RAI – Sedež za FJK:
Martina Repinc


TEHNIČNI PODATKI

Dolžina: 74 min.
Format: DCP, barvni
Ratio: 1:1,78 (16:9)
Hitrost: 25fps
Zvok: Stereo
Jezik: Slovenski
Leto produkcije: 2015 (Maj)
Tip projekta: Celovečerni, Dokumentarni

KDOR SEJE TUDI ŽANJE!
Dobri.vojak.Švejk.1957.SLOSubs.TVRip.720p.x264.ts-R77

Klikni za povečavo!
22-12-2020 14:47 naložil rado77
Sejalci: 3 / Odjemalci: 0 / Velikost: 1.54 GB / Dokončani: 3
Prenesi torrent Poročaj torrent Opis torrenta
Zvrst: Komedija | Vojni
Kategorija: FILMI > TVRip

Dobri.vojak.Švejk.1957.SLOSubs.TVRip.720p.x264.ts-R77

Dobrý voják Svejk (1957)


Dobri vojak Švejk




Vsebina:
Praški trgovec s psi Josef Švejk se na začetku prve svetovne vojne, tik po sarajevskem atentatu na nadvojvodo in prestolonaslednika Franza Ferdinanda, v svoji najljubši pivnici po neumnosti zaplete v izdajstvo in razžalitev cesarja. Po aretaciji odide v vojsko, čeprav je dobil diagnozo, da je sonček. Ko je v uniformi, spravi ob pamet svoje nadrejene – pijanega kaplana Katza in elegantnega poročnika Lukáša. Haškov roman je navdihnila pisateljeva osebna izkušnja iz prve svetovne vojne, gre pa seveda za znamenito satiro na položaj vojakov, ki ne razumejo političnih razlogov za svoje bojevanje in se borijo za deželo, do katere ne čutijo pripadnosti. Dobri vojak Švejk je posrečen, ponarodel komični lik vojaka, ki z (ne ve se, ali hlinjeno ali resnično) neumnostjo razkriva absurde vojaške oblasti in absurdne situacije, v katere se spravlja, izrablja kot obliko pasivnega upora proti vojni. Haškova zgodba je tudi polna satire na avtoriteto ter napada korupcijo in hinavščino oblasti.
Priredba legendarnega komičnega romana anarhista Jaroslava Haška.

Režija: Karel Steklý
Igrajo: Rudolf Hrusínský , Svatopluk Benes , Frantisek Filipovský , Josef Hlinomaz , Bozena Havlícková , Eva Svobodová , Milos Kopecký , Felix Le Breux , Libuse Bokrová , Bedrich Karen
Država: Čehoslovaška
Podnapisi: Slovenščina
Žanr: Komedija, vojni


Tehnične specifikacije:

ID : 1 (0x1)
Complete name : Dobri.vojak.Švejk.1957.SLOSubs.TVRip.720p.x264.ts-R77\Dobri vojak Švejk.ts
Format : MPEG-TS
File size : 1.54 GiB
Duration : 1 h 44 min
Overall bit rate mode : Variable
Overall bit rate : 2 111 kb/s

Video
ID : 256 (0x100)
Menu ID : 1 (0x1)
Format : AVC
Format/Info : Advanced Video Codec
Format profile : High@L4
Format settings : CABAC / 4 Ref Frames
Format settings, CABAC : Yes
Format settings, Reference frames : 4 frames
Codec ID : 27
Duration : 1 h 44 min
Bit rate mode : Constant
Nominal bit rate : 1 800 kb/s
Width : 1 280 pixels
Height : 720 pixels
Display aspect ratio : 16:9
Frame rate : 25.000 FPS
Standard : PAL
Color space : YUV
Chroma subsampling : 4:2:0
Bit depth : 8 bits
Scan type : Progressive
Bits/(Pixel*Frame) : 0.078
Color range : Limited
Color primaries : BT.709
Transfer characteristics : BT.709
Matrix coefficients : BT.709

Audio
ID : 257 (0x101)
Menu ID : 1 (0x1)
Format : AAC LC
Format/Info : Advanced Audio Codec Low Complexity
Format version : Version 4
Muxing mode : ADTS
Codec ID : 15-2
Duration : 1 h 44 min
Bit rate mode : Variable
Channel(s) : 2 channels
Channel layout : L R
Sampling rate : 44.1 kHz
Frame rate : 43.066 FPS (1024 SPF)
Compression mode : Lossy
Delay relative to video : -40 ms
Menu
ID : 4096 (0x1000)
Menu ID : 1 (0x1)
Duration : 1 h 44 min
List : 256 (0x100) (AVC) / 257 (0x101) (AAC)
Service name : Service01
Service provider : FFmpeg
Service type : digital television

KDOR SEJE TUDI ŽANJE!
Disturbing.the.Peace.2020.SLOSubs.720p.BRRip.H265-DrSi

Klikni za povečavo!
19-12-2020 11:28 naložil Ziva
Sejalci: 2 / Odjemalci: 0 / Velikost: 2.38 GB / Dokončani: 6
Prenesi torrent Poročaj torrent Opis torrenta NFO
Kategorija: FILMI >  BRRip



Naziv: Disappearance.At.Clifton.Hill.2019.SLOSubs.WEBRip.XviD-metalcamp
Source: Disappearance.At.Clifton.Hill.2020.720p.WEB-DL.H264.AC3-EVO
Leto izida ........: 2019
Velikost ...........: 2,10 GB
Dolžina ............: 100 Minut
Video ...............: 2614 Kbps | 720x304 | 23,976 fps
Zvok .................: Dolby Digital AC3 5.1 @ 384 Kbps
Kodek.................: XviD
Zvrst………….: Drama | Misterij | Triler
Država .............: Kanada
Jezik ................: Angleški
Podnapisi .........: Slovenski (RETAiL)
Prevod: Mediatranslations
Tehnična obdelava: DVD Rippers Slovenija
Režija.........: Thea Sharrock
Scenarij......: Mike White, Katherine Applegate


Addison Tymec ... Young Laure
Mikayla Radan ... Young Abby
Tim Beresford ... Dad
Janet Porter ... Mom
Colin McLeod ... Alex Moulin
Maxwell McCabe-Lokos ... Gerry
Elizabeth Saunders ... Bev Mole
Tuppence Middleton ... Abby
Connor Lucas-Loan ... Boy on Bus
Devon Hauth ... Girl on Bus


Težavna mlada ženska se vrne v domači kraj Niagara Falls, kjer jo začne obsedati spomin
iz otroštva, nasilna ugrabitev, ki naj bi ji bila priča.
Po materini smrti se sklene Abby (Tuppence Middleton), mlada Kanadčanka s težavno preteklostjo, vrniti v domače mesto Niagara Falls, da bi skupaj s sestro, ki še živi tam, poskrbela za propadajoči družinski motel. Tam se po dolgih letih vnovič znajde sredi dileme, ki jo muči že od otroštva. Kaj se je zgodilo z dečkom, katerega nasilni ugrabitvi je bila priča pred 25 leti? Ko se odloči priti do resnice, se mora soočiti s pretresljivo, že dolgo prikrito
zaroto, ki sega tako globoko kot ponor pod slavnimi slapovi, in z lastnimi strahovi iz
preteklosti. Bodo ljudje verjeli nekomu, ki so ga že večkrat zasačili pri laži?
Napeti triler z nestvarnim in zloveščim vzdušjem prinaša hipnotično uganko, ki se odvija
v blodnjavem svetu med resničnostjo in izkrivljenim dojemanjem.




Der.kommer.en.dag.aka.Prišel.bo.dan.HDTV.720p.x264.ts-R77

Klikni za povečavo!
05-12-2020 16:26 naložil rado77
Sejalci: 1 / Odjemalci: 0 / Velikost: 1.26 GB / Dokončani: 6
Prenesi torrent Poročaj torrent Opis torrenta
Zvrst: Drama
Kategorija: FILMI > HDTV

Der.kommer.en.dag.aka.Prišel.bo.dan.HDTV.720p.x264.ts-R77[/size]

Der kommer en dag (2016)

Prišel bo dan

Film, ki bi ga lahko označili kot dansko različico Sester magdalenk, je posnet po resničnih dogodkih,
ZASLUŽI SI VSO POZORNOST! Moja ocena: 9,5 / 10



Zgodba:

Elmer in Erik z mamo samohranilko živita na Danskem sredi šestdesetih let. Ko mati zaradi bolezni ne more več skrbeti zanju, ju socialna služba pošlje v Godhavn, zloglasno sirotišnico, ki jo vodi sadistični direktor Heck. Fanta se sprva upirata nasilju učiteljev in varovancev, potem pa se sprijaznita z režimom in čakata na odpust. Upanje tli v njiju, vse dokler mati ne premine in ju tudi stric, na katerega računata, kot skrbnik pusti na cedilu. Takrat mlajši Elmer vzame usodo v svoje roke, to pa privede do nepredvidenih posledic.
Film o resničnih grozotah resnične sirotišnice Godhavn na Danskem, kjer so bili osiroteli dečki vsakodnevno deležni velikih zlorab, od zanemarjanja in grozljivega pretepanja do spolnih zlorab. Obtožbe so prvič prišle na plan leta 2005, ko je danska televizija predvajala dokumentarec. Po tem so ustanovili komisijo, ki je ugotovila, da ta sirotišnica še zdaleč ni bila edina, ki je grobo zlorabila zaupanje ljudi.


Leto produkcije: 2016
Država: Danska
Žanr: drama
Režija: Jesper W. Nielsen
Scenarij: Søren Sveistrup
Igrajo: Lars Mikkelsen, Sofie Gråbøl, Harald Kaiser Hermann, Albert Rudbeck Lindhardt
Podnapisi: Slovenščina

IMDb: https://www.imdb.com/title/tt4659056/?ref_=nv_sr_srsg_0


Podrobnosti:

General:
Complete name : Der.kommer.en.dag.aka.Prišel.bo.dan.HDTV.720p.x264.ts-R77\Prišel bo dan, danski film.mp4
Format : MPEG-4
Format profile : Base Media
Codec ID : isom (isom/iso2/avc1/mp41)
File size : 1.26 GiB
Duration : 1 h 54 min
Overall bit rate : 1 575 kb/s
Writing application : Lavf58.29.100
Video
ID : 1
Format : AVC
Format/Info : Advanced Video Codec
Format profile : High@L3.1
Format settings : CABAC / 2 Ref Frames
Format settings, CABAC : Yes
Format settings, Reference frames : 2 frames
Codec ID : avc1
Codec ID/Info : Advanced Video Coding
Duration : 1 h 54 min
Bit rate : 1 441 kb/s
Width : 1 280 pixels
Height : 720 pixels
Display aspect ratio : 16:9
Frame rate mode : Constant
Frame rate : 25.000 FPS
Color space : YUV
Chroma subsampling : 4:2:0
Bit depth : 8 bits
Scan type : Progressive
Bits/(Pixel*Frame) : 0.063
Stream size : 1.15 GiB (91%)
Codec configuration box : avcC
Audio
ID : 2
Format : AAC LC
Format/Info : Advanced Audio Codec Low Complexity
Codec ID : mp4a-40-2
Duration : 1 h 54 min
Bit rate mode : Constant
Bit rate : 128 kb/s
Channel(s) : 2 channels
Channel layout : L R
Sampling rate : 44.1 kHz
Frame rate : 43.066 FPS (1024 SPF)
Compression mode : Lossy
Stream size : 105 MiB (8%)
Default : Yes
Alternate group : 1



KDOR SEJE TUDI ŽANJE!
Do Not Reply 2019 SrbSubs 720p WEBRip XviD AC3 Unknown

Klikni za povečavo!
05-12-2020 11:32 naložil Ziva
Sejalci: 1 / Odjemalci: 0 / Velikost: 2.62 GB / Dokončani: 2
Prenesi torrent Magnet Link Poročaj torrent Opis torrenta NFO
Zvrst: Grozljivka | Triler
Kategorija: FILMI > WEBRip-720



Do Not Reply 2019 720p WEBRip XviD AC3 Unknown
Language(s): English
Size: 2.61 GB | Duration: 1hr 38mn | Container: AVI
Audio: AC-3 | 448 Kbps | 6 Channels
Video: XviD | 3328 Kbps | 1280 x 536
Genre: Horror | Thriller
Podnapisi: srbski


Amanda Arcuri, Jackson Rathbone, Kerri Medders

Chelsea, a teenager, is abducted through a social media app by Brad and is held captive with other girls who are to become victims in his virtual reality filmed murders.



Daddys Girl 2018 SrbSubs 720p BRRip XviD AC3 Unknown

Klikni za povečavo!
29-11-2020 15:50 naložil Ziva
Sejalci: 1 / Odjemalci: 0 / Velikost: 2.07 GB / Dokončani: 3
Prenesi torrent Poročaj torrent Opis torrenta NFO
Kategorija: FILMI >  BRRip



Daddys Girl 2018 720p BRRip XviD AC3 Unknown
Language(s): English
Size: 2.07 GB | Duration: 1hr 20mn | Container: AVI
Audio: AC-3 | 448 Kbps | 6 Channels
Video: XviD | 3209 Kbps | 1280 x 536
Genre: Crime | Horror | Thriller
Podnapisi: srbski


Jemma Dallender, Costas Mandylor, Britt McKillip


A young woman held captive by her stepfather becomes the focus of a female vigilante.





De Gaulle.2020.SLOSubs.720p.HDTVRip x264.R77

Klikni za povečavo!
20-11-2020 13:26 naložil System
Sejalci: 2 / Odjemalci: 0 / Velikost: 1.35 GB / Dokončani: 2
Prenesi torrent Poročaj torrent Opis torrenta
Kategorija: FILMI > HDRip
Anonimen nalagalec

De Gaulle.2020.SLOSubs.720p.HDTVRip x264.R77
DE GAULLE
FRANCOSKI FILM
Opis:
9. novembra 2020 mineva petdeset let od smrti Charlesa de Gaulla, francoskega generala, politika in državnika, ki se je rodil 22. novembra 1890. Film prikazuje krajše obdobje, ki velja za najpomembnejše v njegovem političnem delovanju. Spoznamo tudi njegovo družino, ki sicer ni pogosto prikazana.
Maja leta 1940 je Charles de Gaulle poveljeval francoskemu tankovskemu bataljonu, ki naj bi zaustavil napredovanje Nemcev, a se je bil prisiljen umakniti. Z nemško ofenzivo na Francijo se je vojaški in politični položaj države še poslabšal. De Gaulle se je pridružil vladi v Parizu in bil 6. maja povišan v generala. Tri dni zatem se je v Londonu srečal s Churchillom. Medtem so njegova žena Yvonne ter otroci Philippe, Elisabeth in Anne ostali na severovzhodu Francije. 14. junija 1940 so nemške enote brez boja zasedle Pariz, nato pa vso Francijo. De Gaulle se je umaknil v London, kjer je bil ves čas dejaven, BBC pa mu je omogočil sloviti spodbudni radijski nagovor rojakom, s katerim je postavil temelje svobodne Francije. De Gaulle daljši čas ni imel stikov z družino, nato pa je izvedel, da so zbežali do Bresta, kjer naj bi se vkrcali na eno od treh ladij, od katerih sta po izplutju dve potonili.
Podrobnosti:
Režija: Gabriel Le Bomin
Scenarij: Gabriel Le Bomin, Valérie Ranson-Enguiale
V glavnih vlogah: Lambert Wilson, Isabelle Carré, Olivier Gourmet, Catherine Mouchet, Pierre Hancisse, Sophie Quinton, Gilles Cohen
Leto: 2020
Trajanje: 108 min
Žanri: Življenjepis, Drama, Zgodovina
Država: Francija
Jezik: Francoščina, Angleščina
Podnapisi: Slovenščina
Datum izdaje: 4. marec 2020 (Francija)
Lokacije snemanja: Grad Maillard, Beautheil-Saints, Seine-et-Marne, Francija
Tehnične specifikacije:
KDOR SEJE TUDI ŽANJE!
DJ VIHAR & DJ AJDA - SLO & HR MIX 61

Klikni za povečavo!
17-11-2020 13:53 naložil Ajda
Sejalci: 4 / Odjemalci: 0 / Velikost: 168.03 MB / Dokončani: 14
Prenesi torrent Poročaj torrent Opis torrenta NFO
Zvrst: Glasbeni
Kategorija: GLASBA > Glasba




-------------------------------------------------------------------------------
Avdio podatki
-------------------------------------------------------------------------------
Complete name : DJ VIHAR & DJ AJDA - SLO & HR MIX 61.mp3
Format : MPEG Audio
File size : 167 MiB
Duration : 1h 13mn
Overall bit rate mode : Constant
Overall bit rate : 320 Kbps
Encoded by : Lavf52.39.0
Writing library : LAME3.98

Audio
Format : MPEG Audio
Format version : Version 1
Format profile : Layer 3
Mode : Joint stereo
Duration : 1h 13mn
Bit rate mode : Constant
Bit rate : 320 Kbps
Channel(s) : 2 channels
Sampling rate : 48.0 KHz
Compression mode : Lossy
Stream size : 167 MiB (100%)
Writing library : LAME3.98
-------------------------------------------------------------------------------
Vsebina
-------------------------------------------------------------------------------
DJ VIHAR & DJ AJDA - SLO & HR MIX 61

01. ELIXSIR - Teško te zaboravljam
02. GADI - Nor
03. LUKA BASI / NEDA UKRADEN - Ni Dubai ni Hawaii
04. MARKO ŠKUGOR - Ako grijeh je
05. MARKO PECOTIČ - Vrime nam je ljubavi
06. GORAN KARAN - Dugo nisam bio mlad
07. ANTONIJA ŠOLA - Ponovo
08. TOMISLAV BRALIĆ / KLAPA INTRADA - Ostajem tu
09. DRAŽEN ZEČIČ - Zašto plačeš
10. MATEVŽ VISOČNIK - Neprespane noči
11. TINE KOBAL - Prva in zadnja
12. DAVOR BORNO - Nek teče vino
13. KLAPA ŠUFIT / TANJA ŽAGAR - Za cili život
14. JOLE - Fali meni ona
15. ČUDEŽNI DEČKI - Tvoj poljub
16. WERNER - Lom
17. DOMENICA - Zovi
18. THE FRAJLE - Voli me godinama
19. KLAPA PUNTAMIKA - Lipota se zoveš
20. IVANA KOVAČ - Neče zlato na mene
21. MLADEN GRDOVIČ - Kad duša boli








Defiled. Hardcore Collection 2020 (2020) MP3

Klikni za povečavo!
10-11-2020 02:51 naložil System
Sejalci: 1 / Odjemalci: 0 / Velikost: 1.12 GB / Dokončani: 3
Prenesi torrent Poročaj torrent Opis torrenta NFO
Zvrst: Glasbeni
Kategorija: GLASBA > Glasba
Anonimen nalagalec

---------------------------------------------------------------------
VA - Defiled: Hardcore Collection
---------------------------------------------------------------------
Artist...............: Various Artists
Album................: Defiled: Hardcore Collection
Genre................: Hardcore, Metal, Hard Rock
Source...............: CD
Year.................: 2020
Ripper...............: EAC (Secure mode) / LAME 3.92 & Asus CD-S520
Codec................: FhG
Version..............: MPEG 1 Layer III
Quality..............: Insane, (avg. bitrate: 320kbps)
Channels.............: Stereo / 44100 hz
Tags.................: ID3 v1.1, ID3 v2.3
Information..........:
News Server..........: news.astraweb.com
News Group(s)........: alt.binaries.pl.mp3
Included.............: NFO
---------------------------------------------------------------------
Tracklisting
---------------------------------------------------------------------
1. Kill On Sight - Flatline [04:14]
2. Chron Goblin - Out Of My Mind [03:46]
3. Valley Of The Sun - Old Gods [05:58]
4. Seeyouspacecowboy - Dissertation [02:43]
5. Foes - Eden Burning [02:12]
6. Peasant - Earth Breaker [03:42]
7. Ancient Emblem - Funeral Pyre [06:15]
8. Brave - We Burn The Heart [05:08]
9. Limited Booze Boys - Head Against The Wall [04:41]
10. Broken - Poisoned [04:13]
11. Dregg - Hectic [03:25]
12. Norma Jean - Safety Last [03:42]
13. Deflect - Mass Delusion [03:38]
14. Newman - Promise Me [04:31]
15. Rotzak - The Wicked & The Bold [02:56]
16. Iron Price - Pig [03:12]
17. Drug Bust - Grateful [02:45]
18. Cellar Stone - Hands Of Fate [03:57]
19. Brass Against - Walk [05:05]
20. Redline - Killer [03:32]
21. Orphan Donor - Profound Loss [05:01]
22. Babas Del Diablo - Crecer Es Desaparecer [05:23]
23. Khiis - Instinct [01:38]
24. March - On High Heat [02:36]
25. Dripback - Lack Of Substance [02:27]
26. M.I.L.F. - Bad Boys [03:01]
27. Earth Tongue - Probing The New Reality [02:54]
28. Contrition - Burn The Sun [03:03]
29. The Hss - Panther Slide [03:33]
30. Sorus - Viimane Kaitseliin [03:20]
31. Tie Your Anchor - Awol [04:52]
32. Crow Killer - Fight Back [03:36]
33. No Option - Transparent [02:26]
34. Demonhead - Betrayal Avenged [03:13]
35. Feastem - Kurjuuden Kuningas [01:08]
36. Officium Triste - A House In A Field In The Eye [02:21]
37. Destroyed In Seconds - Buzzards [02:08]
38. Big Cheese - Write-Off [02:42]
39. Agathocles - Distorted Portraits [00:25]
40. Nebula - The Cry Of A Tortured World [07:10]
41. Black Dice - Pinsteak [03:49]
42. Mindforce - Slay An Intruder [02:08]
43. Christian Muenzner - Knight Rider [03:07]
44. Virocracy - Forgotten [01:21]
45. Hemptress - Alchemy [11:35]
46. Christian Muenzner - Wing Commander [03:39]
47. Born Without Hope - Born Without Hope [03:41]
48. Moment Of Truth - Sick People [01:33]
49. Sector - El Respeto [03:17]
50. Crime Pays - Fall Down [02:59]
51. Marrano - A Perdere [04:21]
52. Twin Rivals - Genuine Transparency [03:00]
53. Pierre Snake Invasion - I Am The Lonely Tourist [03:57]
54. Death On Fire - Love Gun [02:29]
55. Calling Down Fire - Speakeasy [03:21]
56. Barren Womb - Nerve Salad [03:34]
57. Altostratus - Starlight [08:30]
58. Axxis - War Games [03:21]
59. Jamie Lenman Feat. Illaman - The Future Is Dead [02:48]
60. The Third Grade - Of Fire And Ashes [05:33]
61. Gran Duca - Blackend Son [04:58]
62. Wolftooth - The Coven [04:40]
63. Brassick - A Half Life [03:05]
64. Leo - Spiderman Theme [02:12]
65. Spy Machines - Jill [04:23]
66. Killing Joke - Malicious Boogie [03:04]
67. Chaver - Born In A Cage [02:49]
68. South Haven - Devotion [03:09]
69. The Wild! - Gasoline [06:06]
70. Smash Your Enemies - Bloodshed [03:31]
71. Fuzzphase - Machine [04:29]
72. High Tone Son - Velocipede [03:06]
73. Tenside - As Above So Below [04:11]
74. 430 Steps - Cronicas De Un Payaso [02:04]
75. American War Machine - Hammer Down [02:22]
76. Simbiose - [03:13]
77. Let Them Hang - Goat Star [04:25]
78. Castor's Hollow - Via Dolorosa [03:45]
79. Lucifer - Cemetery Eyes [05:46]
80. Infiltrate - Sacrificial Combat [01:30]
81. Skam - Used, Defiled, Expended [01:42]
82. Heaven Shall Burn - Stateless [03:46]
83. Self Deception - The Blues [03:00]
84. Ilium - Vigilante Vagrant [03:58]
85. The Fight - Shoah [02:42]
86. Power Alone - Something Real [02:33]
87. Sky Valley Mistress - Electric Church [05:28]
88. Crazy Eddie - Welcome To The Show [02:11]
89. Diploid - Mind Like Clouds [01:02]
90. Avalanche - The Path Of Fire Continues [04:34]
91. Cremations - Dehumanized [02:13]
92. Nite - Acolytes [06:52]
93. Redwood Hill - Leben [07:08]
94. Video Nasties - Stay Gold [04:07]
95. Shadow Witch - Spearfinger [02:57]
96. Disembodied - One For The Wicked [04:53]
97. Human Animal - Perfect Person [02:03]
98. Naat - The Highest Tower [08:49]
99. Escape The Madness - Chaos [03:44]
100. Pilori - Danse Macabre [03:33]
101. Gorilla Riot - Chuggin' [04:47]
102. Cancer Bats - Fake Gold [02:50]
103. Renounced - Beauty Is A Destructive Angel [04:39]
104. M:40 - Ondska [04:37]
105. Goat Throne - Death Defined [04:30]
106. Red - From The Ashes [05:21]
107. Backwater - Ride Down [03:03]
108. Blackstar Republic - Shell-Shocked [04:27]
109. Wendigo - The Lonesome Gold Digger [07:41]
110. One Step Closer - Broken [03:00]
111. Stillsuit - 5 Senses [02:31]
112. Muddy - Collapse Without Honor [05:54]
113. Barfight Champs - Methadone Mile [02:31]
114. Wendigo - Iron Brew [04:58]
115. Wolfpack - Prisoner [04:01]
116. Only Attitude Counts - No Justice [03:16]
117. Blind Justice - Shore Style [00:41]
118. Slab Strike - High Kick [03:07]
119. Bazookatooth - No Rent In Hell [01:16]
120. Vermicide Violence - Coronaviscerated [03:36]
121. Guitar Wolf - Fireball Red Legend [02:18]
122. Driving Force - Razorblade [04:18]
123. Bitter Taste - Beneath Your Skin [05:09]
124. Eye Flys - Reality Tunnel [02:58]
125. Forgive - Solace [03:10]
126. Bestial Invasion - The Angel [05:47]
127. Groundculture - Life Won't Wait [04:00]
128. Fists Of Time - Nl Underground [00:27]
129. Wishing Well - The Gates Of Hell [05:59]
130. The Abyss Order - Yule Horror [05:51]
Playing Time.........: 08:08:25
Total Size...........: 1133,52 MB
Deep Purple - Whoosh! (2020) Flac

Klikni za povečavo!
06-11-2020 09:51 naložil System
Sejalci: 2 / Odjemalci: 0 / Velikost: 380.16 MB / Dokončani: 2
Prenesi torrent Poročaj torrent Opis torrenta NFO
Zvrst: Glasbeni
Kategorija: GLASBA > Glasba
Anonimen nalagalec

---------------------------------------------------------------------
Deep Purple - Whoosh!
---------------------------------------------------------------------
Artist...............: Deep Purple
Album................: Whoosh!
Genre................: Rock
Source...............: CD
Year.................: 2020
Ripper...............: EAC (Secure mode) / LAME 3.92 & Asus CD-S520
Codec................: Free Lossless Audio Codec (FLAC)
Version..............: reference libFLAC 1.2.1 20070917
Quality..............: Lossless, (avg. compression: 73 %)
Channels.............: Stereo / 44100 HZ / 16 Bit
Tags.................: VorbisComment
Information..........:
Ripped by............: somebody on 6. 08. 2020
Posted by............: somebody on 6. 08. 2020
News Server..........: news.astraweb.com
News Group(s)........: alt.binaries.pl.mp3
Included.............: NFO
---------------------------------------------------------------------
Tracklisting
---------------------------------------------------------------------
1. Deep Purple - Throw My Bones [03:38]
2. Deep Purple - Drop the Weapon [04:23]
3. Deep Purple - We're All the Same in the Dark [03:44]
4. Deep Purple - Nothing at All [04:42]
5. Deep Purple - No Need to Shout [03:30]
6. Deep Purple - Step by Step [03:34]
7. Deep Purple - What the What [03:32]
8. Deep Purple - The Long Way Round [05:39]
9. Deep Purple - The Power of the Moon [04:08]
10. Deep Purple - Remission Possible [01:38]
11. Deep Purple - Man Alive [05:35]
12. Deep Purple - And the Address [03:35]
13. Deep Purple - Dancing in My Sleep [03:51]
Playing Time.........: 51:35
Total Size...........: 379,71 MB
Dem.Horizont.so.nah.2019.SLOSubs.BRRip.XviD-DrSi

Klikni za povečavo!
03-11-2020 06:42 naložil Ziva
Sejalci: 2 / Odjemalci: 0 / Velikost: 2.61 GB / Dokončani: 4
Prenesi torrent Poročaj torrent Opis torrenta NFO
Zvrst: Drama | Romantični
Kategorija: FILMI >  BRRip


Naziv: Dem.Horizont.so.nah.2019.SLOSubs.BRRip.XviD-DrSi
Source: Dem.Horizont.so.nah.2019.BDRip.720p.x264-seleZen
Leto izida .........: 2019
Velikost ...........: 2,60 GB
Dolžina ............: 117 Minut
Video ...............: 2732Kbps | 720x304 | 24 fps
Zvok .................: Dolby Digital AC3 5.1 @ 448 Kbps
Kodek.................: XviD
Zvrst………….: Drama | Romantični
Država .............: Nemčija | Francija
Jezik ................: Nemški
Podnapisi .........: Slovenski (RETAiL)
Prevod: Blitz Film
TVRip: Toyan
Priredil in uredil: metalcamp
Tehnična obdelava: DVD Rippers Slovenija

Režija..: Marjane Satrapi
Scenarij: Jack Thorne, Lauren Redniss (knjiga)


Luna Wedler ... Jessica
Jannik Schümann ... Danny
Luise Befort ... Tina
Victoria Mayer ... Johanna
Stephan Kampwirth ... Rufus
Kristin Hunold ... Vanessa
Denis Moschitto ... Jörg
Frederick Lau ... Dogan
Henry Horn ... Jakob
Marta Martin ... Jana


Nemčija Zgodba o globoki ljubezni. Zgodba o zaupanju, pogumu, bolečini, obupu in moči,
da se nečemu odpovemo. Resnična zgodba. Jessica živi preprosto in pred njo je obetavna
prihodnost. Ko se nekega večera odpravi zdoma, ne sluti, da bo spoznala ljubezen
svojega življenja in da se ji bo dojemanje sveta obrnilo na glavo. Kmalu za tem pa bo
soočena z odločitvijo, ki jo bo za vselej spremenila.

Deep House Summer (2020) Mp3

Klikni za povečavo!
31-10-2020 14:47 naložil System
Sejalci: 1 / Odjemalci: 0 / Velikost: 327.3 MB / Dokončani: 3
Prenesi torrent Poročaj torrent Opis torrenta NFO
Zvrst: Glasbeni
Kategorija: GLASBA > Glasba
Anonimen nalagalec

---------------------------------------------------------------------
VA - Deep House Summer 2020
---------------------------------------------------------------------
Artist...............: Various Artists
Album................: Deep House Summer 2020
Genre................: Deep House,Housa
Source...............: CD
Year.................: 2020
Ripper...............: EAC (Secure mode) / LAME 3.92 & Asus CD-S520
Codec................: LAME 3.99
Version..............: MPEG 1 Layer III
Quality..............: Insane, (avg. bitrate: 320kbps)
Channels.............: Stereo / 44100 hz
Tags.................: ID3 v1.1, ID3 v2.3
Information..........:
Ripped by............: somebody on 31. 07. 2020
Posted by............: somebody on 31. 07. 2020
News Server..........: news.astraweb.com
News Group(s)........: alt.binaries.pl.mp3
Included.............: NFO
---------------------------------------------------------------------
Tracklisting
---------------------------------------------------------------------
1. Dezza - Avenoir (Extended Mix) [05:46]
2. Braxton - Yoruba (Extended Mix) [07:14]
3. Dekkai - Cordelia (Extended Mix) [05:32]
4. djimboh & Mango - Klave (Extended Mix) [06:24]
5. Andre Sobota - Closer (Extended Mix) [06:32]
6. Not Now Please - Heva (Extended Mix) [07:01]
7. Farfetch'd - Uphere (Extended Mix) [06:12]
8. Undefined (MT) - Sqaaq (Extended Mix) [07:44]
9. Tommy Baynen - Laminar Flow (Extended Mix) [07:28]
10. Clameres - Serendipity (Extended Mix) [07:05]
11. Dekkai - Kolkata (Extended Mix) [08:58]
12. Tripswitch - Stigma (Extended Mix) [07:24]
13. Braxton - Clockwork (Extended Mix) [06:04]
14. Hexlogic - Infinite Loop (Extended Mix) [05:53]
15. Tommy Baynen - Effervescence (Extended Mix) [07:32]
16. Boxer - Dream Any Dream (Extended Mix) [06:49]
17. Andre Sobota - Layers (Extended Mix) [07:22]
18. Undefined (MT) - Layl (Extended Mix) [07:38]
19. Farfetch'd - Bell Damm (Extended Mix) [05:56]
20. Rodrigo Deem - Laguna (Extended Mix) [08:25]
Playing Time.........: 02:19:08
Total Size...........: 327,08 MB
Deep House Relax (2020) Mp3

Klikni za povečavo!
31-10-2020 14:32 naložil System
Sejalci: 1 / Odjemalci: 0 / Velikost: 257.6 MB / Dokončani: 3
Prenesi torrent Poročaj torrent Opis torrenta NFO
Zvrst: Glasbeni
Kategorija: GLASBA > Glasba
Anonimen nalagalec

---------------------------------------------------------------------
VA - Deep House Relax 2020
---------------------------------------------------------------------
Artist...............: Various Artists
Album................: Deep House Relax 2020
Genre................: Deep House, Electronic
Source...............: CD
Year.................: 2020
Ripper...............: EAC (Secure mode) / LAME 3.92 & Asus CD-S520
Codec................: LAME 3.10
Version..............: MPEG 1 Layer III
Quality..............: Insane, (avg. bitrate: 320kbps)
Channels.............: Stereo / 44100 hz
Tags.................: ID3 v1.1, ID3 v2.3
Information..........:
Ripped by............: somebody on 31. 07. 2020
Posted by............: somebody on 31. 07. 2020
News Server..........: news.astraweb.com
News Group(s)........: alt.binaries.pl.mp3
Included.............: NFO
---------------------------------------------------------------------
Tracklisting
---------------------------------------------------------------------
1. Remundo - Balearic Beauty (Original Mix) [03:30]
2. Audioboy - Beautiful (Extended Mix) [04:04]
3. H.A.Z.E - Can't Forget You (Original Mix) [04:19]
4. Can Sezgin & Ziya Baskal - Don't Believe (Original Mix) [03:58]
5. Sean Norvis & Copamore with Justine Berg - Embrace Me (Dani Corbalan Extended Remix)[03:47]
6. Topsy Crettz - End Of Summertime (Original Mix) [03:12]
7. Arif Zeynalov - First Step (Original Mix) [04:25]
8. Topsy Crettz - Ghost (Original Mix) [03:25]
9. Echevo - Go Away (Original Mix) [03:17]
10. ppdee - Godlike (Original Mix) [02:58]
11. Alican Sandik & Oguzhan - Hold On (Original Mix) [03:02]
12. Onurcan Guneyin - Hypnotise (Original Mix) [04:16]
13. Jay Aliyev - I Can High (Original Mix) [02:58]
14. ppdee - Illusion Of Us (Original Mix) [04:16]
15. Erbil Dzemoski - Just Like You (Original Mix) [03:31]
16. Hakan Akkus - Just My Time (VOLB3X Remix) [03:38]
17. Baris Bozan - Lose My Mind (Original Mix) [03:28]
18. Topsy Crettz - Momentum (Original Mix) [02:48]
19. Jay Aliyev - Move On (Original Mix) [03:47]
20. H.A.Z.E - Nepenthe (Original Mix) [03:51]
21. H.A.Z.E - Old Memories (Original Mix) [04:51]
22. H.A.Z.E - One More Time (Original Mix) [04:19]
23. RAFO - Peace Of Mind (Original Mix) [05:46]
24. Dani Corbalan - Redemption (Original Mix) [04:20]
25. Murat Özkaya - Reina (Original Mix) [02:55]
26. RAFO - Run Away (Original Mix) [06:44]
27. Murat Özkaya - Something About You (Original Mix) [03:37]
28. Jay Aliyev - Sun (Original Mix) [03:25]
Playing Time.........: 01:48:43
Total Size...........: 250,16 MB
Der.Uberlaufer.aka.The.Turncoat.2020.SLOSubs.720p.WEB-DL.H264.AAC-R

Klikni za povečavo!
11-10-2020 14:52 naložil System
Sejalci: 3 / Odjemalci: 0 / Velikost: 3.94 GB / Dokončani: 5
Prenesi torrent Poročaj torrent Opis torrenta NFO
Zvrst: Drama | Vojni | Zgodovinski
Kategorija: FILMI > XviD
Anonimen nalagalec


Der.Uberlaufer.aka.The.Turncoat.2020.SLOSubs.720p.WEB-DL.H264.AAC-R





Der Uberlaufer aka The Turncoat 2020

MINI SERIJA V DVEH DELIH
Prvič je bila predvajana kot štiridelna mini serija na spletu od 1. aprila 2020 v medijski knjižnici ARD





PREBEŽNIK




Zgodba:

Mladi nemški vojak Walter Proska (Jannis Niewöhner) se je zadnje poletje vojne leta 1944 vrnil z domačih počitnic na vzhodno fronto. A vlak, ki naj bi ga peljal na fronto, napadejo partizani. Walter se znajde v skupini raztresenih pripadnikov Wehrmachta, ki so jih ostale čete zapustile in so obkroženi s sovražniki in se bojijo za svoje življenje. V tej obupni situaciji sreča partizanko Wando (Malgorzata Mikolajczak). Ti in Walterjev tovariš Kürschner (Sebastian Urzendowsky) ga dvomita v pravilnost svoje zaveze in prisege ...





Igralska zasedba:

vloga:¸¸¸¸¸¸¸¸¸¸¸¸¸¸¸¸¸¸¸¸¸¸¸¸¸¸¸¸¸¸¸¸¸Igralec:

Walter Proska..........................Jannis Niewöhner
Wanda Zielinski.......................Malgorzata Mikolajczak
Wolfgang Kürschne.................Sebastiana Urzendowskega
Willi vstani...............................Rainer Bock
Ferdinand Ellerbrok "Baffi"......Bjarne punca
Maria Rogalski........................Katharina Schüttler
Kurt Rogalski..........................Shenja se zasmeje
Paul Zacharias........................Florian Lukas
Zwiczosbirski..........................Adam Venhaus
Helmut Poppek.......................Mathias Herrmann
Jakub Zielinski........................Wieslaw Zanowicz
Župnik Jan Kowolski...............Janusz Cichocki
Glasba:Antoni Lazarkiewicz
Kamera:Arthur Reinhart
Scenarij in režija:Bernd Lange, Florian Gallenberger
Direktor:Florian Gallenberger

Žanri: drama, zgodovina, vojna


Podrobnosti:

Država: Nemčija
Jezik: Nemščina, Poljščina, Rusko
Datum izdaje:1. april 2020 (Nemčija)
Podnapisi: Slovenski
Izvajanje: 173 min

IMDb ocena: 6.8/10 ..... link: https://www.imdb.com/title/tt5917226/?ref_=nv_sr_srsg_0





KDOR SEJE TUDI ŽANJE!
Dua Lipa - Dua Lipa (Deluxe Edition) 2017 Mp3

Klikni za povečavo!
21-08-2020 15:56 naložil System
Sejalci: 1 / Odjemalci: 0 / Velikost: 142.48 MB / Dokončani: 8
Prenesi torrent Poročaj torrent Opis torrenta NFO
Zvrst: Glasbeni
Kategorija: GLASBA > Glasba
Anonimen nalagalec

---------------------------------------------------------------------
Dua Lipa - Dua Lipa (Deluxe Edition)
---------------------------------------------------------------------
Artist...............: Dua Lipa
Album................: Dua Lipa (Deluxe Edition)
Genre................: Pop
Source...............: CD
Year.................: 2017
Ripper...............: EAC (Secure mode) / LAME 3.92 & Asus CD-S520
Codec................: LAME 3.99
Version..............: MPEG 1 Layer III
Quality..............: Insane, (avg. bitrate: 320kbps)
Channels.............: Joint Stereo / 44100 hz
Tags.................: ID3 v1.1, ID3 v2.3
Information..........:
Ripped by............: somebody on 5. 10. 2017
Posted by............: somebody on 21. 08. 2020
News Server..........: news.astraweb.com
News Group(s)........: alt.binaries.pl.mp3
Included.............: NFO
---------------------------------------------------------------------
Tracklisting
---------------------------------------------------------------------
1. Dua Lipa - Genesis [03:24]
2. Dua Lipa - Lost In Your Light [03:22]
3. Dua Lipa - Hotter Than Hell [03:06]
4. Dua Lipa - Be The One [03:21]
5. Dua Lipa - Idgaf [03:36]
6. Dua Lipa - Blow Your Mind (Mwah) [02:57]
7. Dua Lipa - Garden [03:46]
8. Dua Lipa - No Goodbyes [03:34]
9. Dua Lipa - Thinking 'bout You [02:50]
10. Dua Lipa - New Rules [03:30]
11. Dua Lipa - Begging [03:12]
12. Dua Lipa - Homesick [03:49]
13. Dua Lipa - Dreams [03:38]
14. Dua Lipa - Room For 2 [03:27]
15. Dua Lipa - New Love [04:30]
16. Dua Lipa - Bad Together [03:57]
17. Dua Lipa - Last Dance [03:47]
Playing Time.........: 59:53
Total Size...........: 139,11 MB






DJ VIHAR & DJ AJDA - SLO & HR MIX 60

Klikni za povečavo!
05-08-2020 14:36 naložil Ajda
Sejalci: 5 / Odjemalci: 0 / Velikost: 194.47 MB / Dokončani: 32
Prenesi torrent Poročaj torrent Opis torrenta NFO
Zvrst: Glasbeni
Kategorija: GLASBA > Glasba





Complete name : DJ VIHAR & DJ AJDA - SLO & HR MIX 60.mp3
Format : MPEG Audio
File size : 193 MiB
Duration : 1h 24mn
Overall bit rate mode : Constant
Overall bit rate : 320 Kbps
Encoded by : Lavf52.39.0
Writing library : LAME3.98

Audio
Format : MPEG Audio
Format version : Version 1
Format profile : Layer 3
Mode : Joint stereo
Duration : 1h 24mn
Bit rate mode : Constant
Bit rate : 320 Kbps
Channel(s) : 2 channels
Sampling rate : 48.0 KHz
Compression mode : Lossy
Stream size : 193 MiB (100%)
Writing library : LAME3.98




*******************************************************************************
~VSEBINA ~
*******************************************************************************

01. DARJA GAJŠEK - Beli cvet
02. WERNER - Zelene boje
03. JOLE - San snova
04. DINO PETRIČ - Vino i noč
05. ROBERT FICKER - Ja bolujem
06. ALEN VOGRINEC - Godine prolaze
07. SKUPINA CALYPSO - Rojena zame
08. KLAPA SKALA - Srce ki ljubi
09. MANCA ŠPIK - Nocoj
10. LIDIJA BAČIČ - Bježimo iz grada
11. ALEN NIZETIČ - Lete uspomene
12. DOMEN KUMER TIMOTEJ - Namesto tebe
13. TILEN LOTRIČ - Vino
14. MARKO ŠKUGOR - Tebi
15. DARJA GAJŠEK - Vredno je bilo
16. TANJA ŽAGAR - Moj roman
17. UČITELJICE - Proči če i to
18. BQL - Na frišno
19.ZDRAVKO SKENDER SERGIO - Mala istrijanka
20. POLKAHOLIKI - Sobica
21. LJUBAVNICI - Ne zaboravi me
22. JASMIN STAVROS - Moja marina
23. SAŠA KOVAČEVIČ - Moja malena
24. MEJAŠI - nije to vino
25. DEJAN VUNJAK - Ni je lepše kot si ti










Derailed.2005.SloSub.PAL.DVDR

Klikni za povečavo!
25-06-2020 08:41 naložil System
Sejalci: 1 / Odjemalci: 0 / Velikost: 4.37 GB / Dokončani: 3
Prenesi torrent Poročaj torrent Opis torrenta
Zvrst: Drama | Kriminalka | Triler
Kategorija: FILMI > DVD
Anonimen nalagalec

Derailed (2005)
Usodna prevara (2005)



-------------
INFO:
-------------
Source..........: DVD
Format..........: 16:9
Standard........: PAL
Release Size....: 4,36 GB
Width...........: 720 pixels
Height..........: 480 pixels
iMDB Link.......: KLIK
iMDB Rating.....: 6,6/10 (69.825)
Genre...........: Crime, Drama, Thriller
Country.........: USA/ UK
Language........: English/ French
Video...........: /
Audio...........: AC3 5.1-ch English
Subs............: Slovenian
Extras..........: yes
Regija..........: Prosto
Runtime.........: 113 min
Čas predvajanja.: 01:52.26

-------------
IGRALCI:
-------------
Vincent Cassel ....... LaRoche
Clive Owen ........... Charles Schine
Addison Timlin ....... Amy Schine
Melissa George ....... Deanna Schine
Jennifer Aniston ..... Lucinda Harris
Sandra Bee ........... Train Conductor
RZA .................. Winston Boyko
William Armstrong .... Accountant
Tom Conti ............ Eliot Firth
Rachael Blake ........ Susan Davis
Richard Leaf ......... Night Clerk Ray
Xzibit ............... Dexter
Catherine McCord ..... Avery Price Receptionist
Denis O'Hare ......... Jerry the Lawyer
Georgina Chapman ..... Candy

-------------
OPIS:
-------------
Lucinda je očarljiva, lepa in zapeljiva. Čeprav imata družino,
se neustavljivo privlačita. Kosila prerastejo v pijačo po službi
in kmalu se Charles in Lucinda znajdeta v hotelski sobi. Njuno
nežno romanco pa skali LaRoche, nasilni tujec, ki vdre v sobo.
Nedolžna aferica postane prava nočna mora, veliko bolj nevarna in
nasilna, kot bi si lahko kdo mislil.

V Charlesovem življenju se začnejo prepletati prevara, izsiljevanje,
nasilje in zločin. Ženi in policiji se ne more zaupati. Ujame se v
neznan svet, medtem ko njegovo staro življenje počasi bledi...