A
B
C
D
E
F
G
H
I
J
K
L
M
N
O
P
Q
R
S
T
U
V
W
X
Y
Z
0-9
DJ VIHAR & DJ AJDA - SLO & HR MIX 67

Klikni za povečavo!
30-05-2022 15:52 naložil Ajda
Sejalci: 5 / Odjemalci: 0 / Velikost: 205.54 MB / Dokončani: 18
Prenesi torrent Poročaj torrent Opis torrenta NFO
Kategorija: GLASBA > Glasba




*******************************************************************************
~ DJ VIHAR & DJ AJDA - SLO & HR MIX 67 ~
*******************************************************************************

-------------------------------------------------------------------------------
Avdio podatki
-------------------------------------------------------------------------------
Format : MPEG Audio
File size : 205 MiB
Duration : 1h 29mn
Overall bit rate mode : Constant
Overall bit rate : 320 Kbps
Encoded by : Lavf52.39.0
Writing library : LAME3.98

Audio
Format : MPEG Audio
Format version : Version 1
Format profile : Layer 3
Mode : Joint stereo
Duration : 1h 29mn
Bit rate mode : Constant
Bit rate : 320 Kbps
Channel(s) : 2 channels
Sampling rate : 48.0 KHz
Compression mode : Lossy
Stream size : 205 MiB (100%)
Writing library : LAME3.98
________________________________________
VSEBINA
________________________________________

01. JASNA ZLOKIČ - da proplaču crne oči
02. DRAŽEN ZEČIČ MARKO ŠKUGOR - jedna dođe druga ode
03. TEQUILA - sladka mala
04. IVAN IVE ŽUPANOVIČ - najlepša
05. BOŽIDAR WOLF in WOLF - prihajam domov
06. ĐANI STIPANIČEV - zašto da ne uzmem nju
07. FRANO PEHAR & TARAPANA - nisam birao
08. ZORAN BRODAR - često idem krivim putem
09. RADOLFI RITMO ELVIS - moja emilija
10. MANCA ŠPIK - le enkrat se živi
11. MATE BULIČ - što smo dušo na tom svjetu
12. VLADIMIR KOČIŠ ZEC - tako je to kada se voli
13. DALIBOR BRUN - mrzim te, a ne mogu bez tebe
14. ZDRAVKO ŠKENDER - sve kavane
15. MLADEN GRDOVIČ - da te nima
16. ATOMIK HARMONIK - baloni
17. MILO HRNIČ - jedan čovjek sa gitarom
18. SKATER - glavna šefica
19. DARKO DOMIJAN - sunčana obala
20. MARKO ŠKUGOR - a ja sam tija
21. DRAŽEN ZEČIČ - skini mi se sa vrata
22. VLADO KALEMBER - sve je to zbog tebe
23. DINO PETRIČ - dalmatinsko srce
24. UČITELJICE - bura 7 tsunami
25. ZLATKO PEJAKOVIČ IVAN MARTIČ - moja slavonijo
26. NIKA ZORJAN - 1,2,3
27. LUKA BASI - kamoiondžija






DJ VIHAR & DJ AJDA - SLO & HR MIX 66

Klikni za povečavo!
30-05-2022 12:40 naložil Ajda
Sejalci: 5 / Odjemalci: 0 / Velikost: 204.91 MB / Dokončani: 15
Prenesi torrent Poročaj torrent Opis torrenta NFO
Kategorija: GLASBA > Glasba



*******************************************************************************
~ DJ VIHAR & DJ AJDA - SLO & HR MIX 66 ~
*******************************************************************************

-------------------------------------------------------------------------------
Avdio podatki
-------------------------------------------------------------------------------
Format : MPEG Audio
File size : 204 MiB
Duration : 1h 29mn
Overall bit rate mode : Constant
Overall bit rate : 320 Kbps
Encoded by : Lavf52.39.0
Writing library : LAME3.98

Audio
Format : MPEG Audio
Format version : Version 1
Format profile : Layer 3
Mode : Joint stereo
Duration : 1h 29mn
Bit rate mode : Constant
Bit rate : 320 Kbps
Channel(s) : 2 channels
Sampling rate : 48.0 KHz
Compression mode : Lossy
Stream size : 204 MiB (100%)
Writing library : LAME3.98
________________________________________
VSEBINA
________________________________________


01. SINIŠA BIŠKO - ti samo ti
02. THE FRAJLE - panonskom mornarom
03. JASNA ZLOKIČ - pustim da prođem
04. ANDRIJA KOS - dok je bila moja
05. DRAŽEN ZEČIČ - tamo gdje je srce
06. MLADEN GRDOVIČ - da san ima mota
07. IVANA KOVAČ - to se desi
08. POSKOČNI - cukr moj
09. DAMJAN MURKO / TILEN BRGLEZ - breskvice
10. TEQUILA - sladka mala
11. MIRAN RUDAN / POP DESIGN - lažeš mi
12. JAN PLESTENJAK - na vetru s severa
13. ALEN NIZETIČ - živim
14. DEJAN DOGAJA - manekenka
15. DORIS DRAGOVIČ - i da mi zrak zabrane
16. SKUPINA CHICAS - rabim gin
17. KLAPA BONACA - zbogom prijatelji moji
18. BARBARA ŽERJAV - CHICAS - pravi kavboj
19. DOLORES - ave marija
20. NENAD VETMA - vlasta
21 . LJUBAVNICI - zauvijek ljubavnik
22. DEJAN VUNJAK - brez problema
23. ZDRAVKO ŠKENDER - udat češ se meni iz inata
24. NINA DONELI - lude noči
25. DARIO MIJATOVIČ / ČAROBNJACI - ja bih tebi život dao
26. FEHTARJI - in ko enkrat bom umrl

DJ VIHAR & AJDA - SLO & HR MIX-i od 01. do 64 komplet

Klikni za povečavo!
10-11-2021 11:56 naložil Ajda
Sejalci: 2 / Odjemalci: 0 / Velikost: 12.43 GB / Dokončani: 37
Prenesi torrent Poročaj torrent Opis torrenta
Zvrst: Glasbeni
Kategorija: GLASBA > Glasba


*******************************************************************************
~ DJ VIHAR & DJ AJDA - SLO & HR MIX ZBIRKA ~
- od 01 do 64 -
*******************************************************************************

-------------------------------------------------------------------------------
Avdio podatki
-------------------------------------------------------------------------------
Complete name : DJ VIHAR & DJ AJDA - SLO & HR MIX zbirka.mp3
Format : MPEG Audio
File size : 12,4 GB
Overall bit rate mode : Constant
Overall bit rate : 320 Kbps
Encoded by : Lavf52.39.0
Writing library : LAME3.98

Audio
Format : MPEG Audio
Format version : Version 1
Format profile : Layer 3
Mode : Joint stereo
Bit rate mode : Constant
Bit rate : 320 Kbps
Channel(s) : 2 channels
Sampling rate : 48.0 KHz
Compression mode : Lossy
Writing library : LAME3.98
-------------------------------------------------------------------------------
Vsebina
-------------------------------------------------------------------------------
SLO&CRO MiX-i od 01 do 64

... na posebno željo uporabnika grobarji


Diabolik 2021 SrbSubs 720p BRRip XviD AC3-johnny80

Klikni za povečavo!
05-04-2022 06:44 naložil johnny80
Sejalci: 2 / Odjemalci: 0 / Velikost: 4.5 GB / Dokončani: 15
Prenesi torrent Poročaj torrent Opis torrenta
Kategorija: FILMI > XviD



Velikost ...........: 4.49 GB
Dolžina ............: 2h 13 Minut
Video ...............: 4366 Kbps | 1280 x 692
Zvok .................: AC-3 | 448 Kbps | 6 Channels
Kodek...............: XviD
Zvrst………….....: Action | Crime | Mystery
Jezik ................: Italijanski
Podnapisi.........: Srbski

Luca Marinelli , Miriam Leone , Valerio Mastandrea

The dark and romantic story of the first meeting between Troll thief Diabolik and Eva Kant, set in the fictional state of Clerville in the late 1960s. Inspector Ginko is on the hunt for the criminal, trying to stop his evil plans.

Slike:
Trailer:
Death On The Nile 2022 SrbSubs 720p BRRip XviD AC3-johnny80

Klikni za povečavo!
30-03-2022 06:55 naložil johnny80
Sejalci: 1 / Odjemalci: 0 / Velikost: 4.12 GB / Dokončani: 33
Prenesi torrent Poročaj torrent Opis torrenta
Kategorija: FILMI > XviD



Velikost ...........: 4.11 GB
Dolžina ............: 2h 06 Minut
Video ...............: 4188 Kbps | 1280 x 536
Zvok .................: AC-3 | 448 Kbps | 6 Channels
Kodek...............: XviD
Zvrst………….....: Crime | Drama | Mystery
Jezik ................: Angleški
Podnapisi.........: Srbski

Tom Bateman , Annette Bening , Kenneth Branagh

Mlada, bogata in čudovita Linnet Ridgeway ima pravzaprav vse. Tisto, česar nima, vzame! Na primer zaročenca svoje najboljše prijateljice Jackie. Ko se Linnet in njen novi izbranec odpravita na medene tedne s popotovanjem po reki Nil, nič ne more zaščititi Jackie pred njenimi demoni. In nihče, niti zloglasni detektiv Hercule Poirot, ne more preprečiti zločina iz strasti.

Slike:
Trailer:
Deep Water 2022 SrbSubs 720p WEBRip XviD AC3-johnny80

Klikni za povečavo!
19-03-2022 22:20 naložil johnny80
Sejalci: 3 / Odjemalci: 0 / Velikost: 4.01 GB / Dokončani: 20
Prenesi torrent Poročaj torrent Opis torrenta
Kategorija: FILMI > XviD



Velikost ...........: 4.01 GB
Dolžina ............: 1h 56 Minut
Video ...............: 4473 Kbps | 1280 x 692
Zvok .................: AC-3 | 448 Kbps | 6 Channels
Kodek...............: XviD
Zvrst………….....: Drama | Mystery | Thriller
Jezik ................: Angleški
Podnapisi.........: Srbski

Ben Affleck , Ana de Armas , Tracy Letts

A well-to-do husband who allows his wife to have affairs in order to avoid a divorce becomes a prime suspect in the disappearance of her lovers.

Slike:
Trailer:
Dog 2022 CroSubs 720p WEBRip XviD AC3-johnny80

Klikni za povečavo!
17-03-2022 15:02 naložil johnny80
Sejalci: 3 / Odjemalci: 0 / Velikost: 3.49 GB / Dokončani: 32
Prenesi torrent Poročaj torrent Opis torrenta
Zvrst: Komedija
Kategorija: FILMI > XviD



Velikost ...........: 3.49 GB
Dolžina ............: 1h 41 Minut
Video ...............: 4455 Kbps | 1280 x 536
Zvok .................: AC-3 | 448 Kbps | 6 Channels
Kodek...............: XviD
Zvrst………….....: Comedy
Jezik ................: Angleški
Podnapisi.........: Hrvaški

Channing Tatum , Ryder McLaughlin , Aavi Haas

Nekdanjemu vojaškemu čuvaju Briggsu je dodeljena skrb za vojaško izšolano psičko padlega vojaka. Njegova naloga je pripeljati psičko na drug konec države, da bi bila lahko prisotna na pogrebu svojega umrlega lastnika. Njuna pot ju prisili v prav posebno sobivanje, ki pa ni nič bolj enostavno zaradi nepredvidljivega obnašanja tega „kosmatega demona”. Vendar pa ravno te neverjetne situacija Briggsa potisnejo na rob svojih zmožnosti in ga spodbudijo, da ponovno razmisli o sebi in o svojem novem odnosu s pasjim sopotnikom.

Slike:
Trailer:
Di Renjie - Red Eyes 2021 SrbSubs 720p WEBRip XviD AC3-johnny80

Klikni za povečavo!
21-02-2022 08:13 naložil johnny80
Sejalci: 1 / Odjemalci: 0 / Velikost: 1.78 GB / Dokončani: 13
Prenesi torrent Poročaj torrent Opis torrenta
Kategorija: FILMI > XviD



Velikost ...........: 1.77 GB
Dolžina ............: 1h 26 Minut
Video ...............: 2500 Kbps | 1280 x 536
Zvok .................: AC-3 | 448 Kbps | 6 Channels
Kodek...............: XviD
Zvrst………….....: Action | Fantasy | Thriller
Jezik ................: Kitajski
Podnapisi.........: Srbski

Meng Fan , Minghan He , Qiwei He

During the Empress Wu Zetian's reign, Detective Dee supervised the case of "Red-eyed monster" causing trouble and eliminated Prince Wu Minzhi, who tried to usurp power and seize the throne, preserving the stability of Jiangshan.

Slike:
Trailer:
Divji.labodi.2005.SLOSiNH.DVDRip.XviD-Route66

Klikni za povečavo!
18-02-2022 20:18 naložil System
Sejalci: 1 / Odjemalci: 0 / Velikost: 697.88 MB / Dokončani: 16
Prenesi torrent Poročaj torrent Opis torrenta
Zvrst: Risanka
Kategorija: FILMI > Risanke
Anonimen nalagalec

Divji labodi 2005

Donbass (2018) SLOSubs [BluRay] [1080p] [YTS.LT]

Klikni za povečavo!
12-02-2022 16:55 naložil BlackDevil
Sejalci: 2 / Odjemalci: 0 / Velikost: 1.95 GB / Dokončani: 19
Prenesi torrent Magnet Link Poročaj torrent Opis torrenta
Zvrst: Drama | Triler | Vojni
Kategorija: FILMI > BluRay-1080

CoverCity - DVD Covers & Labels - Donbass

SOURCE: Donbass (2018) [BluRay] [1080p] [YTS] [YIFY]
FILE SIZE...........: 1.94 GB
MOVIE LENGHT........: 2h 01min 35sec
VIDEO CODEC.........: X264
VIDEO RESOLUTION....: 1920x784
ASPECT RATIO........: 2.40:1
FRAME RATE..........: 23.976
VIDEO BITRATE.......: 2150 Kbps
AUDIO...............: AAC 134 Kbps
SPOKEN LANGUAGE(S)..: Rus, Ukr & Eng
SUBTITLE(S).........: Slovenian

Georgiy Deliev > Donbass inhabitant
Thorsten Merten > German Journalist Michael Walter
Sergey Russkin > Donbass inhabitant
Lyudmila Smorodina > Woman in blue
Mikhail Voloshin > Man in cap
Evgeny Chepurnyak > Head physician
Elena Khizhnaya > Creature
Meelo Eliisabet Kriisa > Plump-faced Woman
Valeriu Andriuta > Donbass inhabitant
Boris Kamorzin > Donbass inhabitant
Olesya Zhurakivska > Girl with bucket
Sergey Kolesov > Donbass inhabitant
Evgeny Chistyakov > Donbass inhabitant
Arsen Bosenko > First separatist
Alexander Zamuraev > Donbass inhabitant
Irina Plesnyayeva > Donbass inhabitant
Konstantin Itunin > Donbass inhabitant
Vadim Dubovsky > Donbass inhabitant
Svetlana Kolesova > Donbass inhabitant
Yaroslav Bezkorovayny > Soldier in Bandana


Donbas, pokrajina v vzhodnem delu Ukrajine. Različne kriminalne združbe
se enkrat borijo proti uradni ukrajinski vojski, drugič proti ruskim
silam in tretjič obračunavajo med seboj: kakor jim pač ustreza.
Neprestani spori so idealen pogoj za anarhijo, v kateri si posamezniki
nekaznovano prisvajajo tujo lastnino in ponižujejo civilno prebivalstvo.
Strah, prevare, sovraštvo, nasilje in smrt prežijo na vsakem koraku.

Dracula 3000 2004 SloSubs DVDRip XviD AC3-Blackdevil

Klikni za povečavo!
23-01-2022 09:45 naložil BlackDevil
Sejalci: 1 / Odjemalci: 0 / Velikost: 1.39 GB / Dokončani: 6
Prenesi torrent Poročaj torrent Opis torrenta
Zvrst: Grozljivka | Z.F.
Kategorija: FILMI > DVDRip




=>-Genre : Sci-Fi : Horror : Comedy : Fantasy.
=>-Languages : English : Italian.
=>-File Size : 1.39 GiB.
=>-Overall bit rate : 2 388 kbps.
=>-Movie Runtime : 1h 24m.

Video.
=>-Codec : H.264/MPEG-4 AVC.
=>-Aspect Ratio : 16:9.
=>-Resolution : 720 x 400.
=>-Bit rate : 2 122 kbps.

Audio 1 English.
=>-Codec : mp4a: MPEG-4 AAC LC.
=>-Channels : 2 channel.
=>-Bit Rate : 128 kbps.
=>-Bit rate mode : Constant.
=>-Casper Van Dien : Abraham Van Helsing.
=>-Erika Eleniak : Aurora Ash.
=>-Coolio : 187.
=>-Alexandra Kamp : Mina Murry.
=>-Grant Swanby : Arthur Holmwood.


One thousand years into the future, and somewhere in the far reaches of outer
space, a terrifying legend lives on. It's the year 3000 AD. A salvage ship on a
routine interstellar mission discovers the drifting, silent hulk of the off-world
space transporter Demeter, reported missing 100 years earlier. Excited by the
prospects of quick financial gain from towing back and trading in the old vessel,
Mina, Van Helsing and the rest of their crew boldly board the abandoned ship,
hoping to recover any valuable freight left onboard. But as they explore its cold,
empty passageways, they become aware of a terrible secret. First Mina uncovers
Demeter's mysterious cargo - 50 long, black coffins. Then, one by one the crew
begins to disappear or turn against one another, until there can be no doubt that
an ancient curse lives on in the bowels of this once-great ship, awaiting its next
victim. In the blackness of space the sun never rises, the ideal environment for
the immortal vampire to spread his evil. For the survivors, the only hope for
salvation is a desperate race across the universe, rocketing at the speed of light,
praying that they'll reach the welcoming rays of the Twin Suns of Halbron...before
it's too late.

Dracula 3000 film 2004 - Google Search | Film history, Dracula, Vampire
Dracula 3000 (2004) - IMDb
Kevin's Cave: Dracula 3000 (2004)

DJ VIHAR & DJ AJDA - SLO & HR MIX 65

Klikni za povečavo!
21-01-2022 10:39 naložil Ajda
Sejalci: 2 / Odjemalci: 0 / Velikost: 179.23 MB / Dokončani: 42
Prenesi torrent Poročaj torrent Opis torrenta
Kategorija: GLASBA > Glasba





DJ VIHAR & DJ AJDA - SLO & HR MIX 65

Complete name : DJ VIHAR & DJ AJDA - SLO & HR MIX 65.mp3
Format : MPEG Audio
File size : 179 MiB
Duration : 1h 18mn
Overall bit rate mode : Constant
Overall bit rate : 320 Kbps
Encoded by : Lavf52.39.0
Writing library : LAME3.98

Audio
Format : MPEG Audio
Format version : Version 1
Format profile : Layer 3
Mode : Joint stereo
Duration : 1h 18mn
Bit rate mode : Constant
Bit rate : 320 Kbps
Channel(s) : 2 channels
Sampling rate : 48.0 KHz
Compression mode : Lossy
Stream size : 179 MiB (100%)
Writing library : LAME3.98
-------------------------------------------------------------------------------
Vsebina
-------------------------------------------------------------------------------

DJ VIHAR & DJ AJDA - SLO & HR MIX 65

01. MLADEN GRDOVIČ - Sve bi dao za nju
02. ŽELJKO BEBEK - Kupit ču nam sat
03. DAMJAN MURKO in BLAŽ - Mrcina
04. HAJDI in FENTARJI - Oblečem si oblekico
05. BURYANA - Vidi se
06. NINA DONELI - Havana
07. ISAC PALMA - Na zdravje
08. KUMER PAVEC KONEČNIK - Moja Slovenija
09. LENARTI - Nekoč bom zbral pogum
10. SINIŠA ŽUNEC - Za pet života
11. DRAŽEN ZEČIČ - Srce moje iz bitaka sto
12. DAVOR BORNO - Vjeruj da ljubav ne umire
13. ALYA - Se živi
14. PERO PANJKOVIČ - Sunčano je nebo proplakalo
15. ZLATA ZILA - Dober vajb
16. MATKO JELAVIČ - Tajna
17. DARJA GAJŠEK - Objemi me
18. IRENA VRČKOVNIK in BARBARA ŽERJAV - Povabi me
19. LUKA BASI - To je to
20. MLADEN GRDOVIČ - Bog mi dao sve
21. GRUBA BANANA in MLADEN GRDOVIČ - Sve smo potrošili
22. MLADEN GRDOVIČ - Odlazim
23. JAN PLESTENJAK - Na vetru s severa




Dont Look Up 2021 CroSubs 720p WEBRip XviD AC3-johnny80

Klikni za povečavo!
24-12-2021 15:21 naložil johnny80
Sejalci: 1 / Odjemalci: 0 / Velikost: 4.83 GB / Dokončani: 61
Prenesi torrent Poročaj torrent Opis torrenta
Zvrst: Drama | Komedija | Z.F.
Kategorija: FILMI > XviD



Velikost ...........: 4.82 GB
Dolžina ............: 2h 23 Minut
Video ...............: 4373 Kbps | 1280 x 720
Zvok .................: AC-3 | 448 Kbps | 6 Channels
Kodek...............: XviD
Zvrst………….....: Comedy | Drama | Sci-Fi
Jezik ................: Angleški
Podnapisi.........: Hrvaški

Leonardo DiCaprio , Jennifer Lawrence , Meryl Streep

Two low-level astronomers must go on a giant media tour to warn mankind of an approaching comet that will destroy planet Earth.

Slike:
Trailer:
De Uskyldige Aka The Innocents 2021 SrbSubs 720p BRRip XviD AC3-johnny80

Klikni za povečavo!
23-12-2021 16:47 naložil johnny80
Sejalci: 3 / Odjemalci: 0 / Velikost: 2.83 GB / Dokončani: 15
Prenesi torrent Poročaj torrent Opis torrenta
Zvrst: Drama | Triler
Kategorija: FILMI > XviD



Velikost ...........: 2.82 GB
Dolžina ............: 1h 57 Minut
Video ...............: 2998 Kbps | 1280 x 536
Zvok .................: AC-3 | 448 Kbps | 6 Channels
Kodek...............: XviD
Zvrst………….....: Drama | Thriller
Jezik ................: Norveški
Podnapisi.........: Srbski

Rakel Lenora Fløttum , Alva Brynsmo Ramstad , Sam Ashraf

During the bright Nordic summer, a group of children reveal their dark and mysterious powers when the adults aren't looking. In this original and gripping supernatural thriller, playtime takes a dangerous turn.

Slike:
Trailer:
Death Valley 2021 SrbSubs 720p WEBRip XviD AC3-johnny80

Klikni za povečavo!
16-12-2021 08:09 naložil johnny80
Sejalci: 2 / Odjemalci: 0 / Velikost: 2.65 GB / Dokončani: 24
Prenesi torrent Poročaj torrent Opis torrenta
Zvrst: Akcija | Grozljivka
Kategorija: FILMI > XviD



Velikost ...........: 2.65 GB
Dolžina ............: 1h 33 Minut
Video ...............: 3620 Kbps | 1280 x 536
Zvok .................: AC-3 | 448 Kbps | 6 Channels
Kodek...............: XviD
Zvrst………….....: Action | Horror
Jezik ................: Angleški
Podnapisi.........: Srbski

Jeremy Ninaber , Ethan Mitchell , Kristen Kaster

Mercenaries with nothing to lose are hired to rescue a bioengineer imprisoned in a cold war bunker. Upon entering the ominous facility, they find themselves in a fight for their lives when they come under attack from an unknown and deadly creature.

Slike:
Trailer:
Dos Aka Two 2021 CroSubs SPANISH 720p NF WEBRip XviD AC3-johnny80

Klikni za povečavo!
10-12-2021 14:48 naložil johnny80
Sejalci: 2 / Odjemalci: 0 / Velikost: 1.59 GB / Dokončani: 11
Prenesi torrent Poročaj torrent Opis torrenta
Kategorija: FILMI > XviD



Velikost ...........: 1.58 GB
Dolžina ............: 1h 11 Minut
Video ...............: 2736 Kbps | 1280 x 720
Zvok .................: AC-3 | 448 Kbps | 6 Channels
Kodek...............: XviD
Zvrst………….....: Mystery | Drama | Thriller
Jezik ................: Španski
Podnapisi.........: Hrvaški

Pablo Derqui , Marina Gatell , Esteban Galilea

Two people, a man and a woman, wake up naked and with their abdomens attached to each other.

Slike:
Trailer:
Desolate (2018) 720p.WEBRip.x264.YTS.SrbSubs

Klikni za povečavo!
05-12-2021 16:07 naložil ExYuUploader
Sejalci: 1 / Odjemalci: 0 / Velikost: 755.72 MB / Dokončani: 8
Prenesi torrent Magnet Link Poročaj torrent Opis torrenta
Zvrst: Drama
Kategorija: FILMI > WEBRip-720

Desolate (2018) 720p.WEBRip.x264.YTS.SrbSubs



Dok pokušavaju da prežive najgoru sušu u historiji, porodica farmera prisiljava svog najmlađeg člana na put uništenja; izdan i ostavljen da umre u nepoznatoj zemlji, on mora preživjeti, izdržati i tražiti osvetu koju zaslužuje.
Dark, Deadly & Dreadful (2018) 720p.WEBRip.x264.YTS.SrbSubs

Klikni za povečavo!
05-12-2021 15:28 naložil ExYuUploader
Sejalci: 1 / Odjemalci: 0 / Velikost: 739.4 MB / Dokončani: 4
Prenesi torrent Magnet Link Poročaj torrent Opis torrenta
Zvrst: Grozljivka
Kategorija: FILMI > WEBRip-720

Dark, Deadly & Dreadful (2018) 720p.WEBRip.x264.YTS.SrbSubs



Antologijski film koji se sastoji od kratkih horora koje su napravili članovi zajednice Fun Size Horror. Svaki film istražuje različitu temu u ovom žanru i svaka je sagledana iz perspektive autora.
DAU. Nikita Tanya (2020) 720p WEB h264.SrbSubs

Klikni za povečavo!
03-12-2021 22:51 naložil ExYuUploader
Sejalci: 1 / Odjemalci: 0 / Velikost: 969.77 MB / Dokončani: 2
Prenesi torrent Magnet Link Poročaj torrent Opis torrenta
Zvrst: Drama
Kategorija: FILMI > WEBRip-720

DAU. Nikita Tanya (2020) 720p WEB h264.SrbSubs



U super-tajnom institutu, naucnika Nikitu Nekrasova je posetila supruga sa detetom. Dok su bili razdvojeni, Nikita se zaljubio u drugu zenu. U otvorenom razovoru sa suprugom, pokusava da joj dokaze legitimnost poligamne veze i testira granice njene ljubavi...
Posle smri oca, briljantni student se vraca kuci i otkriva da se jos uvek nije izborio sa traumama iz detinjstva.


Keep Calm and seed torrent