A
B
C
D
E
F
G
H
I
J
K
L
M
N
O
P
Q
R
S
T
U
V
W
X
Y
Z
0-9
DJ VIHAR & DJ AJDA - SLO & HR MIX 71

Klikni za povečavo!
Torek at 12:55 naložil Ajda
Sejalci: 3 / Odjemalci: 0 / Velikost: 236.44 MB / Dokončani: 5
Prenesi torrent Poročaj torrent Opis torrenta NFO
Kategorija: GLASBA > Glasba





~ DJ VIHAR & DJ AJDA - SLO & HR MIX 71 ~
*******************************************************************************

-------------------------------------------------------------------------------
Avdio podatki
-------------------------------------------------------------------------------
Format : MPEG Audio
File size : 236 MiB
Duration : 1 h 43 min
Overall bit rate mode : Constant
Overall bit rate : 320 kb/s
Encoded by : Lavf52.39.0
Writing library : LAME3.98

Audio
Format : MPEG Audio
Format version : Version 1
Format profile : Layer 3
Format settings : Joint stereo
Duration : 1 h 43 min
Bit rate mode : Constant
Bit rate : 320 kb/s
Channel(s) : 2 channels
Sampling rate : 48.0 kHz
Frame rate : 41.667 FPS (1152 SPF)
Compression mode : Lossy
Stream size : 236 MiB (100%)
Writing library : LAME3.98

DJ VIHAR & DJ AJDA - SLO & HR MIX 71

01. Mate Bulić Maja Šuput - dvije lude
02. Alen Slavica - sanjam
03. Til Čeh - mam pa te mam
04. Robert Čolina - za sve što bilo je
05. Alka Vuica - opet volim
06. Giovanni Furlan - nedostaješ mi ti ljubavi
07. Alen Ademović - kafanizacija
08. Jastrebi - kje naj te najdem
09. Duško Lokin - ti samo ti
10. Marko Škugor - ne plači dušo moja
11. Tequila - karamela
12. Total Band - samo ti
13. Davor Borno - dobra moja
14. Boštjan Konečnik - ekipa da te skipa
15. Trio Unis - pamet zgubo
16. Miki Vlahovič - do neba
17. Zvita Feltna - panika
18. Kristijan Požgaj - učiniti to moraš
19. Lidija Bačič - najdraže moje
20. Branko Medak Dražen Zečič - zbogom
21. Potepini - petra
22. Dolores - sreča nije vredna tuge
23. Fehtarji - schatzi
24. Luka Basi - skijaška
25. Toni Tešija - ja ču tebe uvjek voljeti
26. Ivana Kovač - lom
27. Darja Gajšek Spev - sonce mojih dni
28. Denis Zajc TS Mlin - neču žalit zbog garavuše
29. Dražen Zečič - opraštam se nočas
30 .Siniša Žunec - lipota mog života



DJ VIHAR & DJ AJDA - SLO & HR MIX 70

Klikni za povečavo!
Torek at 10:31 naložil System
Sejalci: 5 / Odjemalci: 0 / Velikost: 234.49 MB / Dokončani: 5
Prenesi torrent Poročaj torrent Opis torrenta NFO
Kategorija: GLASBA > Glasba
Anonimen nalagalec




~ DJ VIHAR & DJ AJDA - SLO & HR MIX 70 ~
*******************************************************************************

-------------------------------------------------------------------------------
Avdio podatki
-------------------------------------------------------------------------------
Format : MPEG Audio
File size : 234 MiB
Duration : 1h 42mn
Overall bit rate mode : Constant
Overall bit rate : 320 Kbps
Encoded by : Lavf52.39.0
Writing library : LAME3.98

Audio
Format : MPEG Audio
Format version : Version 1
Format profile : Layer 3
Mode : Joint stereo
Duration : 1h 42mn
Bit rate mode : Constant
Bit rate : 320 Kbps
Channel(s) : 2 channels
Sampling rate : 48.0 KHz
Compression mode : Lossy
Stream size : 234 MiB (100%)
Writing library : LAME3.98


________________________________________
VSEBINA
________________________________________


01. Mladen Grdovič - volio sam jednu ženu
02. Mate Bulič - sanjao sam da si pored mene
03. Martina Švab - ogenj v meni
04. Zdravko Čolič - ljubav ima lažni sjaj
05. Skupina Chicas - aplavz zate
06. Luka Basi Klapa Kampanel - zasvirajte neko drugo veče
07. Alen Slavica - slika v pijesku
08. Ivan Martič Ivica - ja sam sokol
09. Doris Dragovič - srce vuče južnom kraju
10. Krunoslav Kičo Slabinac - dok sanjaš
11. Nenad Vetma - Lastavice mala
12. Vili Resnik - Lepa za umret
13. Dražen Zečič - poljubi me jednom za kraj
14. Senad Galijaševič - Jasmina
15. Jasmin Stavros - Bila je
16. Jan plestenjak - Na vetru s severa
17. Jasna Zlokič - Povedi me
18. Dražen Zečič - Živi danas
19. Opatijski Suveniri - Ti si moja sladka
20. Miro Ungar - sad me opet voliš ti
21. Tomislav Bralič - Ti si kriva
22. Ivan Zak Boban Rajovic - Kilometri ljubavi
23. Zdravko Škender - Nakon svih tih godina
24. Dani Maršan - Dugi otok
25. Milo Hrnič - Budi nočas mirno more
26. Dražen Zečič - Da mi daju carstvo
27. Davor Borno - Dobra moja
28. Mišo Kovač - Nočas si ljepa
29. Klapa Rišpet - Lud za tobom
30. Matko Jelavič - Pričaj mi još malo



DJ VIHAR & AJDA - SLO & HR MIX-i od 01. do 64 komplet

Klikni za povečavo!
10-11-2021 11:56 naložil Ajda
Sejalci: 4 / Odjemalci: 0 / Velikost: 12.43 GB / Dokončani: 129
Prenesi torrent Poročaj torrent Opis torrenta
Zvrst: Glasbeni
Kategorija: GLASBA > Glasba


*******************************************************************************
~ DJ VIHAR & DJ AJDA - SLO & HR MIX ZBIRKA ~
- od 01 do 64 -
*******************************************************************************

-------------------------------------------------------------------------------
Avdio podatki
-------------------------------------------------------------------------------
Complete name : DJ VIHAR & DJ AJDA - SLO & HR MIX zbirka.mp3
Format : MPEG Audio
File size : 12,4 GB
Overall bit rate mode : Constant
Overall bit rate : 320 Kbps
Encoded by : Lavf52.39.0
Writing library : LAME3.98

Audio
Format : MPEG Audio
Format version : Version 1
Format profile : Layer 3
Mode : Joint stereo
Bit rate mode : Constant
Bit rate : 320 Kbps
Channel(s) : 2 channels
Sampling rate : 48.0 KHz
Compression mode : Lossy
Writing library : LAME3.98
-------------------------------------------------------------------------------
Vsebina
-------------------------------------------------------------------------------
SLO&CRO MiX-i od 01 do 64

... na posebno željo uporabnika grobarji


Dumb Money 2023 SloSubs 720p WEBRip x264 AC3-Unknown

Klikni za povečavo!
07-11-2023 15:06 naložil johnny80
Sejalci: 3 / Odjemalci: 0 / Velikost: 1.87 GB / Dokončani: 12
Prenesi torrent Magnet Link Poročaj torrent Opis torrenta
Kategorija: FILMI > WEBRip-720

INFO:
Velikost ...........: 1.86 GB
Dolžina ............: 1 h 45 min
Video ...............: 2306 Kbps | 1280 x 720
Zvok .................: AC-3 | 192 Kbps | 2 Channels
Kodek ...............: AVC
Zvrst ………….....: Biography | Comedy | Drama
Jezik ................: Angleški
Podnapisi .........: Slovenski

V GLAVNIH VLOGAH:
Paul Dano , Vincent D'Onofrio , Seth Rogen , Pete Davidson , Shailene Woodley

VSEBINA:
Odpuljeni denar je sodobna pripoved na temo Davida in Goljata, ki temelji na neverjetni resnični zgodbi običajnih ljudi, ki so pokazali Wall Streetu sredinec in obogateli tako, da so spremenili GameStop (ja, prodajalno videoiger v nakupovalnih središčih) v najbolj vroče podjetje na svetu. V središču zgodbe je Keith Gill, ki sproži verižno reakcijo, ko vloži vse prihranke v delnice podjetja in to objavi na družbenih mediji. Ob širjenju novice se korenito spremeni tako njegovo življenje kot življenje vseh, ki mu sledijo.

NAPOVEDNIK:
Darkland The Return 2023 CroSubs 720p WEBRip x264 AC3-Unknown

Klikni za povečavo!
04-10-2023 20:24 naložil johnny80
Sejalci: 2 / Odjemalci: 0 / Velikost: 2.03 GB / Dokončani: 28
Prenesi torrent Magnet Link Poročaj torrent Opis torrenta
Zvrst: Akcija | Triler
Kategorija: FILMI > WEBRip-720

INFO:
Velikost ...........: 2.02 GB
Dolžina ............: 1 h 49 min
Video ...............: 2395 Kbps | 1280 x 536
Zvok .................: AC-3 | 192 Kbps | 2 Channels
Kodek ...............: AVC
Zvrst ………….....: Action | Thriller
Jezik ................: Danski
Podnapisi .........: Hrvaški

V GLAVNIH VLOGAH:
Dar Salim , Birgitte Hjort Sørensen , Stine Fischer Christensen , Abud Mustafa , Soheil Bavi

VSEBINA:
Zaid is doing time in prison, but gets a chance to get out and see his son if he assists the police.

NAPOVEDNIK:
Detective Knight Rogue 2022 SloSubs 720p BRRip x264 AC3-Unknown

Klikni za povečavo!
19-07-2023 05:41 naložil johnny80
Sejalci: 0 / Odjemalci: 0 / Velikost: 1.97 GB / Dokončani: 15
Prenesi torrent Poročaj torrent Opis torrenta
Zvrst: Akcija | Triler
Kategorija: FILMI >  BRRip

MV5-BODEz-Nm-Nm-NTct-Mjgy-Ny00-OWNj-LTgx-NTct-OTc2-NWVh-ZDNi-NWY4-Xk-Ey-Xk-Fqc-Gde-QXVy-MTMz-MDU5-Mj
INFO:
Velikost ...........: 1.97 GB
Dolžina ............: 1 h 45 min
Video ...............: 2441 Kbps | 1280 x 536
Zvok .................: AC-3 | 192 Kbps | 2 Channels
Kodek ...............: AVC
Zvrst ………….....: Action | Thriller
Jezik ................: Angleški
Podnapisi .........: Slovenski

V GLAVNIH VLOGAH:
Bruce Willis , Lochlyn Munro , Jimmy Jean-Louis , Corey Large , Michael Eklund

VSEBINA:
Mesto se pripravlja na noč čarovnic, maskirani in oboroženi roparji pa ranijo Knightovega partnerja v streljanju po spodletelem ropu. Knight se opravi na lov, roparji pa pobegnejo v New York, kjer se detektivova mračna preteklost sreča s sedanjim primerom in grozi, da bo uničila njegov svet.

NAPOVEDNIK:
Devotion.2022.SLOSubs.BRRip.XviD-DrSi

Klikni za povečavo!
31-05-2023 09:37 naložil ViHaR
Sejalci: 0 / Odjemalci: 0 / Velikost: 3.31 GB / Dokončani: 53
Prenesi torrent Poročaj torrent Opis torrenta NFO
Zvrst: Akcija | Drama | Vojni
Kategorija: FILMI >  BRRip



Leto izida ........: 2023
Velikost ...........: 3,30 GB
Dolžina ............: 139 Minut
Video ...............: 2953 Kbps | 720x328 | 24 fps
Zvok ................: Dolby Digital AC3 5.1 @ 448 kbps
Kodek...............: XviD
Zvrst………….: Akcija | Vojni | Drama
Država……….: ZDA
Jezik ................: Angleški
Podnapisi .........: Slovenski (custom)
Prevod: Marinko

Režija.........: J.D. Dillard
Scenarij......: Jake Crane, Jonathan Stewart, Adam Makos


Jonathan Majors ... Jesse Brown
Glen Powell ... Tom Hudner
Christina Jackson ... Daisy Brown
Thomas Sadoski ... Dick Cevoli
Daren Kagasoff ... Bill Koenig
Joe Jonas ... Marty Goode
Spencer Neville ... Bo Lavery
Nick Hargrove ... Carol Mohring
Boone Platt ... Buddy Gill
Dean Denton ... Captain Sisson


Navdihujoča epska zgodba o prijateljstvu, pogumu in žrtvovanju,
ki temelji na resničnih dogodkih. Film je navdihnila neverjetno
pretresljiva resnična zgodba dveh elitnih bojnih pilotov ameriške
mornarice, ki postaneta najbolj znana vojaka mornarice med vojno.



Deset u pola (2021)

Klikni za povečavo!
04-04-2023 14:35 naložil ExYuUploader
Sejalci: 1 / Odjemalci: 0 / Velikost: 1.73 GB / Dokončani: 5
Prenesi torrent Magnet Link Poročaj torrent Opis torrenta
Zvrst: Drama | Komedija
Kategorija: FILMI > WEBRip-720



Sarajevo, svibanj 2021. godine. Baščaršija se pokušava oporaviti od duge i teške pandemijske godine. Pandemija još traje, ali ipak – dolazi ljeto, postoji nada da bi se stvari mogle, barem nakratko, popraviti. Kada jedno jutro u Enesovu ćevabdžinicu uđe Zagrepčanka koja kaže da je došla pojesti „najbolje ćevape u Sarajevu“, on je pošalje kod Ize, da bi tako i on tradicionalno mogao nakon prve uslužene mušterije, priiuštiti sebi zadovoljstvo prve jutarnje kave. Ovaj sasvim bezazlen, prijateljski gest, izaziva potpuni raspad komšijskog, poslovnog i privatnog života, ne samo Enesovog i Izinog već i cijelog grada.

Dug moru (2019-2023)-(Komplet serija)

Klikni za povečavo!
03-04-2023 14:57 naložil ExYuUploader
Sejalci: 1 / Odjemalci: 0 / Velikost: 14.51 GB / Dokončani: 8
Prenesi torrent Poročaj torrent Opis torrenta
Zvrst: Drama
Kategorija: FILMI > TV - Serija



U primorskom selu živi Periša, vlasnik ugostiteljskog objekta burne prošlosti. Perišina žena Svetlana nestala je pod nerazjašnjenim okolnostima, zato on sam odgaja kćerku Olgu, koja pokušava da pronađe majku. Olga je zaljubljena u Rnja, momka koji je seosko kopile. Periša se protivi toj vezi, terajući Olgu da se vrati na studije u Beograd. Stvar se komplikuje iznenadnim dolaskom Milutina koji zahteva da mu Periša vrati dug pre roka. A Milutin je, to celo selo zna, zver: u mladosti je trajno obogaljio Popovog sina Zeja. Uznemireni Periša pokušava uz pomoć sestre Mariške da reši problem i bezbednost kćerke. Kada joj tajanstveni stranac, Đorđe donese drvenu kutijicu koja je pripadala njenoj majci, Olga odlazi za Beograd da otkrije porodičnu tajnu. Pratimo porodične, roditeljske, ljubavne, prijateljske i druge odnose, kroz preplitanje sadašnjosti i prošlosti. Otkrivamo o junacima i ono što ni oni o sebi nisu znali... Da li je istinita legenda o moru koje uzima žrtve? Da li su za sva dešavanja kriva dva kamena sa znakom slovenskog boga Svaroga ili se razlozi nalaze među ljudima koji čuvaju svoje mračne tajne? Mistična linija prepliće se sa ljudskom dramom naših junaka, koji će u potrazi za ljubavlju i odgovorima morati prvo da se suoče sa sobom. Svako ima svoje "nemilo mjesto"... koje je tvoje?

Uloge: Dragan Mićanović, Nada Šargin, Ana Lečić, Vule Marković, Branimir Popović, Pavle Popović, Sergej Trifunović, Leon Lučev, Miodrag Krstović, Mišo Obradović, Vesna Trivalić, Mina Sovtić, Bojan Dimitrijević, Stela Ćetković, Bojana Maljević




Dancing On Glass 2022 CroSubs 720p WEBRip XviD AC3-Unknown

Klikni za povečavo!
13-12-2022 09:57 naložil ViHaR
Sejalci: 1 / Odjemalci: 0 / Velikost: 3.39 GB / Dokončani: 89
Prenesi torrent Magnet Link Poročaj torrent Opis torrenta NFO
Zvrst: Drama | Triler
Kategorija: FILMI > WEBRip-720



Velikost ...........: 3.38 GB
Dolžina ............: 2h 19 Min
Video ...............: 2836 Kbps | 1280 x 720
Zvok .................: AC-3 | 640 Kbps | 6 Channels
Kodek...............: XviD
Zvrst………….....: Drama | Thriller
Jezik ................: Španski
Podnapisi.........: Hrvaški



Samantha Vottari ,
Paula Losada ,
María Pedraza ,
Ana Wagener ,
Iria del Río


Ko balerini v novi glavni vlogi grozi pritisk, z izobčenim plesalcem ustvarita svoj svet, brez pričakovanj drugih.





Doors.2021.SLOSubs.BRRip.XviD-DrSi

Klikni za povečavo!
17-10-2022 09:20 naložil ViHaR
Sejalci: 1 / Odjemalci: 0 / Velikost: 2.01 GB / Dokončani: 3
Prenesi torrent Poročaj torrent Opis torrenta NFO
Zvrst: Z.F.
Kategorija: FILMI >  BRRip



Naziv: Doors.2021.SLOSubs.BRRip.XviD-DrSi
Source: Doors.2021.1080p.BluRay.x264.DTS-HD.MA.5.1-FGT
Leto izida ........: 2021
Velikost ...........: 2,00 GB
Dolžina ............: 84 Minut
Video ...............: 2957 Kbps | 720x306 | 23,976 fps
Zvok .................: Dolby Digital AC3 5.1 @ 448 Kbps
Kodek.................: XviD
Zvrst…………..: ZF
Država .............: ZDA
Jezik ................: Angleški
Podnapisi .........: Slovenski (RETAiL)
Prevod: Blitz Film
TVRip: Toyan
Priredil in uredil: metalcamp
Tehnična obdelava: DrSi Partis
Režija.........: Saman Kesh, Jeff Desom
Scenarij......: Chris White, Saman Kesh, Jeff Desom


Kathy Khanh ... Ash
Julianne Collins ... Liz
Aric Floyd ... Jake
Rory Anne Dahl ... Rory
Christopher Black ... Mr. Johnson
Tracy Rosenblum ... Front Office Intercom
Samantha Casesa ... News Anchor
Jeremiah Musgrove ... Soldier
Josh Peck ... Vince
Lina Esco ... Becky
Kyp Malone ... Jamal
Kristina Lear ... Kathy


Brez pojasnila ali opozorila, se v vsakem kotičku Zemlje pojavijo skrivnostna
zunajzemeljska ‘vrata’. Medtem ko so mnogi, ki so prišli v njihovo bližino,
čutili čudno potrebo stopiti skoznje in jih niso videli nikoli več, so drugi
videli grozečo nevarnost tistega, kar bi lahko prišlo skozi. Ko se človeštvo
privaja življenju v senci zunajzemeljskih prehodov, vlada zbira prostovoljce,
dovolj pogumne za prehod na drugo stran, da bi izvedeli več o njihovem izvoru
ali namenu. A niti prostovoljci niso pripravljeni na tisto za vrati. Zgodba
o vratih je povedana z več vidikov: skušina srednješolcev odkrije vrata,
prostovoljci raziskujejo vzporedno resničnost in samotnemu puščavniku uspe
nemogoče: komuniciranje z vrati.



Deep Fear (2022) SRBSubs [720p] [WEBRip] [YTS.MX]

Klikni za povečavo!
29-09-2022 18:01 naložil BlackDevil
Sejalci: 0 / Odjemalci: 0 / Velikost: 737.64 MB / Dokončani: 17
Prenesi torrent Magnet Link Poročaj torrent Opis torrenta
Zvrst: Grozljivka
Kategorija: FILMI > WEBRip-720

Deep Fear (2022) - IMDb

Deep Fear (2022) [720p] [WEBRip] [YTS.MX]
737,71 MB
1280*560
fre 2.0
Podnapisi25 sličic na sekundo
1 ura 20 minP/S 0/22


Olivier Bony > Dante
Philippe Résimont > Lukas
Blaise Afonso > Faust
Léone François-Janssens > Lamia
Sofia Lesaffre > Sonia
Joseph Olivennes > Ramy
Victor Meutelet > Henry
Kassim Meesters > Max

Sonia, Max in Henry so trije mladi študentje, ki so pred kratkim diplomirali in se odločijo zabavati ob obisku katakomb, preden se mora Henry prijaviti na obvezno služenje vojaškega roka. Še zdaleč ne slutijo, da se bo njihova ekspedicija spremenila v nočno moro. Poskušali bodo pobegniti pred nenavadnim bitjem, ki se skriva v drobovju Zemlje, in doseči površje, da bi se rešili iz njegovih krempljev.
DJ VIHAR & DJ AJDA - SLO & HR MIX 69

Klikni za povečavo!
27-09-2022 15:06 naložil Ajda
Sejalci: 2 / Odjemalci: 0 / Velikost: 254.87 MB / Dokončani: 92
Prenesi torrent Poročaj torrent Opis torrenta NFO
Kategorija: GLASBA > Glasba




*******************************************************************************
~ DJ VIHAR & DJ AJDA - SLO & HR MIX 69 ~
*******************************************************************************

-------------------------------------------------------------------------------
Avdio podatki
-------------------------------------------------------------------------------
Format : MPEG Audio
File size : 254 MiB
Duration : 1h 51mn
Overall bit rate mode : Constant
Overall bit rate : 320 Kbps
Encoded by : Lavf52.39.0
Writing library : LAME3.98

Audio
Format : MPEG Audio
Format version : Version 1
Format profile : Layer 3
Mode : Joint stereo
Duration : 1h 51mn
Bit rate mode : Constant
Bit rate : 320 Kbps
Channel(s) : 2 channels
Sampling rate : 48.0 KHz
Compression mode : Lossy
Stream size : 254 MiB (100%)
Writing library : LAME3.98

________________________________________
VSEBINA
________________________________________

01. DAVOR BORNO - bolji čovjek
02. IVANA KOVAČ - to se desi
03. LIDIJA BAČIČ - mucho loco
04. NINA DONELLI - ela, ela
05. TINA & NIKŠA - digni me do neba
06. POLKAHOLIKI - tik tak
07. MLADEN GRDOVIČ - natalia
08. JASMIN STAVROS - ej zora je
09. ADI SOŠE Sumer mix
moja zauvijek, čuvaj srce moje, zbogom mila
10. LORENA - tvoja i gotovo
11. SKATER - gasilec samo
12. MLADI GAMSI - mala mucica
13. BUMERANG - što je to u srcu mom
14. LUKA NIZETIČ - kad se rodiš usred splita
15. GAŠPER RIFELJ - s tabo
16. MODRIJANI - vedno pripravljeni
17. ZLATKO PEJAKOVIČ - obriši te suze mama
18. ALEN SLAVICA - ljubav si moja jedina
19. VLADO KALEMBER - ako je kraj
20. VILIBALD VUCO - ludo srce
21. DARJA GAJŠEK - za žur
22. DUŠKO LOKIN - ljeto s tobom
23. MATE BULIČ - čujem draga, bit če svatovi
24. MATKO JELAVIČ - pričaj mi još malo
25. SAŠA LENDERO- daj tekilo
26. NENAD VETMA - anđeli neka te prate
27. DRAŽEN ZEČIČ - nisam više ljubav tvoja
28. IVAN MARTIČ - stara koka
29. DORIS DRAGOVIČ - pjesma i vino
30. ALKA VUICA - pola na pola
31. ZDRAVKO ČOLIČ - ljubav ima lažni sjaj
32. DŽENTELMENI - zavedi me





DJ VIHAR & DJ AJDA - SLO & HR MIX 68

Klikni za povečavo!
22-08-2022 14:32 naložil Ajda
Sejalci: 3 / Odjemalci: 0 / Velikost: 175.58 MB / Dokončani: 48
Prenesi torrent Poročaj torrent Opis torrenta NFO
Kategorija: GLASBA > Glasba





*******************************************************************************
*******************************************************************************
~ DJ VIHAR & DJ AJDA - SLO & HR MIX 68 ~
*******************************************************************************

-------------------------------------------------------------------------------
Avdio podatki
-------------------------------------------------------------------------------
Format : MPEG Audio
File size : 175 MiB
Duration : 1h 16mn
Overall bit rate mode : Constant
Overall bit rate : 320 Kbps
Encoded by : Lavf52.39.0
Writing library : LAME3.98

Audio
Format : MPEG Audio
Format version : Version 1
Format profile : Layer 3
Mode : Joint stereo
Duration : 1h 16mn
Bit rate mode : Constant
Bit rate : 320 Kbps
Channel(s) : 2 channels
Sampling rate : 48.0 KHz
Compression mode : Lossy
Stream size : 175 MiB (100%)
Writing library : LAME3.98
________________________________________
VSEBINA
________________________________________

01. Džentelmeni - Žena prava
02. Frano Pehar Tarapana - Volim te živote
03. Jole - Shakespeare
04. Zlatko Pejakovič - Tamburica mandolina
05. Maraaya - sva
06. BQL Budale - Raketa
07. Modrijani - Vse je v očeh
08. Čuki in Alya - Ma ni da ni
09. Jasmin Stavros i Žera - Sto života
10. Ljubavnici - Zauvjek ljubavnik
11. Vigor - Bez tebe ludim
12. Neda Ukraden - Lavanda
13. Nika Zorjan in Minea - Bio bio
14. Zdravko Čolič - Pisaču joj pisma duga
15. Mladen Grdovič - Za šaku ljubavi
16. Dražen Zečič - Bez tebe
17. Đani Maršan - Valentina
18. Sašo Dobnik in Jerry - Hop hop hop
19. Đurđica Barlovič - Da odmorim dušo
20. Ivan Zak - Riskiraj
21. Ivica Šerfezi - Vrati mi srce
22. Mate Grgat - Ljubav i suze
23. Urban Vidmar - Štanga