A
B
C
D
E
F
G
H
I
J
K
L
M
N
O
P
Q
R
S
T
U
V
W
X
Y
Z
0-9
DJ VIHAR & DJ AJDA - SLO & HR MIX 62

Klikni za povečavo!
17-11-2020 16:48 naložil Ajda
Sejalci: 3 / Odjemalci: 0 / Velikost: 160.84 MB / Dokončani: 41
Prenesi torrent Poročaj torrent Opis torrenta NFO
Zvrst: Glasbeni
Kategorija: GLASBA > Glasba




-------------------------------------------------------------------------------
Avdio podatki
-------------------------------------------------------------------------------
Complete name : DJ VIHAR & DJ AJDA - SLO & HR MIX 62..mp3
Format : MPEG Audio
File size : 160 MiB
Duration : 1h 10mn
Overall bit rate mode : Constant
Overall bit rate : 320 Kbps
Encoded by : Lavf52.39.0
Writing library : LAME3.98

Audio
Format : MPEG Audio
Format version : Version 1
Format profile : Layer 3
Mode : Joint stereo
Duration : 1h 10mn
Bit rate mode : Constant
Bit rate : 320 Kbps
Channel(s) : 2 channels
Sampling rate : 48.0 KHz
Compression mode : Lossy
Stream size : 160 MiB (100%)
Writing library : LAME3.98
-------------------------------------------------------------------------------
Vsebina
-------------------------------------------------------------------------------

01. MLADEN GRDOVIČ NINA DONELI - Samo jedna je dalmacija
02. ŠARMERI - Hajde milo moje
03. DINO PETRIČ KATARINA GRUJO - 100 života
04. UČITELJICE - Apsolutno
05. TRI MUŠKETIRA - Kad če zora svanuti
06. VILI RESNIK EROSI - Moja generacija
07. TANJA ŽAGAR - Rada sem tvoja
08. SKUPINA CHICAS - Nocoj s tebo
09. MLADEN GRDOVIČ MATE BULIČ - Dvi sestre
10. MANCA ŠPIK GADI - Tiho potiho
11. DARJA GAJŠEK - S teboj živim
12. DOMEN KUMER ŠPELA GROŠELJ - Vino in kitara
13.MALIGANI - Svi znaju
14. MEJAŠI - Nova godina
15. FEHTARJI - Štorklje
16. ALEN VOGRINEC GOCA - Jedini jedina
17. ŽIGA DERŠEK - Svoje barke krmar
18. DRAŽEN ZEČIČ - Volim samo nju
19. UROŠ IN TJAŠA - Zaljubljen par
20. MARIJAN SMODE - Mati ti jim reci ( posvečeno Kičotu)






Dune.Drifter.2020.SLOSubs,720p.WEBRip.800MB.x264-GalaxyRG[TGx]

Klikni za povečavo!
29-03-2021 19:09 naložil BlackDevil
Sejalci: 9 / Odjemalci: 0 / Velikost: 796.95 MB / Dokončani: 16
Prenesi torrent Magnet Link Poročaj torrent Opis torrenta
Zvrst: Z.F.
Kategorija: FILMI > WEBRip-720

Dune Drifter (2020) – Cover Addict VIP – DVD And Bluray Covers

iNFO:

Naziv........:Dune.Drifter.2020.SLOSubs.720p.WEBRip.800MB.x264-GalaxyRG
Source......:WEB-DL
Velikost....:797 MB
Dolžina.....:1h 38min
Leto..........:2020
Slika.........:1280x528 | 1000 Kbps
Zvok.........:AAC
Kodek.......:x264
Država......:Velika Britanija
Jezik.........:Angleški
Žanr..........:Triler | Znanstvena Fantastika
Podnapisi..:

VSEBiNA:

SLO:
Skupina pilotov novincev je bila poslana v bitko za človeštvo proti floti neuničljivih nezemeljskih vesoljskih ladjah. Po tem ko pilota in njegovo učenko zadane sovražna ladja, so primorani pristati na negostoljubnem bližnjem planetu, ter se lotiti popravila svojega plovila. Vendar to je vse prej kot pa lahka naloga, kajti nedaleč stran se na planet zruši tudi nezemljska sovražna ladja! Sedaj se prične težavna bitka s časom, ter sovražnimi enotami na planetu! Ali bo pilotom uspelo popraviti plovilo ter pobegniti, pa si poglejte v filmu.


DadCrush.21.03.27.Kali.Roses.Stepdaughter.Knows.How.To.Bargain.XXX.480p.MP4-XXX

Klikni za povečavo!
28-03-2021 16:08 naložil BlackDevil
Sejalci: 2 / Odjemalci: 0 / Velikost: 279.95 MB / Dokončani: 7
Prenesi torrent Poročaj torrent Opis torrenta
Kategorija: FILMI > xxx

DadCrush - Kali Roses - Stepdaughter Knows How To Bargain 27.03.2021 480p mp4

Video
ID : 1
Format : AVC
Format/Info : Advanced Video Codec
Format profile : High@L3.1
Format settings, CABAC : Yes
Format settings, ReFrames : 4 frames
Codec ID : avc1
Codec ID/Info : Advanced Video Coding
Duration : 33 min 45 s
Bit rate : 1 024 kb/s
Width : 854 pixels
Height : 480 pixels
Display aspect ratio : 16:9
Original display aspect ratio : 16:9
Frame rate mode : Constant
Frame rate : 29.970 (30000/1001) FPS
Color space : YUV
Chroma subsampling : 4:2:0
Bit depth : 8 bits

Audio
ID : 2
Format : AAC
Format/Info : Advanced Audio Codec
Format profile : LC
Codec ID : 40
Duration : 33 min 45 s
Bit rate mode : Constant
Bit rate : 128 kb/s
Channel(s) : 2 channels
Channel positions : Front: L R
Sampling rate : 48.0 kHz
Frame rate : 46.875 FPS (1024 spf)
Compression mode : Lossy
Stream size : 31.0 MiB (11%)
Default : Yes

image
dadcrush.21.03.27.kali.roses.stepdaughter.knows.how.to.bargain.mp4

Klikni za povečavo!
28-03-2021 15:26 naložil System
Sejalci: 2 / Odjemalci: 0 / Velikost: 279.95 MB / Dokončani: 6
Prenesi torrent Poročaj torrent Opis torrenta
Kategorija: FILMI > xxx
Anonimen nalagalec

DadCrush - Kali Roses - Stepdaughter Knows How To Bargain 27.03.2021 480p mp4

Video
ID : 1
Format : AVC
Format/Info : Advanced Video Codec
Format profile : High@L3.1
Format settings, CABAC : Yes
Format settings, ReFrames : 4 frames
Codec ID : avc1
Codec ID/Info : Advanced Video Coding
Duration : 33 min 45 s
Bit rate : 1 024 kb/s
Width : 854 pixels
Height : 480 pixels
Display aspect ratio : 16:9
Original display aspect ratio : 16:9
Frame rate mode : Constant
Frame rate : 29.970 (30000/1001) FPS
Color space : YUV
Chroma subsampling : 4:2:0
Bit depth : 8 bits

Audio
ID : 2
Format : AAC
Format/Info : Advanced Audio Codec
Format profile : LC
Codec ID : 40
Duration : 33 min 45 s
Bit rate mode : Constant
Bit rate : 128 kb/s
Channel(s) : 2 channels
Channel positions : Front: L R
Sampling rate : 48.0 kHz
Frame rate : 46.875 FPS (1024 spf)
Compression mode : Lossy
Stream size : 31.0 MiB (11%)
Default : Yes

image
Dalida.2016.SloSubs.720p.HDTVRip

Klikni za povečavo!
26-03-2021 18:11 naložil rado77
Sejalci: 1 / Odjemalci: 0 / Velikost: 2.77 GB / Dokončani: 5
Prenesi torrent Poročaj torrent Opis torrenta
Kategorija: FILMI > HDTV

Dalida.2016.SloSubs.720p.HDTVRip


Dalida (2016)


Originalni naslov: DALIDA
Leto produkcije: 2016
Država: koprodukcija - Itaija, Francija
Žanr: biografska drama
Režija: Lisa Azuelos
Scenarij: Lisa Azuelos po knjigi Catherine Rihoit in Orlanda
Igrajo: Sveva Alviti, Riccardo Scamarcio, Jean-Paul Rouve, Niels Schneider, Alessandro Borghi
Podnapisi: Slovenščina
Jezik: Francoščina, Italijanščina, Angleščina, arabsko

Portret nekonvencionalne ženske, ki je živela v konvencionalnih časih. Čeprav se je Dalida tragično poslovila že leta 1987, njeno izjemno izročilo živi naprej.


Biografija ene najpopularnejših evropskih pevk, katere kariera je trajala skoraj trideset let: od revijskih popevk prek San Rema do diska. Gre za ganljivo in tragično zgodbo emocionalno izjemno kompleksne osebe, ki ji je bilo usojeno postati mednarodna zvezda.


Tehnične specifikacije:
Ime datoteke: Dalida.2016.SloSubs.720p.HDTVRip.mp4
Oblika: MP4
Informacije o obliki: QuickTime / MOV
Trajanje: 02: 01: 43.505
Velikost datoteke: 2,77 GB


Video informacije:
Video kodirnik: h264 (h.264 / avc / mpeg-4 avc / mpeg-4 del 10)
Ločljivost: 1280 * 720
Širina: 1280
Višina: 720
Razmerje zaslona: 16: 9
Hitrost sličic: 25 sličic na sekundo
Video bitna hitrost: 3123 kb / s
Barvni prostor: yuv420p

Zvočne informacije:
Zvočni kodirnik: aac (napredno kodiranje zvoka)
Avdio bitna hitrost: 128 kb / s
Hitrost vzorčenja: 44100 Hz
Zvočni kanali: stereo
Jezik: und
Trajanje: 02: 01: 43.481


Uživajte in ne pozabite sejati!
Dobrodošli.pri.Hartmannovih.aka.WILLKOMMEN.BEI.DEN.HARTMANNS.2016.SloSubsHDTVRip.x264-R77

Klikni za povečavo!
13-03-2021 16:42 naložil rado77
Sejalci: 1 / Odjemalci: 0 / Velikost: 1.6 GB / Dokončani: 7
Prenesi torrent Poročaj torrent Opis torrenta
Zvrst: Drama | Komedija
Kategorija: FILMI > HDRip

Dobrodošli.pri.Hartmannovih.aka.WILLKOMMEN.BEI.DEN.HARTMANNS.2016.SloSubsHDTVRip.x264-R77


WILLKOMMEN BEI DEN HARTMANNS

Dobrodošli pri Hartmannovih 2016


Žanri: Komedija , drama
Režija:Simon Verhoeven
Scenarij:Simon Verhoeven
Igralci:Senta Berger, Heiner Lauterbach, Palina Rojinski, Elyas M'Barek, Florian David Fitz, Ulrike Kriener, Uwe Ochsenknecht, Jaymes Butler, Samir Fuchs, Eric Kabongo, Adrian Can, Eisi Gulp, Thilo Prothmann, Marinus Hohmann
Država:Nemčija
Podnapisi: Slovenski

Zgodba:

Družino Hartmann čakajo turbulentni časi, ko se mama Angelika (Senta Berger) po obisku begunskega doma odloči, da sprejme Diallo (Eric Kabongo), enega od prebivalcev, proti želji moža Richarda (Heiner Lauterbach). In kmalu se bo hiša še naprej polnila. Ker se hči Sophie (Palina Rojinski), brezciljna stalna študentka, ki beži pred občudovalcem, in sin, ki je nagnjen k izgorelosti, Philipp (Florian David Fitz) in vnuk Basti (Marinus Hohmann) preselita nazaj domov. Medtem ko so potomci kmalu ugotovili, da je zakonska zveza staršev v hudi stiski, so neznane razmere v njihovi hiši pomenile, da je družina doživela veliko zmede in pretresov - Hartmannovi so podobni preostali državi.


Tehnične specifikacije:

Video informacije:
Video kodirnik: h264 (h.264 / avc / mpeg-4 avc / mpeg-4 del 10)
Ločljivost: 1280 * 720
Širina: 1280
Višina: 720
Razmerje zaslona: 16: 9
Hitrost sličic: 25 sličic na sekundo
Video bitna hitrost: 1917 kb / s
Barvni prostor: yuv420p

Zvočne informacije:
Dajalnik zvoka: aac (napredno kodiranje zvoka)
Avdio bitna hitrost: 128 kb / s
Hitrost vzorčenja: 48000 Hz
Zvočni kanali: stereo
Jezik: Nemški
Trajanje: 01: 51: 33.650
Veliko užitkov!
Deja.Vu.2006.MultiSub.PAL.DVDR

Klikni za povečavo!
07-03-2021 16:29 naložil System
Sejalci: 1 / Odjemalci: 0 / Velikost: 4.35 GB / Dokončani: 7
Prenesi torrent Poročaj torrent Opis torrenta
Kategorija: FILMI > DVD
Anonimen nalagalec

Deja Vu (2006)


-------------
INFO:
-------------
Source..........: DVD
Format..........: 16:9
Standard........: PAL
Release Size....: 4,35 GB
iMDB Link.......: KLIK
iMDB Rating.....: 7,1/10 (294.438)
Genre...........: Action, Crime, Sci-Fi, Thriller
Country.........: USA/ UK
Language........: English
Video...........: /
Audio...........: AC3 5.1-ch English
Subs............: English, French, Slovenian, Spanish
Extras..........: yes
Regija..........: Prosto
Runtime.........: 126 min
Čas predvajanja.: 2:06:14 h

-------------
IGRALCI:
-------------
Denzel Washington ... Doug Carlin
Paula Patton ... Claire Kuchever
Val Kilmer ... Agent Pryzwarra
Jim Caviezel ... Carroll Oerstadt
Adam Goldberg ... Denny
Elden Henson ... Gunnars
Erika Alexander ... Shanti
Bruce Greenwood ... Jack McCready
Rich Hutchman ... Agent Stalhuth
Matt Craven ... Minuti
Donna W. Scott ... Beth
Elle Fanning ... Abbey
Brian Howe ... Medical Examiner
Enrique Castillo ... Claire's Father
Mark Phinney ... Agent Donnelly

-------------
OPIS:
-------------
Agent Doug mora raziskati razbitine, ki jih je povzročil grozljiv bombni napad,
toda nepričakovano odkrije, da skrivni vladni oddelek premore tehnologijo,
s katero lahko vidijo v preteklost in z dejanji, ki jih v sedanjosti razumemo
kot Deja Vu, vplivajo na prihodnost. Doug je prisiljen v zapleteno in napeto
dirko s časom, v kateri so na preizkušnjo postavljena tudi njegova ljubezenska
čustva, hkrati pa je od njega odvisna usoda številnih nedolžnih ljudi...


Dara.Iz.Jasenovca.2020.1080p.HDTV.x264

Klikni za povečavo!
22-02-2021 15:29 naložil rado77
Sejalci: 7 / Odjemalci: 0 / Velikost: 3.51 GB / Dokončani: 23
Prenesi torrent Poročaj torrent Opis torrenta
Zvrst: Drama | Vojni
Kategorija: FILMI > HDTV

Dara.Iz.Jasenovca.2020.1080p.HDTV.x264


DARA IZ JASENOVCA (2020)


Zgodba:
Zgodba teče okoli mladega dekleta po imenu Dara, ki je bila poslana v najhujše koncentracijsko taborišče na balkanu: Jasenovac.
Film je postavljen v Ustaško državo NDH (Neodvisna Država Hrvaška) med drugo svetovno vojno. Predstavljen je skozi oči dekleta Dare. Prikazuje koncentracijsko taborišče Jasenovac, pod vodstvom sadističnega poveljnika Vjekoslava "Maksa" Luburića.
To je prvi moderni film o drugi svetovni vojni, ki se dogaja in prikazuje taborišča pod nadzorom NDH.










Igrajo:
Igor Đorđević ... Ante Vrban
Marko Janketić ... Vjekoslav "Maks" Luburić
Biljana Cekić ... Dara
Nataša Drakulić ... Jovanka Konča in drugi


Leto izdaje ... 2021
Dolžina ... 130 minut
Velikost ... 3.50 GB
Rezolucija ... 1920 x 1080
Država ... Srbija
Jezik ... Srbski, Hrvaški, Nemški


TO NI LE FILM - TO JE OPOMIN!
Darlin.2019.SLOSubs.BRRip.XviD-DrSi

Klikni za povečavo!
04-02-2021 10:40 naložil Ziva
Sejalci: 2 / Odjemalci: 0 / Velikost: 2.3 GB / Dokončani: 5
Prenesi torrent Poročaj torrent Opis torrenta NFO
Zvrst: Grozljivka | Triler
Kategorija: FILMI >  BRRip



Naziv: Darlin.2019.SLOSubs.BRRip.XviD-DrSi
Source: Darlin.2019.1080p.BluRay.x264-JustWatch
Leto izida ........: 2019
Velikost ...........: 2,30 GB
Dolžina ............: 101 Minut
Video ...............: 2813 Kbps | 720x320 | 23,976 fps
Zvok ................: Dolby Digital AC3 5.1 @ 448 kbps
Kodek...............: XviD
Zvrst………….: Grozljivka | Triler
Država………..: ZDA
Jezik ................: Angleški
Podnapisi ........: Slovenski, Hrvaški, Srbski (vsi RETAiL)
Prevod: Mediatranslations
Za HD priredil in uredil: metalcamp
Tehnična obdelava: DVD Rippers Slovenija
Režija.........: Pollyanna McIntosh
Scenarij.......: Jack Ketchum, Pollyanna McIntosh


Cooper Andrews ... Tony
Kristina Arntz ... Gina
Mackenzie Bateman ... Young Darlin'
Bryan Batt ... The Bishop
Eugenie Bondurant ... Mona
Lauryn Canny ... Darlin'
Lauren Ashley Carter ... Peggy
Donna Duplantier ... Shirley
Sabrina Gennarino ... Charity
Allison Gobuzzi ... Lottie


V divjini odraslo najstnico Darlin, ki so jo umazano in besno našli v katoliški
bolnišnici, v domačo nego prevzamejo škof in njegova skupnost redovnic, da bi jo
prevzgojili v ubogljivo dekle – v dokaz čudežev, ki jih sproža Cerkev. Vendar
ima Darlin temačno skrivnost, veliko hujšo od grehov, s katerimi ji grozijo,
in ne potuje sama. Enako divja in popadljiva ženska, ki jo je vzgojila v gozdovih,
je vselej v bližini in odločena, da bo za vsako ceno prišla ponjo.
Kot nadaljevanje izkrivljene in surove srhljivke "Ženska" (2011) ameriškega režiserja
Luckyja McKeeja se osrednja junakinja Pollyanna McIntosh tokrat poleg podobnega lika,
ki ga upodobi, loteva tudi režije, pri čemer poskrbi za nepozabno, čutno in
rahločutno filmsko doživetje.

Divje.potovanje.aka.Pork.Pie.2017.SLOSubs.720p.HDTVRip x264.R77

Klikni za povečavo!
01-02-2021 11:25 naložil System
Sejalci: 0 / Odjemalci: 0 / Velikost: 1.46 GB / Dokončani: 4
Prenesi torrent Poročaj torrent Opis torrenta
Zvrst: Akcija | Drama
Kategorija: FILMI > HDRip
Anonimen nalagalec

Divje.potovanje.aka.Pork.Pie.2017.SLOSubs.720p.HDTVRip x264.R77Pork Pie (2017)


Divje potovanje

Pork Pie 2017



O filmu:

Film spremlja prigode trojice nenavadnih izobčencev, ki potujejo po Novi Zelandiji v rumenem minimorisu, se upirajo konvencionalnosti in lovijo izgubljeno ljubezen – za petami pa so jim policisti in mrzlični iskalci novinarskih senzacij.
Film je predelava ene največjih novozelandskih uspešnic. Poleg simpatičnih likov in tekoče zgodbe ga odlikujejo spektakularni prizori avtomobilskih pregonov in dih jemajoči novozelandski kraji.

Zgodba:

Spoznajmo nenavadno trojico, ki se znajde v ukradenem mini cooperju.
Jon je pisatelj z blokado, ki se je pojavila približno takrat, ko je pobegnil z lastne poroke. Zdaj je na poti k svoji bivši, na drugi konec države, da bi popravil napako svojega življenja. Na cesti ga z že omenjenim avtomobilom skoraj povozi mladenič Luke, ki beži pred skupino nevarnih nasilnežev. Med potjo ju zagrabi lakota, tako da v obratu s hitro prehrano naletita še na Keiro, aktivistično vegetarijanko.
Na poti proti Južnemu otoku se med okoljevarstvenim protestom zapletejo v nevarno dirko po ulicah Wellingtona. Nekako jim uspe pobegniti na trajekt, Keira pa začne njihove podvige objavljati na družbenih omrežjih in trojica, ki na poti srečuje najrazličnejše čudake, kmalu postane glavna tarča tako policije kot medijev.


Leto produkcije: 2017
Država: Nova Zelandija
Žanr: akcijska komedija
Režija: Matt Murphy
Scenarij: Matt Murphy
Igrajo: Dean O'Gorman, James Rolleston, Ashleigh Cummings
Podnapisi: Slovenski


Tehnične specifikacije:

Complete name : Divje.potovanje.aka.Pork.Pie.2017.SLOSubs.720p.HDTVRip x264.R77
Format : MPEG-4
Format profile : Base Media
Codec ID : isom (isom/iso2/avc1/mp41)
File size : 1.46 GiB
Duration : 1 h 40 min
Overall bit rate : 2 078 kb/s
Writing application : Lavf58.29.100
Video
ID : 1
Format : AVC
Format/Info : Advanced Video Codec
Format profile : High@L3.1
Format settings : CABAC / 2 Ref Frames
Format settings, CABAC : Yes
Format settings, Reference frames : 2 frames
Codec ID : avc1
Codec ID/Info : Advanced Video Coding
Duration : 1 h 40 min
Bit rate : 1 944 kb/s
Width : 1 280 pixels
Height : 720 pixels
Display aspect ratio : 16:9
Frame rate mode : Constant
Frame rate : 25.000 FPS
Color space : YUV
Chroma subsampling : 4:2:0
Bit depth : 8 bits
Scan type : Progressive
Bits/(Pixel*Frame) : 0.084
Stream size : 1.37 GiB (94%)
Codec configuration box : avcC
Audio
ID : 2
Format : AAC LC
Format/Info : Advanced Audio Codec Low Complexity
Codec ID : mp4a-40-2
Duration : 1 h 40 min
Bit rate mode : Constant
Bit rate : 128 kb/s
Channel(s) : 2 channels
Channel layout : L R
Sampling rate : 48.0 kHz
Frame rate : 46.875 FPS (1024 SPF)
Compression mode : Lossy
Stream size : 92.7 MiB (6%)
Default : Yes
Alternate group : 1


UŽIVAJTE!
Doroga.Na.Berlin.aka.Road.to.Berlin.2015.SLOSubs.BDRip-R77

Klikni za povečavo!
30-01-2021 14:55 naložil rado77
Sejalci: 2 / Odjemalci: 0 / Velikost: 1.46 GB / Dokončani: 9
Prenesi torrent Poročaj torrent Opis torrenta
Zvrst: Drama | Vojni
Kategorija: FILMI >  BRRip

Doroga.Na.Berlin.aka.Road.to.Berlin.2015.SLOSubs.BDRip-R77





Road to Berlin (2015)

[
img]https://i.imgur.com/cvU2Gov.jpg[/img]


Doroga na Berlin (2015)


Pot v Berlin (2015)

(Na poti do Berlina)






Režija: Sergej Popov
Scenarij: Evgeniy Nikishov
Država: Rusija
Jezik: Ruščina, Nemško
Podnapisi: Slovenščina
Žanr: drama, vojni
Dolžina: 82 min





Zgodba:

Poleti 1942 je mladi komunikacijski častnik, obtožen strahopetnosti, obsojen na smrt z streljanjem. Presenetljiv napad Nemcev odloži usmrtitev in obsojenec in njegova straža morata pobegniti. Medtem ko poskušata obsojenca dostaviti na štab, se med stražarjem in njegovim ujetnikom razvije tiho prijateljstvo, ko premagujeta ovire, da bi se prebila skozi obroč in se spopadeta z Nemci...





Tehnične specifikacije:



Complete name : Doroga.Na.Berlin.aka.Road.to.Berlin.2015.SLOSubs.BDRip-R77

Format : AVI
Format/Info : Audio Video Interleave
File size : 1.46 GiB
Duration : 1 h 25 min
Overall bit rate : 2 436 kb/s
Writing application : VirtualDubMod 1.5.10.3 | www.virtualdub-fr.org || (build 2550/release)
Writing library : VirtualDubMod build 2550/release


Video

ID : 0
Format : MPEG-4 Visual
Format profile : Advanced Simple@L5
Format settings : BVOP1 / Custom Matrix
Format settings, BVOP : 1
Format settings, QPel : No
Format settings, GMC : No warppoints
Format settings, Matrix : Custom
Codec ID : XVID
Codec ID/Hint : XviD
Duration : 1 h 25 min
Bit rate : 1 978 kb/s
Width : 720 pixels
Height : 384 pixels
Display aspect ratio : 1.85:1
Frame rate : 23.976 (24000/1001) FPS
Color space : YUV
Chroma subsampling : 4:2:0
Bit depth : 8 bits
Scan type : Progressive
Compression mode : Lossy
Bits/(Pixel*Frame) : 0.298
Stream size : 1.19 GiB (81%)
Writing library : XviD 73


Audio

ID : 1
Format : AC-3
Format/Info : Audio Coding 3
Commercial name : Dolby Digital
Codec ID : 2000
Duration : 1 h 25 min
Bit rate mode : Constant
Bit rate : 448 kb/s
Channel(s) : 6 channels
Channel layout : L R C LFE Ls Rs
Sampling rate : 48.0 kHz
Frame rate : 31.250 FPS (1536 SPF)
Compression mode : Lossy
Stream size : 275 MiB (18%)
Alignment : Split across interleaves
Interleave, duration : 42 ms (1.00 video frame)
Interleave, preload duration : 500 ms
Service kind : Complete Main





UŽIVAJTE!
Dark.Blue.S01-S02.Slosub.TVRip.720p.x264.R77

Klikni za povečavo!
22-01-2021 16:48 naložil rado77
Sejalci: 0 / Odjemalci: 0 / Velikost: 7.41 GB / Dokončani: 1
Prenesi torrent Poročaj torrent Opis torrenta
Zvrst: Drama
Kategorija: FILMI > TVRip

Dark.Blue.S01-S02.Slosub.TVRip.720p.x264.R77





Dark Blue
TV serija (2009–2010)


TEMNO MODRA





Država: Združene države

Direktor: Danny Cannon (ustvarjalec), Doug Jung (ustvarjalec), Jeffrey G. Hunt





Igralska zasedba:


Dylan McDermott , Omari Hardwick , Logan Marshall-Green , Nicki Aycox , Meta Golding , Tyrees Allen , Noah Bean

Žanr: TV serija , Drama , Triler, Policajski
Jezik: angleščina
Podnapisi: Slovenski


Povzetek:



Temno modra spremlja življenje tajne ekipe policistov iz Los Angelesa tako prikrito, da mnogi njihovi lastni kolegi sploh ne vedo, da so vpleteni. Ekipo nadzira poročnik Carter Shaw (Dylan McDermott), ki s svojimi nadrejenimi pogosto trka v glavo nad tveganji, ki jih je ekipa pripravljena uničiti.






Tehnične specifikacije:



Complete name : Dark.Blue.S01-S02.Slosub.TVRip.720p.x264.R77

Format : Matroska
Format version : Version 2
File size : 406 MiB
Duration : 43 min 47 s
Overall bit rate : 1 295 kb/s
Writing application : Lavf52.94.0
Writing library : Lavf52.94.0


Video

ID : 1
Format : AVC
Format/Info : Advanced Video Codec
Format profile : High@L3
Format settings : CABAC / 2 Ref Frames
Format settings, CABAC : Yes
Format settings, Reference frames : 2 frames
Codec ID : V_MPEG4/ISO/AVC
Duration : 43 min 47 s
Bit rate : 1 100 kb/s
Width : 720 pixels
Height : 408 pixels
Display aspect ratio : 16:9
Frame rate mode : Constant
Frame rate : 25.000 FPS
Color space : YUV
Chroma subsampling : 4:2:0
Bit depth : 8 bits
Scan type : Progressive
Bits/(Pixel*Frame) : 0.150
Stream size : 337 MiB (83%)
Writing library : x264 core 112 r1834 a51816a
Default : Yes
Forced : No


Audio

ID : 2
Format : AC-3
Format/Info : Audio Coding 3
Commercial name : Dolby Digital
Codec ID : A_AC3
Duration : 43 min 47 s
Bit rate mode : Constant
Bit rate : 192 kb/s
Channel(s) : 2 channels
Channel layout : L R
Sampling rate : 48.0 kHz
Frame rate : 31.250 FPS (1536 SPF)
Bit depth : 16 bits
Compression mode : Lossy
Stream size : 60.1 MiB (15%)
Service kind : Complete Main
Default : Yes
Forced : No


Veliko užitkov!
Deep.Impact.1998.MultiSub.PAL.DVDR

Klikni za povečavo!
17-01-2021 12:32 naložil System
Sejalci: 0 / Odjemalci: 0 / Velikost: 4.36 GB / Dokončani: 2
Prenesi torrent Poročaj torrent Opis torrenta
Kategorija: FILMI > DVD
Anonimen nalagalec

Deep Impact (1998)
Zadnji udarec (1998)



-------------

INFO:
-------------
Source..........: DVD
Format..........: 16:9
Standard........: PAL
Release Size....: 4,35 GB
iMDB Link.......: KLIK
iMDB Rating.....: 6,2/10 (164.177)
Genre...........: Action, Drama, Romance, Sci-Fi, Thriller
Country.........: USA
Language........: English/ Russian
Video...........: Untouched
Audio...........: AC3 5.1-ch Russian/ English
Subs............: Russian/ Croatian/ Slovenian/ Serbian
Extras..........: yes
Regija..........: Prosto
Runtime.........: 117 min
Čas predvajanja.: 01:56.10 h

-------------
IGRALCI:
-------------
Robert Duvall ... Spurgeon Tanner
Tea Leoni ... Jenny Lerner
Elijah Wood ... Leo Biederman
Vanessa Redgrave ... Robin Lerner
Morgan Freeman ... President Beck
Maximilian Schell ... Jason Lerner
James Cromwell ... Alan Rittenhouse
Ron Eldard ... Oren Monash
Jon Favreau ... Gus Partenza
Laura Innes ... Beth Stanley
Mary McCormack ... Andrea Baker
Richard Schiff ... Don Biederman
Leelee Sobieski ... Sarah Hotchner
Blair Underwood ... Mark Simon
Dougray Scott ... Eric Vennekor

-------------
OPIS:
-------------
Najstnik Leo Beiderman se pridruži šolskemu astrološkemu krožku v upanju,
da ga bo opazila lepa sošolka Sarah. Še najmanj pričakuje, da bo odkril
nekaj, kar bo pretreslo svet. Fotografija, ki jo posname z malim teleskopom,
prikazuje komet, za katerega znanstveniki zatrjujejo, da bo trčil z Zemljo.
Zdaj vsi upi človeštva ležijo v posebnem vesoljskem plovilu, ki naj bi
pristalo na kometu in ga uničilo, še preden bi prišlo do katastrofe. Toda
bolj ko se bliža usodni dan, bolj napeti so odzivi ljudi...



Dark.Shadows.2012.SloSub.DVDRip.XviD-Churchill

Klikni za povečavo!
08-01-2021 17:08 naložil System
Sejalci: 1 / Odjemalci: 0 / Velikost: 1.4 GB / Dokončani: 8
Prenesi torrent Poročaj torrent Opis torrenta
Kategorija: FILMI > XviD
Anonimen nalagalec

Dark Shadows (2012)
Temne sence (2012)



INFO:
-------------
Codec : XVID
Format : AVI
Size : 1.40 GiB
Bit rate : 1 451 kb/s
Width : 720 pixels
Height : 384 pixels
Aspect ratio : 16/9
Audio 1 : AC-3
Bit rate : 384 kb/s
Channel(s) : 6 channels
Channel positions: L R C LFE Ls Rs
Sampling rate : 48.0 kHz
Genre : Comedy, Fantasy, Horror
Country : USA/ Australia/ UK
Language : English
Subtitles : Slovenski
Runtime : 108 min
Čas predvajanja : 1 h 48 min

IMDb user Rating: 6,2/10 (246.843)
IMDb Link: KLIK

IGRALCI:
-------------
Johnny Depp ... Barnabas Collins
Michelle Pfeiffer ... Elizabeth Collins Stoddard
Helena Bonham Carter ... Dr. Julia Hoffman
Eva Green ... Angelique Bouchard
Jackie Earle Haley ... Willie Loomis
Jonny Lee Miller ... Roger Collins
Bella Heathcote ... Victoria Winters / Josette DuPres
Chloe Grace Moretz ... Carolyn Stoddard
Gulliver McGrath ... David Collins
Ray Shirley ... Mrs. Johnson
Christopher Lee ... Clarney
Alice Cooper ... Alice Cooper
Ivan Kaye ... Joshua Collins
Susanna Cappellaro ... Naomi Collins
Josephine Butler ... David's Mother

OPIS:
-------------
Režiser slikovitih srhljivk Brezglavi jezdec in Sweeney Todd: Hudičev
brivec, predstavlja zgodbo premožnega mladeniča Barnabasa, ki ga je
ljubosumna čarovnica v 18. stoletju oropala ljubezni, spremenila v
vampirja in zakopala v temačni grob. Leta 1972 Barnabas znova vstane
od mrtvih in priskoči na pomoč obubožanim in necenjenim potomcem svoje
družine. Toda težko privajanje na tehnološki napredek in divji časi
brezmejne ljubezni, drog in rock'n'rolla ga privedejo v številne
zabavne težave, naposled pa se mora soočiti tudi s še vedno živo in
zelo vplivno smrtno sovražnico...





Def Leppard ‎– Greatest Hits (2010) FLAC

Klikni za povečavo!
05-01-2021 17:03 naložil System
Sejalci: 2 / Odjemalci: 0 / Velikost: 1.11 GB / Dokončani: 6
Prenesi torrent Poročaj torrent Opis torrenta NFO
Zvrst: Glasbeni
Kategorija: GLASBA > Glasba
Anonimen nalagalec

---------------------------------------------------------------------
Def Leppard - Def Leppard Greatest Hits
---------------------------------------------------------------------
Artist...............: Def Leppard
Album................: Def Leppard Greatest Hits
Genre................: Hard rock
Source...............: CD
Year.................: 2010
Ripper...............: EAC (Secure mode) / LAME 3.92 & Asus CD-S520
Codec................: Free Lossless Audio Codec (FLAC)
Version..............: Lavf56.30.100
Quality..............: Lossless, (avg. compression: 71 %)
Channels.............: Stereo / 44100 HZ / 16 Bit
Tags.................: VorbisComment
I
News Server..........: news.astraweb.com
News Group(s)........: alt.binaries.sounds.mp3.m
Included.............: NFO
Covers...............: Front Back CD
---------------------------------------------------------------------
Tracklisting CD1
---------------------------------------------------------------------
1. Def Leppard - Nine Lives (feat. Tim McGraw) [03:32]
2. Def Leppard - Now [03:59]
3. Def Leppard - Promises [03:59]
4. Def Leppard - Two Steps Behind (Acoustic Version) [04:16]
5. Def Leppard - Slang [02:37]
6. Def Leppard - Rocket [04:07]
7. Def Leppard - Let's Get Rocked [04:56]
8. Def Leppard - Love Bites [05:46]
9. Def Leppard - Photograph [04:08]
10. Def Leppard - Animal [04:04]
11. Def Leppard - Let It Go [04:43]
12. Def Leppard - Goodbye [03:35]
13. Def Leppard - Rock Of Ages [04:08]
14. Def Leppard - Make Love Like A Man [04:15]
15. Def Leppard - When Love & Hate Collide [04:17]
16. Def Leppard - Long Long Way To Go [04:38]
17. Def Leppard - Action [03:40]
18. Def Leppard - Work It Out [04:49]
19. Def Leppard - Love [04:17]
Playing Time.........: 01:19:56
Total Size...........: 573,29 MB
---------------------------------------------------------------------
Tracklisting CD2
---------------------------------------------------------------------
1. Def Leppard - C'mon C'mon [04:11]
2. Def Leppard - No Matter What [02:53]
3. Def Leppard - Everyday [03:10]
4. Def Leppard - Bad Actress [03:05]
5. Def Leppard - Miss You In A Heartbeat [04:06]
6. Def Leppard - Paper Sun [05:29]
7. Def Leppard - All I Want Is Everything [05:22]
8. Def Leppard - Armageddon It [05:25]
9. Def Leppard - High 'n' Dry (Saturday Night) [03:28]
10. Def Leppard - Too Late For Love [04:28]
11. Def Leppard - Pour Some Sugar On Me [04:29]
12. Def Leppard - Heaven Is [03:35]
13. Def Leppard - Foolin' [04:35]
14. Def Leppard - Hysteria [05:56]
15. Def Leppard - Have You Ever Needed Someone So Bad [05:25]
16. Def Leppard - Women [05:45]
17. Def Leppard - Wasted [03:47]
18. Def Leppard - Bringin' On The Heartbreak [04:33]
Playing Time.........: 01:19:50
Total Size...........: 556,24 MB
Doberdob-roman.upornika.2015.Slovenija.720p.WEBRip.x264-R77

Klikni za povečavo!
23-12-2020 15:54 naložil rado77
Sejalci: 1 / Odjemalci: 0 / Velikost: 1.09 GB / Dokončani: 2
Prenesi torrent Poročaj torrent Opis torrenta
Zvrst: Zgodovinski
Kategorija: FILMI > Dokumentarni

Doberdob-roman.upornika.2015.Slovenija.720p.WEBRip.x264-R77

DOBERDOB-ROMAN UPORNIKA



EKIPA:

Scenarij in režija MARTIN TURK
Producentka IDA WEISS
Direktor fotografije RADOVAN ČOK
Montažer JURIJ MOŠKON
Skladatelj glasbe CHRIS ECKMAN
Avtor ilustracij DAMIJAN STEPANČIČ
Zvok MIHA JARAMAZ, VJEKOSLAV MIKEZ
Scenograf MARCO JURATOVEC
Kostumograf EMIL CERAR
Oblikovalka maske PETRA HARTMAN

Vsebina:

Leta 1930 Cankarjeva založba napove izid vojnega romana „Doberdob“ pisatelja Prežihovega Voranca. Roman bo popisal tragične zgodbe vojakov, ki so se borili na Doberdobski planoti, na kateri je po mnenju zgodovinarjev izkrvavelo največ slovenskih vojakov, ki so se borili v prvi svetovni vojni in na kateri se je bojeval tudi takrat dvaindvajsetletni pisatelj s pravim imenom Lovro Kuhar.
Roman dejansko izide šele leta 1940, pisatelj pa roman v desetih letih od napovedi izida napiše kar trikrat, saj rokopis nekajkrat izgine v nenavadnih okoliščin. Obdobje pisanja romana namreč sovpada z aktivnim političnim življenjem Prežihovega Voranca. Bil je eden prvih komunistov na slovenskem, leta 1937 pa postane celo organizacijski sekretar ter s tem drugi človek jugoslovanske komunistične partije. Bil je agent kominterne, popotnik, ki je govoril 5 jezikov ter bil v stikih z nekaterimi najvidnejšimi politiki tistega časa. Hkrati je ves čas ohranjal osebno skromnost in vero v malega človeka ter vrednote, ki sčasoma niso bile več v duhu vse trše partijske ideologije.
Roman Doberdob je nastajal v obdobju, ki ga je Voranc zaradi aktivnega političnega življenja, večinoma preživel v ilegali in velja za edini slovenski avtobiografski roman na temo prve svetovne vojne.


IGRALCI & SOGOVORNIKI:

SREČKO KERMAVNER (Prežihov Voranc)
ALEŠ VALIČ (Interpretacija odlomkov iz romana "Doberdob, Vojni Roman Slovenskega Naroda")
Sogovorniki:
METKA PETRIČ, vnukinja Prežihovega Voranca
DDr. IGOR GRDINA, zgodovinar in literarni zgodovinar
Mag. Dr. FABIAN HAFNER, slavist
Mag. MARKO ŠTEPEC, zgodovinar
Dr. MIRAN HLADNIK, literarni zgodovinar
DARIO FRANDOLIČ, profesor in ljubiteljski zgodovinar
Mag. VASJA KLAVORA, publicist
Dr. VIDA DEŽELAK BARIČ, zgodovinarka
MIROSLAV OSOJNIK, upokojeni strokovni sodelavec Koroškega prokrajinskega muzeja




PRODUKCIJA:
BELA FILM v koprodukciji z
RTV SLOVENIJA
Vodja projekta: Mateja Erika Smisl
Dokumentarni program
Urednik: Peter Povh
Producent: Jaka Hemler
in
RAI FURLANIJA JULIJSKA KRAJINA
Odgovorna urednica za Slovenski program RAI – Sedež za FJK:
Martina Repinc


TEHNIČNI PODATKI

Dolžina: 74 min.
Format: DCP, barvni
Ratio: 1:1,78 (16:9)
Hitrost: 25fps
Zvok: Stereo
Jezik: Slovenski
Leto produkcije: 2015 (Maj)
Tip projekta: Celovečerni, Dokumentarni

KDOR SEJE TUDI ŽANJE!
Dobri.vojak.Švejk.1957.SLOSubs.TVRip.720p.x264.ts-R77

Klikni za povečavo!
22-12-2020 14:47 naložil rado77
Sejalci: 1 / Odjemalci: 0 / Velikost: 1.54 GB / Dokončani: 5
Prenesi torrent Poročaj torrent Opis torrenta
Zvrst: Komedija | Vojni
Kategorija: FILMI > TVRip

Dobri.vojak.Švejk.1957.SLOSubs.TVRip.720p.x264.ts-R77

Dobrý voják Svejk (1957)


Dobri vojak Švejk




Vsebina:
Praški trgovec s psi Josef Švejk se na začetku prve svetovne vojne, tik po sarajevskem atentatu na nadvojvodo in prestolonaslednika Franza Ferdinanda, v svoji najljubši pivnici po neumnosti zaplete v izdajstvo in razžalitev cesarja. Po aretaciji odide v vojsko, čeprav je dobil diagnozo, da je sonček. Ko je v uniformi, spravi ob pamet svoje nadrejene – pijanega kaplana Katza in elegantnega poročnika Lukáša. Haškov roman je navdihnila pisateljeva osebna izkušnja iz prve svetovne vojne, gre pa seveda za znamenito satiro na položaj vojakov, ki ne razumejo političnih razlogov za svoje bojevanje in se borijo za deželo, do katere ne čutijo pripadnosti. Dobri vojak Švejk je posrečen, ponarodel komični lik vojaka, ki z (ne ve se, ali hlinjeno ali resnično) neumnostjo razkriva absurde vojaške oblasti in absurdne situacije, v katere se spravlja, izrablja kot obliko pasivnega upora proti vojni. Haškova zgodba je tudi polna satire na avtoriteto ter napada korupcijo in hinavščino oblasti.
Priredba legendarnega komičnega romana anarhista Jaroslava Haška.

Režija: Karel Steklý
Igrajo: Rudolf Hrusínský , Svatopluk Benes , Frantisek Filipovský , Josef Hlinomaz , Bozena Havlícková , Eva Svobodová , Milos Kopecký , Felix Le Breux , Libuse Bokrová , Bedrich Karen
Država: Čehoslovaška
Podnapisi: Slovenščina
Žanr: Komedija, vojni


Tehnične specifikacije:

ID : 1 (0x1)
Complete name : Dobri.vojak.Švejk.1957.SLOSubs.TVRip.720p.x264.ts-R77\Dobri vojak Švejk.ts
Format : MPEG-TS
File size : 1.54 GiB
Duration : 1 h 44 min
Overall bit rate mode : Variable
Overall bit rate : 2 111 kb/s

Video
ID : 256 (0x100)
Menu ID : 1 (0x1)
Format : AVC
Format/Info : Advanced Video Codec
Format profile : High@L4
Format settings : CABAC / 4 Ref Frames
Format settings, CABAC : Yes
Format settings, Reference frames : 4 frames
Codec ID : 27
Duration : 1 h 44 min
Bit rate mode : Constant
Nominal bit rate : 1 800 kb/s
Width : 1 280 pixels
Height : 720 pixels
Display aspect ratio : 16:9
Frame rate : 25.000 FPS
Standard : PAL
Color space : YUV
Chroma subsampling : 4:2:0
Bit depth : 8 bits
Scan type : Progressive
Bits/(Pixel*Frame) : 0.078
Color range : Limited
Color primaries : BT.709
Transfer characteristics : BT.709
Matrix coefficients : BT.709

Audio
ID : 257 (0x101)
Menu ID : 1 (0x1)
Format : AAC LC
Format/Info : Advanced Audio Codec Low Complexity
Format version : Version 4
Muxing mode : ADTS
Codec ID : 15-2
Duration : 1 h 44 min
Bit rate mode : Variable
Channel(s) : 2 channels
Channel layout : L R
Sampling rate : 44.1 kHz
Frame rate : 43.066 FPS (1024 SPF)
Compression mode : Lossy
Delay relative to video : -40 ms
Menu
ID : 4096 (0x1000)
Menu ID : 1 (0x1)
Duration : 1 h 44 min
List : 256 (0x100) (AVC) / 257 (0x101) (AAC)
Service name : Service01
Service provider : FFmpeg
Service type : digital television

KDOR SEJE TUDI ŽANJE!
Disturbing.the.Peace.2020.SLOSubs.720p.BRRip.H265-DrSi

Klikni za povečavo!
19-12-2020 11:28 naložil Ziva
Sejalci: 1 / Odjemalci: 0 / Velikost: 2.38 GB / Dokončani: 7
Prenesi torrent Poročaj torrent Opis torrenta NFO
Kategorija: FILMI >  BRRip



Naziv: Disappearance.At.Clifton.Hill.2019.SLOSubs.WEBRip.XviD-metalcamp
Source: Disappearance.At.Clifton.Hill.2020.720p.WEB-DL.H264.AC3-EVO
Leto izida ........: 2019
Velikost ...........: 2,10 GB
Dolžina ............: 100 Minut
Video ...............: 2614 Kbps | 720x304 | 23,976 fps
Zvok .................: Dolby Digital AC3 5.1 @ 384 Kbps
Kodek.................: XviD
Zvrst………….: Drama | Misterij | Triler
Država .............: Kanada
Jezik ................: Angleški
Podnapisi .........: Slovenski (RETAiL)
Prevod: Mediatranslations
Tehnična obdelava: DVD Rippers Slovenija
Režija.........: Thea Sharrock
Scenarij......: Mike White, Katherine Applegate


Addison Tymec ... Young Laure
Mikayla Radan ... Young Abby
Tim Beresford ... Dad
Janet Porter ... Mom
Colin McLeod ... Alex Moulin
Maxwell McCabe-Lokos ... Gerry
Elizabeth Saunders ... Bev Mole
Tuppence Middleton ... Abby
Connor Lucas-Loan ... Boy on Bus
Devon Hauth ... Girl on Bus


Težavna mlada ženska se vrne v domači kraj Niagara Falls, kjer jo začne obsedati spomin
iz otroštva, nasilna ugrabitev, ki naj bi ji bila priča.
Po materini smrti se sklene Abby (Tuppence Middleton), mlada Kanadčanka s težavno preteklostjo, vrniti v domače mesto Niagara Falls, da bi skupaj s sestro, ki še živi tam, poskrbela za propadajoči družinski motel. Tam se po dolgih letih vnovič znajde sredi dileme, ki jo muči že od otroštva. Kaj se je zgodilo z dečkom, katerega nasilni ugrabitvi je bila priča pred 25 leti? Ko se odloči priti do resnice, se mora soočiti s pretresljivo, že dolgo prikrito
zaroto, ki sega tako globoko kot ponor pod slavnimi slapovi, in z lastnimi strahovi iz
preteklosti. Bodo ljudje verjeli nekomu, ki so ga že večkrat zasačili pri laži?
Napeti triler z nestvarnim in zloveščim vzdušjem prinaša hipnotično uganko, ki se odvija
v blodnjavem svetu med resničnostjo in izkrivljenim dojemanjem.




DJ VIHAR & DJ AJDA - BOZICNI MIX 2020

Klikni za povečavo!
12-12-2020 17:49 naložil Ajda
Sejalci: 1 / Odjemalci: 0 / Velikost: 115.24 MB / Dokončani: 19
Prenesi torrent Poročaj torrent Opis torrenta NFO
Kategorija: GLASBA > Glasba




*******************************************************************************
~ DJ VIHAR & DJ AJDA - BOŽIČNI MIX 2020 ~ kapakapadol
*******************************************************************************
-------------------------------------------------------------------------------
Avdio podatki santa
-------------------------------------------------------------------------------
General
Complete name : DJ VIHAR & DJ AJDA - BOZICNI MIX 2020.mp3
Format : MPEG Audio
File size : 115 MiB
Duration : 50mn 6s
Overall bit rate mode : Constant
Overall bit rate : 320 Kbps
Encoded by : Lavf52.39.0
Writing library : LAME3.98

Audio
Format : MPEG Audio
Format version : Version 1
Format profile : Layer 3
Mode : Joint stereo
Duration : 50mn 6s
Bit rate mode : Constant
Bit rate : 320 Kbps
Channel(s) : 2 channels
Sampling rate : 48.0 KHz
Compression mode : Lossy
Stream size : 115 MiB (100%)
Writing library : LAME3.98
-------------------------------------------------------------------------------
Vsebina santa
-------------------------------------------------------------------------------

01. DARJA GAJŠEK - Božične zvezdice
02. VIGOR - Badnja večer
03. ŽIGA DERŠEK - Božič bo
04. LUKA BASI - Sretan božič ljubavi
05. TARAPANA BAND - Zagrljaj za božič
06. LJUBAVNICI - Poljubi me ovog božiča
07. TONČI HULJIČ / MARKO TOLJA - Od božiča do božiča
08. MIA - Božič bez tebe
09. ŠPELA GROŠELJ / DOMEN /ILDIVJI - Za božič tebe si želim
10. NIKA ZORJAN - Poljubi me na božič
11. JELENA ROZGA - Fritula
12. KASTELO - Zvezda upanja
13. DAVOR BORNO - San božične noči
14. NAVEZA /MAJA ODERLAP - Najlepše praznike

Do Not Reply 2019 SrbSubs 720p WEBRip XviD AC3 Unknown

Klikni za povečavo!
05-12-2020 11:32 naložil Ziva
Sejalci: 1 / Odjemalci: 0 / Velikost: 2.62 GB / Dokončani: 3
Prenesi torrent Magnet Link Poročaj torrent Opis torrenta NFO
Zvrst: Grozljivka | Triler
Kategorija: FILMI > WEBRip-720



Do Not Reply 2019 720p WEBRip XviD AC3 Unknown
Language(s): English
Size: 2.61 GB | Duration: 1hr 38mn | Container: AVI
Audio: AC-3 | 448 Kbps | 6 Channels
Video: XviD | 3328 Kbps | 1280 x 536
Genre: Horror | Thriller
Podnapisi: srbski


Amanda Arcuri, Jackson Rathbone, Kerri Medders

Chelsea, a teenager, is abducted through a social media app by Brad and is held captive with other girls who are to become victims in his virtual reality filmed murders.



Daddys Girl 2018 SrbSubs 720p BRRip XviD AC3 Unknown

Klikni za povečavo!
29-11-2020 15:50 naložil Ziva
Sejalci: 1 / Odjemalci: 0 / Velikost: 2.07 GB / Dokončani: 4
Prenesi torrent Poročaj torrent Opis torrenta NFO
Kategorija: FILMI >  BRRip



Daddys Girl 2018 720p BRRip XviD AC3 Unknown
Language(s): English
Size: 2.07 GB | Duration: 1hr 20mn | Container: AVI
Audio: AC-3 | 448 Kbps | 6 Channels
Video: XviD | 3209 Kbps | 1280 x 536
Genre: Crime | Horror | Thriller
Podnapisi: srbski


Jemma Dallender, Costas Mandylor, Britt McKillip


A young woman held captive by her stepfather becomes the focus of a female vigilante.





De Gaulle.2020.SLOSubs.720p.HDTVRip x264.R77

Klikni za povečavo!
20-11-2020 13:26 naložil System
Sejalci: 2 / Odjemalci: 0 / Velikost: 1.35 GB / Dokončani: 3
Prenesi torrent Poročaj torrent Opis torrenta
Kategorija: FILMI > HDRip
Anonimen nalagalec

De Gaulle.2020.SLOSubs.720p.HDTVRip x264.R77
DE GAULLE
FRANCOSKI FILM
Opis:
9. novembra 2020 mineva petdeset let od smrti Charlesa de Gaulla, francoskega generala, politika in državnika, ki se je rodil 22. novembra 1890. Film prikazuje krajše obdobje, ki velja za najpomembnejše v njegovem političnem delovanju. Spoznamo tudi njegovo družino, ki sicer ni pogosto prikazana.
Maja leta 1940 je Charles de Gaulle poveljeval francoskemu tankovskemu bataljonu, ki naj bi zaustavil napredovanje Nemcev, a se je bil prisiljen umakniti. Z nemško ofenzivo na Francijo se je vojaški in politični položaj države še poslabšal. De Gaulle se je pridružil vladi v Parizu in bil 6. maja povišan v generala. Tri dni zatem se je v Londonu srečal s Churchillom. Medtem so njegova žena Yvonne ter otroci Philippe, Elisabeth in Anne ostali na severovzhodu Francije. 14. junija 1940 so nemške enote brez boja zasedle Pariz, nato pa vso Francijo. De Gaulle se je umaknil v London, kjer je bil ves čas dejaven, BBC pa mu je omogočil sloviti spodbudni radijski nagovor rojakom, s katerim je postavil temelje svobodne Francije. De Gaulle daljši čas ni imel stikov z družino, nato pa je izvedel, da so zbežali do Bresta, kjer naj bi se vkrcali na eno od treh ladij, od katerih sta po izplutju dve potonili.
Podrobnosti:
Režija: Gabriel Le Bomin
Scenarij: Gabriel Le Bomin, Valérie Ranson-Enguiale
V glavnih vlogah: Lambert Wilson, Isabelle Carré, Olivier Gourmet, Catherine Mouchet, Pierre Hancisse, Sophie Quinton, Gilles Cohen
Leto: 2020
Trajanje: 108 min
Žanri: Življenjepis, Drama, Zgodovina
Država: Francija
Jezik: Francoščina, Angleščina
Podnapisi: Slovenščina
Datum izdaje: 4. marec 2020 (Francija)
Lokacije snemanja: Grad Maillard, Beautheil-Saints, Seine-et-Marne, Francija
Tehnične specifikacije:
KDOR SEJE TUDI ŽANJE!
DJ VIHAR & DJ AJDA - SLO & HR MIX 61

Klikni za povečavo!
17-11-2020 13:53 naložil Ajda
Sejalci: 1 / Odjemalci: 0 / Velikost: 168.03 MB / Dokončani: 20
Prenesi torrent Poročaj torrent Opis torrenta NFO
Zvrst: Glasbeni
Kategorija: GLASBA > Glasba




-------------------------------------------------------------------------------
Avdio podatki
-------------------------------------------------------------------------------
Complete name : DJ VIHAR & DJ AJDA - SLO & HR MIX 61.mp3
Format : MPEG Audio
File size : 167 MiB
Duration : 1h 13mn
Overall bit rate mode : Constant
Overall bit rate : 320 Kbps
Encoded by : Lavf52.39.0
Writing library : LAME3.98

Audio
Format : MPEG Audio
Format version : Version 1
Format profile : Layer 3
Mode : Joint stereo
Duration : 1h 13mn
Bit rate mode : Constant
Bit rate : 320 Kbps
Channel(s) : 2 channels
Sampling rate : 48.0 KHz
Compression mode : Lossy
Stream size : 167 MiB (100%)
Writing library : LAME3.98
-------------------------------------------------------------------------------
Vsebina
-------------------------------------------------------------------------------
DJ VIHAR & DJ AJDA - SLO & HR MIX 61

01. ELIXSIR - Teško te zaboravljam
02. GADI - Nor
03. LUKA BASI / NEDA UKRADEN - Ni Dubai ni Hawaii
04. MARKO ŠKUGOR - Ako grijeh je
05. MARKO PECOTIČ - Vrime nam je ljubavi
06. GORAN KARAN - Dugo nisam bio mlad
07. ANTONIJA ŠOLA - Ponovo
08. TOMISLAV BRALIĆ / KLAPA INTRADA - Ostajem tu
09. DRAŽEN ZEČIČ - Zašto plačeš
10. MATEVŽ VISOČNIK - Neprespane noči
11. TINE KOBAL - Prva in zadnja
12. DAVOR BORNO - Nek teče vino
13. KLAPA ŠUFIT / TANJA ŽAGAR - Za cili život
14. JOLE - Fali meni ona
15. ČUDEŽNI DEČKI - Tvoj poljub
16. WERNER - Lom
17. DOMENICA - Zovi
18. THE FRAJLE - Voli me godinama
19. KLAPA PUNTAMIKA - Lipota se zoveš
20. IVANA KOVAČ - Neče zlato na mene
21. MLADEN GRDOVIČ - Kad duša boli