All torrents are Free between 01-12-2018 - 01-01-2019
A
B
C
D
E
F
G
H
I
J
K
L
M
N
O
P
Q
R
S
T
U
V
W
X
Y
Z
0-9
Deep Haus, Vol. 1 (Amazing Winter Deep House For Home, Bar And Club

Klikni za povečavo!
02-09-2018 21:51 naložil System
Sejalci: 0 / Odjemalci: 0 / Velikost: 334.07 MB / Dokončani: 3
Prenesi torrent Poročaj torrent Opis torrenta
Zvrst: Glasbeni
Kategorija: GLASBA > Glasba
Anonimen nalagalec

fz8bq.jpg

HoBIr.gif
Title: Deep Haus, Vol. 1 (Amazing Winter Deep House For Home, Bar And Club)
Artist: Collection
Year: 2017
Genre: House, Tech House, Deep House

Duration: 2:25:51
Format / Codec: MP3
Bitrate audio: 320 kpbs
rEIpe.gif

01. Bes & Meret - Flying High (Extended Mix) 6:46
02. Poenitsch & Jakopic - Beautiful (Tom Appl Remix) 5:46
03. Project Weekend Sound - Believe In Love 4:09
04. Domestic Technology - Isola Bella\'14 (Winter Mix) 7:02
05. Bes & Meret - Analog Bubbles 6:36
06. Mayah - Feel For Real (Instrumental Mix) 3:34
07. Zara Arshakian - Don\'t Disappear (Toricos Remix) 5:28
08. Barbary - Part of Me 6:16
09. Deeppirate - Love (feat. Vilia) 5:26
10. Sergey Silvertone - Birth Of Stars (feat. Tiara) [Audio Luxury Remix] 5:48
11. Bes & Meret - Morgenstund 3:01
12. Stereopie - L.U. (Audio Luxury Remix) 6:15
13. Take The Cookies - Time (Situation Remix) 4:48
14. Andrey Uchvat - Dreamcast 6:40
15. Qooos - Go Hard 4:48
16. After Sunrise - Born To Be Blue 6:18
17. Maksim Biserov - Ice & Lemon 7:23
18. Stefan Reh - Submerged (feat. C. Nakoinz) 5:29
19. Zara Arshakian - Don\'t Disappear (Audio Luxury Remix) 4:23
20. Tom Appl - One Time 7:55
21. Adeve - Le Salio El Tiro Por La Culata 3:50
22. Stefan Reh - Cruz (feat. C. Nakoinz) 6:41
23. DJ Enne - Deep Vibes 6:44
24. Lazy poliglot - Circo Nero 8:08
25. Chris Le Blanc - The Eyes Of Revelation (feat. Kami) [Miss Luna Remix] 6:36
Mambo.Kings.Album.MAMBO.KINGS.2000-Churchill

Klikni za povečavo!
19-08-2018 17:07 naložil Churchill
Sejalci: 4 / Odjemalci: 0 / Velikost: 131.07 MB / Dokončani: 15
Prenesi torrent Poročaj torrent Opis torrenta
Kategorija: GLASBA > Glasba

Mambo Kings- MAMBO KINGS (2000)



INFO:
Artist...............: Mambo Kings
Album................: MAMBO KINGS
Genre................: Pop-Folk
Source...............: CD
Year.................: 2000
Ripper...............: LAME MP3 Encoder (1.30, engine 3.92 MMX)
Version..............: MPEG 1 Layer III
Quality..............: (bitrate: 320kbps)
Channels.............: Joint Stereo / 44800 hz
Tags.................: ID3 v2

TRACKLISTING:

01.I tebe sam sit kafano
02.Preveč je lepih deklet
03.Da bog da te voda odnjela
04.Zbog jedne divne crne žene
05.Tamara
06.Još i danas teku suze
07.U dobru i zlu
08.Na svjetu sve
09.Bijela boja
10.Nisam više ja sa njom
11.Duša od papira
12.Što sam ja
13.Nije mene dušo
14.Mjesečina
15.E da mi je nekoga
16.Umoran
17.Plaža
18.Godine ljubavi
19.Poletje v mojem srcu 2000
20.Dobra vremena
21.Ej dušo ko nam brani
22.Gutljaj vina
23.Vino na usnama
24.Hajde da ludujemo
25.To mi radi
26.Košulja plava
27.Pjevam danju
28.Napile se ulice
29.Volim žene
30.Ako su to samo bile laži
31.Daj mi vina
32.Siva pot (live mix)


Playing Time.........: 57:12.08mn
Total Size...........: 131 MB
Ena izmed:

Star Club from Tunisia (2018) MP3-BlackDevil

Klikni za povečavo!
28-07-2018 20:22 naložil BlackDevil
Sejalci: 1 / Odjemalci: 0 / Velikost: 690.78 MB / Dokončani: 2
Prenesi torrent Poročaj torrent Opis torrenta
Kategorija: GLASBA > Glasba





Božični MIX 2017 DJ VIHAR & DJ AJDA

Klikni za povečavo!
09-12-2017 14:31 naložil Ajda
Sejalci: 2 / Odjemalci: 1 / Velikost: 167.87 MB / Dokončani: 50
Prenesi torrent Poročaj torrent Opis torrenta NFO
Kategorija: GLASBA > Glasba




INFO :
Format : MPEG Audio
File size : 167 MiB
Duration : 1 h 12 min
Overall bit rate mode : Constant
Overall bit rate : 320 kb/s
Encoded by : Lavf52.39.0
Writing library : LAME3.98

Audio
Format : MPEG Audio
Format version : Version 1
Format profile : Layer 3
Mode : Joint stereo
Duration : 1 h 12 min
Bit rate mode : Constant
Bit rate : 320 kb/s
Channel(s) : 2 channels
Sampling rate : 48.0 kHz
Compression mode : Lossy
Stream size : 167 MiB (100%)
Writing library : LAME3.98


BOŽIČNI MIX 2017

01. Nejc Kastelic in Zborček - Božič je
02. Jasmin Stavros - Sretan božič ljubavi
03. Saša Lendero - Zimaj, božič za vse
04. Simona Weiss - Božične zvezdice
05. Begini - Sretan božič svakome
06. Črna Maćka - Dobri možje
07. Unikat - Najin božič
08. Modrijani - Sveta noč
09. Mladi Gamsi - Najina božična noč
10. Maja Oderlap - Vse zvezde iz neba
11. Leone - Tužan je božič bez tebe
12. Bepop - Glej, zvezdice božje
13. Oliver Dragojevič - Bijeli božič
14. Calypso - Božična pravljica
15. Lendero, Dežan, Hercog - Božič za vse ljudi
16. Saša Čuki - Božič je
17. Helena Blagne - V beli božični noči
18. Čuki Modrijani - Daj mi poljub
19. Rokn Band - Novo leto
20. Alfi Nipič - Silvesterski poljub


Bob Dylan - Christmas In The Heart 2009[MP3-320]

Klikni za povečavo!
08-12-2017 15:52 naložil andrejap
Sejalci: 0 / Odjemalci: 0 / Velikost: 104.02 MB / Dokončani: 1
Prenesi torrent Poročaj torrent Opis torrenta NFO
Zvrst: Glasbeni
Kategorija: GLASBA > Glasba

---------------------------------------------------------------------
Bob Dylan - Christmas In The Heart
---------------------------------------------------------------------
Artist...............: Bob Dylan
Album................: Christmas In The Heart
Genre................: Christmas
Source...............: CD
Year.................: 2009
Ripper...............: EAC (Secure mode) / LAME 3.92 & Asus CD-S520
Codec................: LAME 3.98
Version..............: MPEG 1 Layer III
Quality..............: Insane, (avg. bitrate: 320kbps)
Channels.............: Stereo / 44100 hz
Tags.................: ID3 v1.1, ID3 v2.3
Information..........:
Ripped by............: andrejap on 8. 12. 2017
Posted by............: andrejap on 8. 12. 2017
News Server..........: news.astraweb.com
News Group(s)........: alt.binaries.sounds.mp3.m
Included.............: NFO
Covers...............: Front Back CD
---------------------------------------------------------------------
Tracklisting
---------------------------------------------------------------------
1. Bob Dylan - Here Comes Santa Claus [02:25]
2. Bob Dylan - Do You Hear What I Hear? [02:51]
3. Bob Dylan - Winter Wonderland [01:41]
4. Bob Dylan - Hark The Herald Angels Sing [02:19]
5. Bob Dylan - I'll Be Home For Christmas [02:42]
6. Bob Dylan - Little Drummer Boy [02:41]
7. Bob Dylan - The Christmas Blues [02:43]
8. Bob Dylan - O' Come All Ye Faithful (Adeste Fideles) [02:39]
9. Bob Dylan - Have Yourself A Merry Little Christmas [03:53]
10. Bob Dylan - Must Be Santa [02:37]
11. Bob Dylan - Silver Bells [02:24]
12. Bob Dylan - The First Noel [02:18]
13. Bob Dylan - Christmas Island [02:16]
14. Bob Dylan - The Christmas Song [03:45]
15. Bob Dylan - O' Little Town Of Bethlehem [02:09]
Playing Time.........: 39:31
Total Size...........: 95,63 MB
Carpenters - Christmas Portrait 1978[MP3 - 320]

Klikni za povečavo!
08-12-2017 13:40 naložil andrejap
Sejalci: 1 / Odjemalci: 0 / Velikost: 162.96 MB / Dokončani: 3
Prenesi torrent Poročaj torrent Opis torrenta NFO
Zvrst: Glasbeni
Kategorija: GLASBA > Glasba

---------------------------------------------------------------------
Carpenters - Christmas Portrait
---------------------------------------------------------------------
Artist...............: Carpenters
Album................: Christmas Portrait
Genre................: Christmas
Source...............: CD
Year.................: 1978
Ripper...............: EAC (Secure mode) / LAME 3.92 & Asus CD-S520
Codec................: LAME 3.98
Version..............: MPEG 1 Layer III
Quality..............: Insane, (avg. bitrate: 320kbps)
Channels.............: Stereo / 44100 hz
Tags.................: ID3 v1.1, ID3 v2.3
Information..........:
Ripped by............: andrejap on 8. 12. 2017
Posted by............: andrejap on 8. 12. 2017
News Server..........: news.astraweb.com
News Group(s)........: alt.binaries.sounds.mp3.m
Included.............: NFO
Covers...............: Front Back CD
---------------------------------------------------------------------
Tracklisting
---------------------------------------------------------------------
1. Carpenters - It Came Upon A Midnight Clear [00:39]
2. Carpenters - Overture (An Old Fashioned Christmas) [08:11]
3. Carpenters - An Old Fashioned Christmas [02:07]
4. Carpenters - Christmas Waltz [02:09]
5. Carpenters - Sleigh Ride [02:35]
6. Carpenters - It's Christmas Time / Sleep Well, Little Children[02:49]
7. Carpenters - Have Yourself A Merry Little Christmas [03:49]
8. Carpenters - Santa Claus Is Comin' To Town [01:01]
9. Carpenters - Christmas Song (Chestnuts Roasting On An Open Fire)[03:33]
10. Carpenters - Carol Of The Bells [01:35]
11. Carpenters - Merry Christmas Darling [03:02]
12. Carpenters - Christ Is Born [03:10]
13. Carpenters - O Holy Night [03:06]
14. Carpenters - Home For The Holidays [02:31]
15. Carpenters - Medley: Here Comes Santa Claus/Frosty The Snowman/Rudolph The Red-Nosed Reindeer/Good King Wenceslas[03:38]
16. Carpenters - Medley: Winter Wonderland/Silver Bells/White Christmas[05:23]
17. Carpenters - Ave Maria [02:30]
18. Carpenters - Selections From "Nutcracker": Overture Miniature/Dance Of The Sugar Plum Fairies/Valse Des Fleurs[05:23]
19. Carpenters - Little Altar Boy [03:39]
20. Carpenters - I'll Be Home For Christmas [03:45]
21. Carpenters - Silent Night [03:17]
Playing Time.........: 01:08:04
Total Size...........: 162,51 MB
Jose Feliciano - Feliz Navidad 1973[MP3-320]

Klikni za povečavo!
08-12-2017 13:08 naložil andrejap
Sejalci: 1 / Odjemalci: 0 / Velikost: 96.88 MB / Dokončani: 3
Prenesi torrent Poročaj torrent Opis torrenta NFO
Zvrst: Glasbeni
Kategorija: GLASBA > Glasba

---------------------------------------------------------------------
Jose Feliciano - Feliz Navidad
---------------------------------------------------------------------
Artist...............: Jose Feliciano
Album................: Feliz Navidad
Genre................: Christmas, Rock, Latin, Pop, Folk
Source...............: CD
Year.................: 1973
Ripper...............: EAC (Secure mode) / LAME 3.92 & Asus CD-S520
Codec................: LAME 3.98
Version..............: MPEG 1 Layer III
Quality..............: Insane, (avg. bitrate: 320kbps)
Channels.............: Stereo / 44100 hz
Tags.................: ID3 v1.1, ID3 v2.3
Information..........:
Ripped by............: andrejap on 8. 12. 2017
Posted by............: andrejap on 8. 12. 2017
News Server..........: news.astraweb.com
News Group(s)........: alt.binaries.sounds.mp3.m
Included.............: NFO
Covers...............: Front Back
---------------------------------------------------------------------
Tracklisting
---------------------------------------------------------------------
1. Jose Feliciano - Feliz Navidad [03:01]
2. Jose Feliciano - Jingle Bells [02:57]
3. Jose Feliciano - The Christmas Song [03:20]
4. Jose Feliciano - The First Noel [03:00]
5. Jose Feliciano - The Cherry Tree Carol [03:43]
6. Jose Feliciano - The Little Drummer Boy [03:59]
7. Jose Feliciano - White Christmas [03:57]
8. Jose Feliciano - We Three Kings Of Orient Are [02:11]
9. Jose Feliciano - Mary's Little Boy Child [04:41]
10. Jose Feliciano - It Came Upon A Midnight Clear [01:51]
11. Jose Feliciano - Silent Night [04:00]
12. Jose Feliciano - Hark, The Herald Angels Sing [01:39]
Playing Time.........: 38:24
Total Size...........: 88,88 MB
Johnny Johnson - Christmas Together 2004[MP3-320]

Klikni za povečavo!
08-12-2017 12:45 naložil andrejap
Sejalci: 1 / Odjemalci: 0 / Velikost: 130.21 MB / Dokončani: 0
Prenesi torrent Poročaj torrent Opis torrenta NFO
Zvrst: Glasbeni
Kategorija: GLASBA > Glasba

---------------------------------------------------------------------
Johnny Johnson - Christmas Together
---------------------------------------------------------------------
Artist...............: Johnny Johnson
Album................: Christmas Together
Genre................: Classical, Saxophone
Source...............: CD
Year.................: 2004
Ripper...............: EAC (Secure mode) / LAME 3.92 & Asus CD-S520
Codec................: LAME 3.98
Version..............: MPEG 1 Layer III
Quality..............: Insane, (avg. bitrate: 320kbps)
Channels.............: Joint Stereo / 44100 hz
Tags.................: ID3 v1.1, ID3 v2.3
Information..........:
Ripped by............: andrejap on 8. 12. 2017
Posted by............: andrejap on 8. 12. 2017
News Server..........: news.astraweb.com
News Group(s)........: alt.binaries.sounds.mp3.m
Included.............: NFO
Covers...............: Front Back CD
---------------------------------------------------------------------
Tracklisting
---------------------------------------------------------------------
1. Johnny Johnson - The Gift Of Christmas [01:19]
2. Johnny Johnson - O Come All Ye Faithful [03:53]
3. Johnny Johnson - Silver Bells [04:27]
4. Johnny Johnson - O Holy Night [04:10]
5. Johnny Johnson - Santa Claus Is Coming To Town [04:18]
6. Johnny Johnson - Silent Night [04:37]
7. Johnny Johnson - Away In The Manger [03:35]
8. Johnny Johnson - We Three Kings [04:24]
9. Johnny Johnson - Little Drummer Boy [05:57]
10. Johnny Johnson - God Rest Ye Merry Gentlemen [04:58]
11. Johnny Johnson - Greensleeves [05:33]
12. Johnny Johnson - Winter Wonderland [04:12]
13. Johnny Johnson - Have Yourself A Merry Little Christmas [04:34]
Playing Time.........: 56:04
Total Size...........: 129,31 MB
Tose Proeski - The Platinum Collection 6CD (2014)

Klikni za povečavo!
07-12-2017 14:58 naložil System
Sejalci: 1 / Odjemalci: 0 / Velikost: 824.51 MB / Dokončani: 15
Prenesi torrent Poročaj torrent Opis torrenta
Zvrst: Glasbeni
Kategorija: GLASBA > Glasba
Anonimen nalagalec

Tose Proeski - The Platinum Collection 6CD




Artist...............: Tose Proeski
Album................:
Genre................: Pop
Source...............: CD
Year.................: 2006
Ripper...............: EAC (Secure mode) / LAME 3.92 & Asus CD-S520
Codec................: LAME 3.99
Version..............: MPEG 1 Layer III
Quality..............: Insane, (avg. bitrate: 320kbps)
Channels.............: Joint Stereo / 44100 hz

Tracklisting
---------------------------------------------------------------------

CD 1 Bozilak

Bor Sadila Moma Evgenija
Se Posvrsi Serbes Donka
Ako Odam Vo Bitola
Jovano, Jovanke
Kales Angja
More Sokol Pie
Ne Si Go Prodavaj Koljo Ciflikot
Si Zaljubiv Edno Mome
Uci Me Majko, Karaj Me
So Maki Sum Se Rodil
Dejgidi Ludi Mladi Godini
Nazalena Nevesta
Zajdi, Zajdi Jasno Sonce
Majka Na Marika Dumase

CD 2 Igra Bez Granica

Pola Duse, Pola Srca
Vezi Me Za Sebe
Ubijas Me Usnama
Boze Brani Je Od Zla
Mjesecina
Igra Bez Granica
Dal' Si Sretnija
Najljepse Moje
Sreco Ne Krivi Me
Volim Osmjeh Tvoj Feat. Antonija Sola
Jos I Danas Zamirisi Tresnja
Ostala Si Uvijek Ista
Srce Nije Kamen
Nesanica [Adaptacija Iz Filma ''ivkova Slava'']
Nesanica [Remix]

CD 3 Ako Me Pogledas U Oci

Ako Me Pogledas U Oci
Soba Za Tugu
Cini Feat. Esma Redzepova
Hold Me Tight Feat. Harem Iii
Jos Jedan Stepenik
Na Mesto Zlocina
Limenka
Ledena
Meni Hvala Nijedno
Luda Mala

CD 4 Dan Za Nas

Zvezdo Severnice
Kad Varas Ti
Zena Balkanska
Ima Li Dan Za Nas
Kazem Lejdi
Nikada
Cija Si
Life
Pogledaj U Mene
San Egzotican
Oprosti
Sto Si Otisla
Hej Plavooka, Hej Bosonoga
Kad Srce Plati Stari Dug

CD 5 Pratim Te

Pratim Te
Zao Mi Je
Rane Na Usnama
Cujes Li
Mala
Jedina
Lose Ti Stoji
Ko Ti To Grize Obraze
Poljsko Cvece
Naj, Naj
Za Ovoj Svet
Lagala Nas Mala (Duet Tony Cetinski)
This World
Krajnje Vreme (Duet Anja Rupel)

CD 6 Najlepse Balade

Jos Uvijek Sanjam Da Smo Zajedno
Igra Bez Granica
Najljepse Moje
Jos I Danas Zamirisi Tresnja
Ostala Si Uvjek Ista
The Hardest Thing
Soba Za Tugu
Meni Hvala Nijedno
Nikada
Sto Si Otisla
Oprosti
Kad Srce Plati Stari Dug
Kad Varas Ti
Hej Plavooka, Hej Bosonoga
Mala
Jedina
Poljsko Cvece
Zajdi, Zajdi Jasno Sonce
The London Starlight Orchestra & Singers - Show Hits 1988[MP3-320]

Klikni za povečavo!
07-12-2017 13:05 naložil andrejap
Sejalci: 1 / Odjemalci: 0 / Velikost: 163.23 MB / Dokončani: 3
Prenesi torrent Poročaj torrent Opis torrenta NFO
Zvrst: Glasbeni
Kategorija: GLASBA > Glasba

---------------------------------------------------------------------
The London Starlight Orchestra & Singers - Show Hits
---------------------------------------------------------------------
Artist...............: The London Starlight Orchestra & Singers
Album................: Show Hits
Genre................: Electronic, Pop, Rock
Source...............: CD
Year.................: 1988
Ripper...............: EAC (Secure mode) / LAME 3.92 & Asus CD-S520
Codec................: LAME 3.97
Version..............: MPEG 1 Layer III
Quality..............: Insane, (avg. bitrate: 320kbps)
Channels.............: Joint Stereo / 44100 hz
Tags.................: , ID3 v2.3
Information..........:
Ripped by............: andrejap on 7. 12. 2017
Posted by............: andrejap on 7. 12. 2017
News Server..........: news.astraweb.com
News Group(s)........: alt.binaries.sounds.mp3.m
Included.............: NFO
Covers...............: Front
---------------------------------------------------------------------
Tracklisting
---------------------------------------------------------------------
1. The London Starlight Orchestra & Singers - A Starlight Express - Overture[03:08]
2. The London Starlight Orchestra & Singers - One Night In Bangkok (From The Musical 'Chess')[03:49]
3. The London Starlight Orchestra & Singers - Somewhere (From The Musical 'West Side Story')[04:59]
4. The London Starlight Orchestra & Singers - Aquarius (From The Musical 'Hair')[04:10]
5. The London Starlight Orchestra & Singers - Old Deuteronomy (From The Musical 'Cats')[04:09]
6. The London Starlight Orchestra & Singers - One (From The Musical 'A Chorus Line')[03:34]
7. The London Starlight Orchestra & Singers - People (From The Musical 'Funny Girl')[03:43]
8. The London Starlight Orchestra & Singers - Take That Look Off Your Face[03:49]
9. The London Starlight Orchestra & Singers - Tonight [03:59]
10. The London Starlight Orchestra & Singers - Send In The Clowns[05:08]
11. The London Starlight Orchestra & Singers - I Know Him So Well[04:15]
12. The London Starlight Orchestra & Singers - Who Can I Turn To[03:12]
13. The London Starlight Orchestra & Singers - Big Spender [03:41]
14. The London Starlight Orchestra & Singers - Maria [02:35]
15. The London Starlight Orchestra & Singers - Don't Cry For Me Argentina (From 'Evita')[05:43]
16. The London Starlight Orchestra & Singers - Tomorrow (From 'Annie')[02:50]
17. The London Starlight Orchestra & Singers - I Don't Know How To Love Him[03:56]
18. The London Starlight Orchestra & Singers - The Imposible Dream[02:09]
Playing Time.........: 01:08:58
Total Size...........: 162,82 MB
The Soulful Strings - The Magic Of Christmas 2015[MP3-320]

Klikni za povečavo!
06-12-2017 16:58 naložil andrejap
Sejalci: 1 / Odjemalci: 0 / Velikost: 90.2 MB / Dokončani: 2
Prenesi torrent Poročaj torrent Opis torrenta NFO
Zvrst: Glasbeni
Kategorija: GLASBA > Glasba

---------------------------------------------------------------------
The Soulful Strings - The Magic Of Christmas
---------------------------------------------------------------------
Artist...............: The Soulful Strings
Album................: The Magic Of Christmas
Genre................: Christmas, Easy Listening, Orchestral
Source...............: CD
Year.................: 2015
Ripper...............: EAC (Secure mode) / LAME 3.92 & Asus CD-S520
Codec................: LAME 3.98
Version..............: MPEG 1 Layer III
Quality..............: Insane, (avg. bitrate: 320kbps)
Channels.............: Stereo / 44100 hz
Tags.................: ID3 v1.1, ID3 v2.3
Information..........:
Ripped by............: andrejap on 6. 12. 2017
Posted by............: andrejap on 6. 12. 2017
News Server..........: news.astraweb.com
News Group(s)........: alt.binaries.sounds.mp3.m
Included.............: NFO
Covers...............: Front Back CD
---------------------------------------------------------------------
Tracklisting
---------------------------------------------------------------------
1. The Soulful Strings - The Little Drummer Boy [05:15]
2. The Soulful Strings - Snowfall [03:18]
3. The Soulful Strings - Dance Of The Sugarplum Fairy From Tchaikovsky's Nutcracker Suite[03:22]
4. The Soulful Strings - Deck The Halls [04:35]
5. The Soulful Strings - Santa Claus Is Coming To Town [03:00]
6. The Soulful Strings - Sleigh Ride [02:43]
7. The Soulful Strings - Merry Christmas Baby [04:08]
8. The Soulful Strings - Jingle Bells [03:28]
9. The Soulful Strings - The Christmas Song [03:34]
10. The Soulful Strings - Parade Of The Wooden Soldiers [03:30]
Playing Time.........: 36:57
Total Size...........: 86,51 MB
London Festival Orchestra - White Christmas 2003[MP3-320]

Klikni za povečavo!
06-12-2017 15:40 naložil andrejap
Sejalci: 1 / Odjemalci: 0 / Velikost: 95.08 MB / Dokončani: 4
Prenesi torrent Poročaj torrent Opis torrenta NFO
Zvrst: Glasbeni
Kategorija: GLASBA > Glasba

---------------------------------------------------------------------
London Festival Orchestra - White Christmas
---------------------------------------------------------------------
Artist...............: London Festival Orchestra
Album................: White Christmas
Genre................: Christmas, Instrumental
Source...............: CD
Year.................: 2003
Ripper...............: EAC (Secure mode) / LAME 3.92 & Asus CD-S520
Codec................: LAME 3.97
Version..............: MPEG 1 Layer III
Quality..............: Insane, (avg. bitrate: 320kbps)
Channels.............: Joint Stereo / 44100 hz
Tags.................: ID3 v1.1, ID3 v2.3
Information..........:
Ripped by............: andrejap on 6. 12. 2017
Posted by............: andrejap on 6. 12. 2017
News Server..........: news.astraweb.com
News Group(s)........: alt.binaries.sounds.mp3.m
Included.............: NFO
Covers...............: Front Back CD
---------------------------------------------------------------------
Tracklisting
---------------------------------------------------------------------
1. London Festival Orchestra - Oh Little Town Of Bethlehem [02:30]
2. London Festival Orchestra - Silent Night [03:37]
3. London Festival Orchestra - Deck The Halls [02:14]
4. London Festival Orchestra - We Wish You A Merry Christmas[02:03]
5. London Festival Orchestra - Hark! The Herald Angels Sing[02:40]
6. London Festival Orchestra - Oh Come All Ye Faithful [02:20]
7. London Festival Orchestra - Angels We Have Heard On High[02:28]
8. London Festival Orchestra - Joy To The World [02:23]
9. London Festival Orchestra - First Noel [02:33]
10. London Festival Orchestra - Good King Wenceslas [01:14]
11. London Festival Orchestra - Greensleeves [01:54]
12. London Festival Orchestra - We Three Kings [02:18]
13. London Festival Orchestra - Oh Tannenbaum [01:29]
14. London Festival Orchestra - Jingle Bells [02:00]
15. London Festival Orchestra - Away In A Manger [01:31]
16. London Festival Orchestra - It Came Upon A Midnight Clear[02:59]
17. London Festival Orchestra - God Rest Ye Merry Gentlemen [01:58]
18. London Festival Orchestra - Up On The Housetop [01:16]
Playing Time.........: 39:35
Total Size...........: 93,09 MB
VA - White Christmas (2CD) 2009[MP3-320]

Klikni za povečavo!
04-12-2017 17:38 naložil andrejap
Sejalci: 1 / Odjemalci: 0 / Velikost: 249.13 MB / Dokončani: 4
Prenesi torrent Poročaj torrent Opis torrenta NFO
Zvrst: Glasbeni
Kategorija: GLASBA > Glasba

---------------------------------------------------------------------
VA - White Christmas
---------------------------------------------------------------------
Artist...............: Various Artists
Album................: White Christmas
Genre................: Pop
Source...............: CD
Year.................: 2009
Ripper...............: EAC (Secure mode) / LAME 3.92 & Asus CD-S520
Codec................: LAME 3.98
Version..............: MPEG 1 Layer III
Quality..............: Insane, (avg. bitrate: 320kbps)
Channels.............: Stereo / 44100 hz
Tags.................: ID3 v1.1, ID3 v2.3
Information..........:
Ripped by............: andrejap on 4. 12. 2017
Posted by............: andrejap on 4. 12. 2017
News Server..........: news.astraweb.com
News Group(s)........: alt.binaries.sounds.mp3.m
Included.............: NFO
Covers...............: Front Back CD
---------------------------------------------------------------------
Tracklisting CD1
---------------------------------------------------------------------
1. Band Aid - Do They Know It's Christmas [03:40]
2. Elton John - Step Intro Christmas [04:30]
3. Rap Allstars Feat. Leroy Daniels - Last Christmas [03:51]
4. Loona - Navidad (Christmas) [04:06]
5. Dru Hill - This Christmas [04:06]
6. Blink-182 - I Won't Be Home for Christmas [03:14]
7. Kurtis Blow - Christmas Rappin' [03:54]
8. Yello - Jingle Bells [02:56]
9. Hanson - Merry Christmas Baby [03:10]
10. Bozy II Men - Silent Night [02:32]
11. Aaron Neville - Please Come Home for Christmas [02:50]
12. Hermans House Band - Merry Xmas Everybody [03:41]
13. Michael Jackson - Little Christmas Tree [03:34]
14. Rapsody Feat. Angelique Kidjo & Scorpio - A Child is Born[03:58]
15. Masterboy - Wonderful Christmas Time [03:24]
16. Ateens - Happy New Year [04:21]
Playing Time.........: 57:54
Total Size...........: 136,14 MB
---------------------------------------------------------------------
Tracklisting CD2
---------------------------------------------------------------------
1. Bing Crosby - White Christmas [03:16]
2. David Essex - A Winter's Tale [04:10]
3. The Supremes - My Favorite Things [02:49]
4. Ringo Starr - The Little Drummer Boy [03:18]
5. Marvin Gye - Christmas in the City [03:13]
6. The Jackson 5 - Frosty the Snowman [02:36]
7. Ella Fitzgerald & Frank Devol - Orchestra Winter Wonderland[02:14]
8. Chuck Berry - Merry Christmas Baby [03:11]
9. The Temptations - Rudolph the Red-Nosed Reindeer [02:54]
10. Spike - Never Gonna Give You Up [03:57]
11. Brenda Lee - Rockin' Around the Christmas Tree [02:04]
12. Smokey Robinson & the Miracles - Let it Snow [01:38]
13. Dinah Washington - Ole Santa [02:41]
14. The Platters - Come Home for Christmas [02:24]
15. Patti Page - Where Did My Snowman Go [02:29]
16. Bert Kaempfert - Holiday for Bells [02:17]
Playing Time.........: 45:19
Total Size...........: 107,35 MB
Various Artist - Merry Christmas 2002[MP3-320]

Klikni za povečavo!
04-12-2017 15:31 naložil andrejap
Sejalci: 1 / Odjemalci: 0 / Velikost: 119.52 MB / Dokončani: 2
Prenesi torrent Poročaj torrent Opis torrenta NFO
Zvrst: Glasbeni
Kategorija: GLASBA > Glasba

---------------------------------------------------------------------
Various Artist - Merry Christmas
---------------------------------------------------------------------
Artist...............: Various Artist
Album................: Merry Christmas
Genre................: Pop, Christmas
Source...............: CD
Year.................: 2002
Ripper...............: EAC (Secure mode) / LAME 3.92 & Asus CD-S520
Codec................: FhG
Version..............: MPEG 1 Layer III
Quality..............: Insane, (avg. bitrate: 320kbps)
Channels.............: Joint Stereo / 44100 hz
Tags.................: ID3 v1.1, ID3 v2.3
Information..........:
Ripped by............: andrejap on 4. 12. 2017
Posted by............: andrejap on 4. 12. 2017
News Server..........: news.astraweb.com
News Group(s)........: alt.binaries.sounds.mp3.m
Included.............: NFO
Covers...............: Front Back CD
---------------------------------------------------------------------
Tracklisting
---------------------------------------------------------------------
1. Various Artist - Jungle Bells [03:03]
2. Various Artist - Last Christmas [04:25]
3. Various Artist - Medley. Mary's Boy Child [03:05]
4. Various Artist - Oh My Lord [01:34]
5. Various Artist - White Christmas [03:09]
6. Various Artist - When A Child Is Born [03:42]
7. Various Artist - Happy New Year [04:22]
8. Various Artist - The First Noel [02:38]
9. Various Artist - Auld Lang Syne [03:00]
10. Various Artist - Oh Christmas Tree [01:37]
11. Various Artist - Drummer Boy [03:40]
12. Various Artist - Have Yourself A Merry Little Christmas [05:02]
13. Various Artist - Silent Night - Holly Night [02:48]
14. Various Artist - Snow Falls Over The Ground [00:56]
15. Various Artist - Year Ye The Message [01:23]
16. Various Artist - Sweet Bells [00:55]
Playing Time.........: 45:25
Total Size...........: 109,72 MB
Elvis Presley - Christmas with Elvis and the Royal Philharmonic Orchestra 2017(Deluxe)[MP3-320]

Klikni za povečavo!
03-12-2017 14:18 naložil andrejap
Sejalci: 2 / Odjemalci: 0 / Velikost: 117.95 MB / Dokončani: 3
Prenesi torrent Poročaj torrent Opis torrenta NFO
Zvrst: Glasbeni
Kategorija: GLASBA > Glasba

---------------------------------------------------------------------
Elvis Presley - Christmas With Elvis And The Royal Philharmonic Orchestra (Deluxe)
---------------------------------------------------------------------
Artist...............: Elvis Presley
Album................: Christmas With Elvis And The Royal Philharmonic Orchestra (Deluxe)
Genre................: Christmas
Source...............: CD
Year.................: 2017
Ripper...............: EAC (Secure mode) / LAME 3.92 & Asus CD-S520
Codec................: LAME 3.93
Version..............: MPEG 1 Layer III
Quality..............: Insane, (avg. bitrate: 320kbps)
Channels.............: Joint Stereo / 44100 hz
Tags.................: ID3 v1.1, ID3 v2.3
Information..........:
Ripped by............: andrejap on 3. 12. 2017
Posted by............: andrejap on 3. 12. 2017
News Server..........: news.astraweb.com
News Group(s)........: alt.binaries.sounds.mp3.m
Included.............: NFO
Covers...............: Front Back
---------------------------------------------------------------------
Tracklisting
---------------------------------------------------------------------
1. Elvis Presley - Santa Claus Is Back In Town [02:27]
2. Elvis Presley - White Christmas [02:40]
3. Elvis Presley - Here Comes Santa Claus (Right Down Santa Claus Lane)[02:01]
4. Elvis Presley - Merry Christmas Baby [04:49]
5. Elvis Presley - Blue Christmas [02:08]
6. Elvis Presley - I'll Be Home For Christmas [03:15]
7. Elvis Presley - Winter Wonderland [02:19]
8. Elvis Presley - Santa Bring My Baby Back (To Me) [01:51]
9. Elvis Presley - Silver Bells [02:54]
10. Elvis Presley - Oh Little Town Of Bethlehem [02:48]
11. Elvis Presley - O Come All Ye Faithful [03:02]
12. Elvis Presley - The First Noel [02:52]
13. Elvis Presley - Silent Night [02:39]
14. Elvis Presley - (There'll Be) Peace In The Valley (For Me)[03:24]
15. Elvis Presley - I Believe [02:58]
16. Elvis Presley - Take My Hand, Precious Lord [03:40]
17. Elvis Presley - It Is No Secret (What God Can Do) [04:25]
Playing Time.........: 50:21
Total Size...........: 117,48 MB
Sia - Everyday Is Christmas 2017[MP3-320]

Klikni za povečavo!
03-12-2017 13:41 naložil andrejap
Sejalci: 0 / Odjemalci: 1 / Velikost: 84.14 MB / Dokončani: 4
Prenesi torrent Poročaj torrent Opis torrenta NFO
Zvrst: Glasbeni
Kategorija: GLASBA > Glasba

---------------------------------------------------------------------
Sia - Everyday Is Christmas
---------------------------------------------------------------------
Artist...............: Sia
Album................: Everyday Is Christmas
Genre................: Pop
Source...............: CD
Year.................: 2017
Ripper...............: EAC (Secure mode) / LAME 3.92 & Asus CD-S520
Codec................: LAME 3.99
Version..............: MPEG 1 Layer III
Quality..............: Insane, (avg. bitrate: 320kbps)
Channels.............: Stereo / 44100 hz
Tags.................: ID3 v1.1, ID3 v2.3
Information..........:
Ripped by............: andrejap on 3. 12. 2017
Posted by............: andrejap on 3. 12. 2017
News Server..........: news.astraweb.com
News Group(s)........: alt.binaries.sounds.mp3.m
Included.............: NFO
Covers...............: Front Back CD
---------------------------------------------------------------------
Tracklisting
---------------------------------------------------------------------
1. SIA - Santa's coming for us [03:24]
2. SIA - Candy Cane Lane [03:30]
3. SIA - Snowman [02:44]
4. SIA - Snowflake [04:01]
5. SIA - Ho ho ho [03:24]
6. SIA - Puppies are forever [03:41]
7. SIA - Sunshine [03:24]
8. SIA - Underneath the mistletoe [03:48]
9. SIA - Everyday is Christmas [03:22]
10. SIA - Underneath the Christmas lights [03:35]
Playing Time.........: 34:57
Total Size...........: 81,28 MB
Various Artists - NOW That's What I Call Merry Christmas 2017[MP3-320]

Klikni za povečavo!
03-12-2017 13:03 naložil andrejap
Sejalci: 0 / Odjemalci: 1 / Velikost: 146.33 MB / Dokončani: 2
Prenesi torrent Poročaj torrent Opis torrenta NFO
Zvrst: Glasbeni
Kategorija: GLASBA > Glasba

---------------------------------------------------------------------
VA - NOW That's What I Call Merry Christmas
---------------------------------------------------------------------
Artist...............: Various Artists
Album................: NOW That's What I Call Merry Christmas
Genre................: Christmas, Pop
Source...............: CD
Year.................: 2017
Ripper...............: EAC (Secure mode) / LAME 3.92 & Asus CD-S520
Codec................: FhG
Version..............: MPEG 1 Layer III
Quality..............: Insane, (avg. bitrate: 320kbps)
Channels.............: Stereo / 44100 hz
Tags.................: ID3 v1.1, ID3 v2.3
Information..........:
Ripped by............: andrejap on 3. 12. 2017
Posted by............: andrejap on 3. 12. 2017
News Server..........: news.astraweb.com
News Group(s)........: alt.binaries.sounds.mp3.m
Included.............: NFO
Covers...............: Front Back
---------------------------------------------------------------------
Tracklisting
---------------------------------------------------------------------
1. Justin Bieber - Mistletoe [02:56]
2. Ariana Grande - Winter Things [02:31]
3. Pentatonix - Mary, Did You Know? [03:13]
4. Nat King Cole Trio - The Christmas Song (Chestnuts Roasting On An Open Fire)[03:06]
5. Bing Crosby Feat. Ken Darby Singers & John Scott Trotter And His Orchestra - White Christmas[02:56]
6. Frank Sinatra - Have Yourself A Merry Little Christmas [03:20]
7. Johnny Mathis - It's Beginning To Look A Lot Like Christmas[02:08]
8. Andy Williams - It's The Most Wonderful Time Of The Year[02:23]
9. Burl Ives - A Holly Jolly Christmas [02:07]
10. Dean Martin - Let It Snow, Let It Snow, Let It Snow [01:49]
11. Elvis Presley Feat. Royal Philharmonic Orchestra - Blue Christmas (2017 Version)[02:01]
12. The Beach Boys - Little Saint Nick [01:53]
13. Gene Autry - Rudolph, The Red-Nosed Reindeer [03:01]
14. Jose Feliciano - Feliz Navidad [02:55]
15. Bing Crosby - Peace On Earth / The Little Drummer Boy [02:31]
16. The Temptations - Silent Night [05:57]
17. Donny Hathaway - This Christmas [03:59]
18. Trans-Siberian Orchestra - Christmas Canon [04:09]
19. Jackson 5 - Santa Claus Is Coming To Town [02:17]
20. Wham! - Last Christmas [04:11]
Playing Time.........: 59:34
Total Size...........: 145,25 MB
P.Domingo S.Brightman H.Lotti R.Cocciante - A Gala Christmas In Vienna 1998[MP3-320]

Klikni za povečavo!
03-12-2017 11:55 naložil andrejap
Sejalci: 1 / Odjemalci: 0 / Velikost: 153.28 MB / Dokončani: 2
Prenesi torrent Poročaj torrent Opis torrenta NFO
Zvrst: Glasbeni
Kategorija: GLASBA > Glasba

---------------------------------------------------------------------
Domingo/Brightman/Lotti/Cocciante - A Gala Christmas In Vienna
---------------------------------------------------------------------
Artist...............: Domingo/Brightman/Lotti/Cocciante
Album................: A Gala Christmas In Vienna
Genre................: Opera
Source...............: CD
Year.................: 1998
Ripper...............: EAC (Secure mode) / LAME 3.92 & Asus CD-S520
Codec................: LAME 3.98
Version..............: MPEG 1 Layer III
Quality..............: Insane, (avg. bitrate: 320kbps)
Channels.............: Stereo / 44100 hz
Tags.................: ID3 v1.1, ID3 v2.3
Information..........:
Ripped by............: andrejap on 3. 12. 2017
Posted by............: andrejap on 3. 12. 2017
News Server..........: news.astraweb.com
News Group(s)........: alt.binaries.sounds.mp3.m
Included.............: NFO
Covers...............: Front Back CD
---------------------------------------------------------------------
Tracklisting
---------------------------------------------------------------------
1. Domingo/Brightman/Lotti/Cocciante - Christmas Prologue [02:13]
2. Domingo/Brightman/Lotti/Cocciante - Deck The Halls [02:25]
3. Domingo/Brightman/Lotti/Cocciante - The Closing Of The Year[04:43]
4. Domingo/Brightman/Lotti/Cocciante - Tu Scendi Dalle Stelle[04:12]
5. Domingo/Brightman/Lotti/Cocciante - Walking In The Air [03:34]
6. Domingo/Brightman/Lotti/Cocciante - Adeste Fideles [03:58]
7. Domingo/Brightman/Lotti/Cocciante - Away In A Manger [03:29]
8. Domingo/Brightman/Lotti/Cocciante - An Old-Fashioned Christmas[04:06]
9. Domingo/Brightman/Lotti/Cocciante - First Of May [03:32]
10. Domingo/Brightman/Lotti/Cocciante - Il Re Gesu [04:42]
11. Domingo/Brightman/Lotti/Cocciante - Medley: Frohliche Weinacht[01:01]
12. Domingo/Brightman/Lotti/Cocciante - Medley: Cantemos Rapaces[01:33]
13. Domingo/Brightman/Lotti/Cocciante - Medley: Christmas Is Here Again[02:15]
14. Domingo/Brightman/Lotti/Cocciante - Medley: Child In A Manger[03:19]
15. Domingo/Brightman/Lotti/Cocciante - Medley: Angels From The Realms Of Glory[02:07]
16. Domingo/Brightman/Lotti/Cocciante - Medley: Another Christmas Song[02:17]
17. Domingo/Brightman/Lotti/Cocciante - Medley: Santa Claus Is Coming To Town[01:54]
18. Domingo/Brightman/Lotti/Cocciante - Medley: Happy Christmas (War Is Over)[03:59]
19. Domingo/Brightman/Lotti/Cocciante - Silent Night [07:17]
20. Domingo/Brightman/Lotti/Cocciante - First Of May [02:52]
Playing Time.........: 01:05:38
Total Size...........: 152,81 MB
Boney M. - Christmas With Boney M. 2007[MP3-320]

Klikni za povečavo!
02-12-2017 18:21 naložil andrejap
Sejalci: 1 / Odjemalci: 0 / Velikost: 158.16 MB / Dokončani: 4
Prenesi torrent Poročaj torrent Opis torrenta NFO
Zvrst: Glasbeni
Kategorija: GLASBA > Glasba

---------------------------------------------------------------------
Boney M. - Christmas With Boney M.
---------------------------------------------------------------------
Artist...............: Boney M.
Album................: Christmas With Boney M.
Genre................: Christmas, Disco, Pop glasba, Euro disco, R&B
Source...............: CD
Year.................: 2007
Ripper...............: EAC (Secure mode) / LAME 3.92 & Asus CD-S520
Codec................: LAME 3.97
Version..............: MPEG 1 Layer III
Quality..............: Insane, (avg. bitrate: 320kbps)
Channels.............: Joint Stereo / 44100 hz
Tags.................: ID3 v1.1, ID3 v2.3
Information..........:
Ripped by............: andrejap on 2. 12. 2017
Posted by............: andrejap on 2. 12. 2017
News Server..........: news.astraweb.com
News Group(s)........: alt.binaries.sounds.mp3.m
Included.............: NFO
Covers...............: Front Back CD
---------------------------------------------------------------------
Tracklisting
---------------------------------------------------------------------
1. Boney M. - Mary's Boy Child / Oh My Lord [05:08]
2. Boney M. - When A Child Is Born [03:17]
3. Boney M. - White Christmas [03:21]
4. Boney M. - Feliz Navidad [02:19]
5. Boney M. - Jingle Bells [03:26]
6. Boney M. - Zion's Daughter [03:47]
7. Boney M. - Darkness Is Fallling [02:59]
8. Boney M. - Hark The Herald Angels Sing [03:03]
9. Boney M. - Little Drummer Boy [04:20]
10. Boney M. - The First Noel [03:02]
11. Boney M. - Oh Christmas Tree [02:52]
12. Boney M. - I'll Be Home For Christmas [03:42]
13. Boney M. - Oh Come All Ye Faithful [03:40]
14. Boney M. - Petit Papa Noel [01:40]
15. Boney M. - Winter Fairy [02:58]
16. Boney M. - Joy To The World [02:31]
17. Boney M. - Auld Lang Syne [02:34]
18. Boney M. - Christmas Medley [07:49]
19. Boney M. - Mary's Boy Child / Oh My Lord (feat. Daddy Cool Kids) (Bonus Track)[04:45]
Playing Time.........: 01:07:21
Total Size...........: 156,63 MB
The Three Tenors - The Three Tenors Christmas 2000[MP3-320]

Klikni za povečavo!
02-12-2017 17:54 naložil andrejap
Sejalci: 1 / Odjemalci: 0 / Velikost: 155.91 MB / Dokončani: 4
Prenesi torrent Poročaj torrent Opis torrenta NFO
Zvrst: Glasbeni
Kategorija: GLASBA > Glasba

---------------------------------------------------------------------
The Three Tenors - The Three Tenors Christmas
---------------------------------------------------------------------
Artist...............: The Three Tenors
Album................: The Three Tenors Christmas
Genre................: Opera, Christmas
Source...............: CD
Year.................: 2000
Ripper...............: EAC (Secure mode) / LAME 3.92 & Asus CD-S520
Codec................: LAME 3.98
Version..............: MPEG 1 Layer III
Quality..............: Insane, (avg. bitrate: 320kbps)
Channels.............: Stereo / 44100 hz
Tags.................: , ID3 v2.3
Information..........:
Ripped by............: andrejap on 2. 12. 2017
Posted by............: andrejap on 2. 12. 2017
News Server..........: news.astraweb.com
News Group(s)........: alt.binaries.sounds.mp3.m
Included.............: NFO
Covers...............: Front Back CD
---------------------------------------------------------------------
Tracklisting
---------------------------------------------------------------------
1. The Three Tenors - Adeste Fideles [02:44]
2. The Three Tenors - Cantique De Noel (O Holy Night) [03:53]
3. The Three Tenors - Ave Maria, Dolce Maria [02:45]
4. The Three Tenors - Wiegenlied [02:03]
5. The Three Tenors - Oh Tannenbaum [01:59]
6. The Three Tenors - Tu Scendi Dalle Stelle [02:14]
7. The Three Tenors - Amazing Grace [03:38]
8. The Three Tenors - White Christmas [02:48]
9. The Three Tenors - Dormi O Bambino [03:22]
10. The Three Tenors - Silent Night [05:29]
11. The Three Tenors - Pregarla (El Can De L'anima A La Verge)[04:27]
12. The Three Tenors - Susani [02:11]
13. The Three Tenors - Happy Christmas/War Is Over [03:23]
14. The Three Tenors - Wiegenlied [04:15]
15. The Three Tenors - Carol Of The Drum (The Little Drummer Boy)[03:04]
16. The Three Tenors - La Virgen Lava Paqales [02:06]
17. The Three Tenors - I'll Be Home For Christmas [02:25]
18. The Three Tenors - Sleigh Ride [01:50]
19. The Three Tenors - Winter Wonderland [01:52]
20. The Three Tenors - Un Nuevo Siglo [03:57]
21. The Three Tenors - Feliz Navidad [05:51]
Playing Time.........: 01:06:26
Total Size...........: 155,29 MB
Kylie Minogue - Kylie Christmas 2015[MP3-320]

Klikni za povečavo!
02-12-2017 17:45 naložil andrejap
Sejalci: 1 / Odjemalci: 0 / Velikost: 118.53 MB / Dokončani: 2
Prenesi torrent Poročaj torrent Opis torrenta NFO
Zvrst: Glasbeni
Kategorija: GLASBA > Glasba

---------------------------------------------------------------------
Kylie Minogue - Kylie Christmas
---------------------------------------------------------------------
Artist...............: Kylie Minogue
Album................: Kylie Christmas
Genre................: Christmas, Pop
Source...............: CD
Year.................: 2015
Ripper...............: EAC (Secure mode) / LAME 3.92 & Asus CD-S520
Codec................: LAME 3.98
Version..............: MPEG 1 Layer III
Quality..............: Insane, (avg. bitrate: 320kbps)
Channels.............: Stereo / 44100 hz
Tags.................: ID3 v1.1, ID3 v2.3
Information..........:
Ripped by............: andrejap on 18. 11. 2017
Posted by............: andrejap on 2. 12. 2017
News Server..........: news.astraweb.com
News Group(s)........: alt.binaries.sounds.mp3.m
Included.............: NFO
Covers...............: Front Back CD
---------------------------------------------------------------------
Tracklisting
---------------------------------------------------------------------
1. Kylie Minogue - It's The Most Wonderful Time Of The Year[02:43]
2. Kylie Minogue - Santa Claus Is Coming To Town Featuring Frank Sinatra[02:14]
3. Kylie Minogue - Winter Wonderland [01:52]
4. Kylie Minogue - Christmas Wrapping (With Iggy Pop) [05:03]
5. Kylie Minogue - Only You (With James Corden) [03:04]
6. Kylie Minogue - I'm Gonna Be Warm This Winter [02:28]
7. Kylie Minogue - Every Day's Like Christmas [04:11]
8. Kylie Minogue - Let It Snow [01:54]
9. Kylie Minogue - White December [03:06]
10. Kylie Minogue - 2000 Miles [03:33]
11. Kylie Minogue - Santa Baby [03:20]
12. Kylie Minogue - Christmas Isn't Christmas Til You Get Here[03:02]
13. Kylie Minogue - Have Yourself A Merry Little Christmas [03:19]
14. Kylie Minogue - Oh Santa [02:36]
15. Kylie Minogue - 100 Degrees (With Dannii Minogue) [04:28]
16. Kylie Minogue - Cried Out Christmas [03:45]
Playing Time.........: 50:44
Total Size...........: 118,24 MB
Frank Sinatra - The Sinatra Christmas Album 1987[MP3-320]

Klikni za povečavo!
02-12-2017 17:28 naložil andrejap
Sejalci: 2 / Odjemalci: 0 / Velikost: 137.73 MB / Dokončani: 3
Prenesi torrent Poročaj torrent Opis torrenta NFO
Zvrst: Glasbeni
Kategorija: GLASBA > Glasba

---------------------------------------------------------------------
Frank Sinatra - The Sinatra Christmas Album
---------------------------------------------------------------------
Artist...............: Frank Sinatra
Album................: The Sinatra Christmas Album
Genre................: Christmas Music, Vocal Jazz, Traditional Pop
Source...............: CD
Year.................: 1987
Ripper...............: EAC (Secure mode) / LAME 3.92 & Asus CD-S520
Codec................: LAME 3.98
Version..............: MPEG 1 Layer III
Quality..............: Insane, (avg. bitrate: 320kbps)
Channels.............: Stereo / 44100 hz
Tags.................: ID3 v1.1, ID3 v2.3
Information..........:
Ripped by............: andrejap on 2. 12. 2017
Posted by............: andrejap on 2. 12. 2017
News Server..........: news.astraweb.com
News Group(s)........: alt.binaries.sounds.mp3.m
Included.............: NFO
Covers...............: Front Back CD
---------------------------------------------------------------------
Tracklisting
---------------------------------------------------------------------
1. Frank Sinatra - Jingle Bells [00:52]
2. Frank Sinatra - The Christmas Song (Merry Christmas To You)[02:18]
3. Frank Sinatra - Mistletoe And Holly [01:09]
4. Frank Sinatra - I'll Be Home For Christmas [02:02]
5. Frank Sinatra - The Christmas Waltz [01:53]
6. Frank Sinatra - Have Yourself A Merry Little Christmas (Film 'meet In St Louis')[02:19]
7. Frank Sinatra - The First Noel [01:33]
8. Frank Sinatra - Hark The Herald Angels Sing [01:14]
9. Frank Sinatra - O Little Town Of Bethlehem [00:56]
10. Frank Sinatra - Adeste Fideles [01:24]
11. Frank Sinatra - It Came Upon A Midnight Clear [01:42]
12. Frank Sinatra - Silent Night [01:19]
13. Frank Sinatra - White Christmas [01:26]
14. Frank Sinatra - The Christmas Waltz [01:50]
Playing Time.........: 22:03
Total Size...........: 126,63 MB
DJ VIHAR & DJ AJDA - SLO & HR MIX 53

Klikni za povečavo!
29-11-2017 16:08 naložil Ajda
Sejalci: 3 / Odjemalci: 0 / Velikost: 197.18 MB / Dokončani: 86
Prenesi torrent Poročaj torrent Opis torrenta NFO
Kategorija: GLASBA > Glasba




INFO:
DJ VIHAR & DJ AJDA - SLO & HR MIX 53
Format : MPEG Audio
File size : 197 MiB
Duration : 1 h 26 min
Overall bit rate mode : Constant
Overall bit rate : 320 kb/s
Encoded by : Lavf52.39.0
Writing library : LAME3.98

Audio
Format : MPEG Audio
Format version : Version 1
Format profile : Layer 3
Mode : Joint stereo
Duration : 1 h 26 min
Bit rate mode : Constant
Bit rate : 320 kb/s
Channel(s) : 2 channels
Sampling rate : 48.0 kHz
Compression mode : Lossy
Stream size : 197 MiB (100%)
Writing library : LAME3.98

VSEBINA:
01. SAŠA LANDERO - Kam ste šli prijatelji
02. ČUDEŽNI DEČKI - Nisem princ iz njenih sanj
03. DRAŽEN ZEČIČ - Stari prijetelji se ne rastaju
04. JASMIN STAVROS - Duga je noč
05.GRUPA BANANA ALEN NIZETIČ - Prodane duše
06. UČITELJICE - Šlag
07. BORIS NOVKOVIČ - Čista ljubav
08. ZDRAVKO ČOLIČ - Šljive su rodile
09. MARIJAN SMODE - Planike cvet
10. MLADI GAMSI - Ni se še taka rodila
11. LIDIJA BAČIČ - Šok
12. MEJAŠI LANA JURČEVIČ - Duplo slade
13. LUKA BASI LJUBAVNICI - Moja
14. DAVOR RADOLFI & RITMO LOKO - Pred tvojim vratima
15. LJUBAVNICI - Hladne ruke
16. BARUNI - Dobro došla mi u sječanje
17. BARABE - Da te volim
18. DUŠKO LOKIN & JADRANSKI MAESTARALI - Volim žene sve
19. ZRAVKO ŠKENDER - Da mi je
20. ZRAVKO ČOLIČ - Mala
21. LEXINGTON - Navučen na tvoje usne
22. NUŠA ROJS - Zvok kopit
23. TANJA ŽAGAR - Baraba
24. ANDREJA - Ko rožmarin cveti
25. WERNER - Stara domačija



Drazen Zecic - Ja Te Volio Nisam (2017) [MuSi]

Klikni za povečavo!
24-11-2017 18:43 naložil Ajda
Sejalci: 1 / Odjemalci: 0 / Velikost: 83.74 MB / Dokončani: 27
Prenesi torrent Poročaj torrent Opis torrenta NFO
Kategorija: GLASBA > Glasba


VSEBINA:
1. (00:04:29) Drazen Zecic - Ne Bi Me Izdala
2. (00:03:18 ) Drazen Zecic - Tako Sam Sretan Sto Te Vidim
3. (00:03:13) Drazen Zecic - Ja Te Volio Nisam
4. (00:03:33) Drazen Zecic - Stari Prijatelji Se Ne Rastaju
5. (00:03:11) Drazen Zecic - Da Mi Carstvo Daju
6. (00:02:50) Drazen Zecic - Zivote Ne Budi Grub
7. (00:03:40) Drazen Zecic - Ona Novu Ljubav Ima
8. (00:03:31) Drazen Zecic - Zaustavit Cu Vrime
9. (00:03:30) Drazen Zecic - Koga Da Volim Kad Tebe Nema
10. (00:03:54) Drazen Zecic - Ljeto Ide
INFO:
Artist: Drazen Zecic
Album: Ja Te Volio Nisam
Genre: Pop
Year: 2017
Music Format: MP3
Quality: Insane, (avg. bitrate: 320kbps)
Channels: Joint Stereo / 44100 hz
Playing Time 00:35:09
Total Size: 83,58 MB


Andrej Šifrer - 40 let norosti - 2017

Klikni za povečavo!
24-11-2017 18:40 naložil Ajda
Sejalci: 2 / Odjemalci: 0 / Velikost: 116.47 MB / Dokončani: 15
Prenesi torrent Poročaj torrent Opis torrenta NFO
Kategorija: GLASBA > Glasba


VSEBINA:
01. (00:10:48) Andrej Šifrer - 40 let norosti
02. (00:03:28) Andrej Šifrer - Kakšen dan
03. (00:03:59) Andrej Šifrer - Ljubi na glas
04. (00:04:14) Andrej Šifrer - Oče naš
05. (00:03:39) Andrej Šifrer - Ostan'pr'men
06. (00:03:51) Andrej Šifrer - Ramona rap
07. (00:03:59) Andrej Šifrer - Ramona
08. (00:05:31) Andrej Šifrer - Smo?
09. (00:03:41) Andrej Šifrer - Svet je poln
10. (00:03:19) Andrej Šifrer - Taki ljudje
11. (00:04:10) Andrej Šifrer - Tečem

INFO:
Artist .........: Andrej Šifrer
Album .........: 40 let norosti
Genre ..........: Pop, Pop Rock
Source .........: WEB
Year ...........: 2017
No. of songs ...: 11
Covers .........: Front
Total time .....: 00:50:39
Total Size .....: 116,18 MB
Music Format ...: MP3
Quality ........: Insane, (avg. bitrate: 320kbps)
Channels .......: Joint stereo / 44100 hz