All torrents are Free between 01-12-2019 - 31-12-2019
A
B
C
D
E
F
G
H
I
J
K
L
M
N
O
P
Q
R
S
T
U
V
W
X
Y
Z
0-9
DJ VIHAR & DJ AJDA - SLO & HR MIX 57

Klikni za povečavo!
14-09-2019 11:14 naložil Ajda
Sejalci: 3 / Odjemalci: 0 / Velikost: 166.94 MB / Dokončani: 28
Prenesi torrent Poročaj torrent Opis torrenta NFO
Kategorija: GLASBA > Glasba




-------------------------------------------------------------------------------
Avdio podatki
-------------------------------------------------------------------------------
Complete name : DJ VIHAR & DJ AJDA - SLO & HR MIX 57
Format : MPEG Audio
File size : 166 MiB
Duration : 1h 12mn
Overall bit rate mode : Constant
Overall bit rate : 320 Kbps
Encoded by : Lavf52.39.0
Writing library : LAME3.98

Audio
Format : MPEG Audio
Format version : Version 1
Format profile : Layer 3
Mode : Joint stereo
Duration : 1h 12mn
Bit rate mode : Constant
Bit rate : 320 Kbps
Channel(s) : 2 channels
Sampling rate : 48.0 KHz
Compression mode : Lossy
Stream size : 166 MiB (100%)
Writing library : LAME3.98


01. SKUPINA ZAKA PA NE - Atmosfera
02. ŽELJKO BEBEK - 100 sam dana pio
03. ZVITA FELTNA - Zate
04. JOLE - Godišnjica
05. DANIJEL POPOVIČ - Hej lane moje
06. CECILIJA - Mangup
07. VIGOR /Feat ISSAC PALMA - Šatori
08. KLAPA PUNTAMIKA - Noč punog meseca
09. SAŠA LENDERO / DOMEN KUMER - 100%
10. ALYA -Sedam dana na moru
11. ARRIVA - Moje petke
12 . IVICA ŠEPERIČ / JASMIN STAVROS - Pravi dalmatinac
13. IVANA KOVAČ - Ti
14. DEJAN VUNJAK - Čist majčken
15. MEJAŠI - Ja još mogu
16. THE FRAJLE - Nočas si moje vino
17. MARKO ŠKUGOR - Kako te jubim ja
18. ZVITA FELTNA - Gin in tonic
19. DAVID RICOV - Adio pape, adio mama
20. NON STOP / JASMIN STAVROS - Tutta forza
21. DOMEN KUMER - Prva runda


Semino Rossi -Hits 2019 MP3 BlackDevil

Klikni za povečavo!
03-11-2019 12:29 naložil BlackDevil
Sejalci: 2 / Odjemalci: 0 / Velikost: 56.79 MB / Dokončani: 3
Prenesi torrent Poročaj torrent Opis torrenta
Kategorija: GLASBA > Glasba

Rezultat iskanja slik za Semino Rossi HITS
Povezana slika
Info
Artist.....................: Semino Rossi
Album...................: DAS BESTE
Genre.....................: zabavna
Year........................: 2019
Total Size................: 48,01 MB

Music Format.........: MP3
Quality...................: Insane, (avg. bitrate: 192kbps)
Channels.................: Joint stereo

Tracklisting
1.Semino Rossi - Das verflixte
2.Semino Rossi - Du warst das schönste Mädchen
3.Semino Rossi - Himmel ,Sonne, Mond und Sterne
4.Semino Rossi - Hola, Hola - Hast Du heute Abend Zeit für mich
5.Semino Rossi - Ja - ich würd es immer wieder tun
6.Semino Rossi --- Muy bien
7.Semino Rossi - Niemals geb ich dich her
8.Semino Rossi - No Mas Boleros
9.Semino Rossi Frag - nicht wohin die Liebe geht
10.Semino Rossi -Komm' und küss mich Corazon


Slovenska Narodno Zabavna Glasba Hiti (2018)

Klikni za povečavo!
03-11-2019 12:04 naložil BlackDevil
Sejalci: 3 / Odjemalci: 0 / Velikost: 750.07 MB / Dokončani: 21
Prenesi torrent Poročaj torrent Opis torrenta
Kategorija: GLASBA > Glasba

Rezultat iskanja slik za Slovenska Narodno Zabavna Glasba

Info
Različni izvajalci - Slovenska Narodno Zabavna Glasba Hiti (2018)
Narodnozabavna
320 kbps
MP3
05:27:42
750,06 Mb

Tracklisting

Ansambel Fantje z vseh vetrov-Vzemi Si Čas
Ans. Alojza Grnjaka - Nevesti v slovo (1973)
ANS. Braneta Klavžarja - Imej me rada
Ans. Jožeta Škoberneta & Fanti iz Brezovske gore-Stari mlin tam ob potoku
ANS. Toneta Rusa - Prstan zvestobe
Ans. Vrt-Napisal sem pesem o tebi
Ansambel bratov Avbreht - Očka zakaj tajiš
Ansambel bratov Avsenik- Nobena ni lepša kot moja
Ansambel bratov Poljanšek - Skupaj za vedno
Ansambel bratov Poljanšek - Slepec
Ansambel Bratov Poljanšek-Oče prosimo te vsi
Ansambel Črički -Stari mlin ve
Ansambel Fantje Z Vseh Vetrov-Tam Smo Doma
Ansambel Franca Potočarja - Dekle z mlina
Ansambel Franca Potočarja - Pojdi svojim sanjam naproti
Ansambel Franca Rajgla - Ko stopim čez domači prag
Ansambel Jožeta Škoberneta-Slavni Jaka
Ansambel Lojzeta Slaka - Tiho hiša najina stoji
Ansambel Lojzeta Slaka - Pri farni cerkvici
Ansambel Ottavia Brajka - Stari mlin sameva (1979)
Ansambel Petra Finka - Morska pravljica
Ansambel Sredenšek sekstet - Štajerc naš je very good
Ansambel Svetlin in Stane Petrič - Belo obleko si že nosila
Ansambel Toneta Kmetca - Mamica je kakor zarja
Ansambel Toneta Rusa - Zvon želja
Ansambel Toneta Rusa & Boštjan Romih-Sreča
Ansambel Tonija Verderberja
Ansambel Vrt - Klopotec
Avseniki - Mi ga spet žingamo
Čuki & Modrijani - Daj mi poljub
Čuki-Biseri Sreče
Dobri Znanci -- Šumijo Gozdovi Domači
Fantje s Praprotna -Hodil k najlepši sem deklici
Fantje s Praprotna Domača hiša
Fantje z vseh vetrov-Sosed dober dan
Franc Flere s pevko Matejo - Ljubezen mamina
Franjo Bobinac-Moja babica (1973)
Henček - Mamici
Jože Bohorč s prijatelji - Mamini spomini
Jože Bohorč s prijatelji - Nevestina pesem
Ansambel Lojzeta Slaka -Kje mamici bi rož nabral
Zlati Muzikanti-Le prijatelja bodiva
Lojze Slak - mama
Lojze Slak - Popotnik
Lojze Slak - Srnjak
Ans. Alojza Grnjaka- Matjašek je gujdeka kla
Modra kronikla - Gospod kaplan
Modrijani in Elda Viler-Klic srca
Ansambel Jožeta Škoberneta-Naivna Nežika
Novi spomini - Pet minut
Novi spomini - Postoj dekle
Ansambel Toneta Rusa - Očku za rojstni dan
Partizanske - Šivala je deklica zvezdo
Partizanske - Počiva jezero v tihoti
Ansambel Lipovšek - Rad bi se postaral s teboj
Ansambel Borisa Kovačiča-Rastejo v strmi gori bele planike tri
Show band klobuk - Spomin na stari mlin
Slapovi - Belo pismo
Slapovi - Da spočijem se na tvoji rami
Štirje kovači - Čakal sem deklico ob potoku
Tone Kmetec - Mami oj mami
Ansambel Lojzeta Slaka-Diamantnih 30 (2009) mp3

Klikni za povečavo!
03-11-2019 11:55 naložil BlackDevil
Sejalci: 1 / Odjemalci: 0 / Velikost: 223.36 MB / Dokončani: 7
Prenesi torrent Poročaj torrent Opis torrenta
Kategorija: GLASBA > Glasba

cover

Info
Artist.....................: Ansambel Lojzeta Slaka
Album...................: Diamantnih 30
Genre.....................: Folk/Narodno zabavna
Year........................: 2009
Playing Time..........: 01:30:48
Total Size................: 223,31 MB

Music Format.........: MP3
Quality...................: Insane, (avg. bitrate: 320kbps)
Channels.................: Joint stereo / 44100 hz

Tracklisting
cover
DJ VIHAR & DJ AJDA - SLO & HR MIX 56

Klikni za povečavo!
09-09-2019 18:22 naložil System
Sejalci: 4 / Odjemalci: 0 / Velikost: 167.41 MB / Dokončani: 30
Prenesi torrent Poročaj torrent Opis torrenta NFO
Kategorija: GLASBA > Glasba
Anonimen nalagalec





-------------------------------------------------------------------------------
Avdio podatki
-------------------------------------------------------------------------------
DJ VIHAR & DJ AJDA - SLO & HR MIX 56
Format : MPEG Audio
File size : 167 MiB
Duration : 1h 12mn
Overall bit rate mode : Constant
Overall bit rate : 320 Kbps
Encoded by : Lavf52.39.0
Writing library : LAME3.98

Audio
Format : MPEG Audio
Format version : Version 1
Format profile : Layer 3
Mode : Joint stereo
Duration : 1h 12mn
Bit rate mode : Constant
Bit rate : 320 Kbps
Channel(s) : 2 channels
Sampling rate : 48.0 KHz
Compression mode : Lossy
Stream size : 167 MiB (100%)
Writing library : LAME3.98

VSEBINA:

01. IVANA KOVAČ - Za mene
02. JASMIN STAVROS/PIŠTEK/NAVIHANKE - Angel in hudič
03. NEDA UKRADEN - Najteže je kad se rastaje
04. SKUPINA CALYPSO - Mala barka
05. ŠARMERI - Usne boje vina
06. ALEN VOGRINEC VESEL - Prijatelju moj
07. JASMIN STAVROS - Na planini
08. MEJAŠI - Blago nama
09. KUMOVI - Rajna
10. NATAŠA MADJAR - Pa si mi rekel
11. TEQUILA - Vanilija
12. DOMEN KUMER - Najboljše vino
13. LUKA BASI / MARKO ŠKUGOR - Ružo bila
14. MARK ZEBRA - Marina
15. LJUBAVNICI - Jedna jedina
16. MARIO ROSO - Kaplja vina
17. NINA DONELI / TARAPANA BAND - Genijalno
18. DRAŽEN ZEČIČ - Sve je zbog nje
19. DANIJELA MARTINOVIČ - Kao prekjučer
20. MATE BULIČ / TARAPANA BAND - Ja sam nate ponosan
21. KVARTOPIRCI - Ti si zame čokolada



Slovenski Love Mix 2019 by BlackDevil

Klikni za povečavo!
25-06-2019 07:12 naložil BlackDevil
Sejalci: 1 / Odjemalci: 0 / Velikost: 299.69 MB / Dokončani: 17
Prenesi torrent Poročaj torrent Opis torrenta
Kategorija: GLASBA > Glasba




Artist: Various Artists
Album: Slovenski Love Mix 2019 by BlackDevil
Genre: Pop,Rock,Zabavni
Year: 2019
Music Format: MP3
Quality: Insane, (avg. bitrate: 192kbps)
Total Size: 299 MB


101ka band - Le zakaj si žalostna
101ka band - Lubice moje
Alya - Dobro jutro življenje
Anika Horvat - Tika Tak
Coto, Jan in Modrijani - En poljub
CUKI in KVATROPIRCI - Če se od spominov da živet'
DARJA GAJSEK - Kako pogresa te srce

Don Juan-Povej mi Marina
Drevored - Daleč od ponorelega sveta
EVA BOTO - Na kožo pisana
Fabricca - Predobro
Faraoni - Ne bom pozabil na stare čase
HELENA BLAGNE - Kar bo pa bo
Jan Plestenjak - Ob tebi bom ostal
Jan Plestenjak - Povej mi, kaj bi rada
Jan Plestenjak - Roke stran
Jan Plestenjak - Stara dobra
Jan Plestenjak, Modrijani in Coto - Dal bom besedo
KLAPA SKALA & DARJA GAJŠEK - Mala barka
Klara Jazbec - Milijon in ena
Ksenija - Ne vem, če veš
Marko Vozelj in Mojstri-Le en centimeter
MAJA ODERLAP - ZALJUBLJENE PESMI
MANCA ŠPIK - KJER POMOL POLJUBI MORJE
MANCA ŠPIK & ISAAC PALMA - OBA
MANCA ŠPIK & POSKOČNI - PRIJATELJ
Manca Špik in Kvatropirci - Pesem
MARK ZEBRA - FENOMENALNA
Marko Vozelj in Mojstri - Ljubezen ni samo navada
Marko Vozelj in Mojstri - Me boš še ljubila
Marko Vozelj in Mojstri - Oljke, Rožmarin in Sol
Marko Vozelj in Mojstri - Preprosto pašeš mi
Marko Vozelj in Mojstri - Prevečkrat
Miran Rudan - Na nebo
Modrijani & Isaac Palma - Hočem le tebe
NEISHA - Vrhovi
NIKA ZORJAN - ZA VEDNO
Nina Pušlar - Za naju
Nina Pušlar & Matjaž Robavs - Mimogrede
Nina Pušlar feat. Jan Plestenjak - Tebe imam
Nočna Pravila - Ti
Tjaša Hrovat in Uroš Steklasa-ODGOVOR ŽE POZNAŠ
Peter Lovšin-Sam en majhen poljub
POP DESIGN - Ne joči (da srce ne poči)
POP DESIGN - Nisem ti verjel
Pop design - Vzela si moje srce
Jan Plestenjak-Pustil Ti Bom Sanje
Rebeka Dremelj - Še verjamem
Siddharta - Lej Lej Lej
Skupina TEQUILA - DEJA VU
Skupina ZAKA' PA NE - ATMOSFERA
Šank Rock - Dvigni pogled
Šank Rock-Pravljica o mavričnih ljudeh
TABU Pesek in do
Korado.&.Brendi.Nepozabne.uspešnice-Churchill

Klikni za povečavo!
14-04-2019 14:21 naložil System
Sejalci: 0 / Odjemalci: 1 / Velikost: 163.45 MB / Dokončani: 9
Prenesi torrent Poročaj torrent Opis torrenta
Kategorija: GLASBA > Glasba
Anonimen nalagalec

Korado & Brendi: Nepozabne uspešnice



INFO:

Artist...............: Korado & Brendi
Album................: Nepozabne uspešnice
Genre................: Pop-Folk
Source...............: CD
Year.................: 2003
Ripper...............: LAME MP3 Encoder (1.30, engine 3.92 MMX)
Version..............: MPEG 1 Layer III
Quality..............: (bitrate: 320kbps)
Channels.............: Stereo / 48000 hz
Tags.................: ID3 v2

TRACKLISTING:

01. Dalmatinci
02. Zate bi rože kradel
03. Čevapčiči
04. Boter Vinny
05. Zemlja pleše
06. Fešta mix
07. Oj, kozarček moj
08. Anika
09. Recite ji, angeli
10. Sulica
11. Sladka je ljubezen ta
12. Lažnivca
13. Fabrika
14. Zvezde žarijo
15. O, ne
16. Franci na balanci
17. Gospa moj poklon
18. Moja bo
19. Pastirče mlado
20. Vem, da me varaš
21. Samo enkrat se ljubi
22. Zaigrajte stari tamburaši

Vrsta.............: .mp3
Bitrate...........: 320 kbps
Velikost..........: 163 MB
Demis.Roussos-Prasentiert.von.Ilja.Richter.2000-Churchill

Klikni za povečavo!
09-03-2019 18:00 naložil System
Sejalci: 1 / Odjemalci: 0 / Velikost: 146.35 MB / Dokončani: 2
Prenesi torrent Poročaj torrent Opis torrenta
Kategorija: GLASBA > Glasba
Anonimen nalagalec

Demis Roussos
Goodbye, My Love, Goodbye


TRACKLISTING:
01. Goodbye, My Love, Goodbye
02. Schon Wie Mona Lisa (Wenn Ich Ein Maler Wär')
03. Die Bouzuki, Die Nacht Und Der Wein
04. Wenn Ich Wiederkomm'
05. Trink Mit Mir Den Sommerwein
06. Walzer Für Zwei
07. Leierkasten Auf Dem Boulevard
08. Ich Liebe Dich Noch Immer
09. Ich Bin Frei
10. Schones Madchen Aus Arcadia
11. Kyrila (Elongi)

12. Ich Hab' Das Gluck Gesehen
13. So Wie Du Bist
14. Die Flugel Deiner Liebe
15. Brauchst Du Einen Freund
16. Deine Liebe Wird Mir Fehlen
17. Die Nachte Von Athen
18. Vagabund Der Liebe

Ena izmed:





DJ VIHAR & DJ AJDA - SLO & HR MIX 55

Klikni za povečavo!
28-12-2018 18:16 naložil Ajda
Sejalci: 2 / Odjemalci: 1 / Velikost: 233.04 MB / Dokončani: 59
Prenesi torrent Poročaj torrent Opis torrenta NFO
Kategorija: GLASBA > Glasba




-------------------------------------------------------------------------------
Avdio podatki
-------------------------------------------------------------------------------
DJ VIHAR & DJ AJDA - SLO & HR MIX 55
Format : MPEG Audio
File size : 232 MiB
Duration : 1h 41mn
Overall bit rate mode : Constant
Overall bit rate : 320 Kbps
Encoded by : Lavf52.39.0
Writing library : LAME3.98

Audio
Format : MPEG Audio
Format version : Version 1
Format profile : Layer 3
Mode : Joint stereo
Duration : 1h 41mn
Bit rate mode : Constant
Bit rate : 320 Kbps
Channel(s) : 2 channels
Sampling rate : 48.0 KHz
Compression mode : Lossy
Stream size : 232 MiB (100%)
Writing library : LAME3.98

VSEBINA :

01. ZDRAVKO ŠKENDER - Dao bih sve
02. DEJAN VUNJAK - Če mam pa tebe
03. STAVROS in BLAGNE - Dajem brdo zlata
04. MEJAŠI in LANA - Duplo slađe
05. TEQUILA - Lažu lažu sve
06. DRAŽEN ZEČIČ - Da mi daju carstvo
07. ANJA - Svjetla grada
08. BEGINI - Moja ljube
09. HALID BESLIĆ - Taman je
10. MANCA ŠPIK - Kjer pomol poljubi morje
11. DUŠKO LOKIN in STAVROS - Momačka večer
12. IVAN ZAK - Laku noč
13. IVANA KOVAČ - Biser s juga
14. BANE MOJIČEVIĆ - Ne ide vino bez harmonike
15. IVAN STAPIČ - Pozdravi je prijatelju moj
16. TRI MUŠKETIRA - Prijatelji zovite mi nju
17. ISAAC PALMA - Sreča moja si
18. ALYA - Dobro jutro življenje
19. ČUDEŽNI DEČKI - Črna žena
20. SKATER - Poka poka
21. LIDIJA BAČIĆ - 3 minute
22. DANIJELA in JOLE - Na granici
23. MARK ZEBRA - Fenomenalno
24. ČUKI in KVARTOPIRCI - Če se od spominov da živet
25. DUŠKO in SANJA - Moje srce više nema mira
26. GORAN KARAN - u 4 oka
27. LJUBAVNICI - Oko zeleno
28. NEDA UKRADEN - Kao vino i gitara
29. SKUPINA EROS - Šum na srcu
30. TARAPANA BAND - Neženja




110 Hits 2019

Klikni za povečavo!
26-12-2018 17:53 naložil System
Sejalci: 0 / Odjemalci: 0 / Velikost: 858.47 MB / Dokončani: 19
Prenesi torrent Poročaj torrent Opis torrenta
Kategorija: GLASBA > Glasba
Anonimen nalagalec

Genre: Pop, Rock, Dance
Quality: MP3 320 kbps


---------------------------------------------------------------------
VA - 110 Hits 2019
---------------------------------------------------------------------

Artist...............: Various Artists
Album................: 110 Hits 2019
Genre................:
Source...............: CD
Year.................: 2018
Ripper...............: EAC (Secure mode) / LAME 3.92 & Asus CD-S520
Codec................: LAME 3.99
Version..............: MPEG 1 Layer III
Quality..............: Insane, (avg. bitrate: 320kbps)
Channels.............: Joint Stereo / 44100 hz
Tags.................: ID3 v1.1, ID3 v2.3
Information..........:

Ripped by............: somebody on 25.12.2018
Posted by............: somebody on 25.12.2018
News Server..........: news.astraweb.com
News Group(s)........: alt.binaries.sounds.mp3.m

Included.............: NFO


---------------------------------------------------------------------
Tracklisting
---------------------------------------------------------------------

1. Dadju - Jaloux [03:54]
2. DJ Snake - Taki Taki [03:33]
3. Imagine Dragons - Natural [03:08]
4. Vegedream - [03:56]
5. Ariana Grande - breathin [03:17]
6. Kendji Girac - Tiago [02:56]
7. Maroon 5 - Girls Like You [03:56]
8. Jain - Alright [03:42]
9. George Ezra - Shotgun [03:18]
10. Marshmello - Happier [03:33]
11. LSD - Audio [03:23]
12. Dynoro - In My Mind [03:03]
13. The Prince Karma - Later Bitches [04:08]
14. Balan Dan - Numa Numa 2 [03:24]
15. Eddy de Pretto - Kid [03:05]
16. Angele - Tout oublier [03:21]
17. Fisher - Losing It [04:08]
18. Bigflo & Oli - Demain (Bigflo & Oli X Petit Biscuit) [04:12]
19. - Hum [03:13]
20. Luis Fonsi - Imposible [02:43]
21. Armin Van Buuren - Blah Blah Blah [03:03]
22. Tiesto - Jackie Chan [03:34]
23. P!nk - Secrets [03:30]
24. Zedd - Happy Now [03:26]
25. Juice WRLD - Lucid Dreams [04:00]
26. MHD - Bella [03:05]
27. Kygo - Born To Be Yours [03:13]
28. Shawn Mendes - In My Blood [03:32]
29. 5 Seconds Of Summer - Youngblood [03:23]
30. Louane - No [03:27]
31. Pascal Obispo - Rien ne dure [03:57]
32. Amel Bent - Si on te demande [03:27]
33. Hoshi - [03:59]
34. Benny Blanco - Eastside [02:53]
35. The Black Eyed Peas - BIG LOVE [04:36]
36. Damso - Feu de bois [03:03]
37. - Billets verts [02:46]
38. Niska - W.L.G [03:10]
39. Martin Solveig - My Love [03:15]
40. Jonas Blue - Polaroid [03:11]
41. Post Malone - Better Now [03:50]
42. Slimane - Luna [03:12]
43. Alvaro Soler - La Cintura [03:24]
44. Jonas Blue - Rise [03:11]
45. Kungs - Be Right Here [03:11]
46. LSD - Thunderclouds [03:07]
47. Alle Farben - Only Thing We Know [02:52]
48. Dadju - Lionne [03:44]
49. Alice on the roof - Malade [02:52]
50. Hoshi - [03:39]
51. Dante Alighieri (after original Latin) - Des ombres et des hommes[03:58]
52. DJ Sem - Amigo [03:10]
53. Natasha St Pier - [03:06]
54. Franglish - Plus rien [03:46]
55. French Fuse - Don't Stop (JVNO Edit) [03:10]
56. Luis Fonsi - Calypso [03:20]
57. Vegedream - Tout casser [02:14]
58. Jax Jones - Ring Ring [03:37]
59. Souf - Una Noche [03:44]
60. Nelkita - [02:28]
61. - Ven Ven Ven [03:01]
62. Corine - Maquillage [03:00]
63. Sound of Legend - Hold That Sucker Down [03:08]
64. Jahyanai - Dweet So [03:04]
65. Loud Luxury - Body [02:43]
66. CELESTAL - Old School Romance (Remix) [03:26]
67. Vegedream - Mama He [03:45]
68. Angelina - Jamais sans toi (Junior Eurovision 2018 / France)[03:05]
69. Diva Faune - Get Up (French Edit) [03:30]
70. Agustin Galiana - [03:19]
71. Troye Sivan - Dance To This [03:51]
72. La Synesia - [03:18]
73. Marc Lavoine - Comme je t'aime [03:27]
74. Julien Granel - [03:44]
75. Feu! Chatterton - L'oiseau [03:33]
76. Sam & Jova - [03:45]
77. DJ Sem - [03:10]
78. Roman Kouder - RUSH [03:07]
79. - [03:15]
80. Fabyan & Juanmi - Maria (Radio Edit) [03:15]
81. DJ Goldfingers - On Fire (Radio Edit) [03:06]
82. DJ Lbr - Forever [03:01]
83. Luidji - [03:06]
84. Kiff No Beat - Osef [03:24]
85. T-Jy - Qi [03:06]
86. Abdi - CLD (Casser le dos) (Radio Edit) [03:11]
87. Jax Jones - Breathe [03:27]
88. Merk & Kremont - Hands Up [02:45]
89. Dadju - Django [04:07]
90. Vegedream - Marchand de sable Part. 4 (Du SAal) [03:10]
91. Luidji - [03:58]
92. Joyce Jonathan - On [03:11]
93. Kooseyl - On est bien [03:52]
94. KGS - [02:41]
95. Bodega - Mojito (Radio Edit) [02:47]
96. Fabyan & Juanmi - Ma reine (Radio Edit) [03:07]
97. Mr. Carlton - On te connait [03:01]
98. Patrick Sebastien - La Wash [03:54]
99. Mika V - Badam badam [02:57]
100. CELESTAL - Naturally (B-Case Main Remix) [03:16]
101. Virgul - I Need This Girl (Tout contre moi) [03:36]
102. Leonie - J'veux pas la perdre [03:24]
103. Abdi - Follow (Radio Edit) [03:13]
104. Sol - Vers le nord [03:21]
105. April Ivy - Run For Cover [02:50]
106. DJ Sem - Adios la mif [03:13]
107. Roman Kouder - Lost (Boris Way Remix) [03:05]
108. Liam - Pour te le dire [02:38]
109. Axwell_Ingrosso - Dancing Alone [04:14]
110. El Profesor - Bella Ciao (HUGEL Remix) [02:43]
BOŽIČNI MIX 2019 DJ VIHAR& DJ AJDA

Klikni za povečavo!
22-12-2018 15:32 naložil Ajda
Sejalci: 2 / Odjemalci: 0 / Velikost: 196.06 MB / Dokončani: 34
Prenesi torrent Poročaj torrent Opis torrenta NFO
Kategorija: GLASBA > Glasba




INFO

BOŽIČNI MIX 2019 DJ VIHAR& DJ AJDA
Format : MPEG Audio
File size : 195 MiB
Duration : 1h 25mn
Overall bit rate mode : Constant
Overall bit rate : 320 Kbps
Encoded by : Lavf52.39.0
Writing library : LAME3.98

Audio
Format : MPEG Audio
Format version : Version 1
Format profile : Layer 3
Mode : Joint stereo
Duration : 1h 25mn
Bit rate mode : Constant
Bit rate : 320 Kbps
Channel(s) : 2 channels
Sampling rate : 48.0 KHz
Compression mode : Lossy
Stream size : 195 MiB (100%)
Writing library : LAME3.98

VSEBINA

01. OTO PESTNER - Božič za dva
02.MLADI GAMSI - Najina božična noč
03. ANSAMBEL ŠTRK - Božič za vse
04. ČUDEŽNA POLJA - Srečen božič
05. PEVKA CLAVDIA - Božična pesem
06. SLAPOVI - Božično drevo
07. SIMINA WEISS - Božične zvezdice
08. ANSAMBEL TONETA RUSA - Božični večer
09. MAJA ODERLAP - Vse zvezde z neba
10. SAŠA LENDERO - Zima je, božič za vse
11. UNIKAT - Najin božič
12. TURBO ANGELS - Na božično noč
13. SAŠA ČUKI - Božič je
14. OBJEM - cin cin cin zvončki pojejo
15. BOŽIČNI ZBORČEK - bela snežinka
16. HELENA BLAGNE - V beli božični noči
17. LOJZE SLAK - Sveta noč
18. DRUŽINA GALIČ - Glej zvezdice božje
19. TRO ZOOM - Na novoletno noč
20. NOVA LEGIJA - Praznični čas
21. ČUKI MODRIJANI - daj mi poljub
22. BOŠTJAN KONEČNIK - Veseli je december
23. TANJA ŽAGAR - Pet do polnoči
24. ČUKI - cel svet imaš na dlani
25. ALFI NIPIČ - silvesterski poljub





Najlepši Božično-Novoletni Hiti (2018) CDRip-BlackDevil

Klikni za povečavo!
21-12-2018 12:51 naložil BlackDevil
Sejalci: 0 / Odjemalci: 0 / Velikost: 76.66 MB / Dokončani: 10
Prenesi torrent Poročaj torrent Opis torrenta
Kategorija: GLASBA > Glasba


DJ VIHAR & DJ AJDA - SLO & HR MIX 54

Klikni za povečavo!
18-12-2018 18:56 naložil Ajda
Sejalci: 2 / Odjemalci: 0 / Velikost: 158.98 MB / Dokončani: 49
Prenesi torrent Poročaj torrent Opis torrenta NFO
Kategorija: GLASBA > Glasba




~ DJ VIHAR & DJ AJDA - SLO & HR MIX 54 ~
*************************************************

-------------------------------------------------------------------------
Avdio podatki
-------------------------------------------------------------------------
DJ VIHAR & DJ AJDA - SLO & HR MIX 54
Format : MPEG Audio
File size : 158 MiB
Duration : 1h 9mn
Overall bit rate mode : Constant
Overall bit rate : 320 Kbps
Encoded by : Lavf52.39.0
Writing library : LAME3.98

Audio
Format : MPEG Audio
Format version : Version 1
Format profile : Layer 3
Mode : Joint stereo
Duration : 1h 9mn
Bit rate mode : Constant
Bit rate : 320 Kbps
Channel(s) : 2 channels
Sampling rate : 48.0 KHz
Compression mode : Lossy
Stream size : 158 MiB (100%)
Writing library : LAME3.98

VSEBINA

01. LUKA BASI - Istrijanko ružo moja
02. IVANA KOVAČ - Srečo i tugo
03. LJUBAVNICI - Sve mi uzmite
04. LIDIJA BAČIČ in VIGOR - Vino rumeno
05. DARJA GAJŠEK - Luštno bo
06. MARKO ŠKUGOR - Zaljubljen
07. JASMIN STAVROS - Jelena
08. UČITELJICE - Na usnama
09. NOČNA PRAVILA - Ti
10. NEDA UKRADEN - Volim život
11. DRAŽEN ZEČIČ - Stari prijatelji se ne rastaju
12. SAŠA LENDERO - Kam ste šli prijatelji
13.DAVOR BORNO - Dukati
14. VIGOR - Bol
15. DEJAN VUNJAK in MANCA ŠPIK - Limonada
16. VANJA KUŠTRIN in ALEN VOGRINEC - Naj odide
17. DOMEN KUMER - Midva
18. GORAN KARAN - Moja košulja
19. LUKA BASI - Sedam noči
20. MARIO SEPP - Prijatelji




Deep Haus, Vol. 1 (Amazing Winter Deep House For Home, Bar And Club

Klikni za povečavo!
02-09-2018 21:51 naložil System
Sejalci: 0 / Odjemalci: 0 / Velikost: 334.07 MB / Dokončani: 3
Prenesi torrent Poročaj torrent Opis torrenta
Zvrst: Glasbeni
Kategorija: GLASBA > Glasba
Anonimen nalagalec

fz8bq.jpg

HoBIr.gif
Title: Deep Haus, Vol. 1 (Amazing Winter Deep House For Home, Bar And Club)
Artist: Collection
Year: 2017
Genre: House, Tech House, Deep House

Duration: 2:25:51
Format / Codec: MP3
Bitrate audio: 320 kpbs
rEIpe.gif

01. Bes & Meret - Flying High (Extended Mix) 6:46
02. Poenitsch & Jakopic - Beautiful (Tom Appl Remix) 5:46
03. Project Weekend Sound - Believe In Love 4:09
04. Domestic Technology - Isola Bella\'14 (Winter Mix) 7:02
05. Bes & Meret - Analog Bubbles 6:36
06. Mayah - Feel For Real (Instrumental Mix) 3:34
07. Zara Arshakian - Don\'t Disappear (Toricos Remix) 5:28
08. Barbary - Part of Me 6:16
09. Deeppirate - Love (feat. Vilia) 5:26
10. Sergey Silvertone - Birth Of Stars (feat. Tiara) [Audio Luxury Remix] 5:48
11. Bes & Meret - Morgenstund 3:01
12. Stereopie - L.U. (Audio Luxury Remix) 6:15
13. Take The Cookies - Time (Situation Remix) 4:48
14. Andrey Uchvat - Dreamcast 6:40
15. Qooos - Go Hard 4:48
16. After Sunrise - Born To Be Blue 6:18
17. Maksim Biserov - Ice & Lemon 7:23
18. Stefan Reh - Submerged (feat. C. Nakoinz) 5:29
19. Zara Arshakian - Don\'t Disappear (Audio Luxury Remix) 4:23
20. Tom Appl - One Time 7:55
21. Adeve - Le Salio El Tiro Por La Culata 3:50
22. Stefan Reh - Cruz (feat. C. Nakoinz) 6:41
23. DJ Enne - Deep Vibes 6:44
24. Lazy sonček - Circo Nero 8:08
25. Chris Le Blanc - The Eyes Of Revelation (feat. Kami) [Miss Luna Remix] 6:36
Mambo.Kings.Album.MAMBO.KINGS.2000-Churchill

Klikni za povečavo!
19-08-2018 17:07 naložil Churchill
Sejalci: 1 / Odjemalci: 0 / Velikost: 131.07 MB / Dokončani: 25
Prenesi torrent Poročaj torrent Opis torrenta
Kategorija: GLASBA > Glasba

Mambo Kings- MAMBO KINGS (2000)



INFO:
Artist...............: Mambo Kings
Album................: MAMBO KINGS
Genre................: Pop-Folk
Source...............: CD
Year.................: 2000
Ripper...............: LAME MP3 Encoder (1.30, engine 3.92 MMX)
Version..............: MPEG 1 Layer III
Quality..............: (bitrate: 320kbps)
Channels.............: Joint Stereo / 44800 hz
Tags.................: ID3 v2

TRACKLISTING:

01.I tebe sam sit kafano
02.Preveč je lepih deklet
03.Da bog da te voda odnjela
04.Zbog jedne divne crne žene
05.Tamara
06.Još i danas teku suze
07.U dobru i zlu
08.Na svjetu sve
09.Bijela boja
10.Nisam više ja sa njom
11.Duša od papira
12.Što sam ja
13.Nije mene dušo
14.Mjesečina
15.E da mi je nekoga
16.Umoran
17.Plaža
18.Godine ljubavi
19.Poletje v mojem srcu 2000
20.Dobra vremena
21.Ej dušo ko nam brani
22.Gutljaj vina
23.Vino na usnama
24.Hajde da ludujemo
25.To mi radi
26.Košulja plava
27.Pjevam danju
28.Napile se ulice
29.Volim žene
30.Ako su to samo bile laži
31.Daj mi vina
32.Siva pot (live mix)


Playing Time.........: 57:12.08mn
Total Size...........: 131 MB
Ena izmed:

Star Club from Tunisia (2018) MP3-BlackDevil

Klikni za povečavo!
28-07-2018 20:22 naložil BlackDevil
Sejalci: 0 / Odjemalci: 0 / Velikost: 690.78 MB / Dokončani: 2
Prenesi torrent Poročaj torrent Opis torrenta
Kategorija: GLASBA > Glasba





Božični MIX 2017 DJ VIHAR & DJ AJDA

Klikni za povečavo!
09-12-2017 14:31 naložil Ajda
Sejalci: 0 / Odjemalci: 1 / Velikost: 167.87 MB / Dokončani: 53
Prenesi torrent Poročaj torrent Opis torrenta NFO
Kategorija: GLASBA > Glasba




INFO :
Format : MPEG Audio
File size : 167 MiB
Duration : 1 h 12 min
Overall bit rate mode : Constant
Overall bit rate : 320 kb/s
Encoded by : Lavf52.39.0
Writing library : LAME3.98

Audio
Format : MPEG Audio
Format version : Version 1
Format profile : Layer 3
Mode : Joint stereo
Duration : 1 h 12 min
Bit rate mode : Constant
Bit rate : 320 kb/s
Channel(s) : 2 channels
Sampling rate : 48.0 kHz
Compression mode : Lossy
Stream size : 167 MiB (100%)
Writing library : LAME3.98


BOŽIČNI MIX 2017

01. Nejc Kastelic in Zborček - Božič je
02. Jasmin Stavros - Sretan božič ljubavi
03. Saša Lendero - Zimaj, božič za vse
04. Simona Weiss - Božične zvezdice
05. Begini - Sretan božič svakome
06. Črna Maćka - Dobri možje
07. Unikat - Najin božič
08. Modrijani - Sveta noč
09. Mladi Gamsi - Najina božična noč
10. Maja Oderlap - Vse zvezde iz neba
11. Leone - Tužan je božič bez tebe
12. Bepop - Glej, zvezdice božje
13. Oliver Dragojevič - Bijeli božič
14. Calypso - Božična pravljica
15. Lendero, Dežan, Hercog - Božič za vse ljudi
16. Saša Čuki - Božič je
17. Helena Blagne - V beli božični noči
18. Čuki Modrijani - Daj mi poljub
19. Rokn Band - Novo leto
20. Alfi Nipič - Silvesterski poljub


Bob Dylan - Christmas In The Heart 2009[MP3-320]

Klikni za povečavo!
08-12-2017 15:52 naložil andrejap
Sejalci: 0 / Odjemalci: 0 / Velikost: 104.02 MB / Dokončani: 1
Prenesi torrent Poročaj torrent Opis torrenta NFO
Zvrst: Glasbeni
Kategorija: GLASBA > Glasba

---------------------------------------------------------------------
Bob Dylan - Christmas In The Heart
---------------------------------------------------------------------
Artist...............: Bob Dylan
Album................: Christmas In The Heart
Genre................: Christmas
Source...............: CD
Year.................: 2009
Ripper...............: EAC (Secure mode) / LAME 3.92 & Asus CD-S520
Codec................: LAME 3.98
Version..............: MPEG 1 Layer III
Quality..............: Insane, (avg. bitrate: 320kbps)
Channels.............: Stereo / 44100 hz
Tags.................: ID3 v1.1, ID3 v2.3
Information..........:
Ripped by............: andrejap on 8. 12. 2017
Posted by............: andrejap on 8. 12. 2017
News Server..........: news.astraweb.com
News Group(s)........: alt.binaries.sounds.mp3.m
Included.............: NFO
Covers...............: Front Back CD
---------------------------------------------------------------------
Tracklisting
---------------------------------------------------------------------
1. Bob Dylan - Here Comes Santa Claus [02:25]
2. Bob Dylan - Do You Hear What I Hear? [02:51]
3. Bob Dylan - Winter Wonderland [01:41]
4. Bob Dylan - Hark The Herald Angels Sing [02:19]
5. Bob Dylan - I'll Be Home For Christmas [02:42]
6. Bob Dylan - Little Drummer Boy [02:41]
7. Bob Dylan - The Christmas Blues [02:43]
8. Bob Dylan - O' Come All Ye Faithful (Adeste Fideles) [02:39]
9. Bob Dylan - Have Yourself A Merry Little Christmas [03:53]
10. Bob Dylan - Must Be Santa [02:37]
11. Bob Dylan - Silver Bells [02:24]
12. Bob Dylan - The First Noel [02:18]
13. Bob Dylan - Christmas Island [02:16]
14. Bob Dylan - The Christmas Song [03:45]
15. Bob Dylan - O' Little Town Of Bethlehem [02:09]
Playing Time.........: 39:31
Total Size...........: 95,63 MB
Carpenters - Christmas Portrait 1978[MP3 - 320]

Klikni za povečavo!
08-12-2017 13:40 naložil andrejap
Sejalci: 1 / Odjemalci: 0 / Velikost: 162.96 MB / Dokončani: 3
Prenesi torrent Poročaj torrent Opis torrenta NFO
Zvrst: Glasbeni
Kategorija: GLASBA > Glasba

---------------------------------------------------------------------
Carpenters - Christmas Portrait
---------------------------------------------------------------------
Artist...............: Carpenters
Album................: Christmas Portrait
Genre................: Christmas
Source...............: CD
Year.................: 1978
Ripper...............: EAC (Secure mode) / LAME 3.92 & Asus CD-S520
Codec................: LAME 3.98
Version..............: MPEG 1 Layer III
Quality..............: Insane, (avg. bitrate: 320kbps)
Channels.............: Stereo / 44100 hz
Tags.................: ID3 v1.1, ID3 v2.3
Information..........:
Ripped by............: andrejap on 8. 12. 2017
Posted by............: andrejap on 8. 12. 2017
News Server..........: news.astraweb.com
News Group(s)........: alt.binaries.sounds.mp3.m
Included.............: NFO
Covers...............: Front Back CD
---------------------------------------------------------------------
Tracklisting
---------------------------------------------------------------------
1. Carpenters - It Came Upon A Midnight Clear [00:39]
2. Carpenters - Overture (An Old Fashioned Christmas) [08:11]
3. Carpenters - An Old Fashioned Christmas [02:07]
4. Carpenters - Christmas Waltz [02:09]
5. Carpenters - Sleigh Ride [02:35]
6. Carpenters - It's Christmas Time / Sleep Well, Little Children[02:49]
7. Carpenters - Have Yourself A Merry Little Christmas [03:49]
8. Carpenters - Santa Claus Is Comin' To Town [01:01]
9. Carpenters - Christmas Song (Chestnuts Roasting On An Open Fire)[03:33]
10. Carpenters - Carol Of The Bells [01:35]
11. Carpenters - Merry Christmas Darling [03:02]
12. Carpenters - Christ Is Born [03:10]
13. Carpenters - O Holy Night [03:06]
14. Carpenters - Home For The Holidays [02:31]
15. Carpenters - Medley: Here Comes Santa Claus/Frosty The Snowman/Rudolph The Red-Nosed Reindeer/Good King Wenceslas[03:38]
16. Carpenters - Medley: Winter Wonderland/Silver Bells/White Christmas[05:23]
17. Carpenters - Ave Maria [02:30]
18. Carpenters - Selections From "Nutcracker": Overture Miniature/Dance Of The Sugar Plum Fairies/Valse Des Fleurs[05:23]
19. Carpenters - Little Altar Boy [03:39]
20. Carpenters - I'll Be Home For Christmas [03:45]
21. Carpenters - Silent Night [03:17]
Playing Time.........: 01:08:04
Total Size...........: 162,51 MB
Jose Feliciano - Feliz Navidad 1973[MP3-320]

Klikni za povečavo!
08-12-2017 13:08 naložil andrejap
Sejalci: 0 / Odjemalci: 0 / Velikost: 96.88 MB / Dokončani: 3
Prenesi torrent Poročaj torrent Opis torrenta NFO
Zvrst: Glasbeni
Kategorija: GLASBA > Glasba

---------------------------------------------------------------------
Jose Feliciano - Feliz Navidad
---------------------------------------------------------------------
Artist...............: Jose Feliciano
Album................: Feliz Navidad
Genre................: Christmas, Rock, Latin, Pop, Folk
Source...............: CD
Year.................: 1973
Ripper...............: EAC (Secure mode) / LAME 3.92 & Asus CD-S520
Codec................: LAME 3.98
Version..............: MPEG 1 Layer III
Quality..............: Insane, (avg. bitrate: 320kbps)
Channels.............: Stereo / 44100 hz
Tags.................: ID3 v1.1, ID3 v2.3
Information..........:
Ripped by............: andrejap on 8. 12. 2017
Posted by............: andrejap on 8. 12. 2017
News Server..........: news.astraweb.com
News Group(s)........: alt.binaries.sounds.mp3.m
Included.............: NFO
Covers...............: Front Back
---------------------------------------------------------------------
Tracklisting
---------------------------------------------------------------------
1. Jose Feliciano - Feliz Navidad [03:01]
2. Jose Feliciano - Jingle Bells [02:57]
3. Jose Feliciano - The Christmas Song [03:20]
4. Jose Feliciano - The First Noel [03:00]
5. Jose Feliciano - The Cherry Tree Carol [03:43]
6. Jose Feliciano - The Little Drummer Boy [03:59]
7. Jose Feliciano - White Christmas [03:57]
8. Jose Feliciano - We Three Kings Of Orient Are [02:11]
9. Jose Feliciano - Mary's Little Boy Child [04:41]
10. Jose Feliciano - It Came Upon A Midnight Clear [01:51]
11. Jose Feliciano - Silent Night [04:00]
12. Jose Feliciano - Hark, The Herald Angels Sing [01:39]
Playing Time.........: 38:24
Total Size...........: 88,88 MB
Johnny Johnson - Christmas Together 2004[MP3-320]

Klikni za povečavo!
08-12-2017 12:45 naložil andrejap
Sejalci: 0 / Odjemalci: 0 / Velikost: 130.21 MB / Dokončani: 0
Prenesi torrent Poročaj torrent Opis torrenta NFO
Zvrst: Glasbeni
Kategorija: GLASBA > Glasba

---------------------------------------------------------------------
Johnny Johnson - Christmas Together
---------------------------------------------------------------------
Artist...............: Johnny Johnson
Album................: Christmas Together
Genre................: Classical, Saxophone
Source...............: CD
Year.................: 2004
Ripper...............: EAC (Secure mode) / LAME 3.92 & Asus CD-S520
Codec................: LAME 3.98
Version..............: MPEG 1 Layer III
Quality..............: Insane, (avg. bitrate: 320kbps)
Channels.............: Joint Stereo / 44100 hz
Tags.................: ID3 v1.1, ID3 v2.3
Information..........:
Ripped by............: andrejap on 8. 12. 2017
Posted by............: andrejap on 8. 12. 2017
News Server..........: news.astraweb.com
News Group(s)........: alt.binaries.sounds.mp3.m
Included.............: NFO
Covers...............: Front Back CD
---------------------------------------------------------------------
Tracklisting
---------------------------------------------------------------------
1. Johnny Johnson - The Gift Of Christmas [01:19]
2. Johnny Johnson - O Come All Ye Faithful [03:53]
3. Johnny Johnson - Silver Bells [04:27]
4. Johnny Johnson - O Holy Night [04:10]
5. Johnny Johnson - Santa Claus Is Coming To Town [04:18]
6. Johnny Johnson - Silent Night [04:37]
7. Johnny Johnson - Away In The Manger [03:35]
8. Johnny Johnson - We Three Kings [04:24]
9. Johnny Johnson - Little Drummer Boy [05:57]
10. Johnny Johnson - God Rest Ye Merry Gentlemen [04:58]
11. Johnny Johnson - Greensleeves [05:33]
12. Johnny Johnson - Winter Wonderland [04:12]
13. Johnny Johnson - Have Yourself A Merry Little Christmas [04:34]
Playing Time.........: 56:04
Total Size...........: 129,31 MB
Tose Proeski - The Platinum Collection 6CD (2014)

Klikni za povečavo!
07-12-2017 14:58 naložil System
Sejalci: 1 / Odjemalci: 0 / Velikost: 824.51 MB / Dokončani: 17
Prenesi torrent Poročaj torrent Opis torrenta
Zvrst: Glasbeni
Kategorija: GLASBA > Glasba
Anonimen nalagalec

Tose Proeski - The Platinum Collection 6CD




Artist...............: Tose Proeski
Album................:
Genre................: Pop
Source...............: CD
Year.................: 2006
Ripper...............: EAC (Secure mode) / LAME 3.92 & Asus CD-S520
Codec................: LAME 3.99
Version..............: MPEG 1 Layer III
Quality..............: Insane, (avg. bitrate: 320kbps)
Channels.............: Joint Stereo / 44100 hz

Tracklisting
---------------------------------------------------------------------

CD 1 Bozilak

Bor Sadila Moma Evgenija
Se Posvrsi Serbes Donka
Ako Odam Vo Bitola
Jovano, Jovanke
Kales Angja
More Sokol Pie
Ne Si Go Prodavaj Koljo Ciflikot
Si Zaljubiv Edno Mome
Uci Me Majko, Karaj Me
So Maki Sum Se Rodil
Dejgidi Ludi Mladi Godini
Nazalena Nevesta
Zajdi, Zajdi Jasno Sonce
Majka Na Marika Dumase

CD 2 Igra Bez Granica

Pola Duse, Pola Srca
Vezi Me Za Sebe
Ubijas Me Usnama
Boze Brani Je Od Zla
Mjesecina
Igra Bez Granica
Dal' Si Sretnija
Najljepse Moje
Sreco Ne Krivi Me
Volim Osmjeh Tvoj Feat. Antonija Sola
Jos I Danas Zamirisi Tresnja
Ostala Si Uvijek Ista
Srce Nije Kamen
Nesanica [Adaptacija Iz Filma ''ivkova Slava'']
Nesanica [Remix]

CD 3 Ako Me Pogledas U Oci

Ako Me Pogledas U Oci
Soba Za Tugu
Cini Feat. Esma Redzepova
Hold Me Tight Feat. Harem Iii
Jos Jedan Stepenik
Na Mesto Zlocina
Limenka
Ledena
Meni Hvala Nijedno
Luda Mala

CD 4 Dan Za Nas

Zvezdo Severnice
Kad Varas Ti
Zena Balkanska
Ima Li Dan Za Nas
Kazem Lejdi
Nikada
Cija Si
Life
Pogledaj U Mene
San Egzotican
Oprosti
Sto Si Otisla
Hej Plavooka, Hej Bosonoga
Kad Srce Plati Stari Dug

CD 5 Pratim Te

Pratim Te
Zao Mi Je
Rane Na Usnama
Cujes Li
Mala
Jedina
Lose Ti Stoji
Ko Ti To Grize Obraze
Poljsko Cvece
Naj, Naj
Za Ovoj Svet
Lagala Nas Mala (Duet Tony Cetinski)
This World
Krajnje Vreme (Duet Anja Rupel)

CD 6 Najlepse Balade

Jos Uvijek Sanjam Da Smo Zajedno
Igra Bez Granica
Najljepse Moje
Jos I Danas Zamirisi Tresnja
Ostala Si Uvjek Ista
The Hardest Thing
Soba Za Tugu
Meni Hvala Nijedno
Nikada
Sto Si Otisla
Oprosti
Kad Srce Plati Stari Dug
Kad Varas Ti
Hej Plavooka, Hej Bosonoga
Mala
Jedina
Poljsko Cvece
Zajdi, Zajdi Jasno Sonce
The London Starlight Orchestra & Singers - Show Hits 1988[MP3-320]

Klikni za povečavo!
07-12-2017 13:05 naložil andrejap
Sejalci: 0 / Odjemalci: 0 / Velikost: 163.23 MB / Dokončani: 3
Prenesi torrent Poročaj torrent Opis torrenta NFO
Zvrst: Glasbeni
Kategorija: GLASBA > Glasba

---------------------------------------------------------------------
The London Starlight Orchestra & Singers - Show Hits
---------------------------------------------------------------------
Artist...............: The London Starlight Orchestra & Singers
Album................: Show Hits
Genre................: Electronic, Pop, Rock
Source...............: CD
Year.................: 1988
Ripper...............: EAC (Secure mode) / LAME 3.92 & Asus CD-S520
Codec................: LAME 3.97
Version..............: MPEG 1 Layer III
Quality..............: Insane, (avg. bitrate: 320kbps)
Channels.............: Joint Stereo / 44100 hz
Tags.................: , ID3 v2.3
Information..........:
Ripped by............: andrejap on 7. 12. 2017
Posted by............: andrejap on 7. 12. 2017
News Server..........: news.astraweb.com
News Group(s)........: alt.binaries.sounds.mp3.m
Included.............: NFO
Covers...............: Front
---------------------------------------------------------------------
Tracklisting
---------------------------------------------------------------------
1. The London Starlight Orchestra & Singers - A Starlight Express - Overture[03:08]
2. The London Starlight Orchestra & Singers - One Night In Bangkok (From The Musical 'Chess')[03:49]
3. The London Starlight Orchestra & Singers - Somewhere (From The Musical 'West Side Story')[04:59]
4. The London Starlight Orchestra & Singers - Aquarius (From The Musical 'Hair')[04:10]
5. The London Starlight Orchestra & Singers - Old Deuteronomy (From The Musical 'Cats')[04:09]
6. The London Starlight Orchestra & Singers - One (From The Musical 'A Chorus Line')[03:34]
7. The London Starlight Orchestra & Singers - People (From The Musical 'Funny Girl')[03:43]
8. The London Starlight Orchestra & Singers - Take That Look Off Your Face[03:49]
9. The London Starlight Orchestra & Singers - Tonight [03:59]
10. The London Starlight Orchestra & Singers - Send In The Clowns[05:08]
11. The London Starlight Orchestra & Singers - I Know Him So Well[04:15]
12. The London Starlight Orchestra & Singers - Who Can I Turn To[03:12]
13. The London Starlight Orchestra & Singers - Big Spender [03:41]
14. The London Starlight Orchestra & Singers - Maria [02:35]
15. The London Starlight Orchestra & Singers - Don't Cry For Me Argentina (From 'Evita')[05:43]
16. The London Starlight Orchestra & Singers - Tomorrow (From 'Annie')[02:50]
17. The London Starlight Orchestra & Singers - I Don't Know How To Love Him[03:56]
18. The London Starlight Orchestra & Singers - The Imposible Dream[02:09]
Playing Time.........: 01:08:58
Total Size...........: 162,82 MB
The Soulful Strings - The Magic Of Christmas 2015[MP3-320]

Klikni za povečavo!
06-12-2017 16:58 naložil andrejap
Sejalci: 0 / Odjemalci: 0 / Velikost: 90.2 MB / Dokončani: 2
Prenesi torrent Poročaj torrent Opis torrenta NFO
Zvrst: Glasbeni
Kategorija: GLASBA > Glasba

---------------------------------------------------------------------
The Soulful Strings - The Magic Of Christmas
---------------------------------------------------------------------
Artist...............: The Soulful Strings
Album................: The Magic Of Christmas
Genre................: Christmas, Easy Listening, Orchestral
Source...............: CD
Year.................: 2015
Ripper...............: EAC (Secure mode) / LAME 3.92 & Asus CD-S520
Codec................: LAME 3.98
Version..............: MPEG 1 Layer III
Quality..............: Insane, (avg. bitrate: 320kbps)
Channels.............: Stereo / 44100 hz
Tags.................: ID3 v1.1, ID3 v2.3
Information..........:
Ripped by............: andrejap on 6. 12. 2017
Posted by............: andrejap on 6. 12. 2017
News Server..........: news.astraweb.com
News Group(s)........: alt.binaries.sounds.mp3.m
Included.............: NFO
Covers...............: Front Back CD
---------------------------------------------------------------------
Tracklisting
---------------------------------------------------------------------
1. The Soulful Strings - The Little Drummer Boy [05:15]
2. The Soulful Strings - Snowfall [03:18]
3. The Soulful Strings - Dance Of The Sugarplum Fairy From Tchaikovsky's Nutcracker Suite[03:22]
4. The Soulful Strings - Deck The Halls [04:35]
5. The Soulful Strings - Santa Claus Is Coming To Town [03:00]
6. The Soulful Strings - Sleigh Ride [02:43]
7. The Soulful Strings - Merry Christmas Baby [04:08]
8. The Soulful Strings - Jingle Bells [03:28]
9. The Soulful Strings - The Christmas Song [03:34]
10. The Soulful Strings - Parade Of The Wooden Soldiers [03:30]
Playing Time.........: 36:57
Total Size...........: 86,51 MB
London Festival Orchestra - White Christmas 2003[MP3-320]

Klikni za povečavo!
06-12-2017 15:40 naložil andrejap
Sejalci: 0 / Odjemalci: 0 / Velikost: 95.08 MB / Dokončani: 5
Prenesi torrent Poročaj torrent Opis torrenta NFO
Zvrst: Glasbeni
Kategorija: GLASBA > Glasba

---------------------------------------------------------------------
London Festival Orchestra - White Christmas
---------------------------------------------------------------------
Artist...............: London Festival Orchestra
Album................: White Christmas
Genre................: Christmas, Instrumental
Source...............: CD
Year.................: 2003
Ripper...............: EAC (Secure mode) / LAME 3.92 & Asus CD-S520
Codec................: LAME 3.97
Version..............: MPEG 1 Layer III
Quality..............: Insane, (avg. bitrate: 320kbps)
Channels.............: Joint Stereo / 44100 hz
Tags.................: ID3 v1.1, ID3 v2.3
Information..........:
Ripped by............: andrejap on 6. 12. 2017
Posted by............: andrejap on 6. 12. 2017
News Server..........: news.astraweb.com
News Group(s)........: alt.binaries.sounds.mp3.m
Included.............: NFO
Covers...............: Front Back CD
---------------------------------------------------------------------
Tracklisting
---------------------------------------------------------------------
1. London Festival Orchestra - Oh Little Town Of Bethlehem [02:30]
2. London Festival Orchestra - Silent Night [03:37]
3. London Festival Orchestra - Deck The Halls [02:14]
4. London Festival Orchestra - We Wish You A Merry Christmas[02:03]
5. London Festival Orchestra - Hark! The Herald Angels Sing[02:40]
6. London Festival Orchestra - Oh Come All Ye Faithful [02:20]
7. London Festival Orchestra - Angels We Have Heard On High[02:28]
8. London Festival Orchestra - Joy To The World [02:23]
9. London Festival Orchestra - First Noel [02:33]
10. London Festival Orchestra - Good King Wenceslas [01:14]
11. London Festival Orchestra - Greensleeves [01:54]
12. London Festival Orchestra - We Three Kings [02:18]
13. London Festival Orchestra - Oh Tannenbaum [01:29]
14. London Festival Orchestra - Jingle Bells [02:00]
15. London Festival Orchestra - Away In A Manger [01:31]
16. London Festival Orchestra - It Came Upon A Midnight Clear[02:59]
17. London Festival Orchestra - God Rest Ye Merry Gentlemen [01:58]
18. London Festival Orchestra - Up On The Housetop [01:16]
Playing Time.........: 39:35
Total Size...........: 93,09 MB