A
B
C
D
E
F
G
H
I
J
K
L
M
N
O
P
Q
R
S
T
U
V
W
X
Y
Z
0-9
Soylent.Green.1973.SLOSubs.1080p.BluRay.x265-RARBG

Klikni za povečavo!
Včeraj ob 18:14 naložil BlackDevil
Sejalci: 1 / Odjemalci: 0 / Velikost: 1.51 GB / Dokončani: 0
Prenesi torrent Magnet Link Poročaj torrent Opis torrenta
Kategorija: FILMI > BluRay-1080

Soylent Green - Movie DVD Scanned Covers - 1322Soylent Green :: DVD Covers

Video
ID : 1
Format : HEVC
Format/Info : High Efficiency Video Coding
Format profile : Main 10@L4@Main
Codec ID : hev1
Codec ID/Info : High Efficiency Video Coding
Duration : 1 h 36 min
Bit rate : 2 001 kb/s
Width : 1 920 pixels
Height : 800 pixels
Display aspect ratio : 2.40:1
Frame rate mode : Constant
Frame rate : 23.976 (24000/1001) FPS

Audio
ID : 2
Format : AAC LC
Format/Info : Advanced Audio Codec Low Complexity
Codec ID : mp4a-40-2
Duration : 1 h 36 min
Bit rate mode : Constant
Bit rate : 224 kb/s
Channel(s) : 1 channel
Channel layout : C
Sampling rate : 48.0 kHz
Frame rate : 46.875 FPS

Charlton Heston > Detective Thorn
Edward G. Robinson > Sol Roth
Whit Bissell > Gov. Santini
Joseph Cotten > William R. Simonson
Chuck Connors > Tab Fielding
Mike Henry > Kulozik
Roy Jenson > Donovan
Paula Kelly > Martha
Lincoln Kilpatrick > The Priest
Celia Lovsky > The Exchange Leader
Brock Peters > Chief Hatcher
Leonard Stone > Charles
Leigh Taylor-Young > Shirl
Dick Van Patten > Usher #1
Stephen Young > Gilbert

In 2022, Earth is overpopulated and totally polluted; the natural resources have been exhausted and the nourishment of the population is provided by Soylent Industries, a company that makes a food consisting of plankton from the oceans. In New York City, when Soylent's member of the board William R. Simonson is murdered apparently by a burglar at the Chelsea Towers West where he lives, efficient Detective Thorn is assigned to investigate the case with his partner Solomon "Sol" Roth. Thorn comes to the fancy apartment and meets Simonson's bodyguard Tab Fielding and the "furniture" (woman that is rented together with the flat) Shirl and the detective concludes that the executive was not victim of burglary but executed. Further, he finds that the Governor Santini and other powerful men want to disrupt and end Thorn's investigation. But Thorn continues his work and discovers a bizarre and disturbing secret of the ingredient used to manufacture Soylent Green.

Soylent Green (1973) — Art of the Title

Six.Minutes.to.Midnight.2020.SLOSubs.1080p.BRRip.DD5.1.X.264-BlackDevil

Klikni za povečavo!
Včeraj ob 15:28 naložil BlackDevil
Sejalci: 1 / Odjemalci: 0 / Velikost: 1.79 GB / Dokončani: 0
Prenesi torrent Poročaj torrent Opis torrenta
Zvrst: Drama | Triler
Kategorija: FILMI >  BRRip

Six Minutes to Midnight (2020)
Šest minut do polnoči
dramatični triler

BlackDevil




Naziv: Six.Minutes.to.Midnight.2020.SLOSubs.1080p.BRRip.DD5.1.X.264-BlackDevil
Source: Six.Minutes.to.Midnight.2020.1080p.BluRay.x264.DTS-FGT
Velikost.........: 1,79 GB
Dolžina..........: 102 min
Leto...............: 2020
Slika..............: 1920x804 2584kbps 24fps
Zvok..............: Dolby Digital CBR 6ch 384kb/s
Kodek............: XviD
Država...........: Velika Britanija
Jezik..............: Angleški
Žanr...............: Drama | Triler
Podnapisi........: Slovenski


IMDb:
Link..........: https://www.imdb.com/title/tt5114840/
Ocena........: 5,6/10 (1.447 glasov)
Režija.........: Andy Goddard
Scenarij.......: Eddie Izzard, Celyn Jones



Nigel Lindsay ... Wheatley
Judi Dench ... Miss Rocholl
Eddie Izzard ... Thomas Miller
Jim Broadbent ... Charlie
Maria Dragus ... Astrid
Luisa-Céline Gaffron ... Sigrid
Daria Wolf ... Leta
Bianca Nawrath ... Paula
Carla Juri ... Ilse
Franziska Brandmeier ... Beatrix



Zgodba se dogaja poleti leta 1939, malo pred začetkom vojne,
v obalnem angleškem mestecu. Dekliška šola za hčere in krščenke
pomembnih nacistov, v kateri se dekleta učijo angleščine in
britanske kulture, ostane brez svojega dotedanjega učitelja,
potem ko je ta skrivnostno izginil. Kmalu prispe nov učitelj
in zapade v igro spletk in zarot …

Six Minutes to Midnight 2020 English 720p BluRay 850MB Download
slowmotion.mp4

Klikni za povečavo!
29-03-2021 19:17 naložil BlackDevil
Sejalci: 3 / Odjemalci: 0 / Velikost: 92.95 MB / Dokončani: 10
Prenesi torrent Poročaj torrent Opis torrenta
Kategorija: FILMI > xxx




Silvie Wild - Veronika(Pack)

Klikni za povečavo!
24-03-2021 12:51 naložil Timoreck
Sejalci: 2 / Odjemalci: 0 / Velikost: 18.69 GB / Dokončani: 4
Prenesi torrent Poročaj torrent Opis torrenta NFO
Kategorija: FILMI > xxx

Silvie Wild - Veronika(Pack)
Year : 2004-2017
Country : Czech, USA
Genre : Facial, A2M, Big Ass, MILF, Big Tits,,..
Studio : https://www.iafd.com/person.rme/perfid=veronika_02/gender=f/veronika.htm
Duration : various
Video : various
Audio : various
Starring : Veronika - various





Salas.u.malom.ritu..E01-13.HDTV.1080p.x264.H264-by Perikle

Klikni za povečavo!
23-03-2021 15:10 naložil rado77
Sejalci: 2 / Odjemalci: 0 / Velikost: 12.71 GB / Dokončani: 3
Prenesi torrent Poročaj torrent Opis torrenta
Zvrst: Drama | Vojni
Kategorija: FILMI > TV - Serija

Salas.u.malom.ritu..E01-13.HDTV.1080p.x264.H264-by Perikle



Salaš u Malom Ritu 1976

TV Serija - digitalizirana 1/13

Kmetija v Malem Ritu 1976


Žanr: drama, vojna
Založnik: Televizija Beograd
Scenarij: Arsen Diklić, Branko Bauer, Borislav Gvojić
Režija: Branko Bauer
Igrajo: Slavko Štimac, Miodrag Radovanović, Slobodan Perović, Miroljub Leso, Svetislav Gončič, Milivoje Tomić, Pavle Vuisic, Renata Ulmanski
Država: SFRJ
Število epizod: 13


O seriji:

Kmetija v Malem Ritu je jugoslovanska televizijska serija, ki jo je leta 1975 producirala Televizija Beograd. Premiera je bila od 29. februarja do 23. maja 1976. Serija spremlja dogodivščine dečka Milana Maljeviča (Slavko Štimac) med drugo svetovno vojno. Scenarij je po istoimenski knjigi Arsena Diklića napisal Branko Bauer. Serija je nastala iz istoimenskega filma iz leta 1976, film Zimovanje v Jakobsfeldu pa je bil montiran iz delov serije.
Zaplet serije se odvija v izmišljeni banatski vasici Mali Rit med drugo svetovno vojno. Mali Rit je na videz mirna banatska vas, katere prebivalci se ne upirajo nemški okupaciji. Dejansko se partizani vzdržijo napada na vas, ki jo uporabljajo kot tajno bazo, da ne bi pritegnili pozornosti Nemcev.

A idilo med okupacijo, ki jo občasno pokvari narednik Ridge, moti dogodek v sosednji vasi, ko so partizani zažgali žito, namenjeno Nemčiji. Manshafts jemljejo talce iz sosednje vasi skozi Mali Rit. Vasa, najboljši prijatelj in sosed Milana Maljeviča, ogorčen, ker se Nemcem ni nihče upiral, je talcem dal vodo, zato ga je Red premagal. Da bi se maščeval za pretepe in ponižanje, se je Vasa odločil zažgati žito, namenjeno pošiljanju v Nemčijo, v upanju, da bodo vojaki, ki so ga pretepli, kaznovani.

Ogenj je v vas pripeljal zvitega in brezobzirnega inšpektorja Shicerja, ki je takoj zasumil, da v vasi pred tem incidentom ni bilo protiokupacijskih akcij. Sicer pa v vasi odkrije mrežo partizanskih ilegalcev, ki jo med drugim sestavljajo gostilničar Paja, vaški britev in Vasin oče. Prepričan, da se je praskal pod površjem, se Shicer odloči, da bo vzel talce (med drugim tudi Milanovega brata Petra in Vasinega očeta), pri čemer mu grozi, da bo vsak dan ustrelil enega talca, dokler ne dobi iskanega odgovora. V strahu za življenje svojega sina in drugih vaščanov Milanova mama v vas pripelje partizane, ki osvojijo nemški garnizon in osvobodijo talce. Milan in Petar odideta s partizani.


Tehnične specifikacije:
Ime datoteke: Salas.u.malom.ritu..E01-13.HDTV.1080p.x264.H264-by Perikle.mp4
Oblika: MP4
Informacije o obliki: QuickTime / MOV
Trajanje: 00: 49: 24.955
Velikost datoteke: 1000,65 MB

Video informacije:
Video kodirnik: h264 (h.264 / avc / mpeg-4 avc / mpeg-4 del 10)
Ločljivost: 1920 * 1080
Širina: 1920
Višina: 1080
Razmerje zaslona: 16: 9
Hitrost sličic: 25 sličic na sekundo
Video bitna hitrost: 2697 kb / s
Barvni prostor: yuv420p (tv

Zvočne informacije:
Dajalnik zvoka: aac (napredno kodiranje zvoka)
Avdio bitna hitrost: 128 kb / s
Hitrost vzorčenja: 48000 Hz
Zvočni kanali: stereo
Jezik: und
Trajanje: 00: 49: 24.933


Želim vam hiter prenos in ne pozabite na sejanje!
Skyfire.2019.SLOSubs.720p.BRRip.XviD-N33D3R

Klikni za povečavo!
17-03-2021 11:14 naložil Ziva
Sejalci: 7 / Odjemalci: 0 / Velikost: 3.05 GB / Dokončani: 20
Prenesi torrent Poročaj torrent Opis torrenta NFO
Zvrst: Akcija | Drama | Triler
Kategorija: FILMI >  BRRip



Naziv: Skyfire.2019.SLOSubs.720p.BRRip.XviD-N33D3R
Source: Skyfire.2019.1080p.BluRay.DD+5.1.x264-iFT
Velikost ...........: 3.05 GB
Dolžina ............: 97 Minut
Video ...............: 4219 Kbps | 1280x536 | 23,976 fps
Zvok .................: DD AC-3 @448 kbps 5.1 Ch
Kodek...............: XviD
Zvrst………….....: Drama | Akcijski | Triler
Jezik ................: Mandarinščina, Angleški
Podnapisi.........: Slovenski (Custom SRT)
Prevod: MARINKO - HVALA !!!
iMDB Rating ....: 5,3/10 (1.202 glasov)
Režija.........: Simon West
Scenarij......: Wei Bu, Sidney King


Bee Rogers ... Young Meng
Alice Rietveld ... Sue Miller
Xueqi Wang ... Wentao Li
Hannah Quinlivan ... Meng Li
Lingchen Ji ... Bo Teng
Shawn Dou ... Zhengnan Xiao
Liang Shi ... Professor Jiang
Ryun Yu ... Lei Xu (as Ryan Wu)
Jason Isaacs ... Jack Harris
Xinmo Ma ... Qianwei Wang (as Leslie Ma)


Vulkanolog Wentao Li si je obljubil, da se nikoli več ne bo vrnil na otok Tianhuo, potem ko je v katastrofalnem izbuhu vulkana tragično izgubil svojo ženo. Toda 20 let kasneje njegova hčerka Meng na tem istem otoku nadaljuje raziskovalno delo, kjer razvija sistem, ki bi lahko napovedoval vulkanske izbruhe in tako rešil življenja prebivalcev. Toda ravno ko se Wentao Li odloči obiskati svojo hčerko, narava ponovno pokaže svojo neizprosno moč. Vulkan izbruhne in goreča lava začne uničevati vse pred seboj.


Slovenski Love Mix 2021 by BlackDevil

Klikni za povečavo!
15-03-2021 06:47 naložil BlackDevil
Sejalci: 9 / Odjemalci: 0 / Velikost: 299.69 MB / Dokončani: 20
Prenesi torrent Poročaj torrent Opis torrenta
Kategorija: GLASBA > Glasba

Bodite srečni - misli o sreči

101ka band - Le zakaj si žalostna
101ka band - Lubice moje
Alya - Dobro jutro življenje
Alya - Halo
Anika Horvat - Tika Tak
Coto, Jan in Modrijani - En poljub
CUKI in KVATROPIRCI - Če se od spominov da živet'
DARJA GAJSEK - Kako pogresa te srce
Don Juan-Povej mi Marina
Drevored - Daleč od ponorelega sveta
EVA BOTO - NA KOŽO PISANA
Fabricca - Predobro
Faraoni - Ne bom pozabil na stare čase
HELENA BLAGNE - KAR BO, PA BO
Jan Plestenjak - Ob tebi bom ostal
Jan Plestenjak - Povej mi, kaj bi rada
Jan Plestenjak - Roke stran
Jan Plestenjak - Stara dobra
Jan Plestenjak, Modrijani in Coto - Dal bom besedo
KLAPA SKALA & DARJA GAJŠEK - Mala barka
Klara Jazbec - Milijon in ena
Ksenija - Ne vem, če veš
Le en centimeter - Marko Vozelj in Mojstri
MAJA ODERLAP - ZALJUBLJENE PESMI
MANCA ŠPIK - KJER POMOL POLJUBI MORJE
MANCA ŠPIK & ISAAC PALMA - OBA
MANCA ŠPIK & POSKOČNI - PRIJATELJ
Manca Špik in Kvatropirci - Pesem
MARK ZEBRA - FENOMENALNA
Marko Vozelj in Mojstri - Ljubezen ni samo navada
Marko Vozelj in Mojstri - Me boš še ljubila
Marko Vozelj in Mojstri - Oljke, Rožmarin in Sol
Marko Vozelj in Mojstri - Preprosto pašeš mi
Marko Vozelj in Mojstri - Prevečkrat
Marko Vozelj in Mojstri - Prevečkrat
Modrijani & Isaac Palma - Hočem le tebe
NEISHA - Vrhovi
NIKA ZORJAN - ZA VEDNO (Za skaus)
Nina Pušlar - Za naju
Nina Pušlar & Matjaž Robavs - Mimogrede
Nina Pušlar feat. Jan Plestenjak - Tebe imam
Nočna Pravila - Ti
ODGOVOR ŽE POZNAŠ - Tjaša Hrovat in Uroš Steklasa
Peter Lovšin-Sam en majhen poljub
POP DESIGN - Ne joči (da srce ne poči)
POP DESIGN - Nisem ti verjel
Pop design - Vzela si moje srce
Pustil Ti Bom Sanje-Jan Plestenjak
Rebeka Dremelj - Še verjamem
Siddharta - Lej Lej Lej
Skupina TEQUILA - DEJA VU
Skupina ZAKA' PA NE - ATMOSFERA
Šank Rock - Dvigni pogled
Šank Rock-Pravljica o mavričnih ljudeh
TABU Pesek in dotik
Vili Resnik - Diham zate
vitvox - Malo Nad Oblaki
Vlado Kreslin - Z Goričkega v Piran


SLOVENSKI.ZAKLAD.NARODNO.ZABAVNE.GLASBE.izbor.2.del..720p.TVRip-R77

Klikni za povečavo!
25-02-2021 16:34 naložil rado77
Sejalci: 2 / Odjemalci: 0 / Velikost: 1.51 GB / Dokončani: 7
Prenesi torrent Poročaj torrent Opis torrenta
Zvrst: Glasbeni
Kategorija: GLASBA > Video

SLOVENSKI.ZAKLAD.NARODNO.ZABAVNE.GLASBE.izbor.2.del..720p.TVRip-R77


SLOVENSKI ZAKLAD
NARODNOZABAVNE GLASBE

izbor 2.del


Narodno-zabavna glasba je pomemben segment popularne glasbe v slovenskem in širšem
alpskem prostoru in s tem tudi del popularne kulture, ki preko medijev vpliva na percepcijo
samoprepoznavnosti in identitete nekega, v tem primeru slovenskega naroda.
Vir: Torkar Klemen -diplomska

Narodnozabavna glasba (avtor imena: Janez Bitenc) je glasbena zvrst, za katero so značilne ljudsko (etnično) obarvane pesmi. Razširjena je predvsem v Sloveniji, Avstriji, Švici in Nemčiji, pa tudi na Češkem ter v Italiji (južna Tirolska). Na Slovenskem je znana in razširjena še najbolj po zaslugi številnih narodnozabavnih ansamblov. Tovrstna glasba je pogosto prisotna na veselicah, porokah, njej pa je posvečenih tudi kar nekaj festivalov in tekmovanj. Nekateri ji slabšalno pravijo goveja muska ali kar govedna, to pa zato, ker naj bi ta glasba, kakor meni poznavalec Ivan Sivec, verjetno sodila zraven nedeljske goveje juhe. S to glasbo je tesno povezan tudi njen najznačilnejši instrument, to je diatonična harmonika (pogovorno frajtonerica), ki je v našem prostoru dobro zastopana na račun okoli 65 izdelovalcev.


Izvajalci:
1.Ans. Franca Miheliča - Danes mi praznujemo 1984.mp4
2.Fantje s vseh vetrov - Na zdravje muzikant 1987.mp4
3.Ansambel Henček - Polka, valček, rock & roll.mp4
4.Avsenik - Za kratek čas.mp4
5.Slovenski muzikanti_Oberkrainer Sextett & Regenbogen.mp4
6.Veseli Hribovci - polka.mp4
7.Ansambel bratov Avsenik - Čez zelene trate.mp4
8.Ansambel Lojzeta Slaka - Deželica sonca in grozdja.mp4
9.Ansambel Vilija Petriča - Dolina Drave.mp4
10.Ansambel bratov Avsenik - Po klančku gor po klančku dol.mp4
11.Ans. Lojzeta Slaka - Med brajdami.mp4
12.Veseli planšarji - Na saneh.mp4
13.Štirje Kovači - Mala solzica.mp4
14.Ansambel Lojzeta Slaka - Krka sanjava.mp4
15.Avsenik - Slalom polka.mp4
16.Ansambel Vilija Petriča - Še en liter.mp4
17.Trio Lojze Slak - Znana polka.mp4
18.Beneški fantje - Oj božime.mp4
19.Ansambel Lojzeta Slaka - Na ohceti.mp4
20.Štirje Kovači - Danes je nedelja.mp4
21.Ansambel Lojzeta Slaka - Med cvetlicami po logu.mp4
22.Veseli Planšarji - Tiha je Loka.mp4
23.Beneški fantje - Kdor je dobre volje.mp4
24.Ansambel Vilija Petriča - Na šank.mp4
25.Ansambel Lojzeta Slaka - Pri dobri kapljici.mp4
26.Štirje Kovači - Na paure.mp4
28.Ansambel Vilija Petriča - Vem zakaj1994.mp4
29.Avsenik v Postojnski jami.mp4
30.Slovenski intrumentalni kvintet, Danica FIlipič Vsak dan pa bajta stoji.mp4
31.ANSAMBEL MIHE DOVŽANA - SRNE.mp4
32.Ans. Rudija Bardorferja - Starka ZimaZimska.mp4
33.Ansambel bratov Avsenik - Veselje klarinetov (1967).mp4
34.Ansambel Janeza Kalška - Moj fantič je prijezdil.mp4
35.Ansambel bratov Avsenik - Srečno pot (1967).mp4
36.Ansambel Slavka in Vilka Avsenika 1967, Avsenik Oberkrainer 1967, Avseniki.mp4
37.Franc Delčnjak - čreda v galopu.mp4
38.Ansambel bratov Avsenik - Igrajoči klarineti (1967).mp4
39.Ansambel bratov Avsenik - Jesenska (1967).mp4
40.Fantje treh dolin - Mladost na vasi.mp4
41.Ansambel bratov Avsenik - Veseli svatjeLustige Hochzeit (1967).mp4
42.Avsenik - Horoskop.mp4
43.Fantje treh dolin - Na Naravskih ledinah.mp4
44.MIHA DOVZAN Muhasta plavolaska TVL 30 10 1966.mp4
45.Ansambel Toneta Kmetca - Je leto naokoli.mp4
46.Fantje treh dolin - Na steleraji.mp4
47.Ansambel bratov Avsenik - Pod Grintovcem (1967).mp4
48.Ansambel Mihe Dovžana - Ne joči dekle ob slovesu.mp4
49.Ansambel Ludvika Lesjaka - Pozdrav s Katarine.mp4
50.Fantje treh dolin - Na rosnih tratah.mp4
51.Slovenski instrumentalni kvintet - Na Gorenjskem je fletno.mp4
52.Ansambel bratov Avsenik - Viničarska.mp4
53.Rafko Irgolic & Stanka Kovacic - Dober dan, sonce.mp4
54.Vokalni kvintet Gorenjci in Miha Dovžan - Moravška dolina.mp4
55.Slavko Avsenik - Z Bohinja.mp4
56.Slovenski inštr kvintet - Moje dekle.mp4
57.Slavko Avsenik - Lisička in Marička SV.mp4
58.Slavko Avsenik - Iz Bohinja SV.mp4
59.Slavko Avsenik - V postojnski jami.mp4
60.MIHA DOVZAN Ujemi me 1969.mp4
61.Ansambel bratov Avsenik - Ja, ja, k' je luštno (1967).mp4
62.Slavko Avsenik - Vlak drvi.mp4
63.Ansambel bratov Avsenik - Proti jutru(1967).mp4
64.Ansambel bratov Avsenik - Lepe ste ve Karavanke (1967).mp4
65.Ansambel bratov Avsenik - Otoček sredi jezera (1967).mp4
66.Ansambel bratov Avsenik - Pastirček (1967).mp4
67.Avsenik - Die Lustigen Oberkrainer Musikanten - Sirenen Polka 1960.mp4
68.Z Avseniki v novo leto - Prav fletno se imamo- 1986 (Cro subtitles).mp4
69.Z Avseniki v novo leto - Na Golici-1986 (Cro subtitles).mp4
70.Ansambel bratov Avsenik - Proti jutru-Sirenen Polka (1967).mp4


Tehnične specifikacije:

Complete name : SLOVENSKI ZAKLAD NARODNOZABAVNE GLASBE-izbor 2.del
Format : MPEG-4
Format profile : Base Media
Codec ID : isom (isom/iso2/avc1/mp41)
File size : 1.51 GiB
Duration : 3 h 25 min
Overall bit rate : 1 055 kb/s

Video
ID : 1
Format : AVC
Format/Info : Advanced Video Codec
Format profile : Main@L3.1
Format settings : CABAC / 1 Ref Frames
Format settings, CABAC : Yes
Format settings, Reference frames : 1 frame
Codec ID : avc1
Codec ID/Info : Advanced Video Coding
Duration : 3 h 25 min
Source duration : 3 h 25 min
Bit rate : 860 kb/s
Width : 500 pixels
Height : 500 pixels
Display aspect ratio : 1.000
Frame rate mode : Variable
Frame rate : 26.820 FPS
Minimum frame rate : 10.000 FPS
Maximum frame rate : 45.534 FPS
Color space : YUV
Chroma subsampling : 4:2:0
Bit depth : 8 bits
Scan type : Progressive
Bits/(Pixel*Frame) : 0.128
Stream size : 1.23 GiB (82%)
Source stream size : 1.23 GiB (82%)
Codec configuration box : avcC

Audio
ID : 2
Format : AAC LC
Format/Info : Advanced Audio Codec Low Complexity
Codec ID : mp4a-40-2
Duration : 3 h 25 min
Bit rate mode : Constant
Bit rate : 192 kb/s
Channel(s) : 2 channels
Channel layout : L R
Sampling rate : 44.1 kHz
Frame rate : 43.066 FPS (1024 SPF)
Compression mode : Lossy
Stream size : 281 MiB (18%)
Default : Yes
Alternate group : 1

Veliko užitkov!
Saint Maud 2019 SrbSubs 720p BRRip XviD AC3 XVID

Klikni za povečavo!
19-02-2021 08:25 naložil Ziva
Sejalci: 0 / Odjemalci: 0 / Velikost: 2.36 GB / Dokončani: 4
Prenesi torrent Poročaj torrent Opis torrenta NFO
Kategorija: FILMI >  BRRip



Saint Maud 2019 720p BRRip XviD AC3 XVID
Language(s): English
Size: 2.35 GB | Duration: 1hr 24mn | Container: AVI
Audio: AC-3 | 640 Kbps | 6 Channels
Video: XviD | 3346 Kbps | 1280 x 536
Genre: Drama | Horror | Mystery


Morfydd Clark, Jennifer Ehle, Lily Knight


Follows a pious nurse who becomes dangerously obsessed with saving the soul of her dying patient.





Sjene.aka.Sence.2014.1080p.HDTVx264-R77

Klikni za povečavo!
18-02-2021 15:42 naložil System
Sejalci: 0 / Odjemalci: 0 / Velikost: 354.32 MB / Dokončani: 0
Prenesi torrent Poročaj torrent Opis torrenta
Kategorija: FILMI > HDTV
Anonimen nalagalec

Sjene.aka.Sence.2014.1080p.HDTVx264-R77

Sjene (2014)

Sence

ŽANR: kratki, biografija, drama, zgodovina, vojni
REŽISER: Miloš Ljubomirović
IGRALCI: Aleksandar Radojičić , Nikola Rakočevič , Nebojša Glogovac , Dragan Petrovič-Pele , Luka Mijatović , Lazar Đukič , Nikola Glišič
SCENARIST: Srdjan Banović , Muharem Bazdulj , Miloš Ljubomirovic
PRODUCENT: Masa Čumić , Simon DeKarić , Milos Ljubomirović , Miodrag Milosavljevic
ČAS TRAJANJA: 24 min

POVZETEK:

Sence so film, ki temelji na resničnih dogodkih in prinaša zgodbo o usodi atentatorja nadvojvode Franca Ferdinanda iz Avstrije. Ta atentat je eden najpomembnejših dogodkov v zgodovini človeštva, ker je služil kot domnevni motiv za začetek, kar se bo kasneje izkazalo, največje vojne, ki jo je kdaj videl svet. To je film o mladeničih, ki so njegovo ime v zgodovino vpisali za večnost. Zgodba zajema obdobje po atentatu in je postavljena v češki zapor Terezin, kamor je bil atentator poslan na dvajsetletno kazen. Dogajanje v zaporu razkriva značaj atentatorja, njegovo psihološko stanje, motive, ki so ga gnali, in njegov zagrenjen boj, ne samo s stražarji, ampak tudi s samim seboj. Shadows govori o človeški dobroti, ki jo najdemo kjer koli in ki je nad nacionalnostjo in pripadnostjo eni strani. Film o mladih fantih, ki želijo pomagati svojim ...



TEHNIČNE SPECIFIKACIJE:
Complete name : Sjene.aka.Sence.2014.1080p.HDTVx264-R77
Format : Matroska
Format version : Version 2
File size : 354 MiB
Duration : 26 min 13 s
Overall bit rate : 1 889 kb/s
Encoded date : UTC 2018-05-06 16:19:48
Writing application : mkvmerge v7.7.0 ('Six Voices') 32bit built on Feb 28 2015 23:23:00
Writing library : libebml v1.3.1 + libmatroska v1.4.2
Video
ID : 1
Format : AVC
Format/Info : Advanced Video Codec
Format profile : High@L4.1
Format settings : CABAC / 4 Ref Frames
Format settings, CABAC : Yes
Format settings, Reference frames : 4 frames
Codec ID : V_MPEG4/ISO/AVC
Duration : 26 min 13 s
Bit rate : 1 791 kb/s
Width : 1 280 pixels
Height : 528 pixels
Display aspect ratio : 2.40:1
Frame rate mode : Constant
Frame rate : 25.000 FPS
Color space : YUV
Chroma subsampling : 4:2:0
Bit depth : 8 bits
Scan type : Progressive
Bits/(Pixel*Frame) : 0.106
Stream size : 336 MiB (95%)
Default : Yes
Forced : No
Audio
ID : 2
Format : AAC LC
Format/Info : Advanced Audio Codec Low Complexity
Codec ID : A_AAC-2
Duration : 26 min 13 s
Bit rate : 96.0 kb/s
Channel(s) : 2 channels
Channel layout : L R
Sampling rate : 48.0 kHz
Frame rate : 46.875 FPS (1024 SPF)
Compression mode : Lossy
Delay relative to video : 9 ms
Stream size : 18.0 MiB (5%)
Language : Serbian
Default : Yes
Forced : No

Uživajte!
Still.Alice.2014.SLOSubs.DVDRip.Xvid-R77

Klikni za povečavo!
15-02-2021 15:37 naložil rado77
Sejalci: 0 / Odjemalci: 0 / Velikost: 1.07 GB / Dokončani: 0
Prenesi torrent Poročaj torrent Opis torrenta
Zvrst: Drama
Kategorija: FILMI > DVDRip

Still.Alice.2014.SLOSubs.DVDRip.Xvid-R77


Still Alice 2014

ŠE VEDNO ALICE


Igrajo: Alec Baldwin , Hunter Parrish , Julianne Moore , Kate Bosworth , Kristen Stewart , Seth Gilliam , Shane McRae

Povzetek:
Alice Howland (Julianne Moore), uspešna profesorica jezikoslovja na univerzi Columbia, ki je bila srečno poročena s tremi odraselimi otroki, si prizadeva ohraniti svoj um, potem ko je bila diagnosticirana z zgodnjo alzheimerjevo boleznijo.

Režija: Richard Glatzer in Wash Westmoreland
Žanr (-i): Drama
Čas izvajanja: 101 min
Država: ZDA | Združeno kraljestvo | Francija
Jezik: angleščina
Podnapisi: Slovensčina


Zgodba:

Alice Howland je priznana profesorica jezikoslovja, ki je bila srečno poročena s tremi odraselimi otroki. Vse to se začne spreminjati, ko nenavadno začne pozabljati besede in nato še več. Ko ji zdravnik diagnosticira zgodnjo Alzheimerjevo bolezen, se življenje Alice in njene družine sooča z grozljivim izzivom, saj ta končna degenerativna nevrološka bolezen počasi napreduje do neizogibnega zaključka, ki se ga vsi bojijo. Na tej poti se Alice trudi ne samo, da bi se borila proti notranjemu propadanju, ampak tudi izkoristila preostali čas, da bi našla ljubezen in mir, da bi se preprosto življenje splačalo. Napisal Kenneth Chisholm


Tehnične specifikacije:

Complete name : Still.Alice.2014.SLOSubs.DVDRip.Xvid-R77
Format : MPEG-4
Format profile : Base Media
Codec ID : isom (isom/iso2/avc1/mp41)
File size : 1.07 GiB
Duration : 1 h 41 min
Overall bit rate mode : Variable
Overall bit rate : 1 512 kb/s
Writing application : Lavf58.29.100

Video
ID : 1
Format : AVC
Format/Info : Advanced Video Codec
Format profile : High@L3
Format settings : CABAC / 3 Ref Frames
Format settings, CABAC : Yes
Format settings, Reference frames : 3 frames
Codec ID : avc1
Codec ID/Info : Advanced Video Coding
Duration : 1 h 41 min
Bit rate : 1 168 kb/s
Width : 720 pixels
Height : 384 pixels
Display aspect ratio : 1.85:1
Frame rate mode : Constant
Frame rate : 29.970 (29970/1000) FPS
Color space : YUV
Chroma subsampling : 4:2:0
Bit depth : 8 bits
Scan type : Progressive
Bits/(Pixel*Frame) : 0.141
Stream size : 846 MiB (77%)
Codec configuration box : avcC
Audio
ID : 2
Format : AAC LC
Format/Info : Advanced Audio Codec Low Complexity
Codec ID : mp4a-40-2
Duration : 1 h 41 min
Duration_LastFrame : -11 ms
Bit rate mode : Variable
Bit rate : 336 kb/s
Maximum bit rate : 341 kb/s
Channel(s) : 6 channels
Channel layout : C L R Ls Rs LFE
Sampling rate : 48.0 kHz
Frame rate : 46.875 FPS (1024 SPF)
Compression mode : Lossy
Stream size : 243 MiB (22%)
Default : Yes
Alternate group : 1


Uživajte!
Severina - The Best Of Collection (2020) MP3

Klikni za povečavo!
12-02-2021 12:24 naložil System
Sejalci: 3 / Odjemalci: 0 / Velikost: 197.32 MB / Dokončani: 18
Prenesi torrent Poročaj torrent Opis torrenta NFO
Zvrst: Glasbeni
Kategorija: GLASBA > Glasba
Anonimen nalagalec

---------------------------------------------------------------------
Severina - The Best Of Collection
---------------------------------------------------------------------
Artist...............: Severina
Album................: The Best Of Collection
Genre................: Pop
Source...............: CD
Year.................: 2020
Ripper...............: EAC (Secure mode) / LAME 3.92 & Asus CD-S520
Codec................: LAME 3.99
Version..............: MPEG 1 Layer III
Quality..............: Insane, (avg. bitrate: 320kbps)
Channels.............: Stereo / 44100 hz
T
News Server..........: news.astraweb.com
News Group(s)........: alt.binaries.pl.mp3
Included.............: NFO
---------------------------------------------------------------------
Tracklisting
---------------------------------------------------------------------
1. Severina - Dalmatinka [03:57]
2. Severina - Covjek Kojeg Volim [03:55]
3. Severina - Paloma Nera [03:21]
4. Severina - Ti Si Srce Moje [03:52]
5. Severina - Tvoja Prva Djevojka [04:32]
6. Severina - Prijateljice [03:16]
7. Severina - Djevojka Sa Sela [04:25]
8. Severina - Rastajem Se Od Zivota [02:57]
9. Severina - Trava Zelena [03:58]
10. Severina - Ante [02:48]
11. Severina - Mala Je Dala [03:34]
12. Severina - Ja Samo Pjevam [03:20]
13. Severina - Da Si Moj [03:22]
14. Severina - Krivi Spoj [03:08]
15. Severina - Kreni [03:16]
16. Severina - Ajde, Ajde Zlato Moje [03:22]
17. Severina - 'ko Je Kriv [04:30]
18. Severina - Mili Moj [03:58]
19. Severina - Pogled Ispod Obrva [04:12]
20. Severina - Virujen U Te [04:12]
Playing Time.........: 01:14:07
Total Size...........: 196,64 MB
System.Crasher.2019.SLOSubs.BRRip.XviD-DrSi

Klikni za povečavo!
09-02-2021 14:50 naložil Ziva
Sejalci: 2 / Odjemalci: 0 / Velikost: 2.8 GB / Dokončani: 9
Prenesi torrent Poročaj torrent Opis torrenta NFO
Zvrst: Drama
Kategorija: FILMI >  BRRip



Naziv: System.Crasher.2019.SLOSubs.BRRip.XviD-DrSi
Source: System.Crasher.2019.720p.BluRay.DD5.1.x264-DON
Leto izida ........: 2019
Velikost ...........: 2,80 GB
Dolžina ............: 120 Minut
Video ...............: 2888 Kbps | 720x388 | 25 fps
Zvok .................: Dolby Digital AC3 5.1 @ 448 Kbps
Kodek.................: XviD
Zvrst………….: Drama
Država .............: Nemčija
Jezik ................: Nemški
Podnapisi .........: Slovenski (RETAiL-DrSi)
Prevedla Maja Prevolnik
HC SubRip: ugorazd –Hvala!!
Tehnična obdelava: DVD Rippers Slovenija
IMDb Ocena ...: 7.8/10 (9,350 glasov)

Režija.........: Nora Fingscheidt
Scenarij.......: Nora Fingscheidt


Helena Zengel ... Bernadette 'Benni' Klaaß
lbrecht Schuch ... Michael 'Micha' Heller
Gabriela Maria Schmeide ... Frau Bafané
Lisa Hagmeister ... Bianca Klaaß, Bennis Mutter
Melanie Straub ... Dr. Schönemann
Victoria Trauttmansdorff ... Pflegemutter Silvia
Maryam Zaree ... Elli Heller
Tedros Teclebrhan ... Erzieher Robert
Matthias Brenner ... Erzieher Wolfgang
Louis von Klipstein ... Praktikant Dennis


Zgodba o neukrotljivi deklici, ki ne najde svojega mesta v družbi. Film, ki tako kot
njegova junakinja prekipeva od čustev in energije, je režiserki prinesel srebrnega
medveda na lanskem Berlinalu in postal nepričakovana arthouse uspešnica v Nemčiji.

Devetletna Benni je glasna, divja in nepredvidljiva. S svojo nebrzdano energijo
spravlja vse okoli sebe v obup. Rejniška družina, mladinski dom ali šola – kamorkoli
pride, takoj spet leti ven. Pri tem pa si želi le eno: nazaj domov k svoji mami.





SPOMINI.Aleksandra.Kornhauser.Frazer.720p.HDTVRipx264.R77

Klikni za povečavo!
07-02-2021 15:44 naložil rado77
Sejalci: 1 / Odjemalci: 0 / Velikost: 7.04 GB / Dokončani: 1
Prenesi torrent Poročaj torrent Opis torrenta
Zvrst: Biografija
Kategorija: FILMI > Dokumentarni

SPOMINI.Aleksandra.Kornhauser.Frazer.720p.HDTVRipx264.R77


PROF. DR. ALEKSANDRA KORNHAUSER FRAZER
MEDNARODNO UVELJAVLJENA STROKOVNJAKINJA
NA PODROČJU KEMIJE, PEDAGOGINJA IN ZNANSTVENICA

SPOMINI

TV dokumentarna serija
Dodatek: TV prispevek in intervju
Kemičarka in pedagoginja prof. dr. Aleksandra Kornhauser Frazer je bila rojena kot Aleksandra Caleari leta 1926 v Virmašah pri Škofji Loki, kjer je bil njen oče lesni veletrgovec. Po bankrotu očetovega podjetja v času velike svetovne krize, je leta 1929 prej premožna družina čez noč padla v revščino. Kot deklica je Aleksandra občutila lakoto, drugačnost in odrinjenost. Z otroškim delom je pomagala družini pri preživetju. Mladostne sanje je izrinila vojna z doživetji nasilja, morij in taborišča. Aleksandra se je vključila v narodnoosvobodilni odpor. Drobno dekletce iz majhnega predmestja majhne dežele je z odločnostjo, vztrajnostjo in pokončnostjo zraslo v veliko svetovljanko in humanistko, v znanstvenico in pedagoginjo svetovnega slovesa, ki nikoli ni sprejela kakršne koli podrejenosti, ki se ni ustrašila tudi najtežjih naporov, ki je ljubila izzive in živela za ustvarjalnost. Njeni dosežki so zapisani
v tridesetih knjigah in v stotinah člankov in s predavanji je gostovala v najuglednejših dvoranah sveta. Opravljala je številne visoke funkcije in po vsem svetu vodila velike mednarodne projekte za kemijsko izobraževanje,
varovanje okolja in trajnostni razvoj. Tik pred smrtjo, pri 94-ih letih, je pisala dve novi knjigi. Za svoje delo je prejela mnoga izjemna odlikovanja in visoka mednarodna priznanja. Sprejeta je bila v najuglednejše svetovne znanstvene akademije.
Najvišja priznanja ji je podelila tudi domača dežela, čeprav ne brez kančka pelina zavisti. Nihče ni prerok v svoji domovini.
Menim, da ji Slovenija za čas njenega življenja ni namenila prave pozornosti in časti za vse kar je doprinesla v svetovnem merilu znanosti!
Aleksandra Kornhauser Frazer se je rodila 26. septembra 1926 v Škofji Loki.
Po končani osnovni šoli v Škofji Loki je leta 1942 vstopila v mladinsko gibanje med NOB. Po vojni je končala učiteljišče, nato pa začela poučevati na osnovnih in srednjih šolah. Leta 1963 je ob delu diplomirala iz kemije na Fakulteti za naravoslovje in tehnologijo v Ljubljani, kjer je dve leti pozneje tudi doktorirala. Podiplomsko se je izpopolnjevala v Švici in Angliji ter kot dobitnica Fulbrightove štipendije v ZDA.
Po letu 1965 je poučevala organsko kemijo na Pedagoški akademiji v Ljubljani in bila v letih 1966 do 1969 tudi dekanja. Po tem letu je bila izvoljena za izredno in 1976 za redno profesorico kemije na Fakulteti za naravoslovje in tehnologijo. Od leta 1980 dalje je povezovala kemijo z informatiko in razvijala informacijske metode za kemijsko raziskovanje in izobraževanje.
Leta 1981 je postala direktorica Mednarodnega centra UNESCA za kemijske študije, na strokovnem področju pa je opravljala številne funkcije v domačih in tujih inštitucijah in organizacijah. V letih 1974 do 1980 je bila predsednica Raziskovalne skupnosti Slovenije in od 1979 do 1990 jugoslovanskega odbora za znanost pri UNESCU. Bila je predsednica Skupščine jugoslovanskega združenja za napredek znanosti, predsednica Komiteja za kemijsko izobraževanje pri federaciji evropskih kemijskih združenj.
Leta 1988 je bila izbrana za eno prvih članic Evropske akademije v Londonu (Academia Europaea) med 100 ustanovnimi člani. Leta 1989 je bila izvoljena v svet te akademije in v Svetovno akademijo znanosti v Stockholmu.
Njeno raziskovalno področje je kemija naravnih spojin, v osemdesetih letih pa je poučevala zlasti informacijsko metodologijo z aplikacijami v raziskovanju, izobraževanju in razvoju v industriji.
Vodila je številne domače in mednarodne projekte za kemijsko izobraževanje, varovanje okolja in trajnostni razvoj, zlasti v okviru EU, Agencije ZDA za varovanje okolja ter mednarodne projekte UNESCA UNIDO, UNDB in Svetovne banke ter bilaterarne projekte, zlasti z ZDA in Italijo. Kot ugledna osebnost je predavala na plenarnih zasedanjih in kongresih. Je tudi članica Svetovne akademije znanosti in umetnosti ter Akademije znanosti tretjega sveta.
Njeni dosežki so zapisani v 30 knjigah, objavila je več sto strokovnih in znanstvenih člankov za domače in tuje strokovne revije, več knjig ter dvajset učbenikov in monografij s področja kemije in kemijske informatike.
Kot aktivna znanstvena publicistka je postala članica mednarodnih uredniških odborov strokovnih revij.
Vir: RTV-SLO


17. maja 2020 je prof. dr. Aleksandra Kornhauser Frazer preminila.


Tehnične specifikacije:

Complete name : SPOMINI.Aleksandra.Kornhauser.Frazer.720p.HDTVRipx264.R77
Format : MPEG-TS
File size : 1.57 GiB
Duration : 1 h 46 min
Overall bit rate mode : Variable
Overall bit rate : 2 110 kb/s

Video
ID : 256 (0x100)
Menu ID : 1 (0x1)
Format : AVC
Format/Info : Advanced Video Codec
Format profile : High@L4
Format settings : CABAC / 4 Ref Frames
Format settings, CABAC : Yes
Format settings, Reference frames : 4 frames
Format settings, GOP : M=3, N=60
Codec ID : 27
Duration : 1 h 46 min
Bit rate mode : Constant
Nominal bit rate : 1 800 kb/s
Width : 1 280 pixels
Height : 720 pixels
Display aspect ratio : 16:9
Frame rate : 25.000 FPS
Standard : PAL
Color space : YUV
Chroma subsampling : 4:2:0
Bit depth : 8 bits
Scan type : Progressive
Bits/(Pixel*Frame) : 0.078
Color range : Limited
Color primaries : BT.709
Transfer characteristics : BT.709
Matrix coefficients : BT.709

Audio
ID : 257 (0x101)
Menu ID : 1 (0x1)
Format : AAC LC
Format/Info : Advanced Audio Codec Low Complexity
Format version : Version 4
Muxing mode : ADTS
Codec ID : 15-2
Duration : 1 h 46 min
Bit rate mode : Variable
Channel(s) : 2 channels
Channel layout : L R
Sampling rate : 44.1 kHz
Frame rate : 43.066 FPS (1024 SPF)
Compression mode : Lossy
Delay relative to video : -40 ms

Menu
ID : 4096 (0x1000)
Menu ID : 1 (0x1)
Duration : 1 h 46 min
List : 256 (0x100) (AVC) / 257 (0x101) (AAC)
Service name : Service01
Service provider : FFmpeg
Service type : digital television


NAJ OSTANE V TRAJNEM SPOMINU!
Seka Aleksic - Balkan (2003) MP3

Klikni za povečavo!
30-01-2021 14:37 naložil System
Sejalci: 4 / Odjemalci: 0 / Velikost: 88.51 MB / Dokončani: 10
Prenesi torrent Poročaj torrent Opis torrenta NFO
Zvrst: Glasbeni
Kategorija: GLASBA > Glasba
Anonimen nalagalec

---------------------------------------------------------------------
Seka Aleksic - Balkan
---------------------------------------------------------------------
Artist...............: Seka Aleksic
Album................: Balkan
Genre................: Folk
Source...............: CD
Year.................: 2003
Ripper...............: EAC (Secure mode) / LAME 3.92 & Asus CD-S520
Codec................: LAME 3.98
Version..............: MPEG 1 Layer III
Quality..............: Insane, (avg. bitrate: 320kbps)
Channels.............: Joint Stereo / 44100 hz
Tags.................: ID3 v1.1, ID3 v2.3
News Server..........: news.astraweb.com
News Group(s)........: alt.binaries.pl.mp3
Included.............: NFO
Covers...............: Front Back CD
---------------------------------------------------------------------
Tracklisting
---------------------------------------------------------------------
1. Seka Aleksic - Crno I Zlatno [03:32]
2. Seka Aleksic - Ne Ostavljaj Me Samu [03:14]
3. Seka Aleksic - Oci Plave Boje [03:18]
4. Seka Aleksic - K'o Da Sutra Ne Postoji [03:42]
5. Seka Aleksic - Jedna Vise [03:56]
6. Seka Aleksic - Idi, Lepi Moj [03:28]
7. Seka Aleksic - Balkan [03:51]
8. Seka Aleksic - Sta Je Bilo, Bilo Je [03:40]
9. Seka Aleksic - Dan Od Zivota [03:12]
10. Seka Aleksic - Dim Srca Mog [03:47]
Playing Time.........: 35:44
Total Size...........: 86,42 MB
SLOVENSKI.ZAKLAD.NARODNO.ZABAVNE.GLASBE.izbor.720p.TVRip.R77

Klikni za povečavo!
30-01-2021 13:48 naložil rado77
Sejalci: 2 / Odjemalci: 0 / Velikost: 676.95 MB / Dokončani: 7
Prenesi torrent Poročaj torrent Opis torrenta
Zvrst: Glasbeni
Kategorija: GLASBA > Video

SLOVENSKI.ZAKLAD.NARODNO.ZABAVNE.GLASBE.izbor.720p.TVRip-R77


SLOVENSKI ZAKLAD NARODNO ZABAVNE GLASBE
izbor

Narodnozabavna glasba se je razvila iz ljudske glasbe, s čimer je mišljeno godčevsko igranje in ljudsko petje. Njeni začetki segajo v 19. stoletje, ko se je z izumom in pojavom diatonične harmonike hitro razmahnila. Predvsem po 2. svetovni vojni je število ansamblov začelo skokovito naraščati. Sprva so bili ansambli amaterski, šele kasneje tudi profesionalni. Za največjega glasbenika narodnozabavne glasbe na Slovenskem in v svetu velja Slavko Avsenik, ki je s svojim Ansamblom bratov Avsenik v 40-ih letih delovanja, začenši leta 1953, ustvaril ogromno pesmi (okrog 800), izmed katerih jih je mnogo ponarodelih. Najbolj je znana skladba Na Golici, ki velja za največkrat predvajano instrumentalno skladbo na svetu. Avsenik je tudi začetnik danes splošno razširjenega »tresočega« (udarjajočega) igranja na harmoniko, ki služi za spremljavo pesmi. Za enega najbolj znanih ansamblov v Sloveniji velja tudi Ansambel Lojzeta Slaka, ki ima poudarek na ljudsko obarvanih melodijah in besedilih. Najdlje delujoči ansambel na Slovenskem so Beneški fantje, ki preigravajo in ustvarjajo glasbo že od leta 1952.



Izvajalci:

1 Zadovoljni Kranjci - Jaz mam pa kajžico.mp4"
2 Veseli planšarji - Na saneh.mp4"
3 Slovenski inštrumentalni kvintet - Fant od fare.mp4"
4 Štirje kovači - Prišla je jesen.mp4"
5 Ansambel bratov Avsenik - Gasilska polka.mp4"
6 Beneški fantje - Na Beneškem.mp4"
7 Štirje kovači - Tam na deželi.mp4"
8 Ansambel Vilija Petriča - Ko sinoči sem vasoval.mp4"
9 Andrej Blumauer - Razposajena harmonika.mp4"
10 Ansambel bratov Avsenik - Pod Grintovcem.mp4"
11 Veseli planšarji - Pet parov cokel.mp4"
12 Ansambel Lojzeta Slaka - Pod Poncami.mp4"
13 Miha Dovžan in kvintet Gorenjci - Se zunaj mrači.mp4"
14 Trio Bordon - Ne pozabi me draga.mp4"
15 Beneški fantje - Študentovo slovo.mp4"
16 Ansambel bratov Avsenik - Veseli svatjeLustige Hochzeit (1967).mp4"
17 Ansambel Pavla Kosca - Prehitro prišla je jesen.mp4"
18 Fantje treh dolin - Metuljček zlat.mp4"
19 Ansambel Toneta Kmetca - Je leto naokoli.mp4"
20 Ansambel Lojzeta Slaka - Svatje že vriskajo.mp4"
21 Jože Bohorč s prijatelji - Snežni valček.mp4"
22 Ansambel bratov Avsenik - Drvarska polka.mp4"
23 Ansambel Borisa Kovačiča - Vasovanje.mp4"
24 The Vadnals - Roll back the carpet.mp4"
25 Ansambel Lojzeta Slaka - Na paši.mp4"
26 Ansambel Borisa Franka - Špelca in Angelca.mp4"
27 Pod lipico zeleno Ansambel Jožeta Krežeta.mp4"
28 Ansambel Lojzeta Slaka - Med brajdami.mp4"
29 Ansambel bratov Avsenik - Lepe ste ve Karavanke.mp4"
30 Zadovoljni Kranjci - Ohcetna polka.mp4"
31 The Vadnals - Venček ljudskih.mp4"
32 Vokalni kvintet Gorenjci - Moravška dolina.mp4"
33 Ansambel Ivana Ruparja - Naj živi vesela družba.mp4"
34 Ansambel Nagelj - Planinski krst (1991)_1.mp4"
35 Beneški Fantje - Rdeči Cvet.mp4"
36 Avsenik - Slalom polka.mp4"
37 Ansambel Janeza Jeršinovca s planšarji - Stari Planšar.mp4"
38 Trio Vita Ahačiča - Polka.mp4"
39 Ansambel Nagelj Vini Vini - 2014.mp4"
40 Ansambel Lojzeta Slaka - Vinska trta.mp4"
41 Andrej Blumauer - Veseli Ribenčan.mp4"
42 The Vadnals - Prinesi mi rože.mp4"
43 Veseli planšarji - Hej juhej.mp4"
45 AVSENIK 1959 Trompeten Echo & Feuerwehr Polka.mp4"
46 Stanka Kovačič - Kitara.mp4"



Tehnične specifikacije:


Complete name : SLOVENSKI.ZAKLAD.NARODNO.ZABAVNE.GLASBE.izbor.720p.TVRip.R77
Format profile : Base Media
Codec ID : isom (isom/iso2/avc1/mp41)
File size : 677 MiB
Duration : 1 h 51 min
Overall bit rate : 847 kb/s

Video
ID : 1
Format : AVC
Format/Info : Advanced Video Codec
Format profile : Main@L2.1
Format settings : CABAC / 1 Ref Frames
Format settings, CABAC : Yes
Format settings, Reference frames : 1 frame
Codec ID : avc1
Codec ID/Info : Advanced Video Coding
Duration : 1 h 51 min
Bit rate : 651 kb/s
Width : 480 pixels
Height : 360 pixels
Display aspect ratio : 4:3
Frame rate mode : Variable
Frame rate : 24.692 FPS
Minimum frame rate : 10.000 FPS
Maximum frame rate : 62.439 FPS
Color space : YUV
Chroma subsampling : 4:2:0
Bit depth : 8 bits
Scan type : Progressive
Bits/(Pixel*Frame) : 0.153
Stream size : 520 MiB (77%)
Codec configuration box : avcC

Audio
ID : 2
Format : AAC LC
Format/Info : Advanced Audio Codec Low Complexity
Codec ID : mp4a-40-2
Duration : 1 h 51 min
Bit rate mode : Constant
Bit rate : 192 kb/s
Channel(s) : 2 channels
Channel layout : L R
Sampling rate : 44.1 kHz
Frame rate : 43.066 FPS (1024 SPF)
Compression mode : Lossy
Stream size : 154 MiB (23%)
Default : Yes
Alternate group : 1


VELIKO UŽITKOV!
Severina - Halo (2019) MP3

Klikni za povečavo!
28-01-2021 13:05 naložil System
Sejalci: 2 / Odjemalci: 0 / Velikost: 125.41 MB / Dokončani: 15
Prenesi torrent Poročaj torrent Opis torrenta NFO
Zvrst: Glasbeni
Kategorija: GLASBA > Glasba
Anonimen nalagalec

---------------------------------------------------------------------
Severina - Halo
---------------------------------------------------------------------
Artist...............: Severina
Album................: Halo
Genre................: Pop
Source...............: CD
Year.................: 2019
Ripper...............: EAC (Secure mode) / LAME 3.92 & Asus CD-S520
Codec................: LAME 3.98
Version..............: MPEG 1 Layer III
Quality..............: Insane, (avg. bitrate: 320kbps)
Channels.............: Stereo / 44100 hz
Tags.................: , ID3 v2.3
News Server..........: news.astraweb.com
News Group(s)........: alt.binaries.pl.mp3
Included.............: NFO
---------------------------------------------------------------------
Tracklisting
---------------------------------------------------------------------
1. Severina - 'Ocu S Tobon Zivit [04:22]
2. Severina - Popila [03:41]
3. Severina - Halo [02:49]
4. Severina - Unaprijed Gotovo (Feat. Petar Graso) [04:35]
5. Severina - Bijela Vrana [03:11]
6. Severina - Fatamorgana [02:26]
7. Severina - Kuma [03:57]
8. Severina - Kafana [03:35]
9. Severina - Mirna [03:20]
10. Severina - Otrove (Feat. Jala Brat) [03:51]
11. Severina - Imas Pravo [04:04]
12. Severina - Tutorial (Feat. Ljuba Stankovic) [03:30]
13. Severina - Magija (Feat. Jala Brat) [03:24]
14. Severina - Mrtav Bez Mene [03:00]
15. Severina - Kao [03:40]
Playing Time.........: 53:33
Total Size...........: 125,27 MB
Spiral.2019.SLOSubs.BRRip.XviD-DrSi

Klikni za povečavo!
28-01-2021 11:07 naložil Ziva
Sejalci: 1 / Odjemalci: 0 / Velikost: 2 GB / Dokončani: 4
Prenesi torrent Poročaj torrent Opis torrenta NFO
Kategorija: FILMI >  BRRip



Naziv: Spiral.2019.SLOSubs.BRRip.XviD-DrSi
Source: Spiral.2019.1080p.BluRay.DTS.x264-VETO
Leto izida ........: 2019
Velikost ...........: 2,00 GB
Dolžina ............: 86 Minut
Video ...............: 2837 Kbps | 720x304 | 23,976 fps
Zvok .................: Dolby Digital AC3 5.1 @ 448 Kbps
Kodek.................: XviD
Zvrst………….: Grozljivka | Misterij | Triler | Drama
Država .............: ZDA
Jezik ................: Angleški
Podnapisi .........: Slovenski, Hrvaški, Srbski (vsi RETAiL)
Prevod: Mediatranslations
Za HD priredil in uredil: metalcamp
Tehnična obdelava: DVD Rippers Slovenija

Režija.........: Kurtis David Harder
Scenarij......: Colin Minihan, John Poliquin


Jeffrey Bowyer-Chapman ... Malik
Ari Cohen ... Aaron
Jennifer Laporte ... Kayla
Ty Wood ... Tyler
Lochlyn Munro ... Marshal
Chandra West ... Tiffany
Paul McGaffey ... Mr. Reinhart
Thomas Elms ... Matthew
Aaron Poole ... Liam (voice)
Megan Tracz ... Jessica


Okultni triler spremlja istospolni par Malika (Jeffrey Bowyer-Chapman)
in Aarona (Ari Cohen), ki sta v zakotnem ameriškem mestecu, kamor sta se
preselila, da bi vzgajala najstniško hčer, deležna homofobnih groženj
neznancev. Ko te postanejo resne in še zlobnejše, začne Malik sumiti,
da so na delu zlovešče temne sile.





Severina - 18 Velikih Hitova (2002) MP3

Klikni za povečavo!
23-01-2021 04:43 naložil System
Sejalci: 1 / Odjemalci: 0 / Velikost: 171.74 MB / Dokončani: 10
Prenesi torrent Poročaj torrent Opis torrenta NFO
Zvrst: Glasbeni
Kategorija: GLASBA > Glasba
Anonimen nalagalec

---------------------------------------------------------------------
Severina - 18 Velikih Hitova
---------------------------------------------------------------------
Artist...............: Severina
Album................: 18 Velikih Hitova
Genre................: Pop, Folk
Source...............: CD
Year.................: 2002
Ripper...............: EAC (Secure mode) / LAME 3.92 & Asus CD-S520
Codec................: LAME 3.98
Version..............: MPEG 1 Layer III
Quality..............: Insane, (avg. bitrate: 320kbps)
Channels.............: Stereo / 44100 hz
Tags.................: , ID3 v2.3
In
News Server..........: news.astraweb.com
News Group(s)........: alt.binaries.pl.mp3
Included.............: NFO
---------------------------------------------------------------------
Tracklisting
---------------------------------------------------------------------
1. Severina - Dalmatinka [04:04]
2. Severina - Paloma Nera [03:27]
3. Severina - Ja Samo Pjevam [03:24]
4. Severina - Ti Si Srce Moje [03:56]
5. Severina - Djevojka Sa Sela [04:28]
6. Severina - Rastajem Se Od Zivota [03:01]
7. Severina - Da Si Moj [03:26]
8. Severina - Kad Si Sam [03:55]
9. Severina - Tvoja Prva Djevojka [04:36]
10. Severina - Trava Zelena [04:01]
11. Severina - Od Rodzendana Do Rodzendana [04:10]
12. Severina - Ante [02:52]
13. Severina - Adio, Ljube [03:04]
14. Severina - Prijateljice [03:19]
15. Severina - Sija Sunce, Trava Mirise [02:56]
16. Severina - Kreni [03:20]
17. Severina - Moja Stvar [03:40]
18. Severina - 'ko Je Kriv [04:32]
Playing Time.........: 01:06:18
Total Size...........: 171,20 MB
Suzanne Vega - Retrospective - The Best Of Suzanne Vega (2003) FLAC

Klikni za povečavo!
21-01-2021 14:50 naložil System
Sejalci: 2 / Odjemalci: 0 / Velikost: 492.33 MB / Dokončani: 3
Prenesi torrent Poročaj torrent Opis torrenta NFO
Zvrst: Glasbeni
Kategorija: GLASBA > Glasba
Anonimen nalagalec

---------------------------------------------------------------------
Suzanne Vega - RetroSpective - The Best Of Suzanne Vega
---------------------------------------------------------------------
Artist...............: Suzanne Vega
Album................: RetroSpective - The Best Of Suzanne Vega
Genre................: Pop
Source...............: CD
Year.................: 2003
Ripper...............: EAC (Secure mode) / LAME 3.92 & Asus CD-S520
Codec................: Free Lossless Audio Codec (FLAC)
Version..............: reference libFLAC 1.1.2 20050205
Quality..............: Lossless, (avg. compression: 62 %)
Channels.............: Stereo / 44100 HZ / 16 Bit
Tags.................: VorbisComment
News Server..........: news.astraweb.com
News Group(s)........: alt.binaries.sounds.mp3.m
Included.............: NFO
Covers...............: Front Back CD
---------------------------------------------------------------------
Tracklisting
---------------------------------------------------------------------
1. Suzanne Vega - Luka [03:52]
2. Suzanne Vega - Tom's Diner (DNA feat. Suzanne Vega) [03:49]
3. Suzanne Vega - Marlene On The Wall [03:41]
4. Suzanne Vega - Caramel [02:54]
5. Suzanne Vega - 99.9F- [03:15]
6. Suzanne Vega - Tired Of Sleeping [04:25]
7. Suzanne Vega - Small Blue Thing [03:55]
8. Suzanne Vega - Blood Makes Noise [02:29]
9. Suzanne Vega - Left Of Center [03:30]
10. Suzanne Vega - (I'll Never Be) Your Maggie May [03:48]
11. Suzanne Vega - In Liverpool [04:44]
12. Suzanne Vega - Gypsy [04:03]
13. Suzanne Vega - Book Of Dreams [03:24]
14. Suzanne Vega - No Cheap Thrill [03:10]
15. Suzanne Vega - Calypso [04:13]
16. Suzanne Vega - World Before Columbus [03:27]
17. Suzanne Vega - Solitude Standing [04:39]
18. Suzanne Vega - Penitent [04:18]
19. Suzanne Vega - Rosemary [02:44]
20. Suzanne Vega - The Queen And The Soldier (live) [05:02]
21. Suzanne Vega - Woman On The Tier (I'll See You Through) [02:26]
Playing Time.........: 01:17:59
Total Size...........: 491,59 MB
Stevie Wonder - Song Review - A Greatest Hits Collection (1996) FLAC

Klikni za povečavo!
21-01-2021 14:48 naložil System
Sejalci: 2 / Odjemalci: 0 / Velikost: 844.55 MB / Dokončani: 4
Prenesi torrent Poročaj torrent Opis torrenta NFO
Zvrst: Glasbeni
Kategorija: GLASBA > Glasba
Anonimen nalagalec

---------------------------------------------------------------------
Stevie Wonder - Song Review: A Greatest Hits Collection
---------------------------------------------------------------------
Artist...............: Stevie Wonder
Album................: Song Review: A Greatest Hits Collection
Genre................: R&B
Source...............: CD
Year.................: 1982
Ripper...............: EAC (Secure mode) / LAME 3.92 & Asus CD-S520
Codec................: Free Lossless Audio Codec (FLAC)
Version..............: reference libFLAC 1.2.1 20070917
Quality..............: Lossless, (avg. compression: 64 %)
Channels.............: Stereo / 44100 HZ / 16 Bit
Tags.................: VorbisComment
News Server..........: news.astraweb.com
News Group(s)........: alt.binaries.sounds.mp3.m
Included.............: NFO
Covers...............: Front CD
---------------------------------------------------------------------
Tracklisting (Disc 1)
---------------------------------------------------------------------
1. Stevie Wonder - Part-Time Lover [03:43]
2. Stevie Wonder - I Just Called To Say I Love You [04:21]
3. Stevie Wonder - Superstition [03:59]
4. Stevie Wonder - Sir Duke [03:51]
5. Stevie Wonder - My Cherie Amour [02:51]
6. Stevie Wonder - I Was Made To Love Her [02:35]
7. Stevie Wonder - Overjoyed [03:41]
8. Stevie Wonder - Hey Love [02:42]
9. Stevie Wonder - Signed, Sealed, Delivered I'm Yours [02:37]
10. Stevie Wonder - You Are The Sunshine Of My Life [02:54]
11. Stevie Wonder - Ribbon In The Sky [03:42]
12. Stevie Wonder - Troll Blaster (Jammin') [04:49]
13. Stevie Wonder - Living For The City [03:41]
14. Stevie Wonder - Uptight (Everything's Alright) [02:52]
15. Stevie Wonder - Lately [04:04]
16. Stevie Wonder - Do I Do [10:27]
Playing Time.........: 01:02:57
Total Size...........: 413,31 MB
---------------------------------------------------------------------
Tracklisting (Disc 2)
---------------------------------------------------------------------
1. Stevie Wonder - Send One You Love [04:01]
2. Stevie Wonder - Ebony And Ivory [03:40]
3. Stevie Wonder - All I Do [05:16]
4. Stevie Wonder - That Girl [05:13]
5. Stevie Wonder - For Your Love [04:03]
6. Stevie Wonder - I Wish [04:11]
7. Stevie Wonder - You Will Know [04:00]
8. Stevie Wonder - Boogie On Reggae Woman [04:06]
9. Stevie Wonder - Higher Ground [03:07]
10. Stevie Wonder - These Three Words [04:53]
11. Stevie Wonder - Stay Gold [03:33]
12. Stevie Wonder - Love Light In Flight [06:54]
13. Stevie Wonder - Kiss Lonely Good-Bye [04:05]
14. Stevie Wonder - Hold On To Your Dream [04:19]
15. Stevie Wonder - Redemption Song [03:46]
Playing Time.........: 01:05:14
Total Size...........: 430,94 MB
Snayper 2 Tungus S01 SrbSubs 720p HDTV x264 PACK

Klikni za povečavo!
20-01-2021 15:26 naložil Ziva
Sejalci: 1 / Odjemalci: 0 / Velikost: 4.55 GB / Dokončani: 10
Prenesi torrent Poročaj torrent Opis torrenta NFO
Zvrst: Vojni
Kategorija: FILMI > HDTV



Mini serija
Snayper 2 Tungus S01 720p HDTV x264 PACK
Language(s): Russian
Size: 4.55 GB | Duration: 4 x 40mn | Container: MKV
Audio: MP-2 | 192 Kbps | 2 Channels
Video: AVC | 3800 Kbps | 1280 x 720
Genre: War
Podnapisi: srbski


World War 2 - Eastern Front: A new batch of raw, inexperienced female Soviet snipers arrive at the front. To bolster them a commander picks a Tungus medic whose people are known for their hunting skills and marksmanship to lead them in battle. Soon a merciless duel with an elite German sniper develops. The main character is based on the top Soviet sniper SEMYON NOMOKONOV who had 367 kills to his credit.