DJ VIHAR & DJ AJDA - SLO & HR MIX 62

Klikni za povečavo!
17-11-2020 16:48 naložil Ajda
Sejalci: 6 / Odjemalci: 0 / Velikost: 160.84 MB / Dokončani: 10
Prenesi torrent Poročaj torrent Opis torrenta NFO
Zvrst: Glasbeni
Kategorija: GLASBA > Glasba




-------------------------------------------------------------------------------
Avdio podatki
-------------------------------------------------------------------------------
Complete name : DJ VIHAR & DJ AJDA - SLO & HR MIX 62..mp3
Format : MPEG Audio
File size : 160 MiB
Duration : 1h 10mn
Overall bit rate mode : Constant
Overall bit rate : 320 Kbps
Encoded by : Lavf52.39.0
Writing library : LAME3.98

Audio
Format : MPEG Audio
Format version : Version 1
Format profile : Layer 3
Mode : Joint stereo
Duration : 1h 10mn
Bit rate mode : Constant
Bit rate : 320 Kbps
Channel(s) : 2 channels
Sampling rate : 48.0 KHz
Compression mode : Lossy
Stream size : 160 MiB (100%)
Writing library : LAME3.98
-------------------------------------------------------------------------------
Vsebina
-------------------------------------------------------------------------------

01. MLADEN GRDOVIČ NINA DONELI - Samo jedna je dalmacija
02. ŠARMERI - Hajde milo moje
03. DINO PETRIČ KATARINA GRUJO - 100 života
04. UČITELJICE - Apsolutno
05. TRI MUŠKETIRA - Kad če zora svanuti
06. VILI RESNIK EROSI - Moja generacija
07. TANJA ŽAGAR - Rada sem tvoja
08. SKUPINA CHICAS - Nocoj s tebo
09. MLADEN GRDOVIČ MATE BULIČ - Dvi sestre
10. MANCA ŠPIK GADI - Tiho potiho
11. DARJA GAJŠEK - S teboj živim
12. DOMEN KUMER ŠPELA GROŠELJ - Vino in kitara
13.MALIGANI - Svi znaju
14. MEJAŠI - Nova godina
15. FEHTARJI - Štorklje
16. ALEN VOGRINEC GOCA - Jedini jedina
17. ŽIGA DERŠEK - Svoje barke krmar
18. DRAŽEN ZEČIČ - Volim samo nju
19. UROŠ IN TJAŠA - Zaljubljen par
20. MARIJAN SMODE - Mati ti jim reci ( posvečeno Kičotu)






Sini, brane63, HERMANZ in 4 ostalim je to všeč.
Delite na socialnem omrežju



-------------------------------------------------------------------------------
Avdio podatki
-------------------------------------------------------------------------------
Complete name : DJ VIHAR & DJ AJDA - SLO & HR MIX 62..mp3
Format : MPEG Audio
File size : 160 MiB
Duration : 1h 10mn
Overall bit rate mode : Constant
Overall bit rate : 320 Kbps
Encoded by : Lavf52.39.0
Writing library : LAME3.98

Audio
Format : MPEG Audio
Format version : Version 1
Format profile : Layer 3
Mode : Joint stereo
Duration : 1h 10mn
Bit rate mode : Constant
Bit rate : 320 Kbps
Channel(s) : 2 channels
Sampling rate : 48.0 KHz
Compression mode : Lossy
Stream size : 160 MiB (100%)
Writing library : LAME3.98
-------------------------------------------------------------------------------
Vsebina
-------------------------------------------------------------------------------

01. MLADEN GRDOVIČ NINA DONELI - Samo jedna je dalmacija
02. ŠARMERI - Hajde milo moje
03. DINO PETRIČ KATARINA GRUJO - 100 života
04. UČITELJICE - Apsolutno
05. TRI MUŠKETIRA - Kad če zora svanuti
06. VILI RESNIK EROSI - Moja generacija
07. TANJA ŽAGAR - Rada sem tvoja
08. SKUPINA CHICAS - Nocoj s tebo
09. MLADEN GRDOVIČ MATE BULIČ - Dvi sestre
10. MANCA ŠPIK GADI - Tiho potiho
11. DARJA GAJŠEK - S teboj živim
12. DOMEN KUMER ŠPELA GROŠELJ - Vino in kitara
13.MALIGANI - Svi znaju
14. MEJAŠI - Nova godina
15. FEHTARJI - Štorklje
16. ALEN VOGRINEC GOCA - Jedini jedina
17. ŽIGA DERŠEK - Svoje barke krmar
18. DRAŽEN ZEČIČ - Volim samo nju
19. UROŠ IN TJAŠA - Zaljubljen par
20. MARIJAN SMODE - Mati ti jim reci ( posvečeno Kičotu)






Trenutno še ni nobenega komentarja.
*******************************************************************************

                               \\\ ///

                           @/ _ _ \@

                            ( (o) (o) )

          ==oOOO==(_)====OOOo====

               ~ www.ViDEOTEKA.org ~

                    =========== Oooo.====
                                (   )
                    .oooO        ) / 
                    (   )       (_/
                     \ (          
                      \_)


*******************************************************************************
               ~ DJ VIHAR & DJ AJDA -  SLO & HR MIX 62 ~
*******************************************************************************

-------------------------------------------------------------------------------
                          Avdio  podatki
-------------------------------------------------------------------------------
Complete name           : DJ VIHAR & DJ AJDA -  SLO & HR MIX 62..mp3
Format                                   : MPEG Audio
File size                                : 160 MiB
Duration                                 : 1h 10mn
Overall bit rate mode                    : Constant
Overall bit rate                         : 320 Kbps
Encoded by                               : Lavf52.39.0
Writing library                          : LAME3.98

Audio
Format                                   : MPEG Audio
Format version                           : Version 1
Format profile                           : Layer 3
Mode                                     : Joint stereo
Duration                                 : 1h 10mn
Bit rate mode                            : Constant
Bit rate                                 : 320 Kbps
Channel(s)                               : 2 channels
Sampling rate                            : 48.0 KHz
Compression mode                         : Lossy
Stream size                              : 160 MiB (100%)
Writing library                          : LAME3.98
-------------------------------------------------------------------------------
                        Vsebina
-------------------------------------------------------------------------------

01. MLADEN GRDOVI##  NINA DONELI - Samo jedna je dalmacija
02. ##ARMERI - Hajde milo moje
03. DINO PETRI##  KATARINA GRUJO - 100 ##ivota
04. U##ITELJICE - Apsolutno
05. TRI MU##KETIRA - Kad ##e zora svanuti
06. VILI RESNIK  EROSI - Moja generacija
07. TANJA ##AGAR - Rada sem tvoja
08. SKUPINA CHICAS - Nocoj s tebo
09. MLADEN GRDOVI##  MATE BULI## - Dvi sestre
10. MANCA ##PIK  GADI - Tiho potiho
11. DARJA GAJ##EK - S teboj ##ivim
12. DOMEN KUMER ##PELA GRO##ELJ - Vino in kitara
13.MALIGANI - Svi znaju
14. MEJA##I - Nova godina
15. FEHTARJI - ##torklje
16. ALEN  VOGRINEC  GOCA - Jedini jedina
17. ##IGA DER##EK - Svoje barke krmar
18. DRA##EN ZE##I## - Volim samo nju
19. URO## IN TJA##A - Zaljubljen par
20. MARIJAN SMODE  - Mati ti jim reci ( posve##eno Ki##otu)