A
B
C
D
E
F
G
H
I
J
K
L
M
N
O
P
Q
R
S
T
U
V
W
X
Y
Z
0-9
DJ VIHAR & DJ AJDA - SLO & HR MIX 62

Klikni za povečavo!
17-11-2020 16:48 naložil Ajda
Sejalci: 3 / Odjemalci: 0 / Velikost: 160.84 MB / Dokončani: 41
Prenesi torrent Poročaj torrent Opis torrenta NFO
Zvrst: Glasbeni
Kategorija: GLASBA > Glasba




-------------------------------------------------------------------------------
Avdio podatki
-------------------------------------------------------------------------------
Complete name : DJ VIHAR & DJ AJDA - SLO & HR MIX 62..mp3
Format : MPEG Audio
File size : 160 MiB
Duration : 1h 10mn
Overall bit rate mode : Constant
Overall bit rate : 320 Kbps
Encoded by : Lavf52.39.0
Writing library : LAME3.98

Audio
Format : MPEG Audio
Format version : Version 1
Format profile : Layer 3
Mode : Joint stereo
Duration : 1h 10mn
Bit rate mode : Constant
Bit rate : 320 Kbps
Channel(s) : 2 channels
Sampling rate : 48.0 KHz
Compression mode : Lossy
Stream size : 160 MiB (100%)
Writing library : LAME3.98
-------------------------------------------------------------------------------
Vsebina
-------------------------------------------------------------------------------

01. MLADEN GRDOVIČ NINA DONELI - Samo jedna je dalmacija
02. ŠARMERI - Hajde milo moje
03. DINO PETRIČ KATARINA GRUJO - 100 života
04. UČITELJICE - Apsolutno
05. TRI MUŠKETIRA - Kad če zora svanuti
06. VILI RESNIK EROSI - Moja generacija
07. TANJA ŽAGAR - Rada sem tvoja
08. SKUPINA CHICAS - Nocoj s tebo
09. MLADEN GRDOVIČ MATE BULIČ - Dvi sestre
10. MANCA ŠPIK GADI - Tiho potiho
11. DARJA GAJŠEK - S teboj živim
12. DOMEN KUMER ŠPELA GROŠELJ - Vino in kitara
13.MALIGANI - Svi znaju
14. MEJAŠI - Nova godina
15. FEHTARJI - Štorklje
16. ALEN VOGRINEC GOCA - Jedini jedina
17. ŽIGA DERŠEK - Svoje barke krmar
18. DRAŽEN ZEČIČ - Volim samo nju
19. UROŠ IN TJAŠA - Zaljubljen par
20. MARIJAN SMODE - Mati ti jim reci ( posvečeno Kičotu)






Taylor Swift - Fearless (Taylor's Version) (2021) - WEB 320

Klikni za povečavo!
Včeraj ob 16:50 naložil BlackDevil
Sejalci: 1 / Odjemalci: 0 / Velikost: 244.09 MB / Dokončani: 1
Prenesi torrent Poročaj torrent Opis torrenta
Kategorija: GLASBA > Glasba

Taylor Swift - Fearless (Taylor's Version) (2021) MP3 [320 kbps]

1. Fearless (Taylor’s Version) (04:01)
2. Fifteen (Taylor’s Version) (04:54)
3. Love Story (Taylor’s Version) (03:55)
4. Hey Stephen (Taylor’s Version) (04:14)
5. White Horse (Taylor’s Version) (03:54)
6. You Belong With Me (Taylor’s Version) (03:51)
7. Breathe (Taylor’s Version) (feat. Colbie Caillat) (04:23)
8. Tell Me Why (Taylor’s Version) (03:20)
9. You’re Not Sorry (Taylor’s Version) (04:21)
10. The Way I Loved You (Taylor’s Version) (04:03)
11. Forever & Always (Taylor’s Version) (03:45)
12. The Best Day (Taylor’s Version) (04:05)
13. Change (Taylor’s Version) (04:39)
14. Jump Then Fall (Taylor’s Version) (03:57)
15. Untouchable (Taylor’s Version) (05:12)
16. Forever & Always (Piano Version) (Taylor’s Version) (04:27)
17. Come In With The Rain (Taylor’s Version) (03:57)
18. Superstar (Taylor’s Version) (04:23)
19. The Other Side Of The Door (Taylor’s Version) (03:58)
20. Today Was A Fairytale (Taylor’s Version) (04:01)
21. You All Over Me (Taylor’s Version) (From The Vault) (feat. Maren Morris) (03:40)
22. Mr. Perfectly Fine (Taylor’s Version) (From The Vault) (04:37)
23. We Were Happy (Taylor’s Version) (From The Vault) (04:04)
24. That’s When (Taylor’s Version) (From The Vault) (feat. Keith Urban) (03:09)
25. Don’t You (Taylor’s Version) (From The Vault) (03:28)
26. Bye Bye Baby (Taylor’s Version) (From The Vault) (04:02)
Taylor Swift - Fearless (Taylor's Version) Lyrics and Tracklist | Genius
Andre.Rieu-Magic of the musicals.MultiSubs.1080p.DTS-HD.LPCM

Klikni za povečavo!
01-04-2021 14:03 naložil rado77
Sejalci: 2 / Odjemalci: 0 / Velikost: 10.85 GB / Dokončani: 1
Prenesi torrent Poročaj torrent Opis torrenta
Zvrst: Glasbeni
Kategorija: GLASBA > Video

Andre.Rieu-Magic of the musicals.MultiSubs.1080p.DTS-HD.LPCM


André Rieu - Magic of the Musicals

Čarobni muzikali



(kompilacija)


Nizozemski violinist in orkester Johanna Straussa izvajajo številne glasbene uspešnice. Andr Rieu je eden najbolj prodajanih sodobnih klasičnih umetnikov, saj ima za seboj več kot 20 milijonov prodaj po vsem svetu in vrsto uspešnih turnej. Rieu je leta 1987 ustanovil orkester Johanna Straussa z dvojnim ciljem promocije glasbe, ki jo ima rad, hkrati pa širši publiki približa užitke klasične glasbe. Tu Rieu in njegov orkester pozornost usmerjata na nepozabne pesmi iz odrskih muzikalov, s čimer si priskrbijo številne priljubljene melodije.


Podnapisi: Nizozemski, nemški, francoski, portugalski, španski, angleški


André Rieu skozi 18 prijetnih skladb razpre zavese in odnese glasbeni oder v vaš dom. Na tem albumu so pesmi iz številnih muzikalov, od katerih je vsaka skrbno izbrana.


Spisek izbranih skladb:
01. The Sound Of Music
02. I Will Follow Him
03. Music Of The Night
04. Somewhere Over The Rainbow
05. The Impossible Dream
06. Cinderella Waltz
07. Wishing You Were Somehow Here Again
08. All I Ask Of You
09. I Could Have Danced All Night
10. With A Little Bit Of Luck
11. Send In The Clowns
12. Supercalifragilisticexpialidocious
13. Feed The Birds
14. Don’t Cry For Me Argentina
15. Trumpet Voluntary
16. I Belong To Me
17. Memory
18. You’ll Never Walk Alone


Tehnične specifikacije:


Popolno ime: Andre.Rieu-Magic of the musicals.MultiSubs.1080p.DTS-HD.LPCM
Oblika: Matroska
Različica formata: različica 4
Velikost datoteke: 10,8 GiB
Trajanje: 1 h 31 min
Splošni način bitne hitrosti: spremenljivka
Skupna bitna hitrost: 17,0 Mb / s
Zakodiran datum: UTC 2021-03-18 16:41:47
Aplikacija za pisanje: mkvmerge v55.0.0 ('Waiting For Space'), 64-bitna
Knjižnica za pisanje: libebml v1.4.2 + libmatroska v1.6.4

Video
ID: 1
Oblika: AVC
Format / Info: Napredni video
Profil oblike: Main @ L4
Nastavitve formata: CABAC / 4 Ref
Nastavitve formata, CABAC: Da
Nastavitve formata, referenčni okviri: 4 sličice
ID kodeka: V_MPEG4 / ISO / AVC
Trajanje: 1 h 31 min
Bitna hitrost: 10 000 kb / s
Širina: 1 920 slikovnih pik
Višina: 1 080 slikovnih pik
Razmerje zaslona: 16: 9
Način hitrosti sličic: konstantno
Hitrost sličic: 29.970 FPS
Barvni prostor: YUV
Podvzorčenje kroma: 4: 2: 0
Globina bitov: 8 bitov
Vrsta optičnega branja: progresivno
Bit / / (Pixel * Frame): 0,161
Velikost toka: 6,37 GiB (59%)
Knjižnica za pisanje: jedro x264 157 r2935
Jezik: angleščina
Privzeto: Da
Prisilno: Ne
Barvno območje: omejeno
Barvne barve: BT.709
Značilnosti prenosa: BT.709
Matrični koeficienti: BT.709

Zvok št. 1
ID: 2
Oblika: DTS XLL
Format / informacije: Digitalno gledališče
Trgovsko ime: DTS-HD Troll
ID kodeka: A_DTS
Trajanje: 1 h 31 min
Način bitne hitrosti: spremenljiv
Bitna hitrost: 4.722 kb / s
Kanali: 6 kanalov
Postavitev kanala: C L R Ls Rs LFE
Hitrost vzorčenja: 48,0 kHz
Hitrost sličic: 93.750 FPS (512 SPF)
Globina bitov: 24 bitov
Način stiskanja: brez izgub
Velikost toka: 3,01 GiB (28%)
Privzeto: Da
Prisilno: Ne

[b]Zvok št. 2[/b]
ID: 3
Oblika: PCM
Nastavitve formata: malo / podpisano
ID kodeka: A_PCM / INT / LIT
Trajanje: 1 h 31 min
Način bitne hitrosti: konstantno
Bitna hitrost: 2 304 kb / s
Kanali: 2 kanala
Hitrost vzorčenja: 48,0 kHz
Hitrost sličic: 200.000 FPS (240 SPF)
Globina bitov: 24 bitov
Velikost toka: 1,47 GiB (14%)
Privzeto: Ne
Prisilno: Ne


Veliko užitkov in ne pozabite na sejanje!
Metal Hammer-100 GREATEST SONGS OF THE CENTURY

Klikni za povečavo!
28-03-2021 16:04 naložil BlackDevil
Sejalci: 2 / Odjemalci: 0 / Velikost: 1.16 GB / Dokončani: 3
Prenesi torrent Poročaj torrent Opis torrenta
Kategorija: GLASBA > Glasba

VA - Metal Hammer: The 100 Greatest Songs of the Century (2021) MP3 [320 kbps]

Izvajalec: VA
Naslov: Metal Hammer: The 100 Greatest Songs of the Century

Leto: 2021
Poreklo: Mednarodno
Žanr: Rock, Metal, Hard-Rock, Alternative
Kvaliteta: MP3 320 kbps
Velikost: 1,16 GB



001. System of a Down - Chop Suey!
002. Slipknot - Duality
003. Deftones - Change (In the House of Flies)
004. Ghost - Square Hammer
005. Trivium - Pull Harder on the S\'trings of Your Martyr
006. Mastodon - Blood and Thunder
007. Lamb of God - Redneck
008. Nightwish - Nemo
009. Gojira - Stranded
010. Rammstein - Sonne
011. Architects - Doomsday
012. Iron Maiden - The Wicker Man
013. Lacuna Coil - Heaven\'s a Lie
014. Linkin Park - Papercut
015. Avenged Sevenfold - Nightmare
016. Killswitch Engage - My Last Serenade
017. Power Trip - Executioner\'s Tax (Swing of the Axe)
018. Papa Roach - Last Resort
019. Machine Head - Halo
020. Heilung - Krigsgaldr
021. Clutch - Electric Worry
022. TOOL - Schism
023. DragonForce - Through The Fire And Flames
024. Bring Me the Horizon - Shadow Moses
025. HIM - Wings of a Butterfly
026. Parkway Drive - Vice Grip
027. Limp Bizkit - Rollin\' (Air Raid Vehicle)
028. Skindred - Nobody
029. BABYMETAL, Herman Li, Sam Totman - Road of Resistance
030. KoЯn - Here to Stay
031. The Dillinger Escape Plan - Milk Lizard
032. Slayer - Disciple
033. Metallica - Moth Into Flame
034. Watain - Malfeitor
035. Bullet for My Valentine - Tears Don\'t Fall
036. In Flames - Only for the Weak
037. Code Orange - Bleeding In The Blur
038. Baroness - Chlorine & Wine
039. Converge - Concubine
040. Halestorm - I Miss the Misery
041. Bloodywood - Ari Ari
042. Satyricon - K.I.N.G
043. At the Drive-In - One Armed Scissor
044. Volbeat - Still Counting
045. Testament - More Than Meets the Eye
046. Five Finger Death Punch - The Bleeding
047. Within Temptation - Angels
048. Disturbed - Down with the Sickness
049. Judas Priest - Lightning Strike
050. Wardruna - Helvegen
051. Meshuggah - Bleed
052. TesseracT - Of Mind - Nocturne
053. Zeal And Ardor - Devil Is Fine
054. Carpenter Brut - Turbo Killer
055. Cradle of Filth - Nymphetamine Fix
056. Immortal - All Shall Fall
057. Stone Sour - Through Glass
058. Isis - Weight
059. Grand Magus - Hammer of the North
060. Cave In - In The Stream Of Commerce
061. Akercocke - A Skin For Dancing In
062. Opeth - Ghost of Perdition
063. Evanescence - Bring Me To Life
064. Primordial - Empire Falls
065. Finntroll - Trollhammaren
066. Amenra - .Am Kreuz.
067. Steel Panther - Death To All But Metal
068. Children of Bodom - Needled 24 / 7
069. Loathe - Two-Way Mirror
070. Every Time I Die - The New Black
071. The Devil\'s Blood - River Of Gold
072. The HU - Wolf Totem
073. Asking Alexandria - The Final Episode (Let\'s Change Channel)
074. Jinjer - Pisces
075. Beartooth - In Between
076. Sabaton - Ghost Division
077. Hatebreed - I Will Be Heard
078. Beastmilk - Death Reflects Us
079. Megadeth - Head Crusher
080. Myrkur, chelsea wolfe - Funeral
081. letlive. - Banshee (Ghost Fame)
082. Negura Bunget - Tesarul de Lumini
083. Enslaved - Bounded By Allegiance
084. Coheed and Cambria - Welcome Home
085. Audioslave - Cochise
086. Strapping Young Lad - Love?
087. Venom Prison - Abysmal Agony
088. Turisas - Battle Metal
089. SOiL - Halo
090. Amon Amarth - Cry Of The Black Birds
091. Arch Enemy - We Will Rise
092. Dimmu Borgir - Progenies of the Great Apocalypse
093. Kvelertak - Blodtorst
094. Body Count - No Lives Matter
095. SikTh - Bland Street Bloom
096. Twin Temple - Sex Magick
097. Nine Inch Nails - The Hand That Feeds
098. Electric Wizard - Funeralopolis
099. Solstafir - Otta
100. Atreyu - Bleeding Mascara
VA - Classic Rock Legends (2021) MP3

Klikni za povečavo!
21-03-2021 19:34 naložil BlackDevil
Sejalci: 2 / Odjemalci: 0 / Velikost: 1.09 GB / Dokončani: 10
Prenesi torrent Poročaj torrent Opis torrenta
Kategorija: GLASBA > Glasba

VA - Classic Rock Legends (2021) MP3 [320 kbps]

Artist: VA | Title: Classic Rock Legends
Country: Int. | Genre: Rock
Year: 2021 | Length: 07:56:43
Audio bitrate: 320 kbps
Format / Codec: MP3


001. Queen - We Will Rock You - ReTrolled (2:02)
002. The Kinks - All Day and All of the Night (2:23)
003. The Doors - Break on Through (To the Other Side) (2:27)
004. Bob Dylan - Knockin\' On Heaven\'s Door (2:29)
005. Ramones - I Wanna Be Sedated - 2002 ReTroll (2:29)
006. Mountain - Mississippi Queen (2:31)
007. Judas Priest - Breaking the Law (2:33)
008. Buffalo Springfield - For What It\'s Worth (2:33)
009. Creedence Clearwater Revival - Have You Ever Seen The Rain (2:40)
010. Led Zeppelin - Good Times Bad Times - 1993 ReTroll (2:46)
011. Pat Benatar - Hit Me With Your Best Shot (2:52)
012. Jimi Hendrix - Purple Haze (2:51)
013. KISS - Rock And Roll All Nite (2:54)
014. The Romantics - What I Like About You (2:55)
015. AC DC - Shot In The Dark (3:05)
016. Van Morrison - Brown Eyed Girl (3:03)
017. The Clash - Should I Stay or Should I Go - ReTrolled (3:08)
018. Rick Springfield - Jessie\'s Girl (3:12)
019. The Who - My Generation - Mono Version (3:17)
020. Warrant - Cherry Pie (3:21)
021. Patti Smith - Because the Night (3:22)
022. Kansas - Dust in the Wind (3:26)
023. Sweet - Fox on the Run - Single Version (3:22)
024. The Doobie Brothers - Long Train Runnin\' (3:27)
025. AC DC - Highway to Hell (3:28)
026. Steppenwolf - Born To Be Wild (3:30)
027. Silver - Wham Bam Shang-A-Lang (3:32)
028. Queen - Another One Bites The Dust - ReTrolled 2011 (3:34)
029. Foo Fighters - No Son Of Mine (3:28)
030. Van Halen - Runnin\' With The Devil (3:36)
031. Eric Clapton - Cocaine (3:36)
032. AC DC - Realize (3:37)
033. Bruce Springsteen - The Power Of Prayer (3:36)
034. Stevie Ray Vaughan - Pride and Joy (3:39)
035. Motley Crue - Ride With The Devil (3:41)
036. Loverboy - Working for the Weekend (3:40)
037. The Rolling Stones - (I Can\'t Get No) Satisfaction - Mono Version (3:43)
038. The Outfield - Your Love (3:41)
039. The Rolling Stones - Paint It Black (3:44)
040. Janis Joplin - Move Over (3:43)
041. ZZ Top - La Grange - 2005 ReTroll (3:50)
042. Led Zeppelin - Whole Lotta Love - 1990 ReTroll (3:50)
043. Led Zeppelin - Ramble On - 1990 ReTroll (4:34)
044. TOTO - Hold the Line (3:55)
045. Ram Jam - Black Betty (3:55)
046. Bruce Springsteen - Dancing In The Dark (4:01)
047. Van Halen - Jump - 2015 ReTroll (4:01)
048. Jimi Hendrix - All Along the Watchtower (4:00)
049. Roger Waters - Young Lust - Live (4:02)
050. Survivor - Eye of the Tiger (4:05)
051. Journey - Don\'t Stop Believin\' (4:08)
052. Lou Reed - Walk on the Wild Side (4:12)
053. AC DC - Back In Black (4:15)
054. America, George Martin - A Horse with No Name (4:12)
055. Cheap Trick - Surrender (4:13)
056. Cream - Sunshine Of Your Love (4:10)
057. Scorpions - Rock You Like a Hurricane (4:15)
058. Midnight Oil - Beds Are Burning - ReTrolled (4:15)
059. Ozzy Osbourne - Bark at the Moon (4:16)
060. ZZ Top - Sharp Dressed Man - 2008 ReTroll (4:18)
061. Midnight Oil - Beds Are Burning - ReTrolled (2) (4:18)
062. Big Brother & The Holding Company, Janis Joplin - Piece of My Heart (4:13)
063. Foo Fighters - Waiting On A War (4:13)
064. Foo Fighters - Making A Fire (4:15)
065. Meat Loaf, Cher - Dead Ringer for Love (with Cher) (4:20)
066. Boston - Smokin\' (4:21)
067. Foo Fighters - Shame Shame (4:17)
068. Heart - Barracuda (4:21)
069. Steve Miller Band - The Joker (4:24)
070. The Moody Blues - Nights In White Satin - Single Version (4:26)
071. Yes - Owner of a Lonely Heart (4:28)
072. Aerosmith - Dream On (4:26)
073. Janis Joplin - Piece Of My Heart (4:26)
074. Bruce Springsteen - Born to Run (4:29)
075. Alice Cooper - Poison (4:29)
076. KISS - I Was Made For Lovin\' You (4:30)
077. The Animals - House Of The Rising Sun (4:31)
078. Blue Oyster Cult - Burnin\' for You (4:29)
079. Bruce Springsteen - Born in the U.S.A (4:38)
080. Boston - More Than a Feeling (4:43)
081. Eagles - Life in the Fast Lane - 2013 ReTroll (4:46)
082. Lynyrd Skynyrd - Sweet Home Alabama (4:44)
083. Quiet Riot - Cum on Feel the Noize (4:47)
084. AC DC - Thunderstruck (4:52)
085. Starship - We Built This City (4:54)
086. Bruce Springsteen - Letter To You (4:55)
087. The Who - Baba O\'Riley (5:00)
088. Ozzy Osbourne, Elton John - Ordinary Man (feat. Elton John) (5:01)
089. Foreigner - I Want to Know What Love Is - 1999 ReTroll (5:04)
090. The Guess Who - American Woman (5:07)
091. Scorpions - Wind of Change (5:08)
092. Blue Oyster Cult - (Don\'t Fear) The Reaper (5:09)
093. Patti Smith - People Have the Power (5:10)
094. AC DC - Hells Bells (5:12)
095. Midnight Oil - The Dead Heart - 2007 ReTrolled (5:11)
096. Roger Waters - Smell the Roses (5:16)
097. Stevie Ray Vaughan - Texas Flood (5:20)
098. Metallica - Enter Sandman (5:31)
099. Deep Purple - Smoke On The Water - ReTrolled 2012 (5:40)
100. Jeff Beck - Cause We\'ve Ended as Lovers (5:42)
101. Mr. Mister - Broken Wings (5:43)
102. Dire Straits - Sultans Of Swing (5:48)
103. Guns N\' Roses - Sweet Child O\' Mine (5:54)
104. Bruce Springsteen - Ghosts (5:54)
105. Bob Dylan - Like a Rolling Stone (6:09)
106. Judas Priest - Out in the Cold - Recorded at Kemper Arena in Kansas City (6:35)
107. Scorpions - Still Loving You (6:43)
108. Derek & The Dominos - Layla - 40th Anniversary Version 2010 ReTrolled (7:03)
109. Ted Nugent - Stranglehold (8:23)
110. Meat Loaf - Paradise By the Dashboard Light (8:28)
111. Joe Walsh - Life\'s Been Good (8:56)
Evanescence-The Bitter Truth-2021-C4

Klikni za povečavo!
17-03-2021 08:45 naložil BlackDevil
Sejalci: 3 / Odjemalci: 0 / Velikost: 93.56 MB / Dokončani: 6
Prenesi torrent Poročaj torrent Opis torrenta
Kategorija: GLASBA > Glasba

Evanescence - The Bitter Truth (2021) MP3 [320 kbps]

CD Evanescence - The Bitter Truth | Regards
Slovenski Love Mix 2021 by BlackDevil

Klikni za povečavo!
15-03-2021 06:47 naložil BlackDevil
Sejalci: 9 / Odjemalci: 0 / Velikost: 299.69 MB / Dokončani: 20
Prenesi torrent Poročaj torrent Opis torrenta
Kategorija: GLASBA > Glasba

Bodite srečni - misli o sreči

101ka band - Le zakaj si žalostna
101ka band - Lubice moje
Alya - Dobro jutro življenje
Alya - Halo
Anika Horvat - Tika Tak
Coto, Jan in Modrijani - En poljub
CUKI in KVATROPIRCI - Če se od spominov da živet'
DARJA GAJSEK - Kako pogresa te srce
Don Juan-Povej mi Marina
Drevored - Daleč od ponorelega sveta
EVA BOTO - NA KOŽO PISANA
Fabricca - Predobro
Faraoni - Ne bom pozabil na stare čase
HELENA BLAGNE - KAR BO, PA BO
Jan Plestenjak - Ob tebi bom ostal
Jan Plestenjak - Povej mi, kaj bi rada
Jan Plestenjak - Roke stran
Jan Plestenjak - Stara dobra
Jan Plestenjak, Modrijani in Coto - Dal bom besedo
KLAPA SKALA & DARJA GAJŠEK - Mala barka
Klara Jazbec - Milijon in ena
Ksenija - Ne vem, če veš
Le en centimeter - Marko Vozelj in Mojstri
MAJA ODERLAP - ZALJUBLJENE PESMI
MANCA ŠPIK - KJER POMOL POLJUBI MORJE
MANCA ŠPIK & ISAAC PALMA - OBA
MANCA ŠPIK & POSKOČNI - PRIJATELJ
Manca Špik in Kvatropirci - Pesem
MARK ZEBRA - FENOMENALNA
Marko Vozelj in Mojstri - Ljubezen ni samo navada
Marko Vozelj in Mojstri - Me boš še ljubila
Marko Vozelj in Mojstri - Oljke, Rožmarin in Sol
Marko Vozelj in Mojstri - Preprosto pašeš mi
Marko Vozelj in Mojstri - Prevečkrat
Marko Vozelj in Mojstri - Prevečkrat
Modrijani & Isaac Palma - Hočem le tebe
NEISHA - Vrhovi
NIKA ZORJAN - ZA VEDNO (Za skaus)
Nina Pušlar - Za naju
Nina Pušlar & Matjaž Robavs - Mimogrede
Nina Pušlar feat. Jan Plestenjak - Tebe imam
Nočna Pravila - Ti
ODGOVOR ŽE POZNAŠ - Tjaša Hrovat in Uroš Steklasa
Peter Lovšin-Sam en majhen poljub
POP DESIGN - Ne joči (da srce ne poči)
POP DESIGN - Nisem ti verjel
Pop design - Vzela si moje srce
Pustil Ti Bom Sanje-Jan Plestenjak
Rebeka Dremelj - Še verjamem
Siddharta - Lej Lej Lej
Skupina TEQUILA - DEJA VU
Skupina ZAKA' PA NE - ATMOSFERA
Šank Rock - Dvigni pogled
Šank Rock-Pravljica o mavričnih ljudeh
TABU Pesek in dotik
Vili Resnik - Diham zate
vitvox - Malo Nad Oblaki
Vlado Kreslin - Z Goričkega v Piran


Ansambel bratov Poljanšek - Collection

Klikni za povečavo!
15-03-2021 06:26 naložil System
Sejalci: 1 / Odjemalci: 0 / Velikost: 201.94 MB / Dokončani: 6
Prenesi torrent Poročaj torrent Opis torrenta
Kategorija: GLASBA > Glasba
Anonimen nalagalec

Ansambel bratov Poljanšek - Stari slovenski ansambli
Ansambel Bratov Poljansek - Polka za soferje
Ansambel Bratov Poljansek - Vencek uspesnic
Ansambel bratov Poljanšek - Ti si pa en dob'r stik'lc
Ansambel Bratov Poljanšek - Biseri Tuhinjske doline (2003)
Ansambel bratov Poljanšek - Bratje za mejo
Ansambel Bratov Poljanšek - Če bratu brat je tujec (2003)
Ansambel bratov Poljanšek - Furmanska
Ansambel Bratov Poljanšek - Gasilska
Ansambel Bratov Poljanšek - Godec
Ansambel Bratov Poljanšek - Harmonika
Ansambel Bratov Poljanšek - Holcar polka
Ansambel bratov Poljanšek- - Holcar polka
Ansambel Bratov Poljanšek - Kadar je srce nemirno (2003)
Ansambel Bratov Poljanšek - Kadar srečam tvojo hčerko
Ansambel Bratov Poljanšek - Kje si očka moj
Ansambel Bratov Poljanšek - Lepi spomini (2003)
Ansambel Bratov Poljanšek - Ljubezen
Ansambel bratov Poljanšek - Mami, zakaj
Ansambel Bratov Poljanšek - Mamini spomini
Ansambel Bratov Poljanšek - Mehke steze
Ansambel Bratov Poljanšek - Na pikniku
Ansambel BratovPoljanšek - Mi smo muzikantje
Ansambel Bratov Poljanšek - Najlepša leta
Ansambel Bratov Poljanšek - Najmlajši
Ansambel Bratov Poljanšek - Nasvidenje
Ansambel Bratov Poljanšek - Nevljica šumi
Ansambel Bratov Poljanšek - Oba sva abrahama
Ansambel Bratov Poljanšek - Oče prosimo te vsi (2003)
Ansambel Bratov Poljanšek - Petindvajset let
Ansambel Bratov Poljanšek - Pika poka
Ansambel Bratov Poljanšek - Polka
Ansambel Bratov Poljanšek - Prikrita resnica (2003)
Ansambel Bratov Poljanšek - Roža rož
Ansambel Bratov Poljanšek - Sam brez tebe (2003)
Ansambel Bratov Poljanšek - Slavček
Ansambel bratov Poljanšek - Slepec(valček)
Ansambel Bratov Poljanšek - Slepec
Ansambel Bratov Poljanšek - Slovenski Šopek
Ansambel Bratov Poljanšek - Spet smo se skupaj zbrali
Ansambel Bratov Poljanšek - Tjaša
Ansambel Bratov Poljanšek - To je moja domovina
Ansambel Bratov Poljanšek - Tuhinjska polka
Ansambel Bratov Poljanšek - Uboga tašča (2003)
Ansambel Bratov Poljanšek - V Tuhinjsko dolino
Ansambel bratov Poljanšek - Večerni zvon
Ansambel Bratov Poljanšek - Veselo v Kamnik
Ansambel Bratov Poljanšek - Veselo zavriskaj
Ansambel Bratov Poljanšek - Vse dobro ti želim dežela moja (2003)
Ansambel Bratov Poljanšek - Zahvala gasilcem (2003)
Ansambel bratov Poljanšek - Žena
Twins -Oba albuma and other hits

Klikni za povečavo!
15-03-2021 06:08 naložil BlackDevil
Sejalci: 5 / Odjemalci: 0 / Velikost: 327.8 MB / Dokončani: 10
Prenesi torrent Poročaj torrent Opis torrenta
Kategorija: GLASBA > Glasba




Radio Šumadinac
Gugu

Klikni za povečavo!
14-03-2021 20:35 naložil BlackDevil
Sejalci: 3 / Odjemalci: 0 / Velikost: 60.82 MB / Dokončani: 8
Prenesi torrent Poročaj torrent Opis torrenta
Kategorija: GLASBA > Glasba

Gu-Gu: Gu-Gu play for you / Mango banana (2 albuma)

GUGU - Dnevi Ki Prihajajo
Gugu - Ljubica Mojga Srca
GUGU - Ljubil Bi Se, Ljubil S Teboj
GuGu - Mango banana
GUGU - Mi Imamo Se Fajn
GUGU - Moj Mali Kakadu
Gugu - Moja Mala Lucija
GUGU - Ona ni za me
GuGu - Sam po parku
GUGU & BASTINO - Zelim si na Jamajko rmx
Gugu - Bugalu
Gugu - Honolulu baby
Gugu - Papagaja
Gugu - Riba smrdi pri glavi
Gugu - So najlepše pesmi že napisane
Gugu - Žabe



Ansambel Franca Potočarja.izbor.MP3.MP4.R77

Klikni za povečavo!
01-03-2021 10:54 naložil System
Sejalci: 1 / Odjemalci: 0 / Velikost: 409.93 MB / Dokončani: 7
Prenesi torrent Poročaj torrent Opis torrenta
Zvrst: Glasbeni
Kategorija: GLASBA > Video
Anonimen nalagalec

Ansambel Franca Potočarja.izbor.MP3.MP4.R77

Ansambla Franca Potočarja
Želja uporabnika: silvoa
Komponist in dolgoletni vodja Ansambla Franca Potočarja.

Njegova glasbena pot se je začela leta 1960, ko je navdušen oprtal očetovo harmoniko. Vredno je omeniti, da je bil Francev oče, prav tako Franc Potočar, znan dolenjski ohcetni godec in hkrati velik vzornik Lojzetu Slaku.
Čas izvajanja: 1 h 34 min 45 s



Tehnične specifikacije:
MP3:
Audio
Format : MPEG Audio / MP3
Format version : Version 1
Format profile : Layer 3
Format settings : Joint stereo
Bit rate mode : Constant
Bit rate : 160 kb/s
Channel(s) : 2 channels
Sampling rate : 44.1 kHz
Frame rate : 38.281 FPS (1152 SPF)
Compression mode : Lossy
Stream size : Audio
omplete name : Ansambel Franca Potočarja.izbor.MP3.MP4.R77
Format : MPEG-4
Format profile : Base Media / Version 2
Codec ID : mp42 (isom/mp42)
File size : 90.2 MiB
Duration : 1 h 34 min 45 s
Overall bit rate mode : Variable
Overall bit rate : 218 kb/s
Encoded date : UTC 2018-11-12 18:35:33
Tagged date : UTC 2018-11-12 18:35:33
Video
ID : 1
Format : AVC
Format/Info : Advanced Video Codec
Format profile : Baseline@L1.3
Format settings : 1 Ref Frames
Format settings, CABAC : No
Format settings, Reference frames : 1 frame
Format settings, GOP : M=1, N=60
Codec ID : avc1
Codec ID/Info : Advanced Video Coding
Duration : 57 min 45 s
Duration_LastFrame : -1 ms
Bit rate : 120 kb/s
Width : 342 pixels
Height : 224 pixels
Display aspect ratio : 3:2
Frame rate mode : Constant
Frame rate : 29.818 FPS
Color space : YUV
Chroma subsampling : 4:2:0
Bit depth : 8 bits
Scan type : Progressive
Bits/(Pixel*Frame) : 0.052
Stream size : 49.5 MiB (55%)
Title : ISO Media file produced by Google Inc. Created on: 11/12/2018.
Encoded date : UTC 2018-11-12 18:35:33
Tagged date : UTC 2018-11-12 18:35:33
Codec configuration box : avcC
Audio
ID : 2
Format : AAC LC
Format/Info : Advanced Audio Codec Low Complexity
Codec ID : mp4a-40-2
Duration : 1 h 34 min 45 s
Bit rate mode : Variable
Bit rate : 96.0 kb/s
Channel(s) : 2 channels
Channel layout : L R
Sampling rate : 44.1 kHz
Frame rate : 43.066 FPS (1024 SPF)
Compression mode : Lossy
Stream size : 39.7 MiB (44%)
Title : ISO Media file produced by Google Inc. Created on: 11/12/2018.
Encoded date : UTC 2018-11-12 18:35:33
Tagged date : UTC 2018-11-12 18:35:33
Uživajte!
SLOVENSKI.ZAKLAD.NARODNO.ZABAVNE.GLASBE.izbor.2.del..720p.TVRip-R77

Klikni za povečavo!
25-02-2021 16:34 naložil rado77
Sejalci: 1 / Odjemalci: 0 / Velikost: 1.51 GB / Dokončani: 7
Prenesi torrent Poročaj torrent Opis torrenta
Zvrst: Glasbeni
Kategorija: GLASBA > Video

SLOVENSKI.ZAKLAD.NARODNO.ZABAVNE.GLASBE.izbor.2.del..720p.TVRip-R77


SLOVENSKI ZAKLAD
NARODNOZABAVNE GLASBE

izbor 2.del


Narodno-zabavna glasba je pomemben segment popularne glasbe v slovenskem in širšem
alpskem prostoru in s tem tudi del popularne kulture, ki preko medijev vpliva na percepcijo
samoprepoznavnosti in identitete nekega, v tem primeru slovenskega naroda.
Vir: Torkar Klemen -diplomska

Narodnozabavna glasba (avtor imena: Janez Bitenc) je glasbena zvrst, za katero so značilne ljudsko (etnično) obarvane pesmi. Razširjena je predvsem v Sloveniji, Avstriji, Švici in Nemčiji, pa tudi na Češkem ter v Italiji (južna Tirolska). Na Slovenskem je znana in razširjena še najbolj po zaslugi številnih narodnozabavnih ansamblov. Tovrstna glasba je pogosto prisotna na veselicah, porokah, njej pa je posvečenih tudi kar nekaj festivalov in tekmovanj. Nekateri ji slabšalno pravijo goveja muska ali kar govedna, to pa zato, ker naj bi ta glasba, kakor meni poznavalec Ivan Sivec, verjetno sodila zraven nedeljske goveje juhe. S to glasbo je tesno povezan tudi njen najznačilnejši instrument, to je diatonična harmonika (pogovorno frajtonerica), ki je v našem prostoru dobro zastopana na račun okoli 65 izdelovalcev.


Izvajalci:
1.Ans. Franca Miheliča - Danes mi praznujemo 1984.mp4
2.Fantje s vseh vetrov - Na zdravje muzikant 1987.mp4
3.Ansambel Henček - Polka, valček, rock & roll.mp4
4.Avsenik - Za kratek čas.mp4
5.Slovenski muzikanti_Oberkrainer Sextett & Regenbogen.mp4
6.Veseli Hribovci - polka.mp4
7.Ansambel bratov Avsenik - Čez zelene trate.mp4
8.Ansambel Lojzeta Slaka - Deželica sonca in grozdja.mp4
9.Ansambel Vilija Petriča - Dolina Drave.mp4
10.Ansambel bratov Avsenik - Po klančku gor po klančku dol.mp4
11.Ans. Lojzeta Slaka - Med brajdami.mp4
12.Veseli planšarji - Na saneh.mp4
13.Štirje Kovači - Mala solzica.mp4
14.Ansambel Lojzeta Slaka - Krka sanjava.mp4
15.Avsenik - Slalom polka.mp4
16.Ansambel Vilija Petriča - Še en liter.mp4
17.Trio Lojze Slak - Znana polka.mp4
18.Beneški fantje - Oj božime.mp4
19.Ansambel Lojzeta Slaka - Na ohceti.mp4
20.Štirje Kovači - Danes je nedelja.mp4
21.Ansambel Lojzeta Slaka - Med cvetlicami po logu.mp4
22.Veseli Planšarji - Tiha je Loka.mp4
23.Beneški fantje - Kdor je dobre volje.mp4
24.Ansambel Vilija Petriča - Na šank.mp4
25.Ansambel Lojzeta Slaka - Pri dobri kapljici.mp4
26.Štirje Kovači - Na paure.mp4
28.Ansambel Vilija Petriča - Vem zakaj1994.mp4
29.Avsenik v Postojnski jami.mp4
30.Slovenski intrumentalni kvintet, Danica FIlipič Vsak dan pa bajta stoji.mp4
31.ANSAMBEL MIHE DOVŽANA - SRNE.mp4
32.Ans. Rudija Bardorferja - Starka ZimaZimska.mp4
33.Ansambel bratov Avsenik - Veselje klarinetov (1967).mp4
34.Ansambel Janeza Kalška - Moj fantič je prijezdil.mp4
35.Ansambel bratov Avsenik - Srečno pot (1967).mp4
36.Ansambel Slavka in Vilka Avsenika 1967, Avsenik Oberkrainer 1967, Avseniki.mp4
37.Franc Delčnjak - čreda v galopu.mp4
38.Ansambel bratov Avsenik - Igrajoči klarineti (1967).mp4
39.Ansambel bratov Avsenik - Jesenska (1967).mp4
40.Fantje treh dolin - Mladost na vasi.mp4
41.Ansambel bratov Avsenik - Veseli svatjeLustige Hochzeit (1967).mp4
42.Avsenik - Horoskop.mp4
43.Fantje treh dolin - Na Naravskih ledinah.mp4
44.MIHA DOVZAN Muhasta plavolaska TVL 30 10 1966.mp4
45.Ansambel Toneta Kmetca - Je leto naokoli.mp4
46.Fantje treh dolin - Na steleraji.mp4
47.Ansambel bratov Avsenik - Pod Grintovcem (1967).mp4
48.Ansambel Mihe Dovžana - Ne joči dekle ob slovesu.mp4
49.Ansambel Ludvika Lesjaka - Pozdrav s Katarine.mp4
50.Fantje treh dolin - Na rosnih tratah.mp4
51.Slovenski instrumentalni kvintet - Na Gorenjskem je fletno.mp4
52.Ansambel bratov Avsenik - Viničarska.mp4
53.Rafko Irgolic & Stanka Kovacic - Dober dan, sonce.mp4
54.Vokalni kvintet Gorenjci in Miha Dovžan - Moravška dolina.mp4
55.Slavko Avsenik - Z Bohinja.mp4
56.Slovenski inštr kvintet - Moje dekle.mp4
57.Slavko Avsenik - Lisička in Marička SV.mp4
58.Slavko Avsenik - Iz Bohinja SV.mp4
59.Slavko Avsenik - V postojnski jami.mp4
60.MIHA DOVZAN Ujemi me 1969.mp4
61.Ansambel bratov Avsenik - Ja, ja, k' je luštno (1967).mp4
62.Slavko Avsenik - Vlak drvi.mp4
63.Ansambel bratov Avsenik - Proti jutru(1967).mp4
64.Ansambel bratov Avsenik - Lepe ste ve Karavanke (1967).mp4
65.Ansambel bratov Avsenik - Otoček sredi jezera (1967).mp4
66.Ansambel bratov Avsenik - Pastirček (1967).mp4
67.Avsenik - Die Lustigen Oberkrainer Musikanten - Sirenen Polka 1960.mp4
68.Z Avseniki v novo leto - Prav fletno se imamo- 1986 (Cro subtitles).mp4
69.Z Avseniki v novo leto - Na Golici-1986 (Cro subtitles).mp4
70.Ansambel bratov Avsenik - Proti jutru-Sirenen Polka (1967).mp4


Tehnične specifikacije:

Complete name : SLOVENSKI ZAKLAD NARODNOZABAVNE GLASBE-izbor 2.del
Format : MPEG-4
Format profile : Base Media
Codec ID : isom (isom/iso2/avc1/mp41)
File size : 1.51 GiB
Duration : 3 h 25 min
Overall bit rate : 1 055 kb/s

Video
ID : 1
Format : AVC
Format/Info : Advanced Video Codec
Format profile : Main@L3.1
Format settings : CABAC / 1 Ref Frames
Format settings, CABAC : Yes
Format settings, Reference frames : 1 frame
Codec ID : avc1
Codec ID/Info : Advanced Video Coding
Duration : 3 h 25 min
Source duration : 3 h 25 min
Bit rate : 860 kb/s
Width : 500 pixels
Height : 500 pixels
Display aspect ratio : 1.000
Frame rate mode : Variable
Frame rate : 26.820 FPS
Minimum frame rate : 10.000 FPS
Maximum frame rate : 45.534 FPS
Color space : YUV
Chroma subsampling : 4:2:0
Bit depth : 8 bits
Scan type : Progressive
Bits/(Pixel*Frame) : 0.128
Stream size : 1.23 GiB (82%)
Source stream size : 1.23 GiB (82%)
Codec configuration box : avcC

Audio
ID : 2
Format : AAC LC
Format/Info : Advanced Audio Codec Low Complexity
Codec ID : mp4a-40-2
Duration : 3 h 25 min
Bit rate mode : Constant
Bit rate : 192 kb/s
Channel(s) : 2 channels
Channel layout : L R
Sampling rate : 44.1 kHz
Frame rate : 43.066 FPS (1024 SPF)
Compression mode : Lossy
Stream size : 281 MiB (18%)
Default : Yes
Alternate group : 1

Veliko užitkov!
ABBA_Live.At.Wembley.Arena.720p.HDTVRip-R77

Klikni za povečavo!
24-02-2021 15:18 naložil rado77
Sejalci: 2 / Odjemalci: 0 / Velikost: 2.28 GB / Dokončani: 7
Prenesi torrent Poročaj torrent Opis torrenta
Zvrst: Glasbeni
Kategorija: GLASBA > Video

ABBA_Live.At.Wembley.Arena.720p.HDTVRip-R77


ABBA Live At Wembley Arena


"V živo na areni Wembley"
Kako je skupina ABBA z nastopom v živo presegla vsa pričakovanja


Če pogledamo nazaj, se zdi, da je za sedež na enem od šestih londonskih koncertov ABBA, na njihovi turneji leta 1979, popolna zlata vvstopnica. Tudi takrat je bilo povpraševanje več kot preseženo, vendar nihče ne bi mogel uganiti, da bo to zadnja priložnost oboževalcev, da švedsko superskupino ujamejo v živo v Veliki Britaniji. Za tiste, ki so ga zamudili, album Live At Wembley Arena , ki je bil prvotno izdan v Evropi 29. septembra 2014, ponuja vse dokaze, ki jih potrebujete za dokaz, da je ABBA v svojih najboljših letih na zalost vseh praktično izginila iz javnosti!
Znameniti švedski pop kvartet perfekcionistov je bil vedno raje v snemalnem studiu, da pričara njihov slavni zvok, in z nastopi v živo ni bil nikoli povsem zadovoljen. ABBA pa je popustila s to izdajo albuma v živo, ki prihaja 35 let po začetku druge, zadnje svetovne turneje, ki zajema Severno Ameriko, Evropo in Japonsko.
Nekaj posnetkov je bilo predvajanih že v prejšnjih zbirkah video-spotov. Verjemite vse kar sem vam naložil do sedaj je bil le uvod v spektakelj, ki je pred vami!
Prepričan sem , da si ga boste ogledali večkrat!
Datum koncerta: 10. novembra 1979

Tehnične specifikacije:

Complete name : ABBA_Live At Wembley Arena_R77
Format : MPEG-4
Format profile : Base Media
Codec ID : isom (mp41)
File size : 2.28 GiB
Duration : 1 h 18 min
Overall bit rate mode : Variable
Overall bit rate : 4 161 kb/s
Encoded date : UTC 2014-08-28 04:15:00
Tagged date : UTC 2014-08-28 04:15:00
Video
ID : 2
Format : AVC
Format/Info : Advanced Video Codec
Format profile : Baseline@L3.1
Format settings : 1 Ref Frames
Format settings, CABAC : No
Format settings, Reference frames : 1 frame
Format settings, GOP : M=1, N=29
Muxing mode : Container profile=Baseline@3.0
Codec ID : avc1
Codec ID/Info : Advanced Video Coding
Duration : 1 h 18 min
Bit rate mode : Variable
Bit rate : 4 004 kb/s
Maximum bit rate : 4 800 kb/s
Width : 1 280 pixels
Height : 720 pixels
Display aspect ratio : 16:9
Frame rate mode : Constant
Frame rate : 29.970 (30000/1001) FPS
Color space : YUV
Chroma subsampling : 4:2:0
Bit depth : 8 bits
Scan type : Progressive
Bits/(Pixel*Frame) : 0.145
Stream size : 2.19 GiB (96%)
Language : English
Codec configuration box : avcC
Audio
ID : 1
Format : AAC LC
Format/Info : Advanced Audio Codec Low Complexity
Codec ID : mp4a-40-2
Duration : 1 h 18 min
Bit rate mode : Constant
Bit rate : 152 kb/s
Channel(s) : 2 channels
Channel layout : L R
Sampling rate : 44.1 kHz
Frame rate : 43.066 FPS (1024 SPF)
Compression mode : Lossy
Stream size : 85.1 MiB (4%)
Language : English


UŽIVAJTE !
Đorđe Balašević - The best of (1998) MP3

Klikni za povečavo!
21-02-2021 11:51 naložil System
Sejalci: 3 / Odjemalci: 0 / Velikost: 267.23 MB / Dokončani: 17
Prenesi torrent Poročaj torrent Opis torrenta NFO
Zvrst: Glasbeni
Kategorija: GLASBA > Glasba
Anonimen nalagalec

---------------------------------------------------------------------
Đorđe Balašević - The Best Of
---------------------------------------------------------------------
Artist...............: Đorđe Balašević
Album................: The Best Of
Genre................: Pop
Source...............: CD
Year.................: 1998
Ripper...............: EAC (Secure mode) / LAME 3.92 & Asus CD-S520
Codec................: LAME 3.99
Version..............: MPEG 1 Layer III
Quality..............: Insane, (avg. bitrate: 320kbps)
Channels.............: Joint Stereo / 44100 hz
T
News Server..........: news.astraweb.com
News Group(s)........: alt.binaries.pl.mp3
Included.............: NFO
---------------------------------------------------------------------
Tracklisting
---------------------------------------------------------------------
1. Đorđe Balašević - Sve Je Otišlo U Honduras [03:50]
2. Đorđe Balašević - Ne Volim Januar [04:05]
3. Đorđe Balašević - Jednom Su Sadili Lipu [04:40]
4. Đorđe Balašević - Čekajući Montenegro Express [03:33]
5. Đorđe Balašević - Nemam Ništa S Tim [05:32]
6. Đorđe Balašević - Još Jedna Pesma O Maloj Garavoj [03:13]
7. Đorđe Balašević - Remorker [03:48]
8. Đorđe Balašević - Slow Motion [05:51]
9. Đorđe Balašević - Saputnik [04:50]
10. Đorđe Balašević - Kad Odem... [05:53]
11. Đorđe Balašević - Devojka Sa ''čardaš'' Nogama [03:21]
12. Đorđe Balašević - Ćaletova Pesma [04:47]
13. Đorđe Balašević - Bezdan [04:26]
14. Đorđe Balašević - Ne Lomite Mi Bagrenje [05:33]
15. Đorđe Balašević - Starim [06:07]
Playing Time.........: 01:09:35
Total Size...........: 164,21 MB
ABBA.Music.Videos.Collection.720p.TVRip.R77

Klikni za povečavo!
15-02-2021 12:22 naložil rado77
Sejalci: 1 / Odjemalci: 1 / Velikost: 2.67 GB / Dokončani: 4
Prenesi torrent Poročaj torrent Opis torrenta
Zvrst: Glasbeni
Kategorija: GLASBA > Video

ABBA.Music.Videos.Collection.720p.TVRip.R77


ABBA Music Videos Collection


ABBA video collection.mp4"
Video-spoti: 2h 15min


ABBA - The Day Before You Came 1981.mp4"
ABBA - Chiquitita 1979.mp4"
ABBA - The Name Of The Game 1977.mp4"
ABBA - The Winner Takes It All 1980.mp4"
ABBA - Estoy Sonando (I Have A Dream) 1979.mp4"
ABBA - One Man, One Woman 1977.mp4"
ABBA - Happy New Year 1980.mp4"
ABBA - Felicidad (Happy New Year) 1980.mp4"
ABBA - Fernando 1976.mp4"
ABBA - On And On And On 1980.mp4"
ABBA - Voulez-Vous 1979.mp4"
ABBA - Super Trooper 1980.mp4"
ABBA - Knowing Me, Knowing You 1976.mp4"
ABBA - Take A Chance On Me 1977.mp4"
ABBA - Dancing Queen 1976.mp4"
ABBA - One Of Us 1981.mp4"
ABBA - Eagle 1977.mp4"
ABBA - Under Attack 1982.mp4"
ABBA - Thank You For The Music 1977.mp4"
ABBA - Dancing Queen (Live At The Swedish Royal Opera) 1976.mp4"
ABBA - Head Over Heels 1981.mp4"
ABBA - Summer Night City 1978.mp4"
ABBA - Mamma Mia 1975.mp4"
ABBA - Gimme Gimmie Gimmie (A Man After Midnight) 1979.mp4"
ABBA - No Hay A Quien Culpar (When All Is Said And Done) 1981.mp4"
ABBA - I Do I Do I Do I Do I Do 1975.mp4"
ABBA - SOS 1975.mp4"
ABBA - When All Is Said And Done 1981.mp4"
ABBA - That-s Me 1977.mp4"
ABBA - Money, Money, Money 1976.mp4"
ABBA - Does Your Mother Know 1979.mp4"
ABBA - Ring Ring 1973.mp4"
ABBA - Bang-A-Boomerang 1974.mp4"
ABBA - When I Kissed the Teacher 1976.mp4"
ABBA - Waterloo 1974.mp4"

DODATEK:
ABBA - Video Picture Gallery.mp4"
Video-spoti s slikami: 21 min

DODATEK:
ABBA. Daba Du.Documentary.avi"
Dokumentarni film o skupini


O skupini ABBA:
ABBA je bila švedska pop skupina, ustanovljena v Stockholmu leta 1972, v kateri so bili Agnetha Fältskog, Björn Ulvaeus, Benny Andersson in Anni-Frid Lyngstad. ABBA je kratica prvih črk imen članov skupine in je včasih stilizirana kot registrirana blagovna znamka ABBA. Skupina je postala eno komercialno najuspešnejših zasedb v zgodovini popularne glasbe, ki je bila od leta 1975 do 1982. na lestvici po vsem svetu. Zmagala je tudi na Evroviziji 1974, s čimer je Švedska prvič zmagala v zgodovini tekmovanja in postala najbolj uspešna skupina, ki se je kdaj udeležila tekmovanja.


Tehnične specifikacije:
Complete name : ABBA video collection
Format : MPEG-4
Format profile : Base Media
Codec ID : isom (isom/iso2/avc1/mp41)
File size : 1.62 GiB
Duration : 2 h 15 min
Overall bit rate : 1 708 kb/s

Video
ID : 1
Format : AVC
Format/Info : Advanced Video Codec
Format profile : Main@L3.1
Format settings : CABAC / 1 Ref Frames
Format settings, CABAC : Yes
Format settings, Reference frames : 1 frame
Codec ID : avc1
Codec ID/Info : Advanced Video Coding
Duration : 2 h 15 min
Bit rate : 1 511 kb/s
Width : 768 pixels
Height : 576 pixels
Display aspect ratio : 4:3
Frame rate mode : Variable
Frame rate : 25.000 FPS
Minimum frame rate : 10.000 FPS
Maximum frame rate : 25.000 FPS
Color space : YUV
Chroma subsampling : 4:2:0
Bit depth : 8 bits
Scan type : Progressive
Bits/(Pixel*Frame) : 0.137
Stream size : 1.43 GiB (88%)
Codec configuration box : avcC

Audio
ID : 2
Format : AAC LC
Format/Info : Advanced Audio Codec Low Complexity
Codec ID : mp4a-40-2
Duration : 2 h 15 min
Bit rate mode : Constant
Bit rate : 192 kb/s
Channel(s) : 2 channels
Channel layout : L R
Sampling rate : 48.0 kHz
Frame rate : 46.875 FPS (1024 SPF)
Compression mode : Lossy
Stream size : 190 MiB (11%)
Default : Yes
Alternate group : 1

SE NADALJUJE!

Veliko užitkov!
Mia Borisavljević - Jedna ja (2019) MP3

Klikni za povečavo!
14-02-2021 08:43 naložil System
Sejalci: 1 / Odjemalci: 0 / Velikost: 71.17 MB / Dokončani: 7
Prenesi torrent Poročaj torrent Opis torrenta NFO
Zvrst: Glasbeni
Kategorija: GLASBA > Glasba
Anonimen nalagalec

---------------------------------------------------------------------
Mia Borisavljević - Jedna Ja
------------------------------------------------------------------
Artist...............: Mia Borisavljević
Album................: Jedna Ja
Genre................: Pop
Source...............: CD
Year.................: 2019
Ripper...............: EAC (Secure mode) / LAME 3.92 & Asus CD-S520
Codec................: LAME 3.98
Version..............: MPEG 1 Layer III
Quality..............: Insane, (avg. bitrate: 320kbps)
Channels.............: Stereo / 44100 hz
News Server..........: news.astraweb.com
News Group(s)........: alt.binaries.pl.mp3
Included.............: NFO
---------------------------------------------------------------------
Tracklisting
---------------------------------------------------------------------
1. Mia Borisavljević - Pričaju Po Gradu [03:11]
2. Mia Borisavljević - Skandal [03:14]
3. Mia Borisavljević - Ave Cezare [03:02]
4. Mia Borisavljević - Dođi Juče [02:54]
5. Mia Borisavljević - Campari [02:56]
6. Mia Borisavljević - Zaljubljiva [02:59]
7. Mia Borisavljević - Nije Ljubav Luda [03:35]
8. Mia Borisavljević - Beograd Noću [02:55]
9. Mia Borisavljević - Jedna Ja [03:20]
Playing Time.........: 28:10
Total Size...........: 70,82 MB
ABBA.More.GOLD.720p.TVRip.R77

Klikni za povečavo!
13-02-2021 15:16 naložil rado77
Sejalci: 1 / Odjemalci: 0 / Velikost: 1.46 GB / Dokončani: 3
Prenesi torrent Poročaj torrent Opis torrenta
Zvrst: Glasbeni
Kategorija: GLASBA > Video

ABBA.More.GOLD.720p.TVRip.R77


ABBA More GOLD


Žanr: Pop
Slog: Europop , Disco
Leto: 1993

Opombe:
Vključuje avdio in video
Leto glavne izdaje: 1993, 1999 (preoblikovano)


Video formati vključujejo samo 13 skladb, na katerih je 9 skladb, od katerih video obstaja (v enakem vrstnem redu, kot so prikazani v zvočnih formatih), sledijo pa še štirje dodatni videoposnetki: "Bang-A-Boomerang", "One Man, One Woman" , "To sem jaz" in "Srečno novo leto".


Seznam skladb:

Summer Night City3:28
Angeleyes4:16
The Day Before You Came5:47
Eagle4:23
I Do, I Do, I Do, I Do, I Do3:16
So Long3:06
Honey, Honey2:53
The Visitors4:27
Our Last Summer4:19
On And On And On3:38
Ring Ring3:00
I Wonder (Departure)4:34
Lovelight3:18
Head Over Heels3:45
When I Kissed The Teacher3:00
I Am The City4:00
Cassandra4:50
Under Attack3:44
When All Is Said And Done3:16
The Way Old Friends Do2:52


Tehnične specifikacije:

Complete name : ABBA.More.GOLD.720p.TVRip.R77\ABBA More GOLD.mp4
Format : MPEG-4
Format profile : Base Media
Codec ID : isom (isom/iso2/avc1/mp41)
File size : 1.46 GiB
Duration : 50 min 36 s
Overall bit rate : 4 123 kb/s
Writing application : Lavf58.29.100

Video
ID : 1
Format : AVC
Format/Info : Advanced Video Codec
Format profile : High@L3
Format settings : CABAC / 2 Ref Frames
Format settings, CABAC : Yes
Format settings, Reference frames : 2 frames
Codec ID : avc1
Codec ID/Info : Advanced Video Coding
Duration : 50 min 36 s
Bit rate : 3 986 kb/s
Width : 720 pixels
Height : 576 pixels
Display aspect ratio : 5:4
Frame rate mode : Constant
Frame rate : 25.000 FPS
Standard : PAL
Color space : YUV
Chroma subsampling : 4:2:0
Bit depth : 8 bits
Scan type : Progressive
Bits/(Pixel*Frame) : 0.384
Stream size : 1.41 GiB (97%)
Codec configuration box : avcC

Audio
ID : 2
Format : AAC LC
Format/Info : Advanced Audio Codec Low Complexity
Codec ID : mp4a-40-2
Duration : 50 min 36 s
Bit rate mode : Constant
Bit rate : 128 kb/s
Channel(s) : 2 channels
Channel layout : L R
Sampling rate : 44.1 kHz
Frame rate : 43.066 FPS (1024 SPF)
Compression mode : Lossy
Stream size : 46.5 MiB (3%)
Default : Yes
Alternate group : 1


SE NADALJUJE!

Veliko užitkov!
Massimo Savic - 1 dan ljubavi (2015) MP3

Klikni za povečavo!
12-02-2021 14:57 naložil System
Sejalci: 1 / Odjemalci: 0 / Velikost: 123.66 MB / Dokončani: 8
Prenesi torrent Poročaj torrent Opis torrenta NFO
Zvrst: Glasbeni
Kategorija: GLASBA > Glasba
Anonimen nalagalec

---------------------------------------------------------------------
Massimo Savic - 1 dan ljubavi
---------------------------------------------------------------------
Artist...............: Massimo Savic
Album................: 1 dan ljubavi
Genre................: Pop Rock
Source...............: CD
Year.................: 2015
Ripper...............: EAC (Secure mode) / LAME 3.92 & Asus CD-S520
Codec................: LAME 3.99
Version..............: MPEG 1 Layer III
Quality..............: Insane, (avg. bitrate: 320kbps)
Channels.............: Joint Stereo / 44100 hz
News Server..........: news.astraweb.com
News Group(s)........: alt.binaries.pl.mp3
Included.............: NFO
---------------------------------------------------------------------
Tracklisting
---------------------------------------------------------------------
1. Massimo Savic - Ne dam grijehu na tebe [03:59]
2. Massimo Savic - Kladim se na nas [03:38]
3. Massimo Savic - Pirova pobjeda [03:50]
4. Massimo Savic - Zemlja zove oblake [04:51]
5. Massimo Savic - 1 dan ljubavi [03:49]
6. Massimo Savic - Cuvam te (feat. B. Navojec) [04:10]
7. Massimo Savic - Ispod nekog drugog neba [05:55]
8. Massimo Savic - Slamka spasa [04:02]
9. Massimo Savic - Suze nam stale na put [05:18]
10. Massimo Savic - Ostani tu [04:45]
11. Massimo Savic - Gdje poljupci krote lava [03:54]
12. Massimo Savic - Pirova pobjeda (Instrumental) [03:51]
Playing Time.........: 52:07
Total Size...........: 123,49 MB
Colonia - Gold edition [2CD] (2005) MP3

Klikni za povečavo!
12-02-2021 14:42 naložil System
Sejalci: 3 / Odjemalci: 0 / Velikost: 339.67 MB / Dokončani: 14
Prenesi torrent Poročaj torrent Opis torrenta NFO
Zvrst: Glasbeni
Kategorija: GLASBA > Glasba
Anonimen nalagalec

---------------------------------------------------------------------
Colonia - Gold Edition
---------------------------------------------------------------------
Artist...............: Colonia
Album................: Gold Edition
Genre................: Eurodance
Source...............: CD
Year.................: 2005
Ripper...............: EAC (Secure mode) / LAME 3.92 & Asus CD-S520
Codec................: LAME 3.98
Version..............: MPEG 1 Layer III
Quality..............: Insane, (avg. bitrate: 320kbps)
Channels.............: Stereo / 44100 hz
News Server..........: news.astraweb.com
News Group(s)........: alt.binaries.pl.mp3
Included.............: NFO
---------------------------------------------------------------------
Tracklisting CD1
---------------------------------------------------------------------
1. Colonia - Sve Oko Mene Je Grijeh [04:49]
2. Colonia - Njeno Ime Ne Zovi U Snu [03:58]
3. Colonia - Deja Vu [03:36]
4. Colonia - Za Tvoje Snene Oči (Feat. Neno Dj) [04:37]
5. Colonia - Svijet Voli Pobjednike [04:03]
6. Colonia - Nikad Više (Feat. Jacques Houdek) [04:10]
7. Colonia - Takvi Kao Ti [04:20]
8. Colonia - Nevjera [04:27]
9. Colonia - Oduzimaš mi dah [04:19]
10. Colonia - Svjetla Grada [04:41]
11. Colonia - Na Tvojoj Strani Postelje [03:46]
12. Colonia - Zadnji Let Za Pariz [04:36]
13. Colonia - C'est La Vie [04:06]
14. Colonia - Plamen Od Ljubavi [03:58]
15. Colonia - Luda Za Tobom [04:24]
16. Colonia - Ljeto 80 I Neke [05:32]
17. Colonia - Običan Dan [04:02]
18. Colonia - Prvi Poljubac [04:16]
Playing Time.........: 01:17:47
Total Size...........: 179,63 MB
---------------------------------------------------------------------
Tracklisting CD2
---------------------------------------------------------------------
1. Colonia - U Ritmu Ljubavi (Summer Extended Rmx) [04:13]
2. Colonia - Dok Je Tebe I Ljubavi (Unreleased Extended Rmx)[04:09]
3. Colonia - Ti Da Bu Di Bu Da (Goblin Extended Rmx) [04:36]
4. Colonia - Božićna Noć (Remix) [03:54]
5. Colonia - Prvi I Zadnji (Lp Extended Rmx) [06:24]
6. Colonia - Takvi Kao Ti (Lp Extended Rmx) [06:53]
7. Colonia - Još Jednom Za Kraj (Lp Extended Rmx) [05:51]
8. Colonia - Svijet Voli Pobjednike (Feat. Neno Dj) (Lp Extended Rmx)[04:53]
9. Colonia - Za Tvoje Snene Oči (Lp Extended Rmx) [07:52]
10. Colonia - Oduzimaš Mi Dah (Acapella Dub Mix) [03:50]
11. Colonia - C'est La Vie (Pop Carousel Mix) [03:26]
12. Colonia - Običan Dan (Motiwwwo Remix) [06:43]
13. Colonia - Medley Hit Mix 2005 (Vatra I Led - Sve Oko Mene Je Grijeh - Dio Nje)[06:33]
Playing Time.........: 01:09:24
Total Size...........: 159,99 MB
Severina - The Best Of Collection (2020) MP3

Klikni za povečavo!
12-02-2021 12:24 naložil System
Sejalci: 3 / Odjemalci: 0 / Velikost: 197.32 MB / Dokončani: 18
Prenesi torrent Poročaj torrent Opis torrenta NFO
Zvrst: Glasbeni
Kategorija: GLASBA > Glasba
Anonimen nalagalec

---------------------------------------------------------------------
Severina - The Best Of Collection
---------------------------------------------------------------------
Artist...............: Severina
Album................: The Best Of Collection
Genre................: Pop
Source...............: CD
Year.................: 2020
Ripper...............: EAC (Secure mode) / LAME 3.92 & Asus CD-S520
Codec................: LAME 3.99
Version..............: MPEG 1 Layer III
Quality..............: Insane, (avg. bitrate: 320kbps)
Channels.............: Stereo / 44100 hz
T
News Server..........: news.astraweb.com
News Group(s)........: alt.binaries.pl.mp3
Included.............: NFO
---------------------------------------------------------------------
Tracklisting
---------------------------------------------------------------------
1. Severina - Dalmatinka [03:57]
2. Severina - Covjek Kojeg Volim [03:55]
3. Severina - Paloma Nera [03:21]
4. Severina - Ti Si Srce Moje [03:52]
5. Severina - Tvoja Prva Djevojka [04:32]
6. Severina - Prijateljice [03:16]
7. Severina - Djevojka Sa Sela [04:25]
8. Severina - Rastajem Se Od Zivota [02:57]
9. Severina - Trava Zelena [03:58]
10. Severina - Ante [02:48]
11. Severina - Mala Je Dala [03:34]
12. Severina - Ja Samo Pjevam [03:20]
13. Severina - Da Si Moj [03:22]
14. Severina - Krivi Spoj [03:08]
15. Severina - Kreni [03:16]
16. Severina - Ajde, Ajde Zlato Moje [03:22]
17. Severina - 'ko Je Kriv [04:30]
18. Severina - Mili Moj [03:58]
19. Severina - Pogled Ispod Obrva [04:12]
20. Severina - Virujen U Te [04:12]
Playing Time.........: 01:14:07
Total Size...........: 196,64 MB
Luka Basi - Luka Basi (2019) MP3

Klikni za povečavo!
12-02-2021 12:09 naložil System
Sejalci: 4 / Odjemalci: 0 / Velikost: 102.33 MB / Dokončani: 11
Prenesi torrent Poročaj torrent Opis torrenta NFO
Zvrst: Glasbeni
Kategorija: GLASBA > Glasba
Anonimen nalagalec

---------------------------------------------------------------------
Luka Basi - Luka Basi
---------------------------------------------------------------------
Artist...............: Luka Basi
Album................: Luka Basi
Genre................: Pop
Source...............: CD
Year.................: 2019
Ripper...............: EAC (Secure mode) / LAME 3.92 & Asus CD-S520
Codec................: LAME 3.99
Version..............: MPEG 1 Layer III
Quality..............: Insane, (avg. bitrate: 320kbps)
Channels.............: Stereo / 44100 hz
Tags.................: ID3 v1.1, ID3 v2.3
News Server..........: news.astraweb.com
News Group(s)........: alt.binaries.pl.mp3
Included.............: NFO
---------------------------------------------------------------------
Tracklisting
---------------------------------------------------------------------
1. Luka Basi - Sedam Noci [03:24]
2. Luka Basi - Ruzo Bila (Feat. Marko Skugor) [03:12]
3. Luka Basi - Istrijanko Ruzo Moja [03:16]
4. Luka Basi - U Bijelom [03:13]
5. Luka Basi - Meta [03:18]
6. Luka Basi - Solo (Feat. Lidija Bacic) [04:04]
7. Luka Basi - Moja (Feat. Ljubavnici) [03:41]
8. Luka Basi - Kad Vidin Boga - Uzivo [03:28]
9. Luka Basi - Nisam Ja Od Jucer (Feat. Jole) [03:53]
10. Luka Basi - Upalimo Ljubav (Feat. Lana Jurcevic) [03:15]
11. Luka Basi - Seko Moja [04:20]
12. Luka Basi - Kombinacija [03:41]
Playing Time.........: 42:49
Total Size...........: 101,85 MB
Viki Ašič z ansamblom in prijatelji

Klikni za povečavo!
12-02-2021 10:58 naložil rado77
Sejalci: 1 / Odjemalci: 0 / Velikost: 536.21 MB / Dokončani: 3
Prenesi torrent Poročaj torrent Opis torrenta
Zvrst: Glasbeni
Kategorija: GLASBA > Video

Viki Ašič z ansamblom in prijatelji

Želja uporabnika: silvoa

Ansambel Vikija Ašiča
Osrednja osebnost v ansamblu je VIki Ašič, doma iz Celja. Ansambel je nastopal kot trio in kot prvi kvintet z diatonično harmoniko, še posebej pa je znan Viki Ašič kot odličen solist s harmoniko.
Svoj prvi ansambel je ustanovil na pobudo dveh odličnih glasbenikov, bratov Ivana in Slavka Lipovška, leta 1970. V prvi zasedbi so nastopali poleg Vikija še klarinetist Ivan Lipovšek, trobentar Slavko Lipovšek, kitarist Maks Kramer, basist Nande Reberšak ter pevski kvartet Franc Jurkovnik, Jože Brežnik, Franc Pekošak ter Ivo Knez, ki je kvartet tudi vodil.
Na ptujskem festivalu leta 1971 je ansambel Vikija Ašiča dobil nagrado kot najboljši debitant, isto leto pa je posnel tudi malo ploščo z naslovom Rompompom. Naslovno skladbo je napisal Ivo Knez, dve skladbi pa Viki Ašič. Istega leta je ansambel nastopil tudi v priljubljeni radijski oddaji Koncert iz naših krajev.
Ansambel Vikija Ašiča - vmes se je imenoval tudi Kvintet Vikija Ašiča - je imel kar precej kadrovskih zamenjav. Harmoniko je, seveda, ves čas igral Viki Ašič, sestava iz leta 1984 pa je bila: trobentar Tone Videc, klarinet Emil Jarmšek in Jože Leskovšek, kitara Silvo Gorenšek, Ivo Korošec in Maks Kramer, bas Alojz Pavlič, peli pa so Cveto Konec, Maks Kramer, Slavica Kramer in Marija Volasko.
Od leta 1980 naprej je trobento igral Milan Djakušič-Rojnik, klarinet Franc Jerič-Jera, kitaro Karl Zorman, Tone Mohar in Stane Čanžek, bas pa Stano Hergamas, Albert Kolbl, Vlado Čuvan in tudi Rajko Laznik.
V letu 1995 je Viki Ašič prešel na trio, z njim pa je prepeval oktet Studenček.
Ansambel Vikija Ašiča je leta 1972 dobil na ptujskem festivalu prvo nagrado za instrumentalno izvedbo, na Števerjanskem pa prvo nagrado občinstva. Večkrat je gostoval tudi v Avstriji in Nemčiji.
Ansambel Vikija Ašiča je posnel štiri velike in štiri male plošče ter šest kaset, v Avstriji pa eno veliko ploščo in eno zgoščenko.
Besedila za ansambel Vikija Ašiča so pisali Meta Rainer, Franc Jurkovnik, Marjan Stare in Ivan Sivec.







DISKOGRAFIJA:
LP (velike plošče):
Razigrana harmonika (1978)
Haloze sončne (1972)
EP (male plošče) in singli:
Rom pom pom polka (1971)
Za materin praznik/Ptuju v čast (1978)
Kje si moj sin
Viri: Vsi najboljši muzikanti I, 1998
Video vsebina:





Veliko užitkov!
Ara.Malikian-una.vida.entre.las.cuerdas.2019.SLOSubs.720p.HDTVRip-R77

Klikni za povečavo!
31-01-2021 15:38 naložil rado77
Sejalci: 1 / Odjemalci: 0 / Velikost: 2.05 GB / Dokončani: 2
Prenesi torrent Poročaj torrent Opis torrenta
Zvrst: Glasbeni
Kategorija: GLASBA > Video

Ara.Malikian-una.vida.entre.las.cuerdas.2019.SLOSubs.720p.HDTVRip-R77





Ara Malikian: una vida entre las cuerdas (2019)

Življenje med strunami






Režija Nata Moreno

Scenarij: Nacho R. Piedra (pisatelj), Nata Moreno
Žanr: celovečerni dokumentarni
Država: Španija
Jezik: Španščina, angleščina
Podnapisi: Slovenski

Glavna vloga: Ara Malikian


Povzetek:


Potovanje skozi življenje violinista Ara Malikiana in njegov nedvomen prispevek k klasični in sodobni glasbi. Nadaljevanje med njegovo zadnjo simfonično turnejo po Španiji in državah, kot so Libanon, Francija, Anglija, Kitajska, Rusija ...

Hkrati pove svojo fascinantno osebno zgodbo: glasba mu je rešila življenje z begom pred vojno. Ara je zapustil Bejrut pri 14 letih in od takrat živi kot nomad, ki svojo glasbo popelje po vsem svetu.

Film ki gledalca zelo pritegne, mu postavi marsikatero vprašanje in hkrati odgovore!





Tehnične specifikacije:


Complete name : Ara.Malikian-una.vida.entre.las.cuerdas.2019.SLOSubs.720p.HDTVRip-R77
Format : MPEG-4
Format profile : Base Media
Codec ID : isom (isom/iso2/avc1/mp41)
File size : 2.05 GiB
Duration : 1 h 28 min
Overall bit rate : 3 302 kb/s
Writing application : Lavf58.29.100

Video
ID : 1
Format : AVC
Format/Info : Advanced Video Codec
Format profile : High@L3.1
Format settings : CABAC / 3 Ref Frames
Format settings, CABAC : Yes
Format settings, Reference frames : 3 frames
Codec ID : avc1
Codec ID/Info : Advanced Video Coding
Duration : 1 h 28 min
Bit rate : 3 167 kb/s
Width : 1 280 pixels
Height : 720 pixels
Display aspect ratio : 16:9
Frame rate mode : Constant
Frame rate : 25.000 FPS
Color space : YUV
Chroma subsampling : 4:2:0
Bit depth : 8 bits
Scan type : Progressive
Bits/(Pixel*Frame) : 0.137
Stream size : 1.97 GiB (96%)
Codec configuration box : avcC

Audio

ID : 2
Format : AAC LC
Format/Info : Advanced Audio Codec Low Complexity
Codec ID : mp4a-40-2
Duration : 1 h 28 min
Bit rate mode : Constant
Bit rate : 128 kb/s
Channel(s) : 2 channels
Channel layout : L R
Sampling rate : 44.1 kHz
Frame rate : 43.066 FPS (1024 SPF)
Compression mode : Lossy
Stream size : 81.6 MiB (4%)
Default : Yes
Alternate group : 1


UŽIVAJTE!
Abba.za.vedno.aka.ABBA.Forever-The.Winner.Takes.It.All.2019.SLOSubs.720p.TVRip.R77

Klikni za povečavo!
31-01-2021 14:32 naložil rado77
Sejalci: 1 / Odjemalci: 0 / Velikost: 705.75 MB / Dokončani: 12
Prenesi torrent Poročaj torrent Opis torrenta
Zvrst: Glasbeni
Kategorija: GLASBA > Video

Abba.za.vedno.aka.ABBA.Forever-The.Winner.Takes.It.All.2019.SLOSubs.720p.TVRip.R77





ABBA Forever - The Winner Takes It All (2019)


ABBA ZA VEDNO: Zmagovalec vzame vse






O filmu:

Agnetha, Bjorn, Benny in Anni-Frid so se srečali pred petimi desetletji in ustanovili zasedbo Abba; ime skupine je sestavljeno iz začetnic njihovih imen. Prodali so več kot 400 milijonov plošč, pred dvajsetimi leti pa je na londonskem West Endu zaživel še muzikal s 27 njihovimi pesmimi. Predstavo Mamma Mia! si je ogledalo kar 60 milijonov ljudi. Čeravno je Abba obstajala le približno desetletje – razšli so se leta 1982 –, člani še danes dobivajo pisma najstniških oboževalcev.
Ta dokončni glasbeni dokumentarni film z glasbenim posnetkom največjih uspešnic in obilico klasičnih izvedbenih posnetkov ponuja notranji pogled na to, kako je nastala glasba švedska pop skupine ABBA, saj nekdanji člani in različni kolegi pripovedujejo svojo zgodbo od dni pred ABBA in dalje.





Režija: Chris Hunt

Kinematografija: Martin Hailey , Steve Haskett , Simon Wagen , Paul Wheeler
Igrajo : Agnetha Fältskog , Benny Andersson , Björn Ulvaeus , Anni-Frid
Žanr: Dokumentarni
Jezik: angleščina , švedščina
Podnapisi: Slovenski




Tehnične specifikacije:



Complete name : Abba.za.vedno.aka.ABBA.Forever-The.Winner.Takes.It.All.2019.SLOSubs.720p.TVRip.R77.mp4

Format : MPEG-4
Format profile : Base Media
Codec ID : isom (isom/iso2/avc1/mp41)
File size : 706 MiB
Duration : 51 min 4 s
Overall bit rate mode : Variable
Overall bit rate : 1 932 kb/s

Video
ID : 2
Format : AVC
Format/Info : Advanced Video Codec
Format profile : High@L4
Format settings : CABAC / 4 Ref Frames
Format settings, CABAC : Yes
Format settings, Reference frames : 4 frames
Codec ID : avc1
Codec ID/Info : Advanced Video Coding
Duration : 51 min 4 s
Source duration : 51 min 4 s
Bit rate mode : Constant
Bit rate : 1 800 kb/s
Width : 1 280 pixels
Height : 720 pixels
Display aspect ratio : 16:9
Frame rate mode : Variable
Frame rate : 25.000 FPS
Minimum frame rate : 6.250 FPS
Maximum frame rate : 75.000 FPS
Standard : PAL
Color space : YUV
Chroma subsampling : 4:2:0
Bit depth : 8 bits
Scan type : Progressive
Bits/(Pixel*Frame) : 0.078
Stream size : 657 MiB (93%)
Source stream size : 657 MiB (93%)
Color range : Limited
Color primaries : BT.709
Transfer characteristics : BT.709
Matrix coefficients : BT.709
mdhd_Duration : 3064400
Codec configuration box : avcC

Audio

ID : 3
Format : AAC LC
Format/Info : Advanced Audio Codec Low Complexity
Codec ID : mp4a-40-2
Duration : 51 min 4 s
Bit rate mode : Variable
Bit rate : 126 kb/s
Maximum bit rate : 427 kb/s
Channel(s) : 2 channels
Channel layout : L R
Sampling rate : 44.1 kHz
Frame rate : 43.066 FPS (1024 SPF)
Compression mode : Lossy
Stream size : 45.9 MiB (7%)






UŽIVAJTE!
MC Stojan - La Miami (2018) MP3

Klikni za povečavo!
31-01-2021 12:24 naložil System
Sejalci: 4 / Odjemalci: 0 / Velikost: 105.09 MB / Dokončani: 9
Prenesi torrent Poročaj torrent Opis torrenta NFO
Zvrst: Glasbeni
Kategorija: GLASBA > Glasba
Anonimen nalagalec

---------------------------------------------------------------------
Mc Stojan - La Miami
---------------------------------------------------------------------
Artist...............: Mc Stojan
Album................: La Miami
Genre................: Pop,Folk
Source...............: CD
Year.................: 2018
Ripper...............: EAC (Secure mode) / LAME 3.92 & Asus CD-S520
Codec................: LAME 3.99
Version..............: MPEG 1 Layer III
Quality..............: Insane, (avg. bitrate: 320kbps)
Channels.............: Stereo / 44100 hz
Tags.................: ID3 v1.1, ID3 v2.3
News Server..........: news.astraweb.com
News Group(s)........: alt.binaries.pl.mp3
Included.............: NFO
Covers...............: Front Back CD
---------------------------------------------------------------------
Tracklisting
---------------------------------------------------------------------
1. Mc Stojan - La Miami [03:09]
2. Mc Stojan - Lete Pare [02:44]
3. Mc Stojan - Jednom Majka Radja (Feta. Jovan Perisic) [02:53]
4. Mc Stojan - Ti Odlazis Ja Ostajem (Feat. Dinna) [03:25]
5. Mc Stojan - Mein Schatzi (Feat. Darko Lazic) [02:33]
6. Mc Stojan - Cekaj, Cekaj (Feat. Aleksandra Mladenovic) [03:39]
7. Mc Stojan - Pevacica (Feat. Jana & Djani) [03:08]
8. Mc Stojan - Ostani Budna [02:55]
9. Mc Stojan - Balkanka (Feat. Ljupka Stevic) [03:08]
10. Mc Stojan - Burj Khalifa (Feat. Djans & Young Palk) [02:45]
11. Mc Stojan - Pikaso [02:35]
12. Mc Stojan - Aman, Aman (Feat. Trik Fx) [02:50]
13. Mc Stojan - Fejk (Feat. Kurtoazija) [02:38]
14. Mc Stojan - Vodka I Martini (Feat. Kurtoazija) [02:33]
15. Mc Stojan - Njami Njami (Feat. Kurtoazija) [02:28]
Playing Time.........: 43:29
Total Size...........: 104,27 MB