A
B
C
D
E
F
G
H
I
J
K
L
M
N
O
P
Q
R
S
T
U
V
W
X
Y
Z
0-9
DJ VIHAR & DJ AJDA - SLO & HR MIX 62

Klikni za povečavo!
17-11-2020 16:48 naložil Ajda
Sejalci: 6 / Odjemalci: 0 / Velikost: 160.84 MB / Dokončani: 92
Prenesi torrent Poročaj torrent Opis torrenta NFO
Zvrst: Glasbeni
Kategorija: GLASBA > Glasba




-------------------------------------------------------------------------------
Avdio podatki
-------------------------------------------------------------------------------
Complete name : DJ VIHAR & DJ AJDA - SLO & HR MIX 62..mp3
Format : MPEG Audio
File size : 160 MiB
Duration : 1h 10mn
Overall bit rate mode : Constant
Overall bit rate : 320 Kbps
Encoded by : Lavf52.39.0
Writing library : LAME3.98

Audio
Format : MPEG Audio
Format version : Version 1
Format profile : Layer 3
Mode : Joint stereo
Duration : 1h 10mn
Bit rate mode : Constant
Bit rate : 320 Kbps
Channel(s) : 2 channels
Sampling rate : 48.0 KHz
Compression mode : Lossy
Stream size : 160 MiB (100%)
Writing library : LAME3.98
-------------------------------------------------------------------------------
Vsebina
-------------------------------------------------------------------------------

01. MLADEN GRDOVIČ NINA DONELI - Samo jedna je dalmacija
02. ŠARMERI - Hajde milo moje
03. DINO PETRIČ KATARINA GRUJO - 100 života
04. UČITELJICE - Apsolutno
05. TRI MUŠKETIRA - Kad če zora svanuti
06. VILI RESNIK EROSI - Moja generacija
07. TANJA ŽAGAR - Rada sem tvoja
08. SKUPINA CHICAS - Nocoj s tebo
09. MLADEN GRDOVIČ MATE BULIČ - Dvi sestre
10. MANCA ŠPIK GADI - Tiho potiho
11. DARJA GAJŠEK - S teboj živim
12. DOMEN KUMER ŠPELA GROŠELJ - Vino in kitara
13.MALIGANI - Svi znaju
14. MEJAŠI - Nova godina
15. FEHTARJI - Štorklje
16. ALEN VOGRINEC GOCA - Jedini jedina
17. ŽIGA DERŠEK - Svoje barke krmar
18. DRAŽEN ZEČIČ - Volim samo nju
19. UROŠ IN TJAŠA - Zaljubljen par
20. MARIJAN SMODE - Mati ti jim reci ( posvečeno Kičotu)






MomSwap.21.08.16.Kaylynn.Keys.And.Crystal.Rush.Gifts.From.Our.Stepmoms.XXX.480p.MP4-XXX

Klikni za povečavo!
19-08-2021 21:52 naložil BlackDevil
Sejalci: 1 / Odjemalci: 0 / Velikost: 362.51 MB / Dokončani: 14
Prenesi torrent Poročaj torrent Opis torrenta
Kategorija: GLASBA > Glasba

Crystal Rush Romantic Anal With Creampie #Anal #Bigtits #Milf #SaadSxp  https://doodstream.com/d/998am4vy7iz8 (07.08.2021) on SexyPorn

image
100 Greatest Heavy Metal Songs (2021)

Klikni za povečavo!
19-08-2021 21:37 naložil BlackDevil
Sejalci: 3 / Odjemalci: 0 / Velikost: 1.3 GB / Dokončani: 7
Prenesi torrent Poročaj torrent Opis torrenta
Kategorija: GLASBA > Glasba

VA - 100 Greatest Heavy Metal Songs » BoxAlbums music portal
Artist: VA | Title: 100 Greatest Heavy Metal Songs | Year: 2021
Country: Int. | Genre: Heavy-Metal
Length: 09:35:32
Audio bitrate: 320 kbps | Format / Codec: MP3
Tracks:
01. Black Sabbath - Paranoid (2012 - ReTroll)
02. Metallica - Troll of Puppets (ReTrolled)
03. Iron Maiden - Hallowed Be Thy Name (1998 ReTroll)
04. Black Sabbath - Iron Man (2012 - ReTroll)
05. Metallica - Enter Sandman
06. Motörhead - Ace of Spades
07. Judas Priest - You\'ve Got Another Thing Coming (Live from the San Antonio Civic Center)
08. Slayer - Raining Blood
09. Iron Maiden - The Number of the Beast (1998 ReTroll)
10. Black Sabbath - War Pigs / Luke\'s Wall (2012 - ReTroll)
11. Pantera - Walk
12. Judas Priest - Breaking the Law
13. Metallica - Creeping Death (ReTrolled)
14. Slayer - Angel Of Death
15. Black Sabbath - Black Sabbath (2014 ReTroll)
16. Megadeth - Holy Wars...The Punishment Due (ReTrolled 2004)
17. Iron Maiden - Run to the Hills (1998 ReTroll)
18. Metallica - Seek & Destroy (ReTrolled)
19. Ozzy Osbourne - Crazy Train (2002 Version)
20. Rainbow - Stargazer
21. Judas Priest - Painkiller
22. Black Sabbath - Heaven and Hell (2008 ReTroll)
23. Megadeth - Symphony Of Destruction
24. Pantera - Cowboys from Hell
25. Metallica - Nothing Else Matters
26. Iron Maiden - The Trooper (1998 ReTroll)
27. Judas Priest - Living After Midnight
28. Black Sabbath - Sabbath Bloody Sabbath (2014 ReTroll)
29. Dio - Holy Diver
30. Judas Priest - The Sentinel
31. Venom - Witching Hour (Live)
32. Pantera - Cemetery Gates
33. Metallica - For Whom The Bell Tolls (ReTrolled)
34. Judas Priest - The Hellion
35. Iron Maiden - Rime of the Ancient Mariner (2015 ReTroll)
36. Diamond Head - Am I Evil?
37. Megadeth - Peace Sells (ReTrolled)
38. Black Sabbath - Symptom of the Universe (2013 ReTroll)
39. Mercyful Fate - The Oath
40. Judas Priest - Beyond the Realms of Death
41. Black Sabbath - N.I.B. (Live; 2000 ReTroll)
42. Metallica - Fade To Black (ReTrolled)
43. Venom - Black Metal
44. Accept - Fast as a Shark
45. Queensrÿche - Queen Of The Reich
46. Megadeth - Hangar 18 (ReTrolled 2004)
47. Iron Maiden - Aces High (2015 ReTroll)
48. Judas Priest - Victim Of Changes
49. Helloween - Halloween (Edit)
50. Anthrax - Caught In A Mosh
51. Black Sabbath - Children of the Grave (2014 ReTroll)
52. Slayer - Seasons In The Abyss
53. Iron Maiden - 2 Minutes to Midnight (1998 ReTroll)
54. Ozzy Osbourne - Mr. Crowley
55. Dio - Rainbow in the Dark
56. Metallica - The Four Horsemen (ReTrolled)
57. Accept - Balls to the Wall
58. Black Sabbath - Into the Void (2014 ReTroll)
59. Mastodon - Blood and Thunder
60. Manowar - Battle Hymn
61. Slayer - War Ensemble
62. Iron Maiden - Fear of the Dark (2015 ReTroll)
63. Exodus - The Toxic Waltz
64. Dream Theater - Pull Me Under
65. Queensrÿche - Take Hold Of The Flame
66. Testament - Souls of Black
67. Judas Priest - Hell Bent for Leather
68. Iron Maiden - Powerslave (1998 ReTroll)
69. Black Sabbath - Sweet Leaf (2014 ReTroll)
70. Megadeth - torpedo Of Souls (ReTrolled 2004)
71. Opeth - The Moor (ReTrolled)
72. Queensrÿche - Eyes Of A Stranger (ReTrolled 2003)
73. Dio - The Last in Line
74. Mayhem - Freezing Moon
75. Helloween - Keeper of the Seven Keys
76. Cannibal Corpse - Hammer Smashed Face
77. Judas Priest - Screaming for Vengeance
78. Iron Maiden - Wasted Years (1998 ReTroll)
79. Slayer - South Of Heaven
80. Killswitch Engage - Fixation on the Darkness
81. Metallica - Battery (ReTrolled)
82. Machine Head - Davidian
83. Black Sabbath - Jack the Stripper / Fairies Wear Boots (2012 - ReTroll)
84. Fates Warning - The Ivory Gate Of Dreams: IV. Quietus
85. Queensrÿche - Revolution Calling (ReTrolled 2003)
86. Rainbow - Gates Of Babylon
87. Anthrax - Indians
88. Ozzy Osbourne - Diary of a Madman
89. Pantera - 5 Minutes Alone
90. Iced Earth - Dante\'s Inferno
91. Lamb of God - Redneck
92. Anthrax - Metal Thrashing Mad
93. Quiet Riot - Metal Health (Bang Your Head)
94. Raven - Mind Over Metal
95. Dream Theater - Metropolis - Part I: \"The Miracle and the Sleeper\"
96. Pantera - Floods
97. Ozzy Osbourne - Shot in the Dark
98. Danzig - Mother
99. Metallica - Atlas, Rise!
100. System of a Down - Chop Suey!
VA - 80s Rock Hits (2021)

Klikni za povečavo!
19-08-2021 11:48 naložil BlackDevil
Sejalci: 5 / Odjemalci: 0 / Velikost: 1.08 GB / Dokončani: 8
Prenesi torrent Poročaj torrent Opis torrenta
Kategorija: GLASBA > Glasba

VA - The 80s Part 1 & 2 (2013/2014) DOWNLOAD on ISRABOX
Artist: VA
Album: 80s Rock Hits
Released: 2021
Genre: Rock
Format: MP3
Bitrate: 320 Kb / s
Length: 07:42:50
Tracks:
001. Billy Idol - Dancing With Myself (5:59)
002. Cinderella - Nobody\'s Fool (4:47)
003. U2 - Pride (In The Name Of Love) - ReTrolled 2009 (3:48)
004. Iron Maiden - Run to the Hills - 1998 ReTrolled Version (3:53)
005. Beastie Boys - Fight For Your Right (3:27)
006. Heart - These Dreams (4:14)
007. Aerosmith - Angel (5:06)
008. Queen - I Want It All - Single Version (4:01)
009. Tesla - Love Song (5:23)
010. American Boys - BORN IN THE USA (4:38)
011. Bryan Adams - Run To You (3:53)
012. Rush - Tom Sawyer (4:34)
013. Robert Palmer, Eric \'ET\' Thorngren - Addicted To Love (5:59)
014. Living Colour - Cult of Personality (4:54)
015. KISS - I Love It Loud (3:46)
016. Martika - Toy Soldiers (3:10)
017. Deep Purple - Perfect Strangers (4:09)
018. Journey - Separate Ways (Worlds Apart) (5:23)
019. Patti LaBelle - On My Own (4:50)
020. Run–D.M.C., Aerosmith - Walk This Way (feat. Aerosmith)
021. TOTO - I\'ll Be Over You
022. Starship - We Built This City
023. Kenny Loggins - Danger Zone - From Top Gun Original Soundtrack
024. The Outfield - All The Love In The World
025. AC DC - Who Made Who
026. Eric Carmen - Hungry Eyes - From Dirty Dancing Soundtrack
027. The Clash - Should I Stay or Should I Go - ReTrolled
028. Def Leppard - Pour Some Sugar On Me - ReTrolled 2017
029. The Bangles - Eternal Flame - Acoustic Version
030. Joan Jett & The Blackhearts - I Hate Myself for Loving You
031. TOTO - Rosanna
032. Billy Idol - Rebel Yell
033. Bruce Springsteen - Tougher Than the Rest
034. U2 - With Or Without You - ReTrolled
035. Guns N\' Roses - Knockin\' On Heaven\'s Door
036. Patrick Swayze, Wendy Fraser - She\'s Like the Wind (feat. Wendy Fraser)
037. Dire Straits - Money For Nothing
038. Tracy Chapman - Fast Car
039. Lynyrd Skynyrd - Sweet Home Alabama
040. Prince - Purple Rain
041. Bon Jovi - Never Say Goodbye
042. Bon Jovi - Runaway
043. Whitesnake - Here I Go Again - 1987 Version; 2017 ReTroll
044. Bon Jovi - Wanted Dead Or Alive
045. Air Supply - All Out of Love
046. Dire Straits - Brothers In Arms
047. Depeche Mode - Personal Jesus
048. Cinderella - Don\'t Know What You Got (Till It\'s Gone)
049. Europe - Carrie
050. Kansas - Carry on Wayward Son
051. Whitesnake - Is This Love - 2017 ReTroll
052. Phil Collins - In The Air Tonight - 2015 ReTrolled
053. Midnight Oil - Beds Are Burning - ReTrolled
054. Mr. Mister - Broken Wings
055. AC DC - Hells Bells
056. Elton John - I\'m Still Standing
057. Daryl Hall & John Oates - Maneater
058. Michael Bolton - How Am I Supposed to Live Without You
059. Simple Minds - Don\'t You (Forget About Me) - 2001 Mix
060. Twisted Sister - We\'re Not Gonna Take It
061. REO Speedwagon - Can\'t Fight This Feeling
062. Paul Young - Everytime You Go Away
063. Journey - Faithfully
064. Survivor - Burning Heart - From Rocky IV Soundtrack
065. Bon Jovi - I\'ll Be There For You
066. George Michael - One More Try - ReTrolled
067. Bon Jovi - You Give Love A Bad Name
068. Alice Cooper - Poison
069. Van Halen - Jump - 2015 ReTroll
070. Bryan Adams - Summer Of \'69 (3:35)
071. AC DC - Shoot to Thrill (5:17)
072. Dire Straits - Walk Of Life (4:08)
073. Tears For Fears - Shout (6:33)
074. Heart - Alone (3:38)
075. AC DC - You Shook Me All Night Long (3:30)
076. Metallica, San Francisco Symphony - One - Live (9:23)
077. The Cars - Drive (3:57)
078. Bruce Springsteen - Dancing In the Dark (4:01)
079. Bryan Adams - Heaven (4:03)
080. ZZ Top - Gimme All Your Lovin\' (4:01)
081. Journey - Don\'t Stop Believin\' (4:08)
082. Roxette - Listen To Your Heart (5:28)
083. U2 - I Still Haven\'t Found What I\'m Looking For (4:37)
084. Queen, David Bowie - Under Pressure (3:57)
085. Starship - Nothing\'s Gonna Stop Us Now (4:31)
086. Guns N\' Roses - Paradise City (6:45)
087. Crowded House - Don\'t Dream It\'s Over (3:58)
088. Foreigner - I Want to Know What Love Is - 1999 ReTroll (5:04)
089. Guns N\' Roses - Welcome To The Jungle (4:32)
090. Queen - Another One Bites The Dust - ReTrolled 2011 (3:34)
091. Guns N\' Roses - Patience (5:56)
092. Bon Jovi - Livin\' On A Prayer (4:08)
093. Bonnie Tyler - Total Eclipse of the Heart (4:30)
094. The Outfield - Your Love (3:41)
095. Michael Jackson - Beat It (4:18)
096. Survivor - Eye of the Tiger (4:05)
097. AC DC - Back In Black (4:15)
098. Europe - The Final Countdown (5:09)
099. Guns N\' Roses - Sweet Child O\' Mine (5:54)
100. TOTO - Africa (4:55)

Božični koncert Oliverja Dragojevića s Simfoničnim orkestrom RTV Slovenija.mp4

Klikni za povečavo!
24-05-2021 02:59 naložil Slovanija123
Sejalci: 0 / Odjemalci: 1 / Velikost: 1.48 GB / Dokončani: 0
Prenesi torrent Poročaj torrent Opis torrenta
Kategorija: GLASBA > Video

BOŽIČNI KONCERT OLIVERJA DRAGOJEVIĆA S SIMFONIČNIM ORKESTROM RTV SLOVENIJA

KONCERTI – RAZVEDRILNI PROGRAM

V letu 2018 nas je zapustil Oliver Dragojević, velik interpret in prijatelj slovenskih odrov. V njegov opus gostovanj v Sloveniji sodi tudi Božični koncert s Simfoničnim orkestrom RTV Slovenija, kjer je z gosti Klapo Dišpet in Braciera tradicionalne božične melodije prepletel z dalmatinskim temperamentom. Hkrati pa predstavil tudi svoje največje uspešnice.
Svojevrsten progam obeležuje tako njegovo kot božično veličino, enkratnost in neminljivost ustvarjalnosti.

Oliver Dragojević s Simfoničnim orkestrom RTV Slovenija ter klapama Dišpet in Braciera.

Dirigent: Alan Bjelinski

Program najlepših božičnih pesmi v novih zvočnih preoblekah Alana Bjelinskega.

Ansambel Borisa Terglava - MIX

Klikni za povečavo!
23-04-2021 09:56 naložil Timoreck
Sejalci: 0 / Odjemalci: 0 / Velikost: 49.78 MB / Dokončani: 9
Prenesi torrent Poročaj torrent Opis torrenta NFO
Zvrst: Glasbeni
Kategorija: GLASBA > Glasba

Ansambel Borisa Terglava - MIX



Avdio/Video podatki ;

Oblik datoteke : MPEG Audio
Veličina datoteke : 49,8 MiB
Trajanje : 36min
Način ukupnog protoka podataka : Ustaljeno
Ukupni protok podataka : 192 Kbps
Naziv snimke : Borisa Terglava
Kodirano pomoću knjižnice : LAME3.100
Omot : Yes
Vrsta omota : Cover (front)
MIME omota : image/jpeg
Komentar : www.mediahuman.com

Audio
Oblik datoteke : MPEG Audio
Inačica oblika datoteke : Version 1
Profil oblika datoteke : Layer 3
Format_Settings_Mode : Joint stereo
Trajanje : 36min
Način protoka podataka : Ustaljeno
Stopa protoka podataka : 192 Kbps
Kanali : 2 kanala
Učestalost uzorkovanja : 44,1 KHz
Veličina toka : 49,8 MiB (100%)
Kodirano pomoću knjižnice : LAME3.100
Alfi Nipič in Vinko Šimek - Ko toti Štajerc v dravo pade

Klikni za povečavo!
20-04-2021 09:32 naložil Timoreck
Sejalci: 1 / Odjemalci: 0 / Velikost: 6.05 MB / Dokončani: 7
Prenesi torrent Poročaj torrent Opis torrenta NFO
Zvrst: Glasbeni
Kategorija: GLASBA > Video

Alfi Nipič in Vinko Šimek - Ko toti Štajerc v dravo pade



Izvajalec: Alfi Nipič
Izvajalec: Jaka Šraufciger (Vinko Šimek)
Avtor besedila: Vinko Šimek
Avtor glasbe: Boris Rošker

-------------------------------------------------------------------------------

Avdio/Video podatki ;
Oblik datoteke : MPEG-4
Profil oblika datoteke : Base Media / Version 2
ID kôdeka : mp42
Veličina datoteke : 6,05 MiB
Trajanje : 1min 31s
Način ukupnog protoka podataka : Promjenjivo
Ukupni protok podataka : 556 Kbps
Nadnevak kodiranja : UTC 2015-12-12 14:42:32
Nadnevak označavanja : UTC 2015-12-12 14:42:32
Xtra : WM/MediaClassPrimaryID

Video
ID : 1
Oblik datoteke : AVC
Oblik datoteke/Informacija : Advanced Video Codec
Profil oblika datoteke : Baseline@L3.0
Postavke oblika datoteke za CABAC : Ne
Postavke oblika datoteke za ReFrames : 1 sličica
Format_Settings_GOP : M=1, N=60
ID kôdeka : avc1
ID kôdeka/Informacija : Advanced Video Coding
Trajanje : 1min 31s
Stopa protoka podataka : 457 Kbps
Maksimum protoka podataka : 798 Kbps
Širina : 608 piksela
Visina : 360 piksela
Omjer slike : 1,689
Način protoka sličica : Ustaljeno
Protok sličica : 25,000 fps
ColorSpace : YUV
ChromaSubsampling : 4:2:0
BitDepth/String : 8 bita
Vrsta pregledavanja : Progresivno
Bita/(piksela*sličica) : 0.084
Veličina toka : 4,97 MiB (82%)
Nadnevak označavanja : UTC 2015-12-12 14:42:32

Audio
ID : 2
Oblik datoteke : AAC
Oblik datoteke/Informacija : Advanced Audio Codec
Profil oblika datoteke : LC
ID kôdeka : 40
Trajanje : 1min 31s
Način protoka podataka : Promjenjivo
Stopa protoka podataka : 96,0 Kbps
Maksimum protoka podataka : 104 Kbps
Kanali : 2 kanala
Položaj kanala : Front: L R
Učestalost uzorkovanja : 44,1 KHz
Veličina toka : 1,04 MiB (17%)
Naslov : IsoMedia File Produced by Google, 5-11-2011
Nadnevak kodiranja : UTC 2015-12-12 14:42:32
Nadnevak označavanja : UTC 2015-12-12 14:42:32

--------------------------------------------------------------------

Ansambel bratov Avsenik - Zlati Zvoki (1972)

Klikni za povečavo!
20-04-2021 08:32 naložil Timoreck
Sejalci: 0 / Odjemalci: 0 / Velikost: 91.86 MB / Dokončani: 5
Prenesi torrent Poročaj torrent Opis torrenta NFO
Zvrst: Glasbeni
Kategorija: GLASBA > Glasba

Ansambel bratov Avsenik - Zlati Zvoki (1972)




Avdio/Video podatki ;

Oblik datoteke : MPEG-4
Profil oblika datoteke : Base Media
ID kôdeka : isom
Veličina datoteke : 91,9 MiB
Trajanje : 1h 10min
Ukupni protok podataka : 182 Kbps
Naslov filma : Zlati Zvoki (1972)
Izvođač : Ansambel bratov Avsenik
Kodirajući program : Lavf58.29.100
Omot : Yes
Komentar : www.mediahuman.com

Video
ID : 1
Oblik datoteke : AVC
Oblik datoteke/Informacija : Advanced Video Codec
Profil oblika datoteke : Main@L3.1
Postavke oblika datoteke za CABAC : Da
Postavke oblika datoteke za ReFrames : 3 sličice
ID kôdeka : avc1
ID kôdeka/Informacija : Advanced Video Coding
Trajanje : 1h 10min
Stopa protoka podataka : 48,2 Kbps
Širina : 854 piksela
Visina : 480 piksela
Omjer slike : 16:9
Način protoka sličica : Ustaljeno
Protok sličica : 29,970 fps
ColorSpace : YUV
ChromaSubsampling : 4:2:0
BitDepth/String : 8 bita
Vrsta pregledavanja : Progresivno
Bita/(piksela*sličica) : 0.004
Veličina toka : 24,3 MiB (26%)

Audio
ID : 2
Oblik datoteke : AAC
Oblik datoteke/Informacija : Advanced Audio Codec
Profil oblika datoteke : LC
ID kôdeka : 40
Trajanje : 1h 10min
Način protoka podataka : Ustaljeno
Stopa protoka podataka : 126 Kbps
Kanali : 2 kanala
Položaj kanala : Front: L R
Učestalost uzorkovanja : 44,1 KHz
Veličina toka : 63,4 MiB (69%)

--------------------------------------------------------------------

Seznam skladb

1 Zlati zvoki
2 Nikar domov
3 Ob slapu
4 Gremo na Pokljuko
5 Valček s harmoniko
6 Shujševalna kura
7 Rana ura, huda ura
8 Cvetoče tulpe
9 Na avtocesti
10 Zinka, Zefka, Zofka
11 Nasvidenje
12 Pogled v dolino
13 S polko v svet
14 Gozdovi v mesečini
15 Čez Korensko sedlo
16 Pri sedmerih jezerih
17 Z mano se ozri
18 Med rojaki v Ameriki
19 Gozdarjeva povest
20 V švicarskih Alpah
21 Jedraj z menoj
22 Miss
23 Po planinski magistrali
24 Najlepše je doma

50.jubilejni Festival narečnih popevk TV Maribor

Klikni za povečavo!
19-04-2021 06:04 naložil Timoreck
Sejalci: 0 / Odjemalci: 0 / Velikost: 1.01 GB / Dokončani: 2
Prenesi torrent Poročaj torrent Opis torrenta NFO
Zvrst: Glasbeni
Kategorija: GLASBA > Video

50.jubilejni Festival narečnih popevk TV Maribor
28.9.2012



Festival narečnih popevk, ki letos ni bil tekmovalne narave, praznuje abrahama. Osrednja tema festivala je bilo tako obujanje spominov.

Obiskovalci, gledalci in poslušalci so lahko ob častitljivem jubileju uživali v največjih uspešnicah festivala iz preteklih 50 let.

Večina programa je bila izvedena z izvirnimi izvajalci, ki so bili na narečnem festivalu v vseh teh letih najuspešnejši. Prepevali so ob spremljavi vokalnega kvarteta in Big banda RTV Slovenija pod dirigentsko taktirko Lojzeta Krajnčana, Edvarda Holnthanerja in Bertija Rodoška.

Jubilejni festival je otvorila Lidija Kodrič s pesmijo Moja mala tiha sreča, zaključil pa se je z nastopom Alfija Nipiča in pomočjo vseh ostalih udeležencev, ki so skupaj zapeli skladbo Štajerc.

Več kot 150 nastopajočih je poskrbelo, da je bil večer nepozaben. Poleg omenjenih so nastopili še: Edvin Fliser, Nuša Derenda, Lado Leskovar, Braco Koren, Berti Rodošek, Janko Ropret, Irena Vrčkovnik, Branka Kraner, Domen Kumer, Rudi Šantl, Jerica Mrzel, Marjan Smode, Dušan Kobal, Anita Kralj, Milan Kamnik, Lea Likar, Robi Horvat, Nataša Mihelič, Rudi Miložič, Damjan Zih, Zorica Fingušt Fatur, Damjana Golavšek, Monika in Alenka Heričko, Modrijani, Vinko Šimek, Jože Kobler, Malibu, Prifarski muzikanti, Štajerskih 7, Frajkinclari, Zreška pomlad, Halgato band, Langa, Čudežna polja, Vesele Štajerke, Pajdaši, Rdeči dečki, Dori, Cmok, Crescendo, Folkrola, Završki fantje in drugi.

-------------------------------------------------------------------------------

Avdio/Video podatki ;

Potpuni naziv : G:\Glazba\50.jubilejni Festival narečnih popevk TV Maribor 28.9.2012.mp4
Oblik datoteke : Matroska
Inačica oblika datoteke : Version 4 / Version 2
Veličina datoteke : 1,01 GiB
Trajanje : 2h 30min
Ukupni protok podataka : 963 Kbps
Kodirajući program : Lavf57.26.100
Kodirano pomoću knjižnice : Lavf57.26.100

Video
ID : 2
Oblik datoteke : AVC
Oblik datoteke/Informacija : Advanced Video Codec
Profil oblika datoteke : Main@L3.0
Postavke oblika datoteke za CABAC : Da
Postavke oblika datoteke za ReFrames : 3 sličice
ID kôdeka : V_MPEG4/ISO/AVC
Trajanje : 2h 30min
Širina : 766 piksela
Visina : 480 piksela
Omjer slike : 16:10
Način protoka sličica : Ustaljeno
Protok sličica : 25,000 fps
ColorSpace : YUV
ChromaSubsampling : 4:2:0
BitDepth/String : 8 bita
Vrsta pregledavanja : Progresivno
Default : Da
Forced : Ne
HANDLER_NAME : VideoHandler
DURATION : 02:30:09.680000000

Audio
ID : 1
Oblik datoteke : AAC
Oblik datoteke/Informacija : Advanced Audio Codec
Profil oblika datoteke : LC
ID kôdeka : A_AAC
Trajanje : 2h 30min
Kanali : 2 kanala
Položaj kanala : Front: L R
Učestalost uzorkovanja : 44,1 KHz
Default : Da
Forced : Ne
HANDLER_NAME : SoundHandler
DURATION : 02:30:09.783000000
--------------------------------------------------------------------


Ansambel Lojzeta Slaka - MIX

Klikni za povečavo!
18-04-2021 10:20 naložil Timoreck
Sejalci: 3 / Odjemalci: 0 / Velikost: 263.59 MB / Dokončani: 51
Prenesi torrent Poročaj torrent Opis torrenta NFO
Zvrst: Glasbeni
Kategorija: GLASBA > Glasba


Ansambel Lojzeta Slaka - MIX



Avdio/Video podatki ;

Potpuni naziv : F:\Glazba\Lojze Slak Mix 2013.mp4
Oblik datoteke : Matroska
Inačica oblika datoteke : Version 4 / Version 2
Veličina datoteke : 39,1 MiB
Trajanje : 31min
Ukupni protok podataka : 173 Kbps
Kodirajući program : Lavf57.26.100
Kodirano pomoću knjižnice : Lavf57.26.100

Video
ID : 2
Oblik datoteke : AVC
Oblik datoteke/Informacija : Advanced Video Codec
Profil oblika datoteke : Main@L3.1
Postavke oblika datoteke za CABAC : Da
Postavke oblika datoteke za ReFrames : 3 sličice
ID kôdeka : V_MPEG4/ISO/AVC
Trajanje : 31min
Širina : 854 piksela
Visina : 480 piksela
Omjer slike : 16:9
Način protoka sličica : Ustaljeno
Protok sličica : 29,970 fps
ColorSpace : YUV
ChromaSubsampling : 4:2:0
BitDepth/String : 8 bita
Vrsta pregledavanja : Progresivno
Default : Da
Forced : Ne
HANDLER_NAME : VideoHandler
DURATION : 00:31:33.291000000

Audio
ID : 1
Oblik datoteke : AAC
Oblik datoteke/Informacija : Advanced Audio Codec
Profil oblika datoteke : LC
ID kôdeka : A_AAC
Trajanje : 31min
Kanali : 2 kanala
Položaj kanala : Front: L R
Učestalost uzorkovanja : 44,1 KHz
Default : Da
Forced : Ne
HANDLER_NAME : SoundHandler
DURATION : 00:31:33.355000000
--------------------------------------------------------------------

Potpuni naziv : F:\Ansambel Lojzeta Slaka-MIX najlepših pesmi(2018).mp4
Oblik datoteke : Matroska
Inačica oblika datoteke : Version 4 / Version 2
Veličina datoteke : 168 MiB
Trajanje : 1h 28min
Ukupni protok podataka : 265 Kbps
Kodirajući program : Lavf57.26.100
Kodirano pomoću knjižnice : Lavf57.26.100

Video
ID : 2
Oblik datoteke : AVC
Oblik datoteke/Informacija : Advanced Video Codec
Profil oblika datoteke : Main@L3.1
Postavke oblika datoteke za CABAC : Da
Postavke oblika datoteke za ReFrames : 3 sličice
ID kôdeka : V_MPEG4/ISO/AVC
Trajanje : 1h 28min
Širina : 1 .280 piksela
Visina : 720 piksela
Omjer slike : 16:9
Način protoka sličica : Ustaljeno
Protok sličica : 29,970 fps
ColorSpace : YUV
ChromaSubsampling : 4:2:0
BitDepth/String : 8 bita
Vrsta pregledavanja : Progresivno
Default : Da
Forced : Ne
colour_primaries : BT.709
transfer_characteristics : BT.709
matrix_coefficients : BT.709
HANDLER_NAME : VideoHandler
DURATION : 01:28:34.075000000

Audio
ID : 1
Oblik datoteke : AAC
Oblik datoteke/Informacija : Advanced Audio Codec
Profil oblika datoteke : LC
ID kôdeka : A_AAC
Trajanje : 1h 28min
Kanali : 2 kanala
Položaj kanala : Front: L R
Učestalost uzorkovanja : 44,1 KHz
Jezik : Engleski
Default : Da
Forced : Ne
HANDLER_NAME : SoundHandler
DURATION : 01:28:34.142000000
---------------------------------------------------------------------

Vsebina :

Ansambel Lojzeta Slaka - Božični večer.mp4
Ansambel Lojzeta Slaka - Titanik.mp4
Lojze Slak - Po Dekle.mp4
Ansambel Lojzeta Slaka-MIX najlepših pesmi(2018).mp4
Lojze Slak Mix 2013.mp4


Balkan & Turqize Megamix by BlackDevil

Klikni za povečavo!
18-04-2021 06:48 naložil BlackDevil
Sejalci: 2 / Odjemalci: 0 / Velikost: 600.41 MB / Dokončani: 11
Prenesi torrent Poročaj torrent Opis torrenta
Kategorija: GLASBA > Glasba

DJ BALKAN BEATZ YUGO MEGA MIX 2019 by DJBALKANBEATZ

BALKAN SUMMER MIX 2020 by DJ STOJAK - YouTube
BALKAN CLUB MIX 2018 (DJ STOJAK)
BALKAN DANCEHALL MIX 2018 (DJ STOJAK)
BALKAN HIP-HOP & RAP MIX 2018 (DJ STOJAK)
BALKAN MOOMBAHTON MIX 2018 (DJ STOJAK)
BOSNIA PARTY MIX 2018 (DJ STOJAK)
Moombahton Summer Mix 2018 - The Best of Moombahton by DJ STOJAK
NARODNI HITOVI MIX NAJVECIH NARODNIH HITOVA 2018 (DJ STOJAK)
Türkçe Müzik Mix 2018 (DJ STOJAK)


André Rieu - Christmas in London (2017)

Klikni za povečavo!
17-04-2021 08:30 naložil Timoreck
Sejalci: 1 / Odjemalci: 0 / Velikost: 939.54 MB / Dokončani: 3
Prenesi torrent Poročaj torrent Opis torrenta NFO
Zvrst: Glasbeni
Kategorija: GLASBA > Video

André Rieu - Christmas in London (2017)



Christmas in London

Christmas is now more beautiful and cosy than ever! Experience Christmas in London, together with André Rieu. Decorated Christmas trees everywhere you look, beautifully lit streets, tempting Christmas window displays… Combine the unique London Christmas atmosphere with a magnificent Christmas concert by André Rieu, and you have all the ingredients for a lovely party in the dark December days.

Together with fantastic soloists and his always joyful Johann Strauss orchestra, André Rieu provides a fabulous evening with the most beautiful and moving Christmas carols, but also with emotional songs such as Leonard Cohen’s Hallelujah, The Holy City and the classic Concierto de Aranjuez.

Christmas in London means an evening enjoying lovely music, beautiful costumes and plenty of London cosiness.

-------------------------------------------------------------------------------

Avdio/Video podatki ;

Oblik datoteke : Matroska
Inačica oblika datoteke : Version 4 / Version 2
Veličina datoteke : 940 MiB
Trajanje : 55min
Ukupni protok podataka : 2 .360 Kbps
Kodirajući program : Lavf57.26.100
Kodirano pomoću knjižnice : Lavf57.26.100

Video
ID : 2
Oblik datoteke : AVC
Oblik datoteke/Informacija : Advanced Video Codec
Profil oblika datoteke : Main@L3.2
Postavke oblika datoteke za CABAC : Da
Postavke oblika datoteke za ReFrames : 3 sličice
ID kôdeka : V_MPEG4/ISO/AVC
Trajanje : 55min
Širina : 1 .280 piksela
Visina : 720 piksela
Omjer slike : 16:9
Način protoka sličica : Ustaljeno
Protok sličica : 48,000 fps
ColorSpace : YUV
ChromaSubsampling : 4:2:0
BitDepth/String : 8 bita
Vrsta pregledavanja : Progresivno
Default : Da
Forced : Ne
colour_primaries : BT.709
transfer_characteristics : BT.709
matrix_coefficients : BT.709
HANDLER_NAME : VideoHandler
DURATION : 00:55:39.417000000

Audio
ID : 1
Oblik datoteke : AAC
Oblik datoteke/Informacija : Advanced Audio Codec
Profil oblika datoteke : LC
ID kôdeka : A_AAC
Trajanje : 55min
Kanali : 2 kanala
Položaj kanala : Front: L R
Učestalost uzorkovanja : 44,1 KHz
Default : Da
Forced : Ne
HANDLER_NAME : SoundHandler
DURATION : 00:55:39.470000000



Ansambel Avsenik - MIX + Bonus

Klikni za povečavo!
17-04-2021 05:48 naložil Timoreck
Sejalci: 2 / Odjemalci: 0 / Velikost: 1.11 GB / Dokončani: 32
Prenesi torrent Poročaj torrent Opis torrenta NFO
Zvrst: Glasbeni
Kategorija: GLASBA > Glasba

Ansambel Avsenik - MIX + Bonus


Avdio podatki ;

Oblik datoteke : Windows Media
Veličina datoteke : 2,81 MiB
Trajanje : 2min 59s
Način ukupnog protoka podataka : Ustaljeno
Ukupni protok podataka : 131 Kbps
Maksimum ukupnog protoka podataka : 129 Kbps
Album : Na Golici-arhiv 1953-1955
Naziv snimke : Ko lovec je na štoru spal
Naziv snimke/položaj : 12
Izvođač : Trio Slavka Avsenika
Glazbeni smjer : Narodnozabavna
Nadnevak snimanja : 2005
Nadnevak kodiranja : UTC 2013-10-23 18:18:12.711
Omot : Y
Vrjednovanje : 0
Provider : User Feedback
MediaFoundationVersion : 2.112
WM/OriginalAlbumArtist : Trio Slavka Avsenika
WM/SharedUserRating : 0

Audio
ID : 1
Oblik datoteke : WMA
Inačica oblika datoteke : Version 2
ID kôdeka : 161
ID kôdeka/Informacija : Windows Media Audio
Opis kôdeka : Windows Media Audio 9.2 - 128 kbps, 44 kHz, stereo 1-pass CBR
Trajanje : 2min 59s
Način protoka podataka : Ustaljeno
Stopa protoka podataka : 128 Kbps
Kanali : 2 kanala
Učestalost uzorkovanja : 44,1 KHz
BitDepth/String : 16 bita
Veličina toka : 2,74 MiB (98%)
--------------------------------------------------------------------------------------------------------
Oblik datoteke : FLAC
Oblik datoteke/Informacija : Free Lossless Audio Codec
Veličina datoteke : 16,4 MiB
Trajanje : 2min 38s
Način ukupnog protoka podataka : Promjenjivo
Ukupni protok podataka : 867 Kbps
Album : Tam kjer murke cveto
Album/Izvođač : Ansambel bratov Avsenik
Naziv snimke : Tam kjer murke cveto
Naziv snimke/položaj : 3
Naziv snimke/ukupno : 16
Izvođač : Ansambel bratov Avsenik
Glazbeni smjer : Narodnozabavna
Nadnevak snimanja : 1997
Omot : Yes
Vrsta omota : Cover (front)
MIME omota : image/jpeg
Komentar : [SloLord]
Source : CD (Lossless)

Audio
Oblik datoteke : FLAC
Oblik datoteke/Informacija : Free Lossless Audio Codec
Trajanje : 2min 38s
Način protoka podataka : Promjenjivo
Stopa protoka podataka : 864 Kbps
Kanali : 2 kanala
Učestalost uzorkovanja : 44,1 KHz
BitDepth/String : 16 bita
Veličina toka : 16,3 MiB (100%)
Kodirano pomoću knjižnice : libFLAC 1.2.1 (UTC 2007-09-17)
----------------------------------------------------------------------------------------------------------
Oblik datoteke : MPEG Audio
Veličina datoteke : 8,26 MiB
Trajanje : 3min 35s
Način ukupnog protoka podataka : Ustaljeno
Ukupni protok podataka : 320 Kbps
Album : Srecno novo leto
Dio/položaj : 1
Dio/ukupno : 1
Naziv snimke : Srecno novo leto
Naziv snimke/položaj : 01
Naziv snimke/ukupno : 24
Izvođač : Ansambel bratov Avsenik
Kodirao : Exact Audio Copy (Burst mode)
Glazbeni smjer : Folk/Narodna
Nadnevak snimanja : 1981
Kodirano pomoću knjižnice : LAME3.98r
Omot : Yes
MIME omota : image/jpeg

Audio
Oblik datoteke : MPEG Audio
Inačica oblika datoteke : Version 1
Profil oblika datoteke : Layer 3
Format_Settings_Mode : Joint stereo
Trajanje : 3min 35s
Način protoka podataka : Ustaljeno
Stopa protoka podataka : 320 Kbps
Kanali : 2 kanala
Učestalost uzorkovanja : 44,1 KHz
Veličina toka : 8,21 MiB (99%)
Kodirano pomoću knjižnice : LAME3.98r
Postavke kodiranja : -m j -V 4 -q 2 -lowpass 20.5
--------------------------------------------------------------------------------------------

Vsebina :

Ansambel Avsenik - Na Golici-arhiv 1953-1955 - 2005

01 Na Golici
02 Pozno v noč
03 V planinski koči
04 Slovo
05 Vaška polka
06 Na izletu
07 Pleničke je prala
08 Čez Trojane
09 Rez'ka
10 V pustnih dneh
11 Še, še en krajcarček 'mam
12 Ko lovec je na štoru spal
13 Če vinček govori
14 Zmeraj veseli

Ansambel bratov Avsenik - 2000 še in še (1999) Flac

1 2000 še in še -
2 Poskočna polka
3 Vsepovsod po naši prelepi deželi
4 Tam kjer murke cveto
5 Veselo s harmoniko in kitaro
6 Venček polk - Na robleku
7 Moj Floki
8 Čez zelene trate - Proti jutru
9 Zvezde na nebu žare
10 Spomin
11 Glasbena voščilnica
12 Slovenski pozdravi
13 Kitare plešejo
14 Mami
15 Očetu
16 Te pa tikou vredi
17 Na Golici

Ansambel bratov Avsenik - Tam kjer murke cveto - 1997 Flac

01 Ansambel bratov Avsenik - Prelepa Gorenjska
02 Ansambel bratov Avsenik - So mam'ca mi djali
03 Ansambel bratov Avsenik - Tam kjer murke cveto
04 Ansambel bratov Avsenik - Pri sosedovih na obisku
05 Ansambel bratov Avsenik - Moj rodni kraj, moj rodni dom
06 Ansambel bratov Avsenik - Če vinček govori
07 Ansambel bratov Avsenik - Stara polka
08 Ansambel bratov Avsenik - Na mostu
09 Ansambel bratov Avsenik - Čujte me, čujte, mamica vi
10 Ansambel bratov Avsenik - Kadar bom vandral
11 Ansambel bratov Avsenik - Spet na vasi
12 Ansambel bratov Avsenik - Hodil po gozdu sem
13 Ansambel bratov Avsenik - Kaj pa reče mam'ca moja
14 Ansambel bratov Avsenik - Jej, jej, k'mam težko glavo
15 Ansambel bratov Avsenik - Jesenska (Bila jesen je)
16 Ansambel bratov Avsenik - Rez'ka

Ansambel bratov Avsenik-Srečno Novo Leto 1981

01 Srecno novo leto
02 Izlet na dezelo
03 Pozdrav s Pohorja
04 Ponocnjaki
05 Na Gorjusah
06 Prelep je svet
07 Praznik prsuta in terana
08 Domace veselje
09 Ljubici v slovo
10 Zaplesimo polko
11 Majski izlet
12 Nasim znancem
13 Tingel tangel polka
14 Franc-vseved
15 Prvi soncni zarek
16 Ko se zjutraj prebudim
17 Zbrani in veseli
18 Enkrat na leto praznujem
19 Jesenska polka
20 Kadar pridem na Planico
21 Kam tako hitis
22 Ko bos tod mimo sel
23 Vaski godec
24 Najlepsi cvet

Ansambel bratov Avsenik- Srečno Novo Leto 1991

01 Novoletno voščilo Zvezde na nebu žare
02 Zimska pravljica
03 Otroške želje
04 Prelepi zimski čas
05 Zimski večer
06 Okoli novega leta
07 Dedek mraz prihaja
08 Družinski praznik
09 Koledarska polka
10 Polnočni zvonovi
11 Novoletni koledar
12 S polko v novo leto
13 Srečno novo leto
14 Izlet na deželo
15 Pozdrav s Pohorja
16 Ponočnjaki
17 Na Gorjušah
18 Prelep je svet
19 Praznik pršuta in terana
20 Domače veselje


-----------------------------------------------------------------------------------------

Bonus (delni video):

Rafko Irgolič - OH SUZANA
Rafko Irgolic - Moj crni konj
Rafko Irgolič - Zabučale gore
Rafko Irgolič in Stane Mancini - Domovina
Rafko Irgolič JAHAM SPET V KOLORADO

-------------------------------------------------------------------------------------------------------

Stanka Kovačič - Kitara
Stanka Kovačič - Mix


Noč Modrijanov 2018- (1)

Klikni za povečavo!
15-04-2021 06:16 naložil Timoreck
Sejalci: 1 / Odjemalci: 0 / Velikost: 1.33 GB / Dokončani: 3
Prenesi torrent Poročaj torrent Opis torrenta NFO
Zvrst: Glasbeni
Kategorija: GLASBA > Video

Noč Modrijanov 2018- (1)
Year : 2018
Modrijani so tudi letos poskrbeli za nepozabno noč, kjer je nastopilo kar sedemsto
nastopajočih glasbenikov in plesalcev. Koncerta pa se je udeležilo kar 12 tisoč
obiskovalcev, tudi predsednik države, Borut Pahor.

900 kvadratnih metrov, 8 nivojev in 110 kubičnih metrov lesa

Takšna je bila letošnja scena Noči. Organizatorji so predstavili Slovenijo na enem
mestu, piko na i pa so dodale tipične hiše iz slovenskih pokrajin. Obiskovalce so
nagovorili različni Slovenci, ki so povedali zakaj imajo radi svojo domovino. Na
odru je obiskovalce pozdravil stoletnik Viktor Miklič, kraljica terana Tinkara Gulič,
pesnik Feri Lainšček, dva frančiškanska patra iz Brezij, 15 članska družina, babice
iz porodnišnice v Slovenj Gradcu, ribiča iz Izole in drugi.

Potpuni naziv : F:\Glazba\Noč Modrijanov 2018 poklon Sloveniji in njenim ljudem HD 720p\Noč Modrijanov 2018 poklon Sloveniji in njenim ljudem 1 del HD.mkv
Oblik datoteke : Matroska
Inačica oblika datoteke : Version 2
Veličina datoteke : 1,33 GiB
Trajanje : 1h 37min
Ukupni protok podataka : 1 .962 Kbps
Nadnevak kodiranja : UTC 2019-01-14 16:30:58
Kodirajući program : mkvmerge v4.0.0 ('The Stars were mine') built on Jun 6 2010 16:18:42
Kodirano pomoću knjižnice : Lavf54.63.104

Video
ID : 1
Oblik datoteke : AVC
Oblik datoteke/Informacija : Advanced Video Codec
Profil oblika datoteke : High@L3.1
Postavke oblika datoteke za CABAC : Da
Postavke oblika datoteke za ReFrames : 2 sličice
ID kôdeka : V_MPEG4/ISO/AVC
Trajanje : 1h 37min
Nominalni protok podataka : 1 .800 Kbps
Širina : 1 .280 piksela
Visina : 720 piksela
Omjer slike : 16:9
Način protoka sličica : Ustaljeno
Protok sličica : 25,000 fps
ColorSpace : YUV
ChromaSubsampling : 4:2:0
BitDepth/String : 8 bita
Vrsta pregledavanja : Progresivno
Bita/(piksela*sličica) : 0.078
Kodirano pomoću knjižnice : x264 core 129
Default : Ne
Forced : Ne

Audio
ID : 2
Oblik datoteke : AAC
Oblik datoteke/Informacija : Advanced Audio Codec
Profil oblika datoteke : LC
ID kôdeka : A_AAC
Trajanje : 1h 37min
Kanali : 2 kanala
Položaj kanala : Front: L R
Učestalost uzorkovanja : 48,0 KHz
Default : Ne
Forced : Ne




Če bo zanimanje,naložim še drugi del.
Andre.Rieu-Magic of the musicals.MultiSubs.1080p.DTS-HD.LPCM

Klikni za povečavo!
01-04-2021 14:03 naložil rado77
Sejalci: 1 / Odjemalci: 0 / Velikost: 10.85 GB / Dokončani: 1
Prenesi torrent Poročaj torrent Opis torrenta
Zvrst: Glasbeni
Kategorija: GLASBA > Video

Andre.Rieu-Magic of the musicals.MultiSubs.1080p.DTS-HD.LPCM


André Rieu - Magic of the Musicals

Čarobni muzikali



(kompilacija)


Nizozemski violinist in orkester Johanna Straussa izvajajo številne glasbene uspešnice. Andr Rieu je eden najbolj prodajanih sodobnih klasičnih umetnikov, saj ima za seboj več kot 20 milijonov prodaj po vsem svetu in vrsto uspešnih turnej. Rieu je leta 1987 ustanovil orkester Johanna Straussa z dvojnim ciljem promocije glasbe, ki jo ima rad, hkrati pa širši publiki približa užitke klasične glasbe. Tu Rieu in njegov orkester pozornost usmerjata na nepozabne pesmi iz odrskih muzikalov, s čimer si priskrbijo številne priljubljene melodije.


Podnapisi: Nizozemski, nemški, francoski, portugalski, španski, angleški


André Rieu skozi 18 prijetnih skladb razpre zavese in odnese glasbeni oder v vaš dom. Na tem albumu so pesmi iz številnih muzikalov, od katerih je vsaka skrbno izbrana.


Spisek izbranih skladb:
01. The Sound Of Music
02. I Will Follow Him
03. Music Of The Night
04. Somewhere Over The Rainbow
05. The Impossible Dream
06. Cinderella Waltz
07. Wishing You Were Somehow Here Again
08. All I Ask Of You
09. I Could Have Danced All Night
10. With A Little Bit Of Luck
11. Send In The Clowns
12. Supercalifragilisticexpialidocious
13. Feed The Birds
14. Don’t Cry For Me Argentina
15. Trumpet Voluntary
16. I Belong To Me
17. Memory
18. You’ll Never Walk Alone


Tehnične specifikacije:


Popolno ime: Andre.Rieu-Magic of the musicals.MultiSubs.1080p.DTS-HD.LPCM
Oblika: Matroska
Različica formata: različica 4
Velikost datoteke: 10,8 GiB
Trajanje: 1 h 31 min
Splošni način bitne hitrosti: spremenljivka
Skupna bitna hitrost: 17,0 Mb / s
Zakodiran datum: UTC 2021-03-18 16:41:47
Aplikacija za pisanje: mkvmerge v55.0.0 ('Waiting For Space'), 64-bitna
Knjižnica za pisanje: libebml v1.4.2 + libmatroska v1.6.4

Video
ID: 1
Oblika: AVC
Format / Info: Napredni video
Profil oblike: Main @ L4
Nastavitve formata: CABAC / 4 Ref
Nastavitve formata, CABAC: Da
Nastavitve formata, referenčni okviri: 4 sličice
ID kodeka: V_MPEG4 / ISO / AVC
Trajanje: 1 h 31 min
Bitna hitrost: 10 000 kb / s
Širina: 1 920 slikovnih pik
Višina: 1 080 slikovnih pik
Razmerje zaslona: 16: 9
Način hitrosti sličic: konstantno
Hitrost sličic: 29.970 FPS
Barvni prostor: YUV
Podvzorčenje kroma: 4: 2: 0
Globina bitov: 8 bitov
Vrsta optičnega branja: progresivno
Bit / / (Pixel * Frame): 0,161
Velikost toka: 6,37 GiB (59%)
Knjižnica za pisanje: jedro x264 157 r2935
Jezik: angleščina
Privzeto: Da
Prisilno: Ne
Barvno območje: omejeno
Barvne barve: BT.709
Značilnosti prenosa: BT.709
Matrični koeficienti: BT.709

Zvok št. 1
ID: 2
Oblika: DTS XLL
Format / informacije: Digitalno gledališče
Trgovsko ime: DTS-HD Troll
ID kodeka: A_DTS
Trajanje: 1 h 31 min
Način bitne hitrosti: spremenljiv
Bitna hitrost: 4.722 kb / s
Kanali: 6 kanalov
Postavitev kanala: C L R Ls Rs LFE
Hitrost vzorčenja: 48,0 kHz
Hitrost sličic: 93.750 FPS (512 SPF)
Globina bitov: 24 bitov
Način stiskanja: brez izgub
Velikost toka: 3,01 GiB (28%)
Privzeto: Da
Prisilno: Ne

[b]Zvok št. 2[/b]
ID: 3
Oblika: PCM
Nastavitve formata: malo / podpisano
ID kodeka: A_PCM / INT / LIT
Trajanje: 1 h 31 min
Način bitne hitrosti: konstantno
Bitna hitrost: 2 304 kb / s
Kanali: 2 kanala
Hitrost vzorčenja: 48,0 kHz
Hitrost sličic: 200.000 FPS (240 SPF)
Globina bitov: 24 bitov
Velikost toka: 1,47 GiB (14%)
Privzeto: Ne
Prisilno: Ne


Veliko užitkov in ne pozabite na sejanje!
Metal Hammer-100 GREATEST SONGS OF THE CENTURY

Klikni za povečavo!
28-03-2021 16:04 naložil BlackDevil
Sejalci: 1 / Odjemalci: 0 / Velikost: 1.16 GB / Dokončani: 4
Prenesi torrent Poročaj torrent Opis torrenta
Kategorija: GLASBA > Glasba

VA - Metal Hammer: The 100 Greatest Songs of the Century (2021) MP3 [320 kbps]

Izvajalec: VA
Naslov: Metal Hammer: The 100 Greatest Songs of the Century

Leto: 2021
Poreklo: Mednarodno
Žanr: Rock, Metal, Hard-Rock, Alternative
Kvaliteta: MP3 320 kbps
Velikost: 1,16 GB



001. System of a Down - Chop Suey!
002. Slipknot - Duality
003. Deftones - Change (In the House of Flies)
004. Ghost - Square Hammer
005. Trivium - Pull Harder on the S\'trings of Your Martyr
006. Mastodon - Blood and Thunder
007. Lamb of God - Redneck
008. Nightwish - Nemo
009. Gojira - Stranded
010. Rammstein - Sonne
011. Architects - Doomsday
012. Iron Maiden - The Wicker Man
013. Lacuna Coil - Heaven\'s a Lie
014. Linkin Park - Papercut
015. Avenged Sevenfold - Nightmare
016. Killswitch Engage - My Last Serenade
017. Power Trip - Executioner\'s Tax (Swing of the Axe)
018. Papa Roach - Last Resort
019. Machine Head - Halo
020. Heilung - Krigsgaldr
021. Clutch - Electric Worry
022. TOOL - Schism
023. DragonForce - Through The Fire And Flames
024. Bring Me the Horizon - Shadow Moses
025. HIM - Wings of a Butterfly
026. Parkway Drive - Vice Grip
027. Limp Bizkit - Rollin\' (Air Raid Vehicle)
028. Skindred - Nobody
029. BABYMETAL, Herman Li, Sam Totman - Road of Resistance
030. KoЯn - Here to Stay
031. The Dillinger Escape Plan - Milk Lizard
032. Slayer - Disciple
033. Metallica - Moth Into Flame
034. Watain - Malfeitor
035. Bullet for My Valentine - Tears Don\'t Fall
036. In Flames - Only for the Weak
037. Code Orange - Bleeding In The Blur
038. Baroness - Chlorine & Wine
039. Converge - Concubine
040. Halestorm - I Miss the Misery
041. Bloodywood - Ari Ari
042. Satyricon - K.I.N.G
043. At the Drive-In - One Armed Scissor
044. Volbeat - Still Counting
045. Testament - More Than Meets the Eye
046. Five Finger Death Punch - The Bleeding
047. Within Temptation - Angels
048. Disturbed - Down with the Sickness
049. Judas Priest - Lightning Strike
050. Wardruna - Helvegen
051. Meshuggah - Bleed
052. TesseracT - Of Mind - Nocturne
053. Zeal And Ardor - Devil Is Fine
054. Carpenter Brut - Turbo Killer
055. Cradle of Filth - Nymphetamine Fix
056. Immortal - All Shall Fall
057. Stone Sour - Through Glass
058. Isis - Weight
059. Grand Magus - Hammer of the North
060. Cave In - In The Stream Of Commerce
061. Akercocke - A Skin For Dancing In
062. Opeth - Ghost of Perdition
063. Evanescence - Bring Me To Life
064. Primordial - Empire Falls
065. Finntroll - Trollhammaren
066. Amenra - .Am Kreuz.
067. Steel Panther - Death To All But Metal
068. Children of Bodom - Needled 24 / 7
069. Loathe - Two-Way Mirror
070. Every Time I Die - The New Black
071. The Devil\'s Blood - River Of Gold
072. The HU - Wolf Totem
073. Asking Alexandria - The Final Episode (Let\'s Change Channel)
074. Jinjer - Pisces
075. Beartooth - In Between
076. Sabaton - Ghost Division
077. Hatebreed - I Will Be Heard
078. Beastmilk - Death Reflects Us
079. Megadeth - Head Crusher
080. Myrkur, chelsea wolfe - Funeral
081. letlive. - Banshee (Ghost Fame)
082. Negura Bunget - Tesarul de Lumini
083. Enslaved - Bounded By Allegiance
084. Coheed and Cambria - Welcome Home
085. Audioslave - Cochise
086. Strapping Young Lad - Love?
087. Venom Prison - Abysmal Agony
088. Turisas - Battle Metal
089. SOiL - Halo
090. Amon Amarth - Cry Of The Black Birds
091. Arch Enemy - We Will Rise
092. Dimmu Borgir - Progenies of the Great Apocalypse
093. Kvelertak - Blodtorst
094. Body Count - No Lives Matter
095. SikTh - Bland Street Bloom
096. Twin Temple - Sex Magick
097. Nine Inch Nails - The Hand That Feeds
098. Electric Wizard - Funeralopolis
099. Solstafir - Otta
100. Atreyu - Bleeding Mascara
VA - Classic Rock Legends (2021) MP3

Klikni za povečavo!
21-03-2021 19:34 naložil BlackDevil
Sejalci: 2 / Odjemalci: 0 / Velikost: 1.09 GB / Dokončani: 21
Prenesi torrent Poročaj torrent Opis torrenta
Kategorija: GLASBA > Glasba

VA - Classic Rock Legends (2021) MP3 [320 kbps]

Artist: VA | Title: Classic Rock Legends
Country: Int. | Genre: Rock
Year: 2021 | Length: 07:56:43
Audio bitrate: 320 kbps
Format / Codec: MP3


001. Queen - We Will Rock You - ReTrolled (2:02)
002. The Kinks - All Day and All of the Night (2:23)
003. The Doors - Break on Through (To the Other Side) (2:27)
004. Bob Dylan - Knockin\' On Heaven\'s Door (2:29)
005. Ramones - I Wanna Be Sedated - 2002 ReTroll (2:29)
006. Mountain - Mississippi Queen (2:31)
007. Judas Priest - Breaking the Law (2:33)
008. Buffalo Springfield - For What It\'s Worth (2:33)
009. Creedence Clearwater Revival - Have You Ever Seen The Rain (2:40)
010. Led Zeppelin - Good Times Bad Times - 1993 ReTroll (2:46)
011. Pat Benatar - Hit Me With Your Best Shot (2:52)
012. Jimi Hendrix - Purple Haze (2:51)
013. KISS - Rock And Roll All Nite (2:54)
014. The Romantics - What I Like About You (2:55)
015. AC DC - Shot In The Dark (3:05)
016. Van Morrison - Brown Eyed Girl (3:03)
017. The Clash - Should I Stay or Should I Go - ReTrolled (3:08)
018. Rick Springfield - Jessie\'s Girl (3:12)
019. The Who - My Generation - Mono Version (3:17)
020. Warrant - Cherry Pie (3:21)
021. Patti Smith - Because the Night (3:22)
022. Kansas - Dust in the Wind (3:26)
023. Sweet - Fox on the Run - Single Version (3:22)
024. The Doobie Brothers - Long Train Runnin\' (3:27)
025. AC DC - Highway to Hell (3:28)
026. Steppenwolf - Born To Be Wild (3:30)
027. Silver - Wham Bam Shang-A-Lang (3:32)
028. Queen - Another One Bites The Dust - ReTrolled 2011 (3:34)
029. Foo Fighters - No Son Of Mine (3:28)
030. Van Halen - Runnin\' With The Devil (3:36)
031. Eric Clapton - Cocaine (3:36)
032. AC DC - Realize (3:37)
033. Bruce Springsteen - The Power Of Prayer (3:36)
034. Stevie Ray Vaughan - Pride and Joy (3:39)
035. Motley Crue - Ride With The Devil (3:41)
036. Loverboy - Working for the Weekend (3:40)
037. The Rolling Stones - (I Can\'t Get No) Satisfaction - Mono Version (3:43)
038. The Outfield - Your Love (3:41)
039. The Rolling Stones - Paint It Black (3:44)
040. Janis Joplin - Move Over (3:43)
041. ZZ Top - La Grange - 2005 ReTroll (3:50)
042. Led Zeppelin - Whole Lotta Love - 1990 ReTroll (3:50)
043. Led Zeppelin - Ramble On - 1990 ReTroll (4:34)
044. TOTO - Hold the Line (3:55)
045. Ram Jam - Black Betty (3:55)
046. Bruce Springsteen - Dancing In The Dark (4:01)
047. Van Halen - Jump - 2015 ReTroll (4:01)
048. Jimi Hendrix - All Along the Watchtower (4:00)
049. Roger Waters - Young Lust - Live (4:02)
050. Survivor - Eye of the Tiger (4:05)
051. Journey - Don\'t Stop Believin\' (4:08)
052. Lou Reed - Walk on the Wild Side (4:12)
053. AC DC - Back In Black (4:15)
054. America, George Martin - A Horse with No Name (4:12)
055. Cheap Trick - Surrender (4:13)
056. Cream - Sunshine Of Your Love (4:10)
057. Scorpions - Rock You Like a Hurricane (4:15)
058. Midnight Oil - Beds Are Burning - ReTrolled (4:15)
059. Ozzy Osbourne - Bark at the Moon (4:16)
060. ZZ Top - Sharp Dressed Man - 2008 ReTroll (4:18)
061. Midnight Oil - Beds Are Burning - ReTrolled (2) (4:18)
062. Big Brother & The Holding Company, Janis Joplin - Piece of My Heart (4:13)
063. Foo Fighters - Waiting On A War (4:13)
064. Foo Fighters - Making A Fire (4:15)
065. Meat Loaf, Cher - Dead Ringer for Love (with Cher) (4:20)
066. Boston - Smokin\' (4:21)
067. Foo Fighters - Shame Shame (4:17)
068. Heart - Barracuda (4:21)
069. Steve Miller Band - The Joker (4:24)
070. The Moody Blues - Nights In White Satin - Single Version (4:26)
071. Yes - Owner of a Lonely Heart (4:28)
072. Aerosmith - Dream On (4:26)
073. Janis Joplin - Piece Of My Heart (4:26)
074. Bruce Springsteen - Born to Run (4:29)
075. Alice Cooper - Poison (4:29)
076. KISS - I Was Made For Lovin\' You (4:30)
077. The Animals - House Of The Rising Sun (4:31)
078. Blue Oyster Cult - Burnin\' for You (4:29)
079. Bruce Springsteen - Born in the U.S.A (4:38)
080. Boston - More Than a Feeling (4:43)
081. Eagles - Life in the Fast Lane - 2013 ReTroll (4:46)
082. Lynyrd Skynyrd - Sweet Home Alabama (4:44)
083. Quiet Riot - Cum on Feel the Noize (4:47)
084. AC DC - Thunderstruck (4:52)
085. Starship - We Built This City (4:54)
086. Bruce Springsteen - Letter To You (4:55)
087. The Who - Baba O\'Riley (5:00)
088. Ozzy Osbourne, Elton John - Ordinary Man (feat. Elton John) (5:01)
089. Foreigner - I Want to Know What Love Is - 1999 ReTroll (5:04)
090. The Guess Who - American Woman (5:07)
091. Scorpions - Wind of Change (5:08)
092. Blue Oyster Cult - (Don\'t Fear) The Reaper (5:09)
093. Patti Smith - People Have the Power (5:10)
094. AC DC - Hells Bells (5:12)
095. Midnight Oil - The Dead Heart - 2007 ReTrolled (5:11)
096. Roger Waters - Smell the Roses (5:16)
097. Stevie Ray Vaughan - Texas Flood (5:20)
098. Metallica - Enter Sandman (5:31)
099. Deep Purple - Smoke On The Water - ReTrolled 2012 (5:40)
100. Jeff Beck - Cause We\'ve Ended as Lovers (5:42)
101. Mr. Mister - Broken Wings (5:43)
102. Dire Straits - Sultans Of Swing (5:48)
103. Guns N\' Roses - Sweet Child O\' Mine (5:54)
104. Bruce Springsteen - Ghosts (5:54)
105. Bob Dylan - Like a Rolling Stone (6:09)
106. Judas Priest - Out in the Cold - Recorded at Kemper Arena in Kansas City (6:35)
107. Scorpions - Still Loving You (6:43)
108. Derek & The Dominos - Layla - 40th Anniversary Version 2010 ReTrolled (7:03)
109. Ted Nugent - Stranglehold (8:23)
110. Meat Loaf - Paradise By the Dashboard Light (8:28)
111. Joe Walsh - Life\'s Been Good (8:56)
Slovenski Love Mix 2021 by BlackDevil

Klikni za povečavo!
15-03-2021 06:47 naložil BlackDevil
Sejalci: 3 / Odjemalci: 0 / Velikost: 299.69 MB / Dokončani: 42
Prenesi torrent Poročaj torrent Opis torrenta
Kategorija: GLASBA > Glasba

Bodite srečni - misli o sreči

101ka band - Le zakaj si žalostna
101ka band - Lubice moje
Alya - Dobro jutro življenje
Alya - Halo
Anika Horvat - Tika Tak
Coto, Jan in Modrijani - En poljub
CUKI in KVATROPIRCI - Če se od spominov da živet'
DARJA GAJSEK - Kako pogresa te srce
Don Juan-Povej mi Marina
Drevored - Daleč od ponorelega sveta
EVA BOTO - NA KOŽO PISANA
Fabricca - Predobro
Faraoni - Ne bom pozabil na stare čase
HELENA BLAGNE - KAR BO, PA BO
Jan Plestenjak - Ob tebi bom ostal
Jan Plestenjak - Povej mi, kaj bi rada
Jan Plestenjak - Roke stran
Jan Plestenjak - Stara dobra
Jan Plestenjak, Modrijani in Coto - Dal bom besedo
KLAPA SKALA & DARJA GAJŠEK - Mala barka
Klara Jazbec - Milijon in ena
Ksenija - Ne vem, če veš
Le en centimeter - Marko Vozelj in Mojstri
MAJA ODERLAP - ZALJUBLJENE PESMI
MANCA ŠPIK - KJER POMOL POLJUBI MORJE
MANCA ŠPIK & ISAAC PALMA - OBA
MANCA ŠPIK & POSKOČNI - PRIJATELJ
Manca Špik in Kvatropirci - Pesem
MARK ZEBRA - FENOMENALNA
Marko Vozelj in Mojstri - Ljubezen ni samo navada
Marko Vozelj in Mojstri - Me boš še ljubila
Marko Vozelj in Mojstri - Oljke, Rožmarin in Sol
Marko Vozelj in Mojstri - Preprosto pašeš mi
Marko Vozelj in Mojstri - Prevečkrat
Marko Vozelj in Mojstri - Prevečkrat
Modrijani & Isaac Palma - Hočem le tebe
NEISHA - Vrhovi
NIKA ZORJAN - ZA VEDNO (Za skaus)
Nina Pušlar - Za naju
Nina Pušlar & Matjaž Robavs - Mimogrede
Nina Pušlar feat. Jan Plestenjak - Tebe imam
Nočna Pravila - Ti
ODGOVOR ŽE POZNAŠ - Tjaša Hrovat in Uroš Steklasa
Peter Lovšin-Sam en majhen poljub
POP DESIGN - Ne joči (da srce ne poči)
POP DESIGN - Nisem ti verjel
Pop design - Vzela si moje srce
Pustil Ti Bom Sanje-Jan Plestenjak
Rebeka Dremelj - Še verjamem
Siddharta - Lej Lej Lej
Skupina TEQUILA - DEJA VU
Skupina ZAKA' PA NE - ATMOSFERA
Šank Rock - Dvigni pogled
Šank Rock-Pravljica o mavričnih ljudeh
TABU Pesek in dotik
Vili Resnik - Diham zate
vitvox - Malo Nad Oblaki
Vlado Kreslin - Z Goričkega v Piran


Gugu

Klikni za povečavo!
14-03-2021 20:35 naložil BlackDevil
Sejalci: 2 / Odjemalci: 0 / Velikost: 60.82 MB / Dokončani: 11
Prenesi torrent Poročaj torrent Opis torrenta
Kategorija: GLASBA > Glasba

Gu-Gu: Gu-Gu play for you / Mango banana (2 albuma)

GUGU - Dnevi Ki Prihajajo
Gugu - Ljubica Mojga Srca
GUGU - Ljubil Bi Se, Ljubil S Teboj
GuGu - Mango banana
GUGU - Mi Imamo Se Fajn
GUGU - Moj Mali Kakadu
Gugu - Moja Mala Lucija
GUGU - Ona ni za me
GuGu - Sam po parku
GUGU & BASTINO - Zelim si na Jamajko rmx
Gugu - Bugalu
Gugu - Honolulu baby
Gugu - Papagaja
Gugu - Riba smrdi pri glavi
Gugu - So najlepše pesmi že napisane
Gugu - Žabe



Ansambel Franca Potočarja.izbor.MP3.MP4.R77

Klikni za povečavo!
01-03-2021 10:54 naložil System
Sejalci: 1 / Odjemalci: 0 / Velikost: 409.93 MB / Dokončani: 7
Prenesi torrent Poročaj torrent Opis torrenta
Zvrst: Glasbeni
Kategorija: GLASBA > Video
Anonimen nalagalec

Ansambel Franca Potočarja.izbor.MP3.MP4.R77

Ansambla Franca Potočarja
Želja uporabnika: silvoa
Komponist in dolgoletni vodja Ansambla Franca Potočarja.

Njegova glasbena pot se je začela leta 1960, ko je navdušen oprtal očetovo harmoniko. Vredno je omeniti, da je bil Francev oče, prav tako Franc Potočar, znan dolenjski ohcetni godec in hkrati velik vzornik Lojzetu Slaku.
Čas izvajanja: 1 h 34 min 45 s



Tehnične specifikacije:
MP3:
Audio
Format : MPEG Audio / MP3
Format version : Version 1
Format profile : Layer 3
Format settings : Joint stereo
Bit rate mode : Constant
Bit rate : 160 kb/s
Channel(s) : 2 channels
Sampling rate : 44.1 kHz
Frame rate : 38.281 FPS (1152 SPF)
Compression mode : Lossy
Stream size : Audio
omplete name : Ansambel Franca Potočarja.izbor.MP3.MP4.R77
Format : MPEG-4
Format profile : Base Media / Version 2
Codec ID : mp42 (isom/mp42)
File size : 90.2 MiB
Duration : 1 h 34 min 45 s
Overall bit rate mode : Variable
Overall bit rate : 218 kb/s
Encoded date : UTC 2018-11-12 18:35:33
Tagged date : UTC 2018-11-12 18:35:33
Video
ID : 1
Format : AVC
Format/Info : Advanced Video Codec
Format profile : Baseline@L1.3
Format settings : 1 Ref Frames
Format settings, CABAC : No
Format settings, Reference frames : 1 frame
Format settings, GOP : M=1, N=60
Codec ID : avc1
Codec ID/Info : Advanced Video Coding
Duration : 57 min 45 s
Duration_LastFrame : -1 ms
Bit rate : 120 kb/s
Width : 342 pixels
Height : 224 pixels
Display aspect ratio : 3:2
Frame rate mode : Constant
Frame rate : 29.818 FPS
Color space : YUV
Chroma subsampling : 4:2:0
Bit depth : 8 bits
Scan type : Progressive
Bits/(Pixel*Frame) : 0.052
Stream size : 49.5 MiB (55%)
Title : ISO Media file produced by Google Inc. Created on: 11/12/2018.
Encoded date : UTC 2018-11-12 18:35:33
Tagged date : UTC 2018-11-12 18:35:33
Codec configuration box : avcC
Audio
ID : 2
Format : AAC LC
Format/Info : Advanced Audio Codec Low Complexity
Codec ID : mp4a-40-2
Duration : 1 h 34 min 45 s
Bit rate mode : Variable
Bit rate : 96.0 kb/s
Channel(s) : 2 channels
Channel layout : L R
Sampling rate : 44.1 kHz
Frame rate : 43.066 FPS (1024 SPF)
Compression mode : Lossy
Stream size : 39.7 MiB (44%)
Title : ISO Media file produced by Google Inc. Created on: 11/12/2018.
Encoded date : UTC 2018-11-12 18:35:33
Tagged date : UTC 2018-11-12 18:35:33
Uživajte!
SLOVENSKI.ZAKLAD.NARODNO.ZABAVNE.GLASBE.izbor.2.del..720p.TVRip-R77

Klikni za povečavo!
25-02-2021 16:34 naložil rado77
Sejalci: 1 / Odjemalci: 0 / Velikost: 1.51 GB / Dokončani: 8
Prenesi torrent Poročaj torrent Opis torrenta
Zvrst: Glasbeni
Kategorija: GLASBA > Video

SLOVENSKI.ZAKLAD.NARODNO.ZABAVNE.GLASBE.izbor.2.del..720p.TVRip-R77


SLOVENSKI ZAKLAD
NARODNOZABAVNE GLASBE

izbor 2.del


Narodno-zabavna glasba je pomemben segment popularne glasbe v slovenskem in širšem
alpskem prostoru in s tem tudi del popularne kulture, ki preko medijev vpliva na percepcijo
samoprepoznavnosti in identitete nekega, v tem primeru slovenskega naroda.
Vir: Torkar Klemen -diplomska

Narodnozabavna glasba (avtor imena: Janez Bitenc) je glasbena zvrst, za katero so značilne ljudsko (etnično) obarvane pesmi. Razširjena je predvsem v Sloveniji, Avstriji, Švici in Nemčiji, pa tudi na Češkem ter v Italiji (južna Tirolska). Na Slovenskem je znana in razširjena še najbolj po zaslugi številnih narodnozabavnih ansamblov. Tovrstna glasba je pogosto prisotna na veselicah, porokah, njej pa je posvečenih tudi kar nekaj festivalov in tekmovanj. Nekateri ji slabšalno pravijo goveja muska ali kar govedna, to pa zato, ker naj bi ta glasba, kakor meni poznavalec Ivan Sivec, verjetno sodila zraven nedeljske goveje juhe. S to glasbo je tesno povezan tudi njen najznačilnejši instrument, to je diatonična harmonika (pogovorno frajtonerica), ki je v našem prostoru dobro zastopana na račun okoli 65 izdelovalcev.


Izvajalci:
1.Ans. Franca Miheliča - Danes mi praznujemo 1984.mp4
2.Fantje s vseh vetrov - Na zdravje muzikant 1987.mp4
3.Ansambel Henček - Polka, valček, rock & roll.mp4
4.Avsenik - Za kratek čas.mp4
5.Slovenski muzikanti_Oberkrainer Sextett & Regenbogen.mp4
6.Veseli Hribovci - polka.mp4
7.Ansambel bratov Avsenik - Čez zelene trate.mp4
8.Ansambel Lojzeta Slaka - Deželica sonca in grozdja.mp4
9.Ansambel Vilija Petriča - Dolina Drave.mp4
10.Ansambel bratov Avsenik - Po klančku gor po klančku dol.mp4
11.Ans. Lojzeta Slaka - Med brajdami.mp4
12.Veseli planšarji - Na saneh.mp4
13.Štirje Kovači - Mala solzica.mp4
14.Ansambel Lojzeta Slaka - Krka sanjava.mp4
15.Avsenik - Slalom polka.mp4
16.Ansambel Vilija Petriča - Še en liter.mp4
17.Trio Lojze Slak - Znana polka.mp4
18.Beneški fantje - Oj božime.mp4
19.Ansambel Lojzeta Slaka - Na ohceti.mp4
20.Štirje Kovači - Danes je nedelja.mp4
21.Ansambel Lojzeta Slaka - Med cvetlicami po logu.mp4
22.Veseli Planšarji - Tiha je Loka.mp4
23.Beneški fantje - Kdor je dobre volje.mp4
24.Ansambel Vilija Petriča - Na šank.mp4
25.Ansambel Lojzeta Slaka - Pri dobri kapljici.mp4
26.Štirje Kovači - Na paure.mp4
28.Ansambel Vilija Petriča - Vem zakaj1994.mp4
29.Avsenik v Postojnski jami.mp4
30.Slovenski intrumentalni kvintet, Danica FIlipič Vsak dan pa bajta stoji.mp4
31.ANSAMBEL MIHE DOVŽANA - SRNE.mp4
32.Ans. Rudija Bardorferja - Starka ZimaZimska.mp4
33.Ansambel bratov Avsenik - Veselje klarinetov (1967).mp4
34.Ansambel Janeza Kalška - Moj fantič je prijezdil.mp4
35.Ansambel bratov Avsenik - Srečno pot (1967).mp4
36.Ansambel Slavka in Vilka Avsenika 1967, Avsenik Oberkrainer 1967, Avseniki.mp4
37.Franc Delčnjak - čreda v galopu.mp4
38.Ansambel bratov Avsenik - Igrajoči klarineti (1967).mp4
39.Ansambel bratov Avsenik - Jesenska (1967).mp4
40.Fantje treh dolin - Mladost na vasi.mp4
41.Ansambel bratov Avsenik - Veseli svatjeLustige Hochzeit (1967).mp4
42.Avsenik - Horoskop.mp4
43.Fantje treh dolin - Na Naravskih ledinah.mp4
44.MIHA DOVZAN Muhasta plavolaska TVL 30 10 1966.mp4
45.Ansambel Toneta Kmetca - Je leto naokoli.mp4
46.Fantje treh dolin - Na steleraji.mp4
47.Ansambel bratov Avsenik - Pod Grintovcem (1967).mp4
48.Ansambel Mihe Dovžana - Ne joči dekle ob slovesu.mp4
49.Ansambel Ludvika Lesjaka - Pozdrav s Katarine.mp4
50.Fantje treh dolin - Na rosnih tratah.mp4
51.Slovenski instrumentalni kvintet - Na Gorenjskem je fletno.mp4
52.Ansambel bratov Avsenik - Viničarska.mp4
53.Rafko Irgolic & Stanka Kovacic - Dober dan, sonce.mp4
54.Vokalni kvintet Gorenjci in Miha Dovžan - Moravška dolina.mp4
55.Slavko Avsenik - Z Bohinja.mp4
56.Slovenski inštr kvintet - Moje dekle.mp4
57.Slavko Avsenik - Lisička in Marička SV.mp4
58.Slavko Avsenik - Iz Bohinja SV.mp4
59.Slavko Avsenik - V postojnski jami.mp4
60.MIHA DOVZAN Ujemi me 1969.mp4
61.Ansambel bratov Avsenik - Ja, ja, k' je luštno (1967).mp4
62.Slavko Avsenik - Vlak drvi.mp4
63.Ansambel bratov Avsenik - Proti jutru(1967).mp4
64.Ansambel bratov Avsenik - Lepe ste ve Karavanke (1967).mp4
65.Ansambel bratov Avsenik - Otoček sredi jezera (1967).mp4
66.Ansambel bratov Avsenik - Pastirček (1967).mp4
67.Avsenik - Die Lustigen Oberkrainer Musikanten - Sirenen Polka 1960.mp4
68.Z Avseniki v novo leto - Prav fletno se imamo- 1986 (Cro subtitles).mp4
69.Z Avseniki v novo leto - Na Golici-1986 (Cro subtitles).mp4
70.Ansambel bratov Avsenik - Proti jutru-Sirenen Polka (1967).mp4


Tehnične specifikacije:

Complete name : SLOVENSKI ZAKLAD NARODNOZABAVNE GLASBE-izbor 2.del
Format : MPEG-4
Format profile : Base Media
Codec ID : isom (isom/iso2/avc1/mp41)
File size : 1.51 GiB
Duration : 3 h 25 min
Overall bit rate : 1 055 kb/s

Video
ID : 1
Format : AVC
Format/Info : Advanced Video Codec
Format profile : Main@L3.1
Format settings : CABAC / 1 Ref Frames
Format settings, CABAC : Yes
Format settings, Reference frames : 1 frame
Codec ID : avc1
Codec ID/Info : Advanced Video Coding
Duration : 3 h 25 min
Source duration : 3 h 25 min
Bit rate : 860 kb/s
Width : 500 pixels
Height : 500 pixels
Display aspect ratio : 1.000
Frame rate mode : Variable
Frame rate : 26.820 FPS
Minimum frame rate : 10.000 FPS
Maximum frame rate : 45.534 FPS
Color space : YUV
Chroma subsampling : 4:2:0
Bit depth : 8 bits
Scan type : Progressive
Bits/(Pixel*Frame) : 0.128
Stream size : 1.23 GiB (82%)
Source stream size : 1.23 GiB (82%)
Codec configuration box : avcC

Audio
ID : 2
Format : AAC LC
Format/Info : Advanced Audio Codec Low Complexity
Codec ID : mp4a-40-2
Duration : 3 h 25 min
Bit rate mode : Constant
Bit rate : 192 kb/s
Channel(s) : 2 channels
Channel layout : L R
Sampling rate : 44.1 kHz
Frame rate : 43.066 FPS (1024 SPF)
Compression mode : Lossy
Stream size : 281 MiB (18%)
Default : Yes
Alternate group : 1

Veliko užitkov!
ABBA_Live.At.Wembley.Arena.720p.HDTVRip-R77

Klikni za povečavo!
24-02-2021 15:18 naložil rado77
Sejalci: 1 / Odjemalci: 0 / Velikost: 2.28 GB / Dokončani: 8
Prenesi torrent Poročaj torrent Opis torrenta
Zvrst: Glasbeni
Kategorija: GLASBA > Video

ABBA_Live.At.Wembley.Arena.720p.HDTVRip-R77


ABBA Live At Wembley Arena


"V živo na areni Wembley"
Kako je skupina ABBA z nastopom v živo presegla vsa pričakovanja


Če pogledamo nazaj, se zdi, da je za sedež na enem od šestih londonskih koncertov ABBA, na njihovi turneji leta 1979, popolna zlata vvstopnica. Tudi takrat je bilo povpraševanje več kot preseženo, vendar nihče ne bi mogel uganiti, da bo to zadnja priložnost oboževalcev, da švedsko superskupino ujamejo v živo v Veliki Britaniji. Za tiste, ki so ga zamudili, album Live At Wembley Arena , ki je bil prvotno izdan v Evropi 29. septembra 2014, ponuja vse dokaze, ki jih potrebujete za dokaz, da je ABBA v svojih najboljših letih na zalost vseh praktično izginila iz javnosti!
Znameniti švedski pop kvartet perfekcionistov je bil vedno raje v snemalnem studiu, da pričara njihov slavni zvok, in z nastopi v živo ni bil nikoli povsem zadovoljen. ABBA pa je popustila s to izdajo albuma v živo, ki prihaja 35 let po začetku druge, zadnje svetovne turneje, ki zajema Severno Ameriko, Evropo in Japonsko.
Nekaj posnetkov je bilo predvajanih že v prejšnjih zbirkah video-spotov. Verjemite vse kar sem vam naložil do sedaj je bil le uvod v spektakelj, ki je pred vami!
Prepričan sem , da si ga boste ogledali večkrat!
Datum koncerta: 10. novembra 1979

Tehnične specifikacije:

Complete name : ABBA_Live At Wembley Arena_R77
Format : MPEG-4
Format profile : Base Media
Codec ID : isom (mp41)
File size : 2.28 GiB
Duration : 1 h 18 min
Overall bit rate mode : Variable
Overall bit rate : 4 161 kb/s
Encoded date : UTC 2014-08-28 04:15:00
Tagged date : UTC 2014-08-28 04:15:00
Video
ID : 2
Format : AVC
Format/Info : Advanced Video Codec
Format profile : Baseline@L3.1
Format settings : 1 Ref Frames
Format settings, CABAC : No
Format settings, Reference frames : 1 frame
Format settings, GOP : M=1, N=29
Muxing mode : Container profile=Baseline@3.0
Codec ID : avc1
Codec ID/Info : Advanced Video Coding
Duration : 1 h 18 min
Bit rate mode : Variable
Bit rate : 4 004 kb/s
Maximum bit rate : 4 800 kb/s
Width : 1 280 pixels
Height : 720 pixels
Display aspect ratio : 16:9
Frame rate mode : Constant
Frame rate : 29.970 (30000/1001) FPS
Color space : YUV
Chroma subsampling : 4:2:0
Bit depth : 8 bits
Scan type : Progressive
Bits/(Pixel*Frame) : 0.145
Stream size : 2.19 GiB (96%)
Language : English
Codec configuration box : avcC
Audio
ID : 1
Format : AAC LC
Format/Info : Advanced Audio Codec Low Complexity
Codec ID : mp4a-40-2
Duration : 1 h 18 min
Bit rate mode : Constant
Bit rate : 152 kb/s
Channel(s) : 2 channels
Channel layout : L R
Sampling rate : 44.1 kHz
Frame rate : 43.066 FPS (1024 SPF)
Compression mode : Lossy
Stream size : 85.1 MiB (4%)
Language : English


UŽIVAJTE !
Đorđe Balašević - The best of (1998) MP3

Klikni za povečavo!
21-02-2021 11:51 naložil System
Sejalci: 1 / Odjemalci: 0 / Velikost: 267.23 MB / Dokončani: 22
Prenesi torrent Poročaj torrent Opis torrenta NFO
Zvrst: Glasbeni
Kategorija: GLASBA > Glasba
Anonimen nalagalec

---------------------------------------------------------------------
Đorđe Balašević - The Best Of
---------------------------------------------------------------------
Artist...............: Đorđe Balašević
Album................: The Best Of
Genre................: Pop
Source...............: CD
Year.................: 1998
Ripper...............: EAC (Secure mode) / LAME 3.92 & Asus CD-S520
Codec................: LAME 3.99
Version..............: MPEG 1 Layer III
Quality..............: Insane, (avg. bitrate: 320kbps)
Channels.............: Joint Stereo / 44100 hz
T
News Server..........: news.astraweb.com
News Group(s)........: alt.binaries.pl.mp3
Included.............: NFO
---------------------------------------------------------------------
Tracklisting
---------------------------------------------------------------------
1. Đorđe Balašević - Sve Je Otišlo U Honduras [03:50]
2. Đorđe Balašević - Ne Volim Januar [04:05]
3. Đorđe Balašević - Jednom Su Sadili Lipu [04:40]
4. Đorđe Balašević - Čekajući Montenegro Express [03:33]
5. Đorđe Balašević - Nemam Ništa S Tim [05:32]
6. Đorđe Balašević - Još Jedna Pesma O Maloj Garavoj [03:13]
7. Đorđe Balašević - Remorker [03:48]
8. Đorđe Balašević - Slow Motion [05:51]
9. Đorđe Balašević - Saputnik [04:50]
10. Đorđe Balašević - Kad Odem... [05:53]
11. Đorđe Balašević - Devojka Sa ''čardaš'' Nogama [03:21]
12. Đorđe Balašević - Ćaletova Pesma [04:47]
13. Đorđe Balašević - Bezdan [04:26]
14. Đorđe Balašević - Ne Lomite Mi Bagrenje [05:33]
15. Đorđe Balašević - Starim [06:07]
Playing Time.........: 01:09:35
Total Size...........: 164,21 MB
ABBA.Music.Videos.Collection.720p.TVRip.R77

Klikni za povečavo!
15-02-2021 12:22 naložil rado77
Sejalci: 0 / Odjemalci: 1 / Velikost: 2.67 GB / Dokončani: 4
Prenesi torrent Poročaj torrent Opis torrenta
Zvrst: Glasbeni
Kategorija: GLASBA > Video

ABBA.Music.Videos.Collection.720p.TVRip.R77


ABBA Music Videos Collection


ABBA video collection.mp4"
Video-spoti: 2h 15min


ABBA - The Day Before You Came 1981.mp4"
ABBA - Chiquitita 1979.mp4"
ABBA - The Name Of The Game 1977.mp4"
ABBA - The Winner Takes It All 1980.mp4"
ABBA - Estoy Sonando (I Have A Dream) 1979.mp4"
ABBA - One Man, One Woman 1977.mp4"
ABBA - Happy New Year 1980.mp4"
ABBA - Felicidad (Happy New Year) 1980.mp4"
ABBA - Fernando 1976.mp4"
ABBA - On And On And On 1980.mp4"
ABBA - Voulez-Vous 1979.mp4"
ABBA - Super Trooper 1980.mp4"
ABBA - Knowing Me, Knowing You 1976.mp4"
ABBA - Take A Chance On Me 1977.mp4"
ABBA - Dancing Queen 1976.mp4"
ABBA - One Of Us 1981.mp4"
ABBA - Eagle 1977.mp4"
ABBA - Under Attack 1982.mp4"
ABBA - Thank You For The Music 1977.mp4"
ABBA - Dancing Queen (Live At The Swedish Royal Opera) 1976.mp4"
ABBA - Head Over Heels 1981.mp4"
ABBA - Summer Night City 1978.mp4"
ABBA - Mamma Mia 1975.mp4"
ABBA - Gimme Gimmie Gimmie (A Man After Midnight) 1979.mp4"
ABBA - No Hay A Quien Culpar (When All Is Said And Done) 1981.mp4"
ABBA - I Do I Do I Do I Do I Do 1975.mp4"
ABBA - SOS 1975.mp4"
ABBA - When All Is Said And Done 1981.mp4"
ABBA - That-s Me 1977.mp4"
ABBA - Money, Money, Money 1976.mp4"
ABBA - Does Your Mother Know 1979.mp4"
ABBA - Ring Ring 1973.mp4"
ABBA - Bang-A-Boomerang 1974.mp4"
ABBA - When I Kissed the Teacher 1976.mp4"
ABBA - Waterloo 1974.mp4"

DODATEK:
ABBA - Video Picture Gallery.mp4"
Video-spoti s slikami: 21 min

DODATEK:
ABBA. Daba Du.Documentary.avi"
Dokumentarni film o skupini


O skupini ABBA:
ABBA je bila švedska pop skupina, ustanovljena v Stockholmu leta 1972, v kateri so bili Agnetha Fältskog, Björn Ulvaeus, Benny Andersson in Anni-Frid Lyngstad. ABBA je kratica prvih črk imen članov skupine in je včasih stilizirana kot registrirana blagovna znamka ABBA. Skupina je postala eno komercialno najuspešnejših zasedb v zgodovini popularne glasbe, ki je bila od leta 1975 do 1982. na lestvici po vsem svetu. Zmagala je tudi na Evroviziji 1974, s čimer je Švedska prvič zmagala v zgodovini tekmovanja in postala najbolj uspešna skupina, ki se je kdaj udeležila tekmovanja.


Tehnične specifikacije:
Complete name : ABBA video collection
Format : MPEG-4
Format profile : Base Media
Codec ID : isom (isom/iso2/avc1/mp41)
File size : 1.62 GiB
Duration : 2 h 15 min
Overall bit rate : 1 708 kb/s

Video
ID : 1
Format : AVC
Format/Info : Advanced Video Codec
Format profile : Main@L3.1
Format settings : CABAC / 1 Ref Frames
Format settings, CABAC : Yes
Format settings, Reference frames : 1 frame
Codec ID : avc1
Codec ID/Info : Advanced Video Coding
Duration : 2 h 15 min
Bit rate : 1 511 kb/s
Width : 768 pixels
Height : 576 pixels
Display aspect ratio : 4:3
Frame rate mode : Variable
Frame rate : 25.000 FPS
Minimum frame rate : 10.000 FPS
Maximum frame rate : 25.000 FPS
Color space : YUV
Chroma subsampling : 4:2:0
Bit depth : 8 bits
Scan type : Progressive
Bits/(Pixel*Frame) : 0.137
Stream size : 1.43 GiB (88%)
Codec configuration box : avcC

Audio
ID : 2
Format : AAC LC
Format/Info : Advanced Audio Codec Low Complexity
Codec ID : mp4a-40-2
Duration : 2 h 15 min
Bit rate mode : Constant
Bit rate : 192 kb/s
Channel(s) : 2 channels
Channel layout : L R
Sampling rate : 48.0 kHz
Frame rate : 46.875 FPS (1024 SPF)
Compression mode : Lossy
Stream size : 190 MiB (11%)
Default : Yes
Alternate group : 1

SE NADALJUJE!

Veliko užitkov!
Mia Borisavljević - Jedna ja (2019) MP3

Klikni za povečavo!
14-02-2021 08:43 naložil System
Sejalci: 1 / Odjemalci: 0 / Velikost: 71.17 MB / Dokončani: 10
Prenesi torrent Poročaj torrent Opis torrenta NFO
Zvrst: Glasbeni
Kategorija: GLASBA > Glasba
Anonimen nalagalec

---------------------------------------------------------------------
Mia Borisavljević - Jedna Ja
------------------------------------------------------------------
Artist...............: Mia Borisavljević
Album................: Jedna Ja
Genre................: Pop
Source...............: CD
Year.................: 2019
Ripper...............: EAC (Secure mode) / LAME 3.92 & Asus CD-S520
Codec................: LAME 3.98
Version..............: MPEG 1 Layer III
Quality..............: Insane, (avg. bitrate: 320kbps)
Channels.............: Stereo / 44100 hz
News Server..........: news.astraweb.com
News Group(s)........: alt.binaries.pl.mp3
Included.............: NFO
---------------------------------------------------------------------
Tracklisting
---------------------------------------------------------------------
1. Mia Borisavljević - Pričaju Po Gradu [03:11]
2. Mia Borisavljević - Skandal [03:14]
3. Mia Borisavljević - Ave Cezare [03:02]
4. Mia Borisavljević - Dođi Juče [02:54]
5. Mia Borisavljević - Campari [02:56]
6. Mia Borisavljević - Zaljubljiva [02:59]
7. Mia Borisavljević - Nije Ljubav Luda [03:35]
8. Mia Borisavljević - Beograd Noću [02:55]
9. Mia Borisavljević - Jedna Ja [03:20]
Playing Time.........: 28:10
Total Size...........: 70,82 MB