A
B
C
D
E
F
G
H
I
J
K
L
M
N
O
P
Q
R
S
T
U
V
W
X
Y
Z
0-9
Bon.voyage.2003.SLOSub.bdrip.x264-R77

Klikni za povečavo!
Danes ob 12:19 naložil System
Sejalci: 1 / Odjemalci: 0 / Velikost: 700.04 MB / Dokončani: 0
Prenesi torrent Poročaj torrent Opis torrenta
Kategorija: FILMI >  BRRip
Anonimen nalagalec

Bon.voyage.2003.SLOSub.bdrip.x264-R77
Bon Voyage 2003
LEPO POTOVANJE
Režija: Jean-Paul Rappeneau
Scenarij: Jean-Paul Rappeneau , Patrick Modiano
Igrajo: Isabelle Adjani, Gérard Depardieu, Virginie Ledoyen
Zgodba:
Na začetku druge svetovne vojne usoda svobodnega sveta visi na koncu v luksuznem hotelu Splendide v Bordeauxu. Člani kabineta, novinarji, fiziki in vohuni vseh prepričanj se zberejo, da bi se izognili nacistični okupaciji Pariza. Družbeniki visoke družbe se družijo z zaporniki. Ubijajo spletke, znanstvene skrivnosti in ljubezenske zadeve.
Viviane, slavna igralka stori umor, in njen prijatelj Frédéric Auger, pisatelj, je obsojen. S prijateljem bi pobegnil iz zapora, ko bo nacistična vojska prišla v Pariz. .. Pobegnili bodo do Bordeauxa in spoznali Jean-Etiennea Beauforta, francoskega ministra, ki ga je igral Depardieun in je zaljubljen v igralko. Prav tako bodo morali pomagati Camille (Ledoyen) pri pošiljanju pomembnih del v Anglijo.
Žanri: Komedija, Drama, Skrivnost, Romantični, Triler, Vojna


Podrobnosti:
Država: Francija
Jezik: Francoščina | Nemščina | Angleščina | Italijansko
Datum izdaje:27. maj 2004
Podnapisi: Slovenščina

Tehnične specifikacije:
Izvajanje: 114 min
Zvočna mešanica: DTS | Dolby Digital
Barva: Črno in belo | Barva
Razmerje: 2.35 : 1


VELIKO UŽITKOV!
Aleksi.2018.TVRip.x264-R77

Klikni za povečavo!
Danes ob 12:05 naložil System
Sejalci: 1 / Odjemalci: 0 / Velikost: 959.26 MB / Dokončani: 0
Prenesi torrent Poročaj torrent Opis torrenta
Kategorija: FILMI > TVRip
Anonimen nalagalec

Aleksi.2018.TVRip.x264-R77





Aleksi (2018)





REŽIJA: Barbara Vekarić

IGRAJO: Tihana Lazović, Goran Marković, Sebastian Cavazza, Nataša Janjić, Jason Mann, Aljoša Vučović, Neda Arnerić, Leon Lučev
ŽANR: Komedija, drama, romanca

SINOPSIS:

Lik o smešni in nemirni deklici pri dvajsetih letih, prisiljeni se preseliti k svoji prevladujoči družini.



Country : Croatia | Serbia | Serbia and Montenegro

Language : Croatian
Release Date : 14 July 2018 (Croatia)





Zgodba:



Aleksi je težavna 28-letnica, ki po končani fakulteti ni našla službe fotografa in se vrača domov živeti pod streho svojih staršev. Ker ima nekaj možnosti, da prepreči svoj dolgčas, Aleksi ignorira njene nujne naloge, tako da sledi svojim impulzom z različnimi moškimi: Christianom, ameriškim fotografom, s katerim se veže zaradi podobnih interesov; Goran, lokalni glasbenik, ki ga zaradi njegovih tradicionalnih vrednot ne prenese, a s katerim ima močno fizikalno kemijo; in Toni, starejši, bogatejši, očarljivi slovenski playboy, ki jo skuša zvabiti z ekstravagantnostjo jaht, zabav in dragih mamil.






Tehnične specifikacije:


Complete name : Aleksi.2018.TVRip.x264-R77

Format : Matroska
Format version : Version 4
File size : 977 MiB
Duration : 1 h 24 min
Overall bit rate mode : Variable
Overall bit rate : 1 625 kb/s
Encoded date : UTC 2019-03-29 05:48:19
Writing application : TMPGEnc Video Trolling Works 6 Version. 6.2.10.37
Writing library : TMPGEnc Video Trolling Works 6 Version. 6.2.10.37


Video

ID : 2
Format : AVC
Format/Info : Advanced Video Codec
Format profile : High@L3.1
Format settings : CABAC / 16 Ref Frames
Format settings, CABAC : Yes
Format settings, ReFrames : 16 frames
Codec ID : V_MPEG4/ISO/AVC
Duration : 1 h 24 min
Bit rate mode : Variable
Bit rate : 1 465 kb/s
Maximum bit rate : 4 000 kb/s
Width : 720 pixels
Height : 400 pixels
Display aspect ratio : 16:9
Frame rate mode : Constant
Frame rate : 50.000 FPS
Standard : PAL
Color space : YUV
Chroma subsampling : 4:2:0
Bit depth : 8 bits
Scan type : Progressive
Bits/(Pixel*Frame) : 0.102
Stream size : 881 MiB (90%)
Default : Yes
Forced : No
Color range : Limited
Color primaries : BT.709
Transfer characteristics : BT.709
Matrix coefficients : BT.709


Audio

ID : 1
Format : MPEG Audio
Format version : Version 1
Format profile : Layer 2
Codec ID : A_MPEG/L2
Codec ID/Hint : MP2
Duration : 1 h 24 min
Bit rate mode : Constant
Bit rate : 128 kb/s
Channel(s) : 2 channels
Sampling rate : 48.0 kHz
Compression mode : Lossy
Stream size : 76.9 MiB (8%)
Default : Yes
Forced : No





Uživajte!
Poljub.ob.borovem.jezeru.aka.Kiss.at.Pine.Lake.SLOSubs.720p.HDTVRip x264.R77

Klikni za povečavo!
Danes ob 11:39 naložil rado77
Sejalci: 1 / Odjemalci: 0 / Velikost: 939.69 MB / Dokončani: 0
Prenesi torrent Poročaj torrent Opis torrenta
Zvrst: Romantični
Kategorija: FILMI > HDRip

Poljub.ob.borovem.jezeru.aka.Kiss.at.Pine.Lake.SLOSubs.720p.HDTVRip x264.R77



Kiss at Pine Lake

Poljub ob borovem jezeru (2012)




O poljubu pri Pine Lakeu:


Petnajst let po poletni romantiki usoda prikliče dva zaljubljena zvezdnika. Zoe in Luke sta si prvi poljub skoraj delila ob jezeru Camp Pine, a sta ju prekinila in njuna najstniška romanca se je končala. Zdaj je Luke (Barry Watson) človekoljubni podjetnik, ki je pred kratkim zaradi sentimentalnih razlogov kupil stric's Camp Pine Lake, le da bi ugotovil, da bi lahko kamp zaprli zaradi kršitev varnostnih pravil. Zoe (Mia Kirshner) je glavna oseba iz podjetja, ki je novega lastnika kampa prepričalo, naj proda svojo zemljo.


Ko pride Zoe, z osuplostjo ugotovi, da je Luka novi lastnik. Zoe se vse spremeni, ko ugotovi, da Luke ne zanima dobiček, ampak želi, da ostane kamp odprt. Ko jo šef zapusti, se strinja, da bo prijateljstvo z Lukom izkoristila sebi v prid. Ali bosta zmogla premagati prevaro, da bi obudila svoj stari plamen in hkrati rešila umik iz otroštva?





Igrajo:

Mia Kirshner (VAMPIRJEV DNEVNIK, 24,
Barry Watson (7.NEBO,OCEANOVIH ENAJST )
Matty Finochio
Victoria Bidewell

Režija: Michael Scott

Država: Kanada
Jezik: angleščina
Podnapisi: slovenščina
Žanr: romantični





Tehnične specifikacije:



Complete name: Poljub.ob.borovem.jezeru.aka.Kiss.at.Pine.Lake.SLOSubs.720p.HDTVRip x264.R77

Format : MPEG-4
Format profile : Base Media
Codec ID : isom (isom/iso2/avc1/mp41)
File size : 940 MiB
Duration : 1 h 24 min
Overall bit rate : 1 546 kb/s
Writing application : Lavf58.29.100


Video

ID : 1
Format : AVC
Format/Info : Advanced Video Codec
Format profile : High@L3
Format settings : CABAC / 2 Ref Frames
Format settings, CABAC : Yes
Format settings, Reference frames : 2 frames
Codec ID : avc1
Codec ID/Info : Advanced Video Coding
Duration : 1 h 24 min
Bit rate : 1 412 kb/s
Width : 720 pixels
Height : 576 pixels
Display aspect ratio : 16:9
Frame rate mode : Constant
Frame rate : 25.000 FPS
Standard : PAL
Color space : YUV
Chroma subsampling : 4:2:0
Bit depth : 8 bits
Scan type : Progressive
Bits/(Pixel*Frame) : 0.136
Stream size : 858 MiB (91%)
Codec configuration box : avcC


Audio

ID : 2
Format : AAC LC
Format/Info : Advanced Audio Codec Low Complexity
Codec ID : mp4a-40-2
Duration : 1 h 24 min
Bit rate mode : Constant
Bit rate : 129 kb/s
Channel(s) : 2 channels
Channel layout : L R
Sampling rate : 44.1 kHz
Frame rate : 43.066 FPS (1024 SPF)
Compression mode : Lossy
Stream size : 78.3 MiB (8%)
Default : Yes
Alternate group : 1





UŽIVAJTE!
Deep.Impact.1998.MultiSub.PAL.DVDR

Klikni za povečavo!
17-01-2021 12:32 naložil System
Sejalci: 2 / Odjemalci: 0 / Velikost: 4.36 GB / Dokončani: 2
Prenesi torrent Poročaj torrent Opis torrenta
Kategorija: FILMI > DVD
Anonimen nalagalec

Deep Impact (1998)
Zadnji udarec (1998)



-------------

INFO:
-------------
Source..........: DVD
Format..........: 16:9
Standard........: PAL
Release Size....: 4,35 GB
iMDB Link.......: KLIK
iMDB Rating.....: 6,2/10 (164.177)
Genre...........: Action, Drama, Romance, Sci-Fi, Thriller
Country.........: USA
Language........: English/ Russian
Video...........: Untouched
Audio...........: AC3 5.1-ch Russian/ English
Subs............: Russian/ Croatian/ Slovenian/ Serbian
Extras..........: yes
Regija..........: Prosto
Runtime.........: 117 min
Čas predvajanja.: 01:56.10 h

-------------
IGRALCI:
-------------
Robert Duvall ... Spurgeon Tanner
Tea Leoni ... Jenny Lerner
Elijah Wood ... Leo Biederman
Vanessa Redgrave ... Robin Lerner
Morgan Freeman ... President Beck
Maximilian Schell ... Jason Lerner
James Cromwell ... Alan Rittenhouse
Ron Eldard ... Oren Monash
Jon Favreau ... Gus Partenza
Laura Innes ... Beth Stanley
Mary McCormack ... Andrea Baker
Richard Schiff ... Don Biederman
Leelee Sobieski ... Sarah Hotchner
Blair Underwood ... Mark Simon
Dougray Scott ... Eric Vennekor

-------------
OPIS:
-------------
Najstnik Leo Beiderman se pridruži šolskemu astrološkemu krožku v upanju,
da ga bo opazila lepa sošolka Sarah. Še najmanj pričakuje, da bo odkril
nekaj, kar bo pretreslo svet. Fotografija, ki jo posname z malim teleskopom,
prikazuje komet, za katerega znanstveniki zatrjujejo, da bo trčil z Zemljo.
Zdaj vsi upi človeštva ležijo v posebnem vesoljskem plovilu, ki naj bi
pristalo na kometu in ga uničilo, še preden bi prišlo do katastrofe. Toda
bolj ko se bliža usodni dan, bolj napeti so odzivi ljudi...



Gabriel's Inferno Part Three 2020 SrbSubs 720p WEBRip XviD AC3 Unknown

Klikni za povečavo!
13-01-2021 12:53 naložil Ziva
Sejalci: 2 / Odjemalci: 0 / Velikost: 2.59 GB / Dokončani: 2
Prenesi torrent Magnet Link Poročaj torrent Opis torrenta NFO
Zvrst: Romantični
Kategorija: FILMI > WEBRip-720



Gabriel's Inferno Part Three 2020 720p WEBRip XviD AC3 Unknown
Language(s): English
Size: 2.58 GB | Duration: 1hr 41mn | Container: AVI
Audio: AC-3 | 448 Kbps | 6 Channels
Video: XviD | 3177 Kbps | 1280 x 720
Genre: Romance


Melanie Zanetti, Giulio Berruti, Rhett Wellington


Someone dark returns from Julia's past with bad intentions. Gabriel has secrets he needs to share, but worries that he'll lose everything if he does. Will their relationship weather the test of secrets revealed?




Ema.2019.SLOSubs.BRRip.XviD-DrSi

Klikni za povečavo!
09-01-2021 12:22 naložil Ziva
Sejalci: 1 / Odjemalci: 0 / Velikost: 2.41 GB / Dokončani: 0
Prenesi torrent Poročaj torrent Opis torrenta NFO
Kategorija: FILMI >  BRRip



Naziv: Ema.2019.SLOSubs.BRRip.XviD-DrSi
Source: Ema.2019.720p.BluRay.DD5.1.x264-LoRD
Leto izida ........: 2019
Velikost ...........: 2,40 GB
Dolžina ............: 107 Minut
Video ...............: 2768 Kbps | 720x304 | 24 fps
Zvok .................: Dolby Digital AC3 5.1 @ 448 Kbps
Kodek.................: XviD
Zvrst………….: Drama | Glasbeni | Romantični
Država .............: Čile
Jezik ................: Španski
Podnapisi .........: Slovenski (RETAiL)
Prevedla: Andreja Kurent
Uredil: metalcamp
Tehnična obdelava: DVD Rippers Slovenija

IMDb Ocena ...: 6.8/10 (5,793 glasov)

Režija.........: Josh Duhamel
Scenarij.......: Josh Duhamel, Bob Schwartz


Mariana Di Girólamo ... Ema
Gael García Bernal ... Gastón
Santiago Cabrera ... Aníbal
Paola Giannini ... Raquel
Cristián Suárez ... Polo
Giannina Fruttero ... Sonia
Josefina Fiebelkorn ... Perla
Mariana Loyola ... Sara


Življenje mlade plesalke Eme in njenega moža Gastóna, koreografa, zajame kaos,
ko po neuspeli posvojitvi skleneta vrniti šestletnega sina. Medtem ko njen
zakon počasi razpada, se Ema poda na divjo odisejado, polno glasbe, plesa in
nebrzdanega seksa, odločena, da bo dobila nazaj, kar je izgubila.



Summerland 2020 SloSubs 1080p BRRip XviD AC3 Unknown

Klikni za povečavo!
07-01-2021 15:09 naložil Ziva
Sejalci: 1 / Odjemalci: 0 / Velikost: 3.79 GB / Dokončani: 1
Prenesi torrent Poročaj torrent Opis torrenta NFO
Zvrst: Drama | Romantični
Kategorija: FILMI >  BRRip



Summerland 2020 1080p BRRip XviD AC3 Unknown
Language(s): English
Size: 3.78 GB | Duration: 1hr 39mn | Container: AVI
Audio: AC-3 | 448 Kbps | 6 Channels
Video: XviD | 4997 Kbps | 1920 x 804
Genre: Drama | Romance


Stars: Gemma Arterton, Gugu Mbatha-Raw, Penelope Wilton


During World War II, an Englishwoman (Gemma Arterton) opens her heart to an evacuee after initially resolving to be rid of him in this moving journey of womanhood, love and friendship.






The Christmas Setup 2020 SrbSubs 720p WEB x264 BAE

Klikni za povečavo!
31-12-2020 11:34 naložil Ziva
Sejalci: 1 / Odjemalci: 0 / Velikost: 1.61 GB / Dokončani: 7
Prenesi torrent Magnet Link Poročaj torrent Opis torrenta NFO
Zvrst: Drama | Romantični
Kategorija: FILMI > WEBRip-720



The Christmas Setup 2020 720p WEB x264 BAE
Language(s): English
Size: 1.61 GB | Duration: 1hr 27mn | Container: MKV
Audio: AAC | 128 Kbps | 2 Channels
Video: AVC | 2497 Kbps | 1280 x 720
Genre: Drama | Romance


Ben Lewis, Blake Lee, Fran Drescher


As they enjoy the local holidays together, Hugo and Patrick's attraction to each other is undeniable but as Hugo receives word of a big promotion requiring a move to London, he must decide what is most important to him.





Private.Peacefull.2012.SRBSubs.DVDRip.Xvid.AC3-R77

Klikni za povečavo!
25-12-2020 14:42 naložil rado77
Sejalci: 2 / Odjemalci: 0 / Velikost: 1.39 GB / Dokončani: 6
Prenesi torrent Poročaj torrent Opis torrenta
Zvrst: Drama | Romantični | Vojni
Kategorija: FILMI > DVDRip

Private.Peacefull.2012.SRBSubs.DVDRip.Xvid.AC3-R77


Private Peaceful (2012)
Moj brat Charlie
RAZDELJENI Z LJUBEZNIJO - ZDRUŽENI Z VOJNO.


Zgodba:
Private Peaceful podrobno opisuje krhko življenje in ljubezen Tomma in Charlieja - dveh mladih bratov - in njune revne družine Devonshire od leta 1909 do leta 1916, ko izbruh vojne uniči njihovo idilo v državi. Oba se združita (ena mlajša) in za seboj pusti čudovito Molly, ki je ljubezen obeh njunih življenj. Mladi moški preživijo plinske napade, obstreljevanje, nemške čete in grozljivo smrt svojih bližnjih prijateljev. Toda ena stvar, ki ji ne morejo ubežati, je povzetek vojaške pravičnosti. Spisal Guy de Beaujeu
Žanri: Drama, Romanca, Vojna
Direktor: Pat O'Connor
Pisatelji: Michael Morpurgo (roman), Simon Reade (scenarij)
Igrajo: George MacKay , Hero Fiennes Tiffin , Jack O'Connell
Podrobnosti:
Država: Združeno kraljestvo
Jezik: angleščina
Datum izdaje:12. oktober 2012 (Združeno kraljestvo)
Poznan tudi kot: Zasebno mirno
Lokacije snemanja: Suffolk, Anglija, Združeno kraljestvo
Podnapisi: Srbski
Tehnične specifikacije:
Complete name : Private.Peacefull.2012.DVDRip.Xvid.AC3-R77\Private Peacefull 2012 DVDRip Xvid AC3-R77.avi
Format : AVI
Format/Info : Audio Video Interleave
File size : 1.39 GiB
Duration : 1 h 38 min
Overall bit rate : 2 030 kb/s
Video
ID : 0
Format : MPEG-4 Visual
Format profile : Advanced Simple@L5
Format settings : BVOP2 / QPel
Format settings, BVOP : 2
Format settings, QPel : Yes
Format settings, GMC : No warppoints
Format settings, Matrix : Default (H.263)
Codec ID : XVID
Codec ID/Hint : XviD
Duration : 1 h 38 min
Bit rate : 1 574 kb/s
Width : 720 pixels
Height : 384 pixels
Display aspect ratio : 1.85:1
Frame rate : 25.000 FPS
Color space : YUV
Chroma subsampling : 4:2:0
Bit depth : 8 bits
Scan type : Progressive
Compression mode : Lossy
Bits/(Pixel*Frame) : 0.228
Stream size : 1.08 GiB (78%)
Writing library : XviD 1.2.1 (UTC 2008-12-04)
Audio
ID : 1
Format : AC-3
Format/Info : Audio Coding 3
Commercial name : Dolby Digital
Codec ID : 2000
Duration : 1 h 38 min
Bit rate mode : Constant
Bit rate : 448 kb/s
Channel(s) : 6 channels
Channel layout : L R C LFE Ls Rs
Sampling rate : 48.0 kHz
Frame rate : 31.250 FPS (1536 SPF)
Compression mode : Lossy
Stream size : 315 MiB (22%)
Alignment : Aligned on interleaves
Interleave, duration : 64 ms (1.60 video frames)
Interleave, preload duration : 192 ms
Title : VTS_02_1 T81 3_2ch 448Kbps DELAY 0ms_new
Service kind : Complete Main
UŽIVAJTE!
Love.Actually.2003.exYu.Sub.PAL.DVDR

Klikni za povečavo!
25-12-2020 09:15 naložil System
Sejalci: 2 / Odjemalci: 0 / Velikost: 4.36 GB / Dokončani: 1
Prenesi torrent Poročaj torrent Opis torrenta
Kategorija: FILMI > DVD
Anonimen nalagalec

Love Actually (2003)
Pravzaprav ljubezen (2003)


-------------
INFO:
-------------
Source..........: DVD
Format..........: 16:9
Standard........: PAL
Release Size....: 4,35 GB
iMDB Link.......: KLIK
iMDB Rating.....: 7,6/10 (427.201)
Genre...........: Comedy, Drama, Romance
Country.........: UK/ USA/ France
Language........: English/ Portuguese/ French
Video...........: /
Audio...........: AC3 5.1-ch English
Subs............: Slo/ Cro/ Serb
Extras..........: yes
Regija..........: Prosto
Runtime.........: 130 min
Čas predvajanja.: 02:09.16 h

-------------
IGRALCI:
-------------
Bill Nighy ... Billy Mack
Gregor Fisher ... Joe
Rory MacGregor ... Engineer
Colin Firth ... Jamie
Sienna Guillory ... Jamie's Girlfriend
Liam Neeson ... Daniel
Emma Thompson ... Karen
Lulu Popplewell ... Daisy - Her Daughter
Kris Marshall ... Colin Frissell
Heike Makatsch ... Mia
Martin Freeman ... John
Joanna Page ... Just Judy
Chiwetel Ejiofor... Peter
Andrew Lincoln ... Mark
Keira Knightley ... Juliet

-------------
OPIS:
-------------
Življenja in ljubezni se pomešajo, združijo in dosegajo vrhunec na
božični večer - znova, znova in spet znova - z romantičnimi, zabavnimi
in grenkimi posledicami za vsakogar, ki ima srečo ali nesrečo, da ga
preganja ljubezenski urok.

Zvezdniška zasedba, izvrsten scenarij, malo cukra in malo grenkobe,
predvsem pa veliko britanskega humorja!




Serving.Sara.2002.CroSlo.Sub.PAL.DVDR-Churchill

Klikni za povečavo!
24-12-2020 12:13 naložil System
Sejalci: 1 / Odjemalci: 0 / Velikost: 4.35 GB / Dokončani: 3
Prenesi torrent Poročaj torrent Opis torrenta
Kategorija: FILMI > DVD
Anonimen nalagalec

Serving Sara (2002)
Poziv za Saro (2002)



-------------
INFO:
-------------
Source..........: DVD
Format..........: 16:9
Standard........: PAL
Release Size....: 4,35 GB
iMDB Link.......: KLIK
iMDB Rating.....: 5,4/10 (16.694)
Genre...........: Comedy, Romance
Country.........: Germany/ USA
Language........: English/ Spanish
Video...........: Untouched
Audio...........: AC3 5.1-ch English
Subs............: Cro/ Slo
Extras..........: yes
Regija..........: Prosto
Runtime.........: 96 min
Čas predvajanja.: 01:35.30 h

-------------
IGRALCI:
-------------
Matthew Perry ... Joe Tyler
Elizabeth Hurley ... Sara Moore
Vincent Pastore ... Tony
Bruce Campbell ... Gordon Moore
Cedric the Entertainer ... Ray Harris
Amy Adams ... Kate
Terry Crews ... Vernon
Jerry Stiller ... Milton the Cop
Marshall Bell ... Warren Cebron
Derek Southers ... Bouncer
Alan Ackles ... Man in Elevator
Robin McGee ... Jimmy the Elevator Operator
Brent Duncan ... Blackjack Dealer
Eli Jacques ... Woman at Blackjack Table
John Wayne Shafer ... Pit Boss

-------------
OPIS:
-------------
Vročevalec pravniških dokumentov, Joe Tyler se preživlja z izročevanjem
listin nepripravljenim žrtvam. Sara Moore je njegova naslednja tarča.
Ko jo Gordon, Sarin partner in goveji baron, odloži na aerodromu za polet
proti New Yorku, Sara misli, da je vse v najlepšem redu. Toda Gordon Sare
ni pustil samo na pločniku - pustil jo je tudi na cedilu. Natančneje, v
času ko Sara pristane, je Joe že dobil nalogo od svojega šefa Raya (Cedric
"The Entertainer), da izroči Sari papirje, s katerimi baron prekinja njuno
partnerstvo in jo pušča brez prebite pare.

Osupljena, zmedena in naenkrat prisiljena v življenje brez modnih kreatorjev
in dragih avtomobilov, Sara ne more verjeti svojim očem, ko prebere dokumente.
Toda kmalu njene misli postanejo kristalno čiste: če bi ji uspelo pridobiti
Joeja na svojo stran in bi namesto njej papirje najprej izročil Gordonu, bi
ona pridobila nazaj kontrolo nad njunim skupnim bogastvom in obdržala, kar si
je zaslužila. S samo nekaj urami na voljo, da obrne potek svojega življenja in
pošlje Gordona k vragu, Sara predlaga Joeju ponudbo, ki si ji ne more upreti:
če vroči Gordonu njene dokumente preden Sari vroči Gordonove, mu bo ona "vročila"
nič manj kot milijon dolarjev...


Wild Mountain Thyme 2020 SrbSubs 720p AMZN WEBRip XviD AC3 Unknown

Klikni za povečavo!
19-12-2020 11:23 naložil Ziva
Sejalci: 1 / Odjemalci: 0 / Velikost: 3.37 GB / Dokončani: 0
Prenesi torrent Magnet Link Poročaj torrent Opis torrenta NFO
Zvrst: Drama | Romantični
Kategorija: FILMI > WEBRip-720



Wild Mountain Thyme 2020 720p AMZN WEBRip XviD AC3 Unknown
Language(s): English
Size: 3.36 GB | Duration: 1hr 42mn | Container: AVI
Audio: AC-3 | 448 Kbps | 6 Channels
Video: XviD | 4231 Kbps | 1280 x 692
Genre: Drama | Romance


Emily Blunt, Jamie Dornan, Jon Hamm


Par zaljubljenih na Irskem se zaplete v družinski spor glede zemljišč.






A California Christmas 2020 CroSubs 720p WEBRip XviD AC3 Unknown

Klikni za povečavo!
17-12-2020 15:41 naložil Ziva
Sejalci: 2 / Odjemalci: 0 / Velikost: 2.76 GB / Dokončani: 9
Prenesi torrent Magnet Link Poročaj torrent Opis torrenta NFO
Kategorija: FILMI > WEBRip-720



A California Christmas 2020 720p WEBRip XviD AC3 Unknown
Language(s): English
Size: 2.75 GB | Duration: 1hr 47mn | Container: AVI
Audio: AC-3 | 448 Kbps | 6 Channels
Video: XviD | 3231 Kbps | 1280 x 720
Genre: Comedy | Drama | Romance


Lauren Swickard, Josh Swickard, Ali Afshar


With his carefree lifestyle on the line, a wealthy charmer poses as a ranch hand to get a hardworking farmer to sell her family's land before Christmas.



This Christmas 2007 SloSubs 720p BRRip XviD AC3 Unknown

Klikni za povečavo!
16-12-2020 15:00 naložil Ziva
Sejalci: 1 / Odjemalci: 0 / Velikost: 4.11 GB / Dokončani: 3
Prenesi torrent Poročaj torrent Opis torrenta NFO
Kategorija: FILMI >  BRRip



This Christmas 2007 720p BRRip XviD AC3 Unknown
Language(s): English
Size: 4.11 GB | Duration: 1hr 58mn | Container: AVI
Audio: AC-3 | 448 Kbps | 6 Channels
Video: XviD | 4495 Kbps | 1280 x 536
Genre: Comedy | Drama | Romance
Podnapisi : slovenski


Regina King, Columbus Short, Delroy Lindo


Božič je pred vrati in Ma'Dere Whitfield, skupaj s svojim skrivnim ljubimcem Joejem, ki ga skriva pred težavnim sinom Quentinom, letos na svojem domu pričakuje vso družino. Poleg Quentina, ki je saksofonist in trenutno na begu pred pobiralci stav, so tu še Lisa, ki ima težave v zakonu z ženskarjem Malcolmom, vojak Claude, ki je trenutno na dopustu in ga v hotelski sobi čaka presenečenje, manekenka Kelli in najmlajši član družine, Michael, ki sanja o pevski karieri. Vse kaže, da Whitfieldove čaka nepozabno božično praznovanje.




Agatha And The Curse Of Ishtar 2019 CroSubs 720p BRRip XviD AC3 Unknown

Klikni za povečavo!
09-12-2020 15:06 naložil Ziva
Sejalci: 4 / Odjemalci: 0 / Velikost: 2.86 GB / Dokončani: 8
Prenesi torrent Poročaj torrent Opis torrenta NFO
Kategorija: FILMI >  BRRip



Agatha And The Curse Of Ishtar 2019 720p BRRip XviD AC3 Unknown
Language(s): English
Size: 2.86 GB | Duration: 1hr 36mn | Container: AVI
Audio: AC-3 | 448 Kbps | 6 Channels santa
Video: XviD | 3792 Kbps | 1280 x 640
Genre: Crime | Mystery | Romance
Podnapisi: hrvaški


Lyndsey Marshal, Jonah Hauer-King, Bronagh Waugh


Avtorica Agatha Christie je med arheološkimi izkopavanji v Iraku odkrila vrsto umorov.




Ordinary.Love.2019.SLOSubs.BRRip.XviD-DrSi

Klikni za povečavo!
07-12-2020 10:56 naložil Ziva
Sejalci: 1 / Odjemalci: 0 / Velikost: 2.01 GB / Dokončani: 1
Prenesi torrent Poročaj torrent Opis torrenta NFO
Zvrst: Drama | Romantični
Kategorija: FILMI >  BRRip



Naziv: Ordinary.Love.2019.SLOSubs.BRRip.XviD-DrSi
Source: Ordinary.Love.2019.720p.BluRay.DD5.1.x264-iFT
Leto izida ........: 2019
Velikost ...........: 2,00 GB
Dolžina ............: 87 Minut
Video ...............: 2818 Kbps | 720x304 | 23,976 fps
Zvok .................: Dolby Digital AC3 5.1 @ 448 Kbps
Kodek.................: XviD
Zvrst………….: Drama | Romanca
Država .............: VB
Jezik ................: Angleški
Podnapisi .........: Slovenski (RETAiL)
Prevedla: Urška Jerneje
Priredil in uredil: metalcamp
Tehnična obdelava: DVD Rippers Slovenija

IMDb Ocena ...: 6.6/10 (2,595 glasov)

Režija.........: Lisa Barros D'Sa, Glenn Leyburn
Scenarij.......: Owen McCafferty


Lesley Manville ... Joan
Liam Neeson ... Tom
Esh Alladi ... GP
Melanie Clark Pullen ... Doctor
Matthew Sharpe ... Receptionist
Geraldine McAlinden ... Surgeon
David Wilmot ... Peter
Amit Shah ... Steve


V romantični drami nominiranca Liam Neeson in Lesley Manville zaigrata zakonski par
Toma in Joan, ki sta poročena vrsto let, njun vsakdan pa pretrese novica, da je žena
zbolela za rakom na dojki. Potek zdravljenja osvetli njun odnos, zakonca pa se soočata
z izzivi in možnostjo, kaj se lahko zgodi, če se Joan kaj zgodi.





Undine 2020 SrbSubs 720p BRRip XviD AC3 Unknown

Klikni za povečavo!
02-12-2020 17:35 naložil Ziva
Sejalci: 4 / Odjemalci: 0 / Velikost: 2.99 GB / Dokončani: 6
Prenesi torrent Poročaj torrent Opis torrenta NFO
Kategorija: FILMI >  BRRip



Undine 2020 720p BRRip XviD AC3 Unknown
Language(s): German santa
Size: 2.98 GB | Duration: 1hr 29mn | Container: AVI
Audio: AC-3 | 448 Kbps | 6 Channels
Video: XviD | 4319 Kbps | 1280 x 692
Genre: Drama | Fantasy | Romance
Podnapisi: srbski


Paula Beer, Franz Rogowski, Maryam Zaree


Undine works as a historian lecturing on Berlin's urban development. But when the man she loves leaves her, the ancient myth catches up with her. Undine has to kill the man who betrays her and return to the water.





Jexi.2019.SLOSubs.BRRip.XviD-DrSi

Klikni za povečavo!
28-11-2020 13:24 naložil Ziva
Sejalci: 3 / Odjemalci: 0 / Velikost: 1.9 GB / Dokončani: 5
Prenesi torrent Poročaj torrent Opis torrenta NFO
Kategorija: FILMI >  BRRip



Naziv: Jexi.2019.SLOSubs.BRRip.XviD-DrSi
Source: Jexi.2019.1080p.BluRay.DD+5.1.x264-DON
Leto izida ........: 2019
Velikost ...........: 1,90 GB
Dolžina ............: 84 Minut
Video ...............: 2770 Kbps | 720x304 | 23,976 fps
Zvok ................: Dolby Digital AC3 5.1 @ 448 kbps
Kodek...............: XviD
Zvrst………….: Komedija | Romantični
Država……….: ZDA | Kanada
Jezik ................: Angleški
Podnapisi ........: Slovenski (RETAiL)
Prevod: Miša Šavor
TVRip - Toyan
Priredil in uredil metalcamp
Tehnična obdelava: DVD Rippers Slovenija

Režija.........: Jon Lucas, Scott Moore
Scenarij.......: Jon Lucas, Scott Moore


Adam Devine ... Phil
Alexandra Shipp ... Cate
Rose Byrne ... Jexi (voice)
Ron Funches ... Craig
Charlyne Yi ... Elaine
Michael Peña ... Kai
Wanda Sykes ... Denice
Kid Cudi ... Kid Cudi
Justin Hartley ... Brody
Gavin Root ... Phil (10 Years)


Scenarist komedije Prekrokana noč in ekipa, ki stoji za komedijo Poredne mame
prinašajo novi komični hit Jexi.
Zgodba govori o Philu, ki ima resen problem odvisnosti – od svojega pametnega
telefona. Phil nima prijateljev in tudi dekleta ne, vendar pa se mu bo Facebook
status hitro spremenil, ko bo primoran svoj stari telefon zamenjati za novi model, ki ima nepričakovane „napredne” funkcije …
Jexi, nova digitalna pomočnica, zelo hitro postane njegov življenjski partner in
skrbi za vsa področja Philovega življenja … dobesedno VSA področja.



Can.You.Keep.a.Secret.2019.SLOSubs.BRRip.XviD-DrSi

Klikni za povečavo!
26-11-2020 11:30 naložil Ziva
Sejalci: 1 / Odjemalci: 0 / Velikost: 2.1 GB / Dokončani: 10
Prenesi torrent Poročaj torrent Opis torrenta NFO
Kategorija: FILMI >  BRRip



Naziv: Can.You.Keep.a.Secret.2019.SLOSubs.BRRip.XviD-DrSi
Source: Can.You.Keep.a.Secret.2019.1080p.BluRay.x264-WiSDOM
Leto izida ........: 2019
Velikost ...........: 2,10 GB
Dolžina ............: 94 Minut
Video ...............: 2731 Kbps | 720x384 | 24 fps
Zvok .................: Dolby Digital AC3 5.1 @ 448 Kbps
Kodek.................: XviD
Zvrst………….: Romantični | Komedija
Država .............: ZDA
Jezik ................: Angleški
Podnapisi .........: Slovenski (RETAiL)
Prevod: Blitz Film
TVRip: Toyan
Za HD priredil: metalcamp
Tehnična obdelava: DVD Rippers Slovenija

Režija.........: Elise Duran
Scenarij.......: Peter Hutchings, Sophie Kinsella (roman)


Alexandra Daddario ... Emma Corrigan
Sunita Mani ... Lissy
Tyler Hoechlin ... Jack Harper
Laverne Cox ... Cybill
Kimiko Glenn ... Gemma
Kate Easton ... Artemis
Judah Friedlander ... Mick
Sam Asghari ... Omar
Bobby Tisdale ... Doug
David Ebert ... Connor


Romantična komedija o dekletu, ki na letalu popolnemu tujcu zaupa vse svoje največje
skrivnosti, saj je prepričana, da ga ne bo nikoli več videla. Seveda je popolnoma
šokirana in presenečena, ko ga ponovno sreča v svoji novi službi in to v vlogi
svojega šefa.

Spoznajte Emmo Corrigan, mlado žensko z velikim srcem in nekaj majhnimi skrivnostmi.
Mami ni nikoli povedala, da je izgubila nedolžnost z Dannyem Nussbaumom med tem
ko sta ona in oče v spodnjem nadstropju gledala televizijo. Ali da Sammy, zlata
ribica, ni ista, kot tista, za katero je skrbela preden sta z očetom šla na potovanje
v Egipt. Connor, njen fant, ne ve koliko kil ima v resnici in ne ve, da ga Emma
obravnava kot Kena, tistega od Barbie. Potem so še tukaj prijatelji, ki ne vejo,
da jo živcirajo in nekaj skrivost, ki jih ne bi delila z nobenim na svetu.
Emma namreč ne mara tangic, ne ve kaj je NATO in niti za kaj se zavzema.
Toda vse se spremeni, ko na letalu sreča neznanca in mu zaupa vse te skrivnosti.
Za kaj pa ne? Saj ga tako ali tako ne bo nikoli več videla. Toda v ponedeljek,
ko se vrno v službo, Emma izve, da ima novega sodelavca – Jacka Harpera in Emma
Jacka pozna. Jack je tisti neznanec, ki mu je zaupala vse svoje skrivnosti.
Ali lahko dan postane še hujši? Seveda lahko.