All torrents are Free between 27-11-2022 - 08-01-2023
A
B
C
D
E
F
G
H
I
J
K
L
M
N
O
P
Q
R
S
T
U
V
W
X
Y
Z
0-9
DJ VIHAR & AJDA - SLO & HR MIX-i od 01. do 64 komplet

Klikni za povečavo!
10-11-2021 11:56 naložil Ajda
Sejalci: 2 / Odjemalci: 0 / Velikost: 12.43 GB / Dokončani: 51
Prenesi torrent Poročaj torrent Opis torrenta
Zvrst: Glasbeni
Kategorija: GLASBA > Glasba


*******************************************************************************
~ DJ VIHAR & DJ AJDA - SLO & HR MIX ZBIRKA ~
- od 01 do 64 -
*******************************************************************************

-------------------------------------------------------------------------------
Avdio podatki
-------------------------------------------------------------------------------
Complete name : DJ VIHAR & DJ AJDA - SLO & HR MIX zbirka.mp3
Format : MPEG Audio
File size : 12,4 GB
Overall bit rate mode : Constant
Overall bit rate : 320 Kbps
Encoded by : Lavf52.39.0
Writing library : LAME3.98

Audio
Format : MPEG Audio
Format version : Version 1
Format profile : Layer 3
Mode : Joint stereo
Bit rate mode : Constant
Bit rate : 320 Kbps
Channel(s) : 2 channels
Sampling rate : 48.0 KHz
Compression mode : Lossy
Writing library : LAME3.98
-------------------------------------------------------------------------------
Vsebina
-------------------------------------------------------------------------------
SLO&CRO MiX-i od 01 do 64

... na posebno željo uporabnika grobarji


Spirited 2022 SloSubs 720p WEB h264-TRUFFLE

Klikni za povečavo!
18-11-2022 12:12 naložil ViHaR
Sejalci: 1 / Odjemalci: 0 / Velikost: 3.18 GB / Dokončani: 5
Prenesi torrent Magnet Link Poročaj torrent Opis torrenta NFO
Kategorija: FILMI > WEBRip-720



Velikost ...........: 3.18 GB
Dolžina ............: 2h 07 Min
Video ...............: 2808 Kbps | 1482 x 620
Zvok .................: Dolby Digital Plus with Dolby Atmos | 768 Kbps | 6 Channels
Kodek...............: AVC
Zvrst………….....: Comedy | Family | Musical
Jezik ................: Angleški
Podnapisi.........: Slovenski


Will Ferrell ,
Ryan Reynolds ,
Octavia Spencer ,
Patrick Page ,
Sunita Mani


Glasbena različica zgodbe Charlesa Dickensa o skopuhu, ki ga popeljejo na čarobno potovanje.



Dečko koji obećava (1981)

Klikni za povečavo!
18-08-2022 09:18 naložil ExYuUploader
Sejalci: 0 / Odjemalci: 0 / Velikost: 944.2 MB / Dokončani: 1
Prenesi torrent Magnet Link Poročaj torrent Opis torrenta
Zvrst: Drama | Glasbeni | Komedija
Kategorija: FILMI > WEBRip-720

Dečko koji obećava (1981)



Slobodan zvani Boba pristojan je dečko iz (malo)građanske beogradske obitelji, studira medicinu, svira gitaru i ima djevojku Mašu. Slobodanov je život isplaniran, budućnost osigurana. Jednoga dana upozna turistkinju Švicarku s kojom provede ugodno vrijeme. Saznavši za Slobodanovo druženje s nepoznatom, Maša u napadu ljubomore opali Slobodana veslom po glavi te on izgubi svijest. Nakon udarca u glavu Slobodan se mijenja. Odlazi od kuće, spava u studentskom domu i po stanicama, više nije pristojan mladić već provokativan buntovnik sklon izazivanju nereda. Prodaje svoj žuti golf i kupuje motor, odlazi na tulume gdje se upozna sa svojim budućim bandom...


West.Side.Story.2021.SLOSubs.BRRip.x264-BlackDevil

Klikni za povečavo!
11-03-2022 06:33 naložil BlackDevil
Sejalci: 0 / Odjemalci: 0 / Velikost: 1.49 GB / Dokončani: 8
Prenesi torrent Poročaj torrent Opis torrenta
Kategorija: FILMI >  BRRip

WEST SIDE STORY (2021)

ZGODBA Z ZAHODNE STRANI

kriminalni muzikal



Naziv: West.Side.Story.2021.SLOSubs.BRRip.x264-BlackDevil
Source: West.Side.Story.2021.720p.BluRay.DD5.1.x264-playHD
Leto izida ........: 2021
Velikost ...........: 1,5 GB
Dolžina ............: 156 Minut
Video ...............: 1100 Kbps | 720x302 | 23,976 fps
Zvok .................: Advanced Audio Codec @ 256 Kbps
Kodek.................: XviD
Zvrst………….: Kriminalka | Drama | Muzikal | Romantični
Država .............: ZDA
Jezik ................: Angleški
Podnapisi .........:Slovenski


IMDb Ocena ...: 7.5/10 (42,425 glasov)
West.Side.Story.2021.2160p.BluRay.x265.10bit.SDR.DTS-HD.MA.TrueHD.7.1.Atmos-SWTYBLZ.......: https://www.imdb.com/title/tt3581652/

Režija.........: Steven Spielberg
Scenarij......: Tony Kushner



Ansel Elgort ... Tony
Rachel Zegler ... María
Ariana DeBose ... Anita
David Alvarez ... Bernardo
Rita Moreno ... Valentina
Brian d'Arcy James ... Officer Krupke
Corey Stoll ... Lieutenant Schrank
Mike Faist ... Riff
Josh Andrés Rivera ... Chino
Iris Menas ... Anybodys

Najbolj poznan muzikal vseh časov bo ponovno oživel pod režisersko taktirko enega najboljših in najbolj cenjenih režiserjev in filmarjev, trikratnega dobitnika oskarja, Stevena Spielberga. Priredba kultnega muzikala je pravzaprav prirejena moderna Shakespearova tragedija Romeo in Julija na ulicah New Yorka, le da prinaša zgodbo o ljubezni in rivalstvu med dvema najstniškima bandoma različnih etničnih skupin.
številne umore.



DJ VIHAR & DJ AJDA - SLO & HR MIX 64

Klikni za povečavo!
09-11-2021 17:16 naložil Ajda
Sejalci: 3 / Odjemalci: 0 / Velikost: 208.68 MB / Dokončani: 41
Prenesi torrent Poročaj torrent Opis torrenta NFO
Zvrst: Glasbeni
Kategorija: GLASBA > Glasba




*******************************************************************************
~ DJ VIHAR & DJ AJDA - SLO & HR MIX 64 ~
*******************************************************************************

-------------------------------------------------------------------------------
Avdio podatki
-------------------------------------------------------------------------------
Complete name : DJ VIHAR & DJ AJDA - SLO & HR MIX 64.mp3
Format : MPEG Audio
File size : 208 MiB
Duration : 1h 30mn
Overall bit rate mode : Constant
Overall bit rate : 320 Kbps
Encoded by : Lavf52.39.0
Writing library : LAME3.98

Audio
Format : MPEG Audio
Format version : Version 1
Format profile : Layer 3
Mode : Joint stereo
Duration : 1h 30mn
Bit rate mode : Constant
Bit rate : 320 Kbps
Channel(s) : 2 channels
Sampling rate : 48.0 KHz
Compression mode : Lossy
Stream size : 208 MiB (100%)
Writing library : LAME3.98
-------------------------------------------------------------------------------
Vsebina
-------------------------------------------------------------------------------

DJ VIHAR & DJ AJDA - SLO & HR MIX 64

01. Tara - Karte na stol
02. Garavi Sokak - Ej ružo
03. Jay Bolk - Moja mala
04. Rajko Suhodolčan - Zlato moje
05. Nika Zorjan Kvartopirci - Usojena
06. Vigor - Okus ljubavi
07.Mate Bulič - Rob ljubavi
08. Jasmin Stavros - Da vrati se sve na staro
09. Boris Novkovič - S tobom poludjet ču
10. Tilen Lotrič - Angel
11. Mladen Grdovič - Kukavica
12. Darja Gajšek - Solza
13. Nočni Skok - Kap od vina
14. Alya Kvartopirci - Spet zaljubljena
15. Mate Bulič - Evo zora, tek što nije
16. Alen Slavica - Ispod tvog jastuka
17. Jastrebi - Naj se pije
18. Luka Basi - Ljubav mog života
19. Neda Ukraden - Jednom kada ovo prođe
20. Dejan Vunjak - Jutri bom k tebi odšel
21. Alen Vogrinec - Ti si sve što nisam bio ja
22. Ljubavnici - Ona me voli
23. Elixir - najbolja
24. Antonija Šola - Javna tajna
25. Potepini - Morm bit s teboj
26. Mladen Grdovič - Boliš me ljubavi
27.Lorena - Tvoja i gotovo



DJ VIHAR & DJ AJDA - SLO & HR MIX 63

Klikni za povečavo!
08-11-2021 12:17 naložil Ajda
Sejalci: 3 / Odjemalci: 0 / Velikost: 195.33 MB / Dokončani: 35
Prenesi torrent Poročaj torrent Opis torrenta NFO
Zvrst: Glasbeni
Kategorija: GLASBA > Glasba



-------------------------------------------------------------------------------
Avdio podatki
-------------------------------------------------------------------------------
General
Complete name : DJ VIHAR & DJ AJDA - SLO & HR MIX 63.mp3
Format : MPEG Audio
File size : 195 MiB
Duration : 1h 24mn
Overall bit rate mode : Constant
Overall bit rate : 320 Kbps
Encoded by : Lavf52.39.0
Writing library : LAME3.98

Audio
Format : MPEG Audio
Format version : Version 1
Format profile : Layer 3
Mode : Joint stereo
Duration : 1h 24mn
Bit rate mode : Constant
Bit rate : 320 Kbps
Channel(s) : 2 channels
Sampling rate : 48.0 KHz
Compression mode : Lossy
Stream size : 195 MiB (100%)
Writing library : LAME3.98
-------------------------------------------------------------------------------
Vsebina
-------------------------------------------------------------------------------

DJ VIHAR & DJ AJDA - SLO & HR MIX 63

01. Davor Borno - Kad zagrmi dalmatinska
02. Klapa More - Slomila je sve u meni
03. Urban Vidmar - Noč je sladka
04. Jasmin Stavros - Umri muški
05. Čuki - Mogoče
06. Dejan Vunjak - Jutri bom k tebi odšel
07. Skater - Reševalec
08. Ivana Kovać - Idemo dalje
09. Alya - Ti z mano znaš
10. Dražen Zečič - Na staroj sam adresi
11. Jasna Zlokič - Ne traži me
12. Alka Vuica Željko Bebek - Ako odeš
13. Kumovi - Život si moj
14. Ljubavnici - Ljepa ženo dalmatinko
15. Tarapana - Da nema me
16. Učiteljice - Trava
17. Mladen Grdovič - Nije meni lako
18. Mišo Kovač - Da se dva puta vrate
19. Luka basi / Ivana Kovač - Danas
20. Maraaya - 1000 let
21. Nina Doneli / Guliano - Žali nas more
22. Mladen Grdovič - Vjeruj mi
23. Milo Hrnič - Oprosti
24. Goran Karan - Baš me briga
25. Božidar Wolf - Imela sva vse







Coco.2017.SloSinh.DVDRip.XviD-Churchill

Klikni za povečavo!
23-10-2021 17:10 naložil System
Sejalci: 2 / Odjemalci: 0 / Velikost: 1.39 GB / Dokončani: 283
Prenesi torrent Poročaj torrent Opis torrenta NFO
Kategorija: FILMI > Risanke
Anonimen nalagalec

Coco (2017)
KOKO IN VELIKA SKRIVNOST (2017)



INFO:
-------------
Codec : XVID
Format : AVI
Size : 1,38 GB
Bit rate : 1 582 kb/s
Width : 720 pixels
Height : 304 pixels
Aspect ratio : 16/9
Audio 1 : AC-3
Bit rate : 384 kb/s
Channel(s) : 6 channels
Channel positions: L R C LFE Ls Rs
Sampling rate : 48.0 kHz
Genre : Animation, Adventure, Comedy,
: Family, Fantasy, Music, Mystery
Country : United States/ Mexico
Language : Slovenski (orig. English/ Spanish)
Subtitles : /
Runtime : 101 min
Čas predvajanja : 1 h 40 min 43 sek

IMDb user Rating: 8,4 / 10 (435.892)
IMDb Link: KLIK

IGRALCI:
-------------
Sebastijan Kušar --> MIGUEL (dialogi)
Leon Rudolf --> MIGUEL (petje)
Jan Bučar --> HECTOR (dialogi)
Uroš Buh --> HECTOR (vokal)
Nuška Drašček Rojko --> MAMA IMELDA
Danijel Bavec --> PAPA
Tilen Artač --> ERNESTO DE LA CRUZ
Maja Boh --> Mama Coco
Vesna Jevnikar --> ABUELITA
Alenka Tetičkovič --> FRIDA
Žiga Bunič --> g. OKOSTNJAK
Srđan Milovanović --> JUAN ORTODONCIA

OPIS:
-------------
Kljub temu, da njegova družina že več generacij vztrajno prepoveduje
ukvarjanje z glasbo komurkoli v družini, Miguel vseeno nenehno sanja
o tem, da bi postal odličen glasbenik, kot je bil njegov idol Ernesto
de la Cruz. V obupanih poizkusih pokazati svoj talent, se Miguel po
nizu skrivnostnih dogodkov znajde v fantazijsko pisanem svetu mrtvih.
Tukaj srečuje svoje prednike, ki se vsi po vrsti trudijo, da bi mu
pomagali preiti nazaj v svet živih. A tudi oni imajo le en pogoj –
da se preneha ukvarjati z glasbo. Medtem spozna šarmantnega prevaranta
Hectorja in skupaj se odpravita na veličastno potovanje odkrivanja prave
zgodbe o zgodovini Miguelove družine in tem tako skritem pomenu glasbe...



Mamma Mia Here We Go Again 2018 SloSubs 720p BRRip XviD AC3-johnny80

Klikni za povečavo!
17-10-2021 12:56 naložil johnny80
Sejalci: 0 / Odjemalci: 0 / Velikost: 3.93 GB / Dokončani: 9
Prenesi torrent Poročaj torrent Opis torrenta
Kategorija: FILMI > XviD

MV5BMjEwMTM3OTI1NV5BMl5BanBnXkFtZTgwNDk5NTY0NTM@. V1 FMjpg UX1000

Velikost ...........: 3.93 GB
Dolžina ............: 1h 53 Minut
Video ...............: 4491 Kbps | 1280 x 536
Zvok .................: AC-3 | 448 Kbps | 6 Channels
Kodek...............: XviD
Zvrst………….....: Comedy | Musical | Romance
Jezik ................: Angleški
Podnapisi.........: Slovenski

Lily James , Amanda Seyfried , Meryl Streep , Cher

Simpatična Sophie se bo kmalu poročila in bi zato rada ob sebi imela tudi očeta. Ker ji mama Donna nikoli ni zaupala očetovega imena, Sophie na mali grški otok pripelje trojico moških iz mamine preteklosti. Med ugotavljanjem, kdo bi lahko bil njen oče, nastaneta kaotičen vrtinec zabavnih zmešnjav in poplava romantičnih čustev.

Slike:
Trailer:
Alfi Nipič in Vinko Šimek - Ko toti Štajerc v dravo pade

Klikni za povečavo!
20-04-2021 09:32 naložil Timoreck
Sejalci: 2 / Odjemalci: 0 / Velikost: 6.05 MB / Dokončani: 13
Prenesi torrent Poročaj torrent Opis torrenta NFO
Zvrst: Glasbeni
Kategorija: GLASBA > Video

Alfi Nipič in Vinko Šimek - Ko toti Štajerc v dravo pade



Izvajalec: Alfi Nipič
Izvajalec: Jaka Šraufciger (Vinko Šimek)
Avtor besedila: Vinko Šimek
Avtor glasbe: Boris Rošker

-------------------------------------------------------------------------------

Avdio/Video podatki ;
Oblik datoteke : MPEG-4
Profil oblika datoteke : Base Media / Version 2
ID kôdeka : mp42
Veličina datoteke : 6,05 MiB
Trajanje : 1min 31s
Način ukupnog protoka podataka : Promjenjivo
Ukupni protok podataka : 556 Kbps
Nadnevak kodiranja : UTC 2015-12-12 14:42:32
Nadnevak označavanja : UTC 2015-12-12 14:42:32
Xtra : WM/MediaClassPrimaryID

Video
ID : 1
Oblik datoteke : AVC
Oblik datoteke/Informacija : Advanced Video Codec
Profil oblika datoteke : Baseline@L3.0
Postavke oblika datoteke za CABAC : Ne
Postavke oblika datoteke za ReFrames : 1 sličica
Format_Settings_GOP : M=1, N=60
ID kôdeka : avc1
ID kôdeka/Informacija : Advanced Video Coding
Trajanje : 1min 31s
Stopa protoka podataka : 457 Kbps
Maksimum protoka podataka : 798 Kbps
Širina : 608 piksela
Visina : 360 piksela
Omjer slike : 1,689
Način protoka sličica : Ustaljeno
Protok sličica : 25,000 fps
ColorSpace : YUV
ChromaSubsampling : 4:2:0
BitDepth/String : 8 bita
Vrsta pregledavanja : Progresivno
Bita/(piksela*sličica) : 0.084
Veličina toka : 4,97 MiB (82%)
Nadnevak označavanja : UTC 2015-12-12 14:42:32

Audio
ID : 2
Oblik datoteke : AAC
Oblik datoteke/Informacija : Advanced Audio Codec
Profil oblika datoteke : LC
ID kôdeka : 40
Trajanje : 1min 31s
Način protoka podataka : Promjenjivo
Stopa protoka podataka : 96,0 Kbps
Maksimum protoka podataka : 104 Kbps
Kanali : 2 kanala
Položaj kanala : Front: L R
Učestalost uzorkovanja : 44,1 KHz
Veličina toka : 1,04 MiB (17%)
Naslov : IsoMedia File Produced by Google, 5-11-2011
Nadnevak kodiranja : UTC 2015-12-12 14:42:32
Nadnevak označavanja : UTC 2015-12-12 14:42:32

--------------------------------------------------------------------

Ansambel bratov Avsenik - Zlati Zvoki (1972)

Klikni za povečavo!
20-04-2021 08:32 naložil Timoreck
Sejalci: 1 / Odjemalci: 0 / Velikost: 91.86 MB / Dokončani: 7
Prenesi torrent Poročaj torrent Opis torrenta NFO
Zvrst: Glasbeni
Kategorija: GLASBA > Glasba

Ansambel bratov Avsenik - Zlati Zvoki (1972)




Avdio/Video podatki ;

Oblik datoteke : MPEG-4
Profil oblika datoteke : Base Media
ID kôdeka : isom
Veličina datoteke : 91,9 MiB
Trajanje : 1h 10min
Ukupni protok podataka : 182 Kbps
Naslov filma : Zlati Zvoki (1972)
Izvođač : Ansambel bratov Avsenik
Kodirajući program : Lavf58.29.100
Omot : Yes
Komentar : www.mediahuman.com

Video
ID : 1
Oblik datoteke : AVC
Oblik datoteke/Informacija : Advanced Video Codec
Profil oblika datoteke : Main@L3.1
Postavke oblika datoteke za CABAC : Da
Postavke oblika datoteke za ReFrames : 3 sličice
ID kôdeka : avc1
ID kôdeka/Informacija : Advanced Video Coding
Trajanje : 1h 10min
Stopa protoka podataka : 48,2 Kbps
Širina : 854 piksela
Visina : 480 piksela
Omjer slike : 16:9
Način protoka sličica : Ustaljeno
Protok sličica : 29,970 fps
ColorSpace : YUV
ChromaSubsampling : 4:2:0
BitDepth/String : 8 bita
Vrsta pregledavanja : Progresivno
Bita/(piksela*sličica) : 0.004
Veličina toka : 24,3 MiB (26%)

Audio
ID : 2
Oblik datoteke : AAC
Oblik datoteke/Informacija : Advanced Audio Codec
Profil oblika datoteke : LC
ID kôdeka : 40
Trajanje : 1h 10min
Način protoka podataka : Ustaljeno
Stopa protoka podataka : 126 Kbps
Kanali : 2 kanala
Položaj kanala : Front: L R
Učestalost uzorkovanja : 44,1 KHz
Veličina toka : 63,4 MiB (69%)

--------------------------------------------------------------------

Seznam skladb

1 Zlati zvoki
2 Nikar domov
3 Ob slapu
4 Gremo na Pokljuko
5 Valček s harmoniko
6 Shujševalna kura
7 Rana ura, huda ura
8 Cvetoče tulpe
9 Na avtocesti
10 Zinka, Zefka, Zofka
11 Nasvidenje
12 Pogled v dolino
13 S polko v svet
14 Gozdovi v mesečini
15 Čez Korensko sedlo
16 Pri sedmerih jezerih
17 Z mano se ozri
18 Med rojaki v Ameriki
19 Gozdarjeva povest
20 V švicarskih Alpah
21 Jedraj z menoj
22 Miss
23 Po planinski magistrali
24 Najlepše je doma

50.jubilejni Festival narečnih popevk TV Maribor

Klikni za povečavo!
19-04-2021 06:04 naložil Timoreck
Sejalci: 1 / Odjemalci: 0 / Velikost: 1.01 GB / Dokončani: 2
Prenesi torrent Poročaj torrent Opis torrenta NFO
Zvrst: Glasbeni
Kategorija: GLASBA > Video

50.jubilejni Festival narečnih popevk TV Maribor
28.9.2012



Festival narečnih popevk, ki letos ni bil tekmovalne narave, praznuje abrahama. Osrednja tema festivala je bilo tako obujanje spominov.

Obiskovalci, gledalci in poslušalci so lahko ob častitljivem jubileju uživali v največjih uspešnicah festivala iz preteklih 50 let.

Večina programa je bila izvedena z izvirnimi izvajalci, ki so bili na narečnem festivalu v vseh teh letih najuspešnejši. Prepevali so ob spremljavi vokalnega kvarteta in Big banda RTV Slovenija pod dirigentsko taktirko Lojzeta Krajnčana, Edvarda Holnthanerja in Bertija Rodoška.

Jubilejni festival je otvorila Lidija Kodrič s pesmijo Moja mala tiha sreča, zaključil pa se je z nastopom Alfija Nipiča in pomočjo vseh ostalih udeležencev, ki so skupaj zapeli skladbo Štajerc.

Več kot 150 nastopajočih je poskrbelo, da je bil večer nepozaben. Poleg omenjenih so nastopili še: Edvin Fliser, Nuša Derenda, Lado Leskovar, Braco Koren, Berti Rodošek, Janko Ropret, Irena Vrčkovnik, Branka Kraner, Domen Kumer, Rudi Šantl, Jerica Mrzel, Marjan Smode, Dušan Kobal, Anita Kralj, Milan Kamnik, Lea Likar, Robi Horvat, Nataša Mihelič, Rudi Miložič, Damjan Zih, Zorica Fingušt Fatur, Damjana Golavšek, Monika in Alenka Heričko, Modrijani, Vinko Šimek, Jože Kobler, Malibu, Prifarski muzikanti, Štajerskih 7, Frajkinclari, Zreška pomlad, Halgato band, Langa, Čudežna polja, Vesele Štajerke, Pajdaši, Rdeči dečki, Dori, Cmok, Crescendo, Folkrola, Završki fantje in drugi.

-------------------------------------------------------------------------------

Avdio/Video podatki ;

Potpuni naziv : G:\Glazba\50.jubilejni Festival narečnih popevk TV Maribor 28.9.2012.mp4
Oblik datoteke : Matroska
Inačica oblika datoteke : Version 4 / Version 2
Veličina datoteke : 1,01 GiB
Trajanje : 2h 30min
Ukupni protok podataka : 963 Kbps
Kodirajući program : Lavf57.26.100
Kodirano pomoću knjižnice : Lavf57.26.100

Video
ID : 2
Oblik datoteke : AVC
Oblik datoteke/Informacija : Advanced Video Codec
Profil oblika datoteke : Main@L3.0
Postavke oblika datoteke za CABAC : Da
Postavke oblika datoteke za ReFrames : 3 sličice
ID kôdeka : V_MPEG4/ISO/AVC
Trajanje : 2h 30min
Širina : 766 piksela
Visina : 480 piksela
Omjer slike : 16:10
Način protoka sličica : Ustaljeno
Protok sličica : 25,000 fps
ColorSpace : YUV
ChromaSubsampling : 4:2:0
BitDepth/String : 8 bita
Vrsta pregledavanja : Progresivno
Default : Da
Forced : Ne
HANDLER_NAME : VideoHandler
DURATION : 02:30:09.680000000

Audio
ID : 1
Oblik datoteke : AAC
Oblik datoteke/Informacija : Advanced Audio Codec
Profil oblika datoteke : LC
ID kôdeka : A_AAC
Trajanje : 2h 30min
Kanali : 2 kanala
Položaj kanala : Front: L R
Učestalost uzorkovanja : 44,1 KHz
Default : Da
Forced : Ne
HANDLER_NAME : SoundHandler
DURATION : 02:30:09.783000000
--------------------------------------------------------------------


Ansambel Lojzeta Slaka - MIX

Klikni za povečavo!
18-04-2021 10:20 naložil Timoreck
Sejalci: 1 / Odjemalci: 0 / Velikost: 263.59 MB / Dokončani: 156
Prenesi torrent Poročaj torrent Opis torrenta NFO
Zvrst: Glasbeni
Kategorija: GLASBA > Glasba


Ansambel Lojzeta Slaka - MIX



Avdio/Video podatki ;

Potpuni naziv : F:\Glazba\Lojze Slak Mix 2013.mp4
Oblik datoteke : Matroska
Inačica oblika datoteke : Version 4 / Version 2
Veličina datoteke : 39,1 MiB
Trajanje : 31min
Ukupni protok podataka : 173 Kbps
Kodirajući program : Lavf57.26.100
Kodirano pomoću knjižnice : Lavf57.26.100

Video
ID : 2
Oblik datoteke : AVC
Oblik datoteke/Informacija : Advanced Video Codec
Profil oblika datoteke : Main@L3.1
Postavke oblika datoteke za CABAC : Da
Postavke oblika datoteke za ReFrames : 3 sličice
ID kôdeka : V_MPEG4/ISO/AVC
Trajanje : 31min
Širina : 854 piksela
Visina : 480 piksela
Omjer slike : 16:9
Način protoka sličica : Ustaljeno
Protok sličica : 29,970 fps
ColorSpace : YUV
ChromaSubsampling : 4:2:0
BitDepth/String : 8 bita
Vrsta pregledavanja : Progresivno
Default : Da
Forced : Ne
HANDLER_NAME : VideoHandler
DURATION : 00:31:33.291000000

Audio
ID : 1
Oblik datoteke : AAC
Oblik datoteke/Informacija : Advanced Audio Codec
Profil oblika datoteke : LC
ID kôdeka : A_AAC
Trajanje : 31min
Kanali : 2 kanala
Položaj kanala : Front: L R
Učestalost uzorkovanja : 44,1 KHz
Default : Da
Forced : Ne
HANDLER_NAME : SoundHandler
DURATION : 00:31:33.355000000
--------------------------------------------------------------------

Potpuni naziv : F:\Ansambel Lojzeta Slaka-MIX najlepših pesmi(2018).mp4
Oblik datoteke : Matroska
Inačica oblika datoteke : Version 4 / Version 2
Veličina datoteke : 168 MiB
Trajanje : 1h 28min
Ukupni protok podataka : 265 Kbps
Kodirajući program : Lavf57.26.100
Kodirano pomoću knjižnice : Lavf57.26.100

Video
ID : 2
Oblik datoteke : AVC
Oblik datoteke/Informacija : Advanced Video Codec
Profil oblika datoteke : Main@L3.1
Postavke oblika datoteke za CABAC : Da
Postavke oblika datoteke za ReFrames : 3 sličice
ID kôdeka : V_MPEG4/ISO/AVC
Trajanje : 1h 28min
Širina : 1 .280 piksela
Visina : 720 piksela
Omjer slike : 16:9
Način protoka sličica : Ustaljeno
Protok sličica : 29,970 fps
ColorSpace : YUV
ChromaSubsampling : 4:2:0
BitDepth/String : 8 bita
Vrsta pregledavanja : Progresivno
Default : Da
Forced : Ne
colour_primaries : BT.709
transfer_characteristics : BT.709
matrix_coefficients : BT.709
HANDLER_NAME : VideoHandler
DURATION : 01:28:34.075000000

Audio
ID : 1
Oblik datoteke : AAC
Oblik datoteke/Informacija : Advanced Audio Codec
Profil oblika datoteke : LC
ID kôdeka : A_AAC
Trajanje : 1h 28min
Kanali : 2 kanala
Položaj kanala : Front: L R
Učestalost uzorkovanja : 44,1 KHz
Jezik : Engleski
Default : Da
Forced : Ne
HANDLER_NAME : SoundHandler
DURATION : 01:28:34.142000000
---------------------------------------------------------------------

Vsebina :

Ansambel Lojzeta Slaka - Božični večer.mp4
Ansambel Lojzeta Slaka - Titanik.mp4
Lojze Slak - Po Dekle.mp4
Ansambel Lojzeta Slaka-MIX najlepših pesmi(2018).mp4
Lojze Slak Mix 2013.mp4


André Rieu - Christmas in London (2017)

Klikni za povečavo!
17-04-2021 08:30 naložil Timoreck
Sejalci: 1 / Odjemalci: 0 / Velikost: 939.54 MB / Dokončani: 7
Prenesi torrent Poročaj torrent Opis torrenta NFO
Zvrst: Glasbeni
Kategorija: GLASBA > Video

André Rieu - Christmas in London (2017)



Christmas in London

Christmas is now more beautiful and cosy than ever! Experience Christmas in London, together with André Rieu. Decorated Christmas trees everywhere you look, beautifully lit streets, tempting Christmas window displays… Combine the unique London Christmas atmosphere with a magnificent Christmas concert by André Rieu, and you have all the ingredients for a lovely party in the dark December days.

Together with fantastic soloists and his always joyful Johann Strauss orchestra, André Rieu provides a fabulous evening with the most beautiful and moving Christmas carols, but also with emotional songs such as Leonard Cohen’s Hallelujah, The Holy City and the classic Concierto de Aranjuez.

Christmas in London means an evening enjoying lovely music, beautiful costumes and plenty of London cosiness.

-------------------------------------------------------------------------------

Avdio/Video podatki ;

Oblik datoteke : Matroska
Inačica oblika datoteke : Version 4 / Version 2
Veličina datoteke : 940 MiB
Trajanje : 55min
Ukupni protok podataka : 2 .360 Kbps
Kodirajući program : Lavf57.26.100
Kodirano pomoću knjižnice : Lavf57.26.100

Video
ID : 2
Oblik datoteke : AVC
Oblik datoteke/Informacija : Advanced Video Codec
Profil oblika datoteke : Main@L3.2
Postavke oblika datoteke za CABAC : Da
Postavke oblika datoteke za ReFrames : 3 sličice
ID kôdeka : V_MPEG4/ISO/AVC
Trajanje : 55min
Širina : 1 .280 piksela
Visina : 720 piksela
Omjer slike : 16:9
Način protoka sličica : Ustaljeno
Protok sličica : 48,000 fps
ColorSpace : YUV
ChromaSubsampling : 4:2:0
BitDepth/String : 8 bita
Vrsta pregledavanja : Progresivno
Default : Da
Forced : Ne
colour_primaries : BT.709
transfer_characteristics : BT.709
matrix_coefficients : BT.709
HANDLER_NAME : VideoHandler
DURATION : 00:55:39.417000000

Audio
ID : 1
Oblik datoteke : AAC
Oblik datoteke/Informacija : Advanced Audio Codec
Profil oblika datoteke : LC
ID kôdeka : A_AAC
Trajanje : 55min
Kanali : 2 kanala
Položaj kanala : Front: L R
Učestalost uzorkovanja : 44,1 KHz
Default : Da
Forced : Ne
HANDLER_NAME : SoundHandler
DURATION : 00:55:39.470000000



Ansambel Avsenik - MIX + Bonus

Klikni za povečavo!
17-04-2021 05:48 naložil Timoreck
Sejalci: 0 / Odjemalci: 0 / Velikost: 1.11 GB / Dokončani: 60
Prenesi torrent Poročaj torrent Opis torrenta NFO
Zvrst: Glasbeni
Kategorija: GLASBA > Glasba

Ansambel Avsenik - MIX + Bonus


Avdio podatki ;

Oblik datoteke : Windows Media
Veličina datoteke : 2,81 MiB
Trajanje : 2min 59s
Način ukupnog protoka podataka : Ustaljeno
Ukupni protok podataka : 131 Kbps
Maksimum ukupnog protoka podataka : 129 Kbps
Album : Na Golici-arhiv 1953-1955
Naziv snimke : Ko lovec je na štoru spal
Naziv snimke/položaj : 12
Izvođač : Trio Slavka Avsenika
Glazbeni smjer : Narodnozabavna
Nadnevak snimanja : 2005
Nadnevak kodiranja : UTC 2013-10-23 18:18:12.711
Omot : Y
Vrjednovanje : 0
Provider : User Feedback
MediaFoundationVersion : 2.112
WM/OriginalAlbumArtist : Trio Slavka Avsenika
WM/SharedUserRating : 0

Audio
ID : 1
Oblik datoteke : WMA
Inačica oblika datoteke : Version 2
ID kôdeka : 161
ID kôdeka/Informacija : Windows Media Audio
Opis kôdeka : Windows Media Audio 9.2 - 128 kbps, 44 kHz, stereo 1-pass CBR
Trajanje : 2min 59s
Način protoka podataka : Ustaljeno
Stopa protoka podataka : 128 Kbps
Kanali : 2 kanala
Učestalost uzorkovanja : 44,1 KHz
BitDepth/String : 16 bita
Veličina toka : 2,74 MiB (98%)
--------------------------------------------------------------------------------------------------------
Oblik datoteke : FLAC
Oblik datoteke/Informacija : Free Lossless Audio Codec
Veličina datoteke : 16,4 MiB
Trajanje : 2min 38s
Način ukupnog protoka podataka : Promjenjivo
Ukupni protok podataka : 867 Kbps
Album : Tam kjer murke cveto
Album/Izvođač : Ansambel bratov Avsenik
Naziv snimke : Tam kjer murke cveto
Naziv snimke/položaj : 3
Naziv snimke/ukupno : 16
Izvođač : Ansambel bratov Avsenik
Glazbeni smjer : Narodnozabavna
Nadnevak snimanja : 1997
Omot : Yes
Vrsta omota : Cover (front)
MIME omota : image/jpeg
Komentar : [SloLord]
Source : CD (Lossless)

Audio
Oblik datoteke : FLAC
Oblik datoteke/Informacija : Free Lossless Audio Codec
Trajanje : 2min 38s
Način protoka podataka : Promjenjivo
Stopa protoka podataka : 864 Kbps
Kanali : 2 kanala
Učestalost uzorkovanja : 44,1 KHz
BitDepth/String : 16 bita
Veličina toka : 16,3 MiB (100%)
Kodirano pomoću knjižnice : libFLAC 1.2.1 (UTC 2007-09-17)
----------------------------------------------------------------------------------------------------------
Oblik datoteke : MPEG Audio
Veličina datoteke : 8,26 MiB
Trajanje : 3min 35s
Način ukupnog protoka podataka : Ustaljeno
Ukupni protok podataka : 320 Kbps
Album : Srecno novo leto
Dio/položaj : 1
Dio/ukupno : 1
Naziv snimke : Srecno novo leto
Naziv snimke/položaj : 01
Naziv snimke/ukupno : 24
Izvođač : Ansambel bratov Avsenik
Kodirao : Exact Audio Copy (Burst mode)
Glazbeni smjer : Folk/Narodna
Nadnevak snimanja : 1981
Kodirano pomoću knjižnice : LAME3.98r
Omot : Yes
MIME omota : image/jpeg

Audio
Oblik datoteke : MPEG Audio
Inačica oblika datoteke : Version 1
Profil oblika datoteke : Layer 3
Format_Settings_Mode : Joint stereo
Trajanje : 3min 35s
Način protoka podataka : Ustaljeno
Stopa protoka podataka : 320 Kbps
Kanali : 2 kanala
Učestalost uzorkovanja : 44,1 KHz
Veličina toka : 8,21 MiB (99%)
Kodirano pomoću knjižnice : LAME3.98r
Postavke kodiranja : -m j -V 4 -q 2 -lowpass 20.5
--------------------------------------------------------------------------------------------

Vsebina :

Ansambel Avsenik - Na Golici-arhiv 1953-1955 - 2005

01 Na Golici
02 Pozno v noč
03 V planinski koči
04 Slovo
05 Vaška polka
06 Na izletu
07 Pleničke je prala
08 Čez Trojane
09 Rez'ka
10 V pustnih dneh
11 Še, še en krajcarček 'mam
12 Ko lovec je na štoru spal
13 Če vinček govori
14 Zmeraj veseli

Ansambel bratov Avsenik - 2000 še in še (1999) Flac

1 2000 še in še -
2 Poskočna polka
3 Vsepovsod po naši prelepi deželi
4 Tam kjer murke cveto
5 Veselo s harmoniko in kitaro
6 Venček polk - Na robleku
7 Moj Floki
8 Čez zelene trate - Proti jutru
9 Zvezde na nebu žare
10 Spomin
11 Glasbena voščilnica
12 Slovenski pozdravi
13 Kitare plešejo
14 Mami
15 Očetu
16 Te pa tikou vredi
17 Na Golici

Ansambel bratov Avsenik - Tam kjer murke cveto - 1997 Flac

01 Ansambel bratov Avsenik - Prelepa Gorenjska
02 Ansambel bratov Avsenik - So mam'ca mi djali
03 Ansambel bratov Avsenik - Tam kjer murke cveto
04 Ansambel bratov Avsenik - Pri sosedovih na obisku
05 Ansambel bratov Avsenik - Moj rodni kraj, moj rodni dom
06 Ansambel bratov Avsenik - Če vinček govori
07 Ansambel bratov Avsenik - Stara polka
08 Ansambel bratov Avsenik - Na mostu
09 Ansambel bratov Avsenik - Čujte me, čujte, mamica vi
10 Ansambel bratov Avsenik - Kadar bom vandral
11 Ansambel bratov Avsenik - Spet na vasi
12 Ansambel bratov Avsenik - Hodil po gozdu sem
13 Ansambel bratov Avsenik - Kaj pa reče mam'ca moja
14 Ansambel bratov Avsenik - Jej, jej, k'mam težko glavo
15 Ansambel bratov Avsenik - Jesenska (Bila jesen je)
16 Ansambel bratov Avsenik - Rez'ka

Ansambel bratov Avsenik-Srečno Novo Leto 1981

01 Srecno novo leto
02 Izlet na dezelo
03 Pozdrav s Pohorja
04 Ponocnjaki
05 Na Gorjusah
06 Prelep je svet
07 Praznik prsuta in terana
08 Domace veselje
09 Ljubici v slovo
10 Zaplesimo polko
11 Majski izlet
12 Nasim znancem
13 Tingel tangel polka
14 Franc-vseved
15 Prvi soncni zarek
16 Ko se zjutraj prebudim
17 Zbrani in veseli
18 Enkrat na leto praznujem
19 Jesenska polka
20 Kadar pridem na Planico
21 Kam tako hitis
22 Ko bos tod mimo sel
23 Vaski godec
24 Najlepsi cvet

Ansambel bratov Avsenik- Srečno Novo Leto 1991

01 Novoletno voščilo Zvezde na nebu žare
02 Zimska pravljica
03 Otroške želje
04 Prelepi zimski čas
05 Zimski večer
06 Okoli novega leta
07 Dedek mraz prihaja
08 Družinski praznik
09 Koledarska polka
10 Polnočni zvonovi
11 Novoletni koledar
12 S polko v novo leto
13 Srečno novo leto
14 Izlet na deželo
15 Pozdrav s Pohorja
16 Ponočnjaki
17 Na Gorjušah
18 Prelep je svet
19 Praznik pršuta in terana
20 Domače veselje


-----------------------------------------------------------------------------------------

Bonus (delni video):

Rafko Irgolič - OH SUZANA
Rafko Irgolic - Moj crni konj
Rafko Irgolič - Zabučale gore
Rafko Irgolič in Stane Mancini - Domovina
Rafko Irgolič JAHAM SPET V KOLORADO

-------------------------------------------------------------------------------------------------------

Stanka Kovačič - Kitara
Stanka Kovačič - Mix


Andre.Rieu-Magic of the musicals.MultiSubs.1080p.DTS-HD.LPCM

Klikni za povečavo!
01-04-2021 14:03 naložil rado77
Sejalci: 1 / Odjemalci: 0 / Velikost: 10.85 GB / Dokončani: 2
Prenesi torrent Poročaj torrent Opis torrenta
Zvrst: Glasbeni
Kategorija: GLASBA > Video

Andre.Rieu-Magic of the musicals.MultiSubs.1080p.DTS-HD.LPCM


André Rieu - Magic of the Musicals

Čarobni muzikali



(kompilacija)


Nizozemski violinist in orkester Johanna Straussa izvajajo številne glasbene uspešnice. Andr Rieu je eden najbolj prodajanih sodobnih klasičnih umetnikov, saj ima za seboj več kot 20 milijonov prodaj po vsem svetu in vrsto uspešnih turnej. Rieu je leta 1987 ustanovil orkester Johanna Straussa z dvojnim ciljem promocije glasbe, ki jo ima rad, hkrati pa širši publiki približa užitke klasične glasbe. Tu Rieu in njegov orkester pozornost usmerjata na nepozabne pesmi iz odrskih muzikalov, s čimer si priskrbijo številne priljubljene melodije.


Podnapisi: Nizozemski, nemški, francoski, portugalski, španski, angleški


André Rieu skozi 18 prijetnih skladb razpre zavese in odnese glasbeni oder v vaš dom. Na tem albumu so pesmi iz številnih muzikalov, od katerih je vsaka skrbno izbrana.


Spisek izbranih skladb:
01. The Sound Of Music
02. I Will Follow Him
03. Music Of The Night
04. Somewhere Over The Rainbow
05. The Impossible Dream
06. Cinderella Waltz
07. Wishing You Were Somehow Here Again
08. All I Ask Of You
09. I Could Have Danced All Night
10. With A Little Bit Of Luck
11. Send In The Clowns
12. Supercalifragilisticexpialidocious
13. Feed The Birds
14. Don’t Cry For Me Argentina
15. Trumpet Voluntary
16. I Belong To Me
17. Memory
18. You’ll Never Walk Alone


Tehnične specifikacije:


Popolno ime: Andre.Rieu-Magic of the musicals.MultiSubs.1080p.DTS-HD.LPCM
Oblika: Matroska
Različica formata: različica 4
Velikost datoteke: 10,8 GiB
Trajanje: 1 h 31 min
Splošni način bitne hitrosti: spremenljivka
Skupna bitna hitrost: 17,0 Mb / s
Zakodiran datum: UTC 2021-03-18 16:41:47
Aplikacija za pisanje: mkvmerge v55.0.0 ('Waiting For Space'), 64-bitna
Knjižnica za pisanje: libebml v1.4.2 + libmatroska v1.6.4

Video
ID: 1
Oblika: AVC
Format / Info: Napredni video
Profil oblike: Main @ L4
Nastavitve formata: CABAC / 4 Ref
Nastavitve formata, CABAC: Da
Nastavitve formata, referenčni okviri: 4 sličice
ID kodeka: V_MPEG4 / ISO / AVC
Trajanje: 1 h 31 min
Bitna hitrost: 10 000 kb / s
Širina: 1 920 slikovnih pik
Višina: 1 080 slikovnih pik
Razmerje zaslona: 16: 9
Način hitrosti sličic: konstantno
Hitrost sličic: 29.970 FPS
Barvni prostor: YUV
Podvzorčenje kroma: 4: 2: 0
Globina bitov: 8 bitov
Vrsta optičnega branja: progresivno
Bit / / (Pixel * Frame): 0,161
Velikost toka: 6,37 GiB (59%)
Knjižnica za pisanje: jedro x264 157 r2935
Jezik: angleščina
Privzeto: Da
Prisilno: Ne
Barvno območje: omejeno
Barvne barve: BT.709
Značilnosti prenosa: BT.709
Matrični koeficienti: BT.709

Zvok št. 1
ID: 2
Oblika: DTS XLL
Format / informacije: Digitalno gledališče
Trgovsko ime: DTS-HD Troll
ID kodeka: A_DTS
Trajanje: 1 h 31 min
Način bitne hitrosti: spremenljiv
Bitna hitrost: 4.722 kb / s
Kanali: 6 kanalov
Postavitev kanala: C L R Ls Rs LFE
Hitrost vzorčenja: 48,0 kHz
Hitrost sličic: 93.750 FPS (512 SPF)
Globina bitov: 24 bitov
Način stiskanja: brez izgub
Velikost toka: 3,01 GiB (28%)
Privzeto: Da
Prisilno: Ne

[b]Zvok št. 2[/b]
ID: 3
Oblika: PCM
Nastavitve formata: malo / podpisano
ID kodeka: A_PCM / INT / LIT
Trajanje: 1 h 31 min
Način bitne hitrosti: konstantno
Bitna hitrost: 2 304 kb / s
Kanali: 2 kanala
Hitrost vzorčenja: 48,0 kHz
Hitrost sličic: 200.000 FPS (240 SPF)
Globina bitov: 24 bitov
Velikost toka: 1,47 GiB (14%)
Privzeto: Ne
Prisilno: Ne


Veliko užitkov in ne pozabite na sejanje!
Dalida.2016.SloSubs.720p.HDTVRip

Klikni za povečavo!
26-03-2021 18:11 naložil rado77
Sejalci: 1 / Odjemalci: 0 / Velikost: 2.77 GB / Dokončani: 6
Prenesi torrent Poročaj torrent Opis torrenta
Kategorija: FILMI > HDTV

Dalida.2016.SloSubs.720p.HDTVRip


Dalida (2016)


Originalni naslov: DALIDA
Leto produkcije: 2016
Država: koprodukcija - Itaija, Francija
Žanr: biografska drama
Režija: Lisa Azuelos
Scenarij: Lisa Azuelos po knjigi Catherine Rihoit in Orlanda
Igrajo: Sveva Alviti, Riccardo Scamarcio, Jean-Paul Rouve, Niels Schneider, Alessandro Borghi
Podnapisi: Slovenščina
Jezik: Francoščina, Italijanščina, Angleščina, arabsko

Portret nekonvencionalne ženske, ki je živela v konvencionalnih časih. Čeprav se je Dalida tragično poslovila že leta 1987, njeno izjemno izročilo živi naprej.


Biografija ene najpopularnejših evropskih pevk, katere kariera je trajala skoraj trideset let: od revijskih popevk prek San Rema do diska. Gre za ganljivo in tragično zgodbo emocionalno izjemno kompleksne osebe, ki ji je bilo usojeno postati mednarodna zvezda.


Tehnične specifikacije:
Ime datoteke: Dalida.2016.SloSubs.720p.HDTVRip.mp4
Oblika: MP4
Informacije o obliki: QuickTime / MOV
Trajanje: 02: 01: 43.505
Velikost datoteke: 2,77 GB


Video informacije:
Video kodirnik: h264 (h.264 / avc / mpeg-4 avc / mpeg-4 del 10)
Ločljivost: 1280 * 720
Širina: 1280
Višina: 720
Razmerje zaslona: 16: 9
Hitrost sličic: 25 sličic na sekundo
Video bitna hitrost: 3123 kb / s
Barvni prostor: yuv420p

Zvočne informacije:
Zvočni kodirnik: aac (napredno kodiranje zvoka)
Avdio bitna hitrost: 128 kb / s
Hitrost vzorčenja: 44100 Hz
Zvočni kanali: stereo
Jezik: und
Trajanje: 02: 01: 43.481


Uživajte in ne pozabite sejati!
Wild.Rose.2018.SLOSubs.BRRip.XviD-DrSi

Klikni za povečavo!
17-03-2021 11:06 naložil Ziva
Sejalci: 1 / Odjemalci: 0 / Velikost: 2.31 GB / Dokončani: 18
Prenesi torrent Poročaj torrent Opis torrenta NFO
Zvrst: Drama | Glasbeni | Komedija
Kategorija: FILMI >  BRRip



Naziv: Wild.Rose.2018.SLOSubs.BRRip.XviD-DrSi
Source: Wild.Rose.2018.720p.BluRay.DD5.1.x264-PTer
Leto izida ........: 2018
Velikost ...........: 2,30 GB
Dolžina ............: 100 Minut
Video ...............: 2820 Kbps | 720x304 | 23,976 fps
Zvok .................: Dolby Digital AC3 5.1 @ 448 Kbps
Kodek.................: XviD
Zvrst………….: Drama | Glasbeni | Komedija
Država .............: VB | ZDA | Kanada
Jezik ................: Angleški
Podnapisi…….: Slovenski (RETAiL)
Prevod: Blitz Film
TVRip: Toyan
Za HD priredil: metalcamp
Tehnična obdelava: DVD Rippers Slovenija
IMDb Ocena ...: 7.2/10 (10,970 glasov)
Režija.........: Tom Harper
Scenarij......: Nicole Taylor


Jessie Buckley ... Rose-Lynn
Julie Walters ... Marion
Sophie Okonedo ... Susannah
Maureen Carr ... Eileen
James Harkness ... Elliot
Adam Mitchell ... Lyle
Daisy Littlefield ... Wynonna
Louise Mccarthy ... Amanda
Janey Godley ... Jackie
Craig Parkinson ... Alan


22-letna Rose-Lynn pride po letu dni iz zapora zaradi prekrška , vendar se ni nič
spremenila in želi nadaljevati, kjer je ostala – torej postati country pevka. Nekako
je pozabila, da ima dva otroka, mlajša od 10 let, za katera skrbi njena mama, ali
pa je to dejstvo potlačila v predale “pozneje”. Najprej se želi dobiti z Elliotom,
a dojame, da le prelaga neizbežno in da se mora soočiti z mamo Marion. Ko se končno
srečata, je njun odnos milo rečeno hladen. Rose-Lynn se počuti, kot da je iz enega
zapora prišla v drugega. Mama ji govori, naj se zaposli kot čistilka, Rose pa želi
samo peti. Ji bo uspelo?
Đorđe Balašević - The best of (1998) MP3

Klikni za povečavo!
21-02-2021 11:51 naložil System
Sejalci: 1 / Odjemalci: 0 / Velikost: 267.23 MB / Dokončani: 24
Prenesi torrent Poročaj torrent Opis torrenta NFO
Zvrst: Glasbeni
Kategorija: GLASBA > Glasba
Anonimen nalagalec

---------------------------------------------------------------------
Đorđe Balašević - The Best Of
---------------------------------------------------------------------
Artist...............: Đorđe Balašević
Album................: The Best Of
Genre................: Pop
Source...............: CD
Year.................: 1998
Ripper...............: EAC (Secure mode) / LAME 3.92 & Asus CD-S520
Codec................: LAME 3.99
Version..............: MPEG 1 Layer III
Quality..............: Insane, (avg. bitrate: 320kbps)
Channels.............: Joint Stereo / 44100 hz
T
News Server..........: news.astraweb.com
News Group(s)........: alt.binaries.pl.mp3
Included.............: NFO
---------------------------------------------------------------------
Tracklisting
---------------------------------------------------------------------
1. Đorđe Balašević - Sve Je Otišlo U Honduras [03:50]
2. Đorđe Balašević - Ne Volim Januar [04:05]
3. Đorđe Balašević - Jednom Su Sadili Lipu [04:40]
4. Đorđe Balašević - Čekajući Montenegro Express [03:33]
5. Đorđe Balašević - Nemam Ništa S Tim [05:32]
6. Đorđe Balašević - Još Jedna Pesma O Maloj Garavoj [03:13]
7. Đorđe Balašević - Remorker [03:48]
8. Đorđe Balašević - Slow Motion [05:51]
9. Đorđe Balašević - Saputnik [04:50]
10. Đorđe Balašević - Kad Odem... [05:53]
11. Đorđe Balašević - Devojka Sa ''čardaš'' Nogama [03:21]
12. Đorđe Balašević - Ćaletova Pesma [04:47]
13. Đorđe Balašević - Bezdan [04:26]
14. Đorđe Balašević - Ne Lomite Mi Bagrenje [05:33]
15. Đorđe Balašević - Starim [06:07]
Playing Time.........: 01:09:35
Total Size...........: 164,21 MB
Colonia - Gold edition [2CD] (2005) MP3

Klikni za povečavo!
12-02-2021 14:42 naložil System
Sejalci: 1 / Odjemalci: 0 / Velikost: 339.67 MB / Dokončani: 33
Prenesi torrent Poročaj torrent Opis torrenta NFO
Zvrst: Glasbeni
Kategorija: GLASBA > Glasba
Anonimen nalagalec

---------------------------------------------------------------------
Colonia - Gold Edition
---------------------------------------------------------------------
Artist...............: Colonia
Album................: Gold Edition
Genre................: Eurodance
Source...............: CD
Year.................: 2005
Ripper...............: EAC (Secure mode) / LAME 3.92 & Asus CD-S520
Codec................: LAME 3.98
Version..............: MPEG 1 Layer III
Quality..............: Insane, (avg. bitrate: 320kbps)
Channels.............: Stereo / 44100 hz
News Server..........: news.astraweb.com
News Group(s)........: alt.binaries.pl.mp3
Included.............: NFO
---------------------------------------------------------------------
Tracklisting CD1
---------------------------------------------------------------------
1. Colonia - Sve Oko Mene Je Grijeh [04:49]
2. Colonia - Njeno Ime Ne Zovi U Snu [03:58]
3. Colonia - Deja Vu [03:36]
4. Colonia - Za Tvoje Snene Oči (Feat. Neno Dj) [04:37]
5. Colonia - Svijet Voli Pobjednike [04:03]
6. Colonia - Nikad Više (Feat. Jacques Houdek) [04:10]
7. Colonia - Takvi Kao Ti [04:20]
8. Colonia - Nevjera [04:27]
9. Colonia - Oduzimaš mi dah [04:19]
10. Colonia - Svjetla Grada [04:41]
11. Colonia - Na Tvojoj Strani Postelje [03:46]
12. Colonia - Zadnji Let Za Pariz [04:36]
13. Colonia - C'est La Vie [04:06]
14. Colonia - Plamen Od Ljubavi [03:58]
15. Colonia - Luda Za Tobom [04:24]
16. Colonia - Ljeto 80 I Neke [05:32]
17. Colonia - Običan Dan [04:02]
18. Colonia - Prvi Poljubac [04:16]
Playing Time.........: 01:17:47
Total Size...........: 179,63 MB
---------------------------------------------------------------------
Tracklisting CD2
---------------------------------------------------------------------
1. Colonia - U Ritmu Ljubavi (Summer Extended Rmx) [04:13]
2. Colonia - Dok Je Tebe I Ljubavi (Unreleased Extended Rmx)[04:09]
3. Colonia - Ti Da Bu Di Bu Da (Goblin Extended Rmx) [04:36]
4. Colonia - Božićna Noć (Remix) [03:54]
5. Colonia - Prvi I Zadnji (Lp Extended Rmx) [06:24]
6. Colonia - Takvi Kao Ti (Lp Extended Rmx) [06:53]
7. Colonia - Još Jednom Za Kraj (Lp Extended Rmx) [05:51]
8. Colonia - Svijet Voli Pobjednike (Feat. Neno Dj) (Lp Extended Rmx)[04:53]
9. Colonia - Za Tvoje Snene Oči (Lp Extended Rmx) [07:52]
10. Colonia - Oduzimaš Mi Dah (Acapella Dub Mix) [03:50]
11. Colonia - C'est La Vie (Pop Carousel Mix) [03:26]
12. Colonia - Običan Dan (Motiwwwo Remix) [06:43]
13. Colonia - Medley Hit Mix 2005 (Vatra I Led - Sve Oko Mene Je Grijeh - Dio Nje)[06:33]
Playing Time.........: 01:09:24
Total Size...........: 159,99 MB
Severina - The Best Of Collection (2020) MP3

Klikni za povečavo!
12-02-2021 12:24 naložil System
Sejalci: 1 / Odjemalci: 0 / Velikost: 197.32 MB / Dokončani: 51
Prenesi torrent Poročaj torrent Opis torrenta NFO
Zvrst: Glasbeni
Kategorija: GLASBA > Glasba
Anonimen nalagalec

---------------------------------------------------------------------
Severina - The Best Of Collection
---------------------------------------------------------------------
Artist...............: Severina
Album................: The Best Of Collection
Genre................: Pop
Source...............: CD
Year.................: 2020
Ripper...............: EAC (Secure mode) / LAME 3.92 & Asus CD-S520
Codec................: LAME 3.99
Version..............: MPEG 1 Layer III
Quality..............: Insane, (avg. bitrate: 320kbps)
Channels.............: Stereo / 44100 hz
T
News Server..........: news.astraweb.com
News Group(s)........: alt.binaries.pl.mp3
Included.............: NFO
---------------------------------------------------------------------
Tracklisting
---------------------------------------------------------------------
1. Severina - Dalmatinka [03:57]
2. Severina - Covjek Kojeg Volim [03:55]
3. Severina - Paloma Nera [03:21]
4. Severina - Ti Si Srce Moje [03:52]
5. Severina - Tvoja Prva Djevojka [04:32]
6. Severina - Prijateljice [03:16]
7. Severina - Djevojka Sa Sela [04:25]
8. Severina - Rastajem Se Od Zivota [02:57]
9. Severina - Trava Zelena [03:58]
10. Severina - Ante [02:48]
11. Severina - Mala Je Dala [03:34]
12. Severina - Ja Samo Pjevam [03:20]
13. Severina - Da Si Moj [03:22]
14. Severina - Krivi Spoj [03:08]
15. Severina - Kreni [03:16]
16. Severina - Ajde, Ajde Zlato Moje [03:22]
17. Severina - 'ko Je Kriv [04:30]
18. Severina - Mili Moj [03:58]
19. Severina - Pogled Ispod Obrva [04:12]
20. Severina - Virujen U Te [04:12]
Playing Time.........: 01:14:07
Total Size...........: 196,64 MB
Luka Basi - Luka Basi (2019) MP3

Klikni za povečavo!
12-02-2021 12:09 naložil System
Sejalci: 1 / Odjemalci: 0 / Velikost: 102.33 MB / Dokončani: 49
Prenesi torrent Poročaj torrent Opis torrenta NFO
Zvrst: Glasbeni
Kategorija: GLASBA > Glasba
Anonimen nalagalec

---------------------------------------------------------------------
Luka Basi - Luka Basi
---------------------------------------------------------------------
Artist...............: Luka Basi
Album................: Luka Basi
Genre................: Pop
Source...............: CD
Year.................: 2019
Ripper...............: EAC (Secure mode) / LAME 3.92 & Asus CD-S520
Codec................: LAME 3.99
Version..............: MPEG 1 Layer III
Quality..............: Insane, (avg. bitrate: 320kbps)
Channels.............: Stereo / 44100 hz
Tags.................: ID3 v1.1, ID3 v2.3
News Server..........: news.astraweb.com
News Group(s)........: alt.binaries.pl.mp3
Included.............: NFO
---------------------------------------------------------------------
Tracklisting
---------------------------------------------------------------------
1. Luka Basi - Sedam Noci [03:24]
2. Luka Basi - Ruzo Bila (Feat. Marko Skugor) [03:12]
3. Luka Basi - Istrijanko Ruzo Moja [03:16]
4. Luka Basi - U Bijelom [03:13]
5. Luka Basi - Meta [03:18]
6. Luka Basi - Solo (Feat. Lidija Bacic) [04:04]
7. Luka Basi - Moja (Feat. Ljubavnici) [03:41]
8. Luka Basi - Kad Vidin Boga - Uzivo [03:28]
9. Luka Basi - Nisam Ja Od Jucer (Feat. Jole) [03:53]
10. Luka Basi - Upalimo Ljubav (Feat. Lana Jurcevic) [03:15]
11. Luka Basi - Seko Moja [04:20]
12. Luka Basi - Kombinacija [03:41]
Playing Time.........: 42:49
Total Size...........: 101,85 MB
Viki Ašič z ansamblom in prijatelji

Klikni za povečavo!
12-02-2021 10:58 naložil rado77
Sejalci: 1 / Odjemalci: 0 / Velikost: 536.21 MB / Dokončani: 3
Prenesi torrent Poročaj torrent Opis torrenta
Zvrst: Glasbeni
Kategorija: GLASBA > Video

Viki Ašič z ansamblom in prijatelji

Želja uporabnika: silvoa

Ansambel Vikija Ašiča
Osrednja osebnost v ansamblu je VIki Ašič, doma iz Celja. Ansambel je nastopal kot trio in kot prvi kvintet z diatonično harmoniko, še posebej pa je znan Viki Ašič kot odličen solist s harmoniko.
Svoj prvi ansambel je ustanovil na pobudo dveh odličnih glasbenikov, bratov Ivana in Slavka Lipovška, leta 1970. V prvi zasedbi so nastopali poleg Vikija še klarinetist Ivan Lipovšek, trobentar Slavko Lipovšek, kitarist Maks Kramer, basist Nande Reberšak ter pevski kvartet Franc Jurkovnik, Jože Brežnik, Franc Pekošak ter Ivo Knez, ki je kvartet tudi vodil.
Na ptujskem festivalu leta 1971 je ansambel Vikija Ašiča dobil nagrado kot najboljši debitant, isto leto pa je posnel tudi malo ploščo z naslovom Rompompom. Naslovno skladbo je napisal Ivo Knez, dve skladbi pa Viki Ašič. Istega leta je ansambel nastopil tudi v priljubljeni radijski oddaji Koncert iz naših krajev.
Ansambel Vikija Ašiča - vmes se je imenoval tudi Kvintet Vikija Ašiča - je imel kar precej kadrovskih zamenjav. Harmoniko je, seveda, ves čas igral Viki Ašič, sestava iz leta 1984 pa je bila: trobentar Tone Videc, klarinet Emil Jarmšek in Jože Leskovšek, kitara Silvo Gorenšek, Ivo Korošec in Maks Kramer, bas Alojz Pavlič, peli pa so Cveto Konec, Maks Kramer, Slavica Kramer in Marija Volasko.
Od leta 1980 naprej je trobento igral Milan Djakušič-Rojnik, klarinet Franc Jerič-Jera, kitaro Karl Zorman, Tone Mohar in Stane Čanžek, bas pa Stano Hergamas, Albert Kolbl, Vlado Čuvan in tudi Rajko Laznik.
V letu 1995 je Viki Ašič prešel na trio, z njim pa je prepeval oktet Studenček.
Ansambel Vikija Ašiča je leta 1972 dobil na ptujskem festivalu prvo nagrado za instrumentalno izvedbo, na Števerjanskem pa prvo nagrado občinstva. Večkrat je gostoval tudi v Avstriji in Nemčiji.
Ansambel Vikija Ašiča je posnel štiri velike in štiri male plošče ter šest kaset, v Avstriji pa eno veliko ploščo in eno zgoščenko.
Besedila za ansambel Vikija Ašiča so pisali Meta Rainer, Franc Jurkovnik, Marjan Stare in Ivan Sivec.







DISKOGRAFIJA:
LP (velike plošče):
Razigrana harmonika (1978)
Haloze sončne (1972)
EP (male plošče) in singli:
Rom pom pom polka (1971)
Za materin praznik/Ptuju v čast (1978)
Kje si moj sin
Viri: Vsi najboljši muzikanti I, 1998
Video vsebina:





Veliko užitkov!
Ara.Malikian-una.vida.entre.las.cuerdas.2019.SLOSubs.720p.HDTVRip-R77

Klikni za povečavo!
31-01-2021 15:38 naložil rado77
Sejalci: 1 / Odjemalci: 0 / Velikost: 2.05 GB / Dokončani: 7
Prenesi torrent Poročaj torrent Opis torrenta
Zvrst: Glasbeni
Kategorija: GLASBA > Video

Ara.Malikian-una.vida.entre.las.cuerdas.2019.SLOSubs.720p.HDTVRip-R77





Ara Malikian: una vida entre las cuerdas (2019)

Življenje med strunami






Režija Nata Moreno

Scenarij: Nacho R. Piedra (pisatelj), Nata Moreno
Žanr: celovečerni dokumentarni
Država: Španija
Jezik: Španščina, angleščina
Podnapisi: Slovenski

Glavna vloga: Ara Malikian


Povzetek:


Potovanje skozi življenje violinista Ara Malikiana in njegov nedvomen prispevek k klasični in sodobni glasbi. Nadaljevanje med njegovo zadnjo simfonično turnejo po Španiji in državah, kot so Libanon, Francija, Anglija, Kitajska, Rusija ...

Hkrati pove svojo fascinantno osebno zgodbo: glasba mu je rešila življenje z begom pred vojno. Ara je zapustil Bejrut pri 14 letih in od takrat živi kot nomad, ki svojo glasbo popelje po vsem svetu.

Film ki gledalca zelo pritegne, mu postavi marsikatero vprašanje in hkrati odgovore!





Tehnične specifikacije:


Complete name : Ara.Malikian-una.vida.entre.las.cuerdas.2019.SLOSubs.720p.HDTVRip-R77
Format : MPEG-4
Format profile : Base Media
Codec ID : isom (isom/iso2/avc1/mp41)
File size : 2.05 GiB
Duration : 1 h 28 min
Overall bit rate : 3 302 kb/s
Writing application : Lavf58.29.100

Video
ID : 1
Format : AVC
Format/Info : Advanced Video Codec
Format profile : High@L3.1
Format settings : CABAC / 3 Ref Frames
Format settings, CABAC : Yes
Format settings, Reference frames : 3 frames
Codec ID : avc1
Codec ID/Info : Advanced Video Coding
Duration : 1 h 28 min
Bit rate : 3 167 kb/s
Width : 1 280 pixels
Height : 720 pixels
Display aspect ratio : 16:9
Frame rate mode : Constant
Frame rate : 25.000 FPS
Color space : YUV
Chroma subsampling : 4:2:0
Bit depth : 8 bits
Scan type : Progressive
Bits/(Pixel*Frame) : 0.137
Stream size : 1.97 GiB (96%)
Codec configuration box : avcC

Audio

ID : 2
Format : AAC LC
Format/Info : Advanced Audio Codec Low Complexity
Codec ID : mp4a-40-2
Duration : 1 h 28 min
Bit rate mode : Constant
Bit rate : 128 kb/s
Channel(s) : 2 channels
Channel layout : L R
Sampling rate : 44.1 kHz
Frame rate : 43.066 FPS (1024 SPF)
Compression mode : Lossy
Stream size : 81.6 MiB (4%)
Default : Yes
Alternate group : 1


UŽIVAJTE!