A
B
C
D
E
F
G
H
I
J
K
L
M
N
O
P
Q
R
S
T
U
V
W
X
Y
Z
0-9
DJ VIHAR & DJ AJDA - SLO & HR MIX 62

Klikni za povečavo!
17-11-2020 16:48 naložil Ajda
Sejalci: 5 / Odjemalci: 0 / Velikost: 160.84 MB / Dokončani: 93
Prenesi torrent Poročaj torrent Opis torrenta NFO
Zvrst: Glasbeni
Kategorija: GLASBA > Glasba




-------------------------------------------------------------------------------
Avdio podatki
-------------------------------------------------------------------------------
Complete name : DJ VIHAR & DJ AJDA - SLO & HR MIX 62..mp3
Format : MPEG Audio
File size : 160 MiB
Duration : 1h 10mn
Overall bit rate mode : Constant
Overall bit rate : 320 Kbps
Encoded by : Lavf52.39.0
Writing library : LAME3.98

Audio
Format : MPEG Audio
Format version : Version 1
Format profile : Layer 3
Mode : Joint stereo
Duration : 1h 10mn
Bit rate mode : Constant
Bit rate : 320 Kbps
Channel(s) : 2 channels
Sampling rate : 48.0 KHz
Compression mode : Lossy
Stream size : 160 MiB (100%)
Writing library : LAME3.98
-------------------------------------------------------------------------------
Vsebina
-------------------------------------------------------------------------------

01. MLADEN GRDOVIČ NINA DONELI - Samo jedna je dalmacija
02. ŠARMERI - Hajde milo moje
03. DINO PETRIČ KATARINA GRUJO - 100 života
04. UČITELJICE - Apsolutno
05. TRI MUŠKETIRA - Kad če zora svanuti
06. VILI RESNIK EROSI - Moja generacija
07. TANJA ŽAGAR - Rada sem tvoja
08. SKUPINA CHICAS - Nocoj s tebo
09. MLADEN GRDOVIČ MATE BULIČ - Dvi sestre
10. MANCA ŠPIK GADI - Tiho potiho
11. DARJA GAJŠEK - S teboj živim
12. DOMEN KUMER ŠPELA GROŠELJ - Vino in kitara
13.MALIGANI - Svi znaju
14. MEJAŠI - Nova godina
15. FEHTARJI - Štorklje
16. ALEN VOGRINEC GOCA - Jedini jedina
17. ŽIGA DERŠEK - Svoje barke krmar
18. DRAŽEN ZEČIČ - Volim samo nju
19. UROŠ IN TJAŠA - Zaljubljen par
20. MARIJAN SMODE - Mati ti jim reci ( posvečeno Kičotu)






Ansambel Borisa Terglava - MIX

Klikni za povečavo!
23-04-2021 09:56 naložil Timoreck
Sejalci: 0 / Odjemalci: 0 / Velikost: 49.78 MB / Dokončani: 9
Prenesi torrent Poročaj torrent Opis torrenta NFO
Zvrst: Glasbeni
Kategorija: GLASBA > Glasba

Ansambel Borisa Terglava - MIX



Avdio/Video podatki ;

Oblik datoteke : MPEG Audio
Veličina datoteke : 49,8 MiB
Trajanje : 36min
Način ukupnog protoka podataka : Ustaljeno
Ukupni protok podataka : 192 Kbps
Naziv snimke : Borisa Terglava
Kodirano pomoću knjižnice : LAME3.100
Omot : Yes
Vrsta omota : Cover (front)
MIME omota : image/jpeg
Komentar : www.mediahuman.com

Audio
Oblik datoteke : MPEG Audio
Inačica oblika datoteke : Version 1
Profil oblika datoteke : Layer 3
Format_Settings_Mode : Joint stereo
Trajanje : 36min
Način protoka podataka : Ustaljeno
Stopa protoka podataka : 192 Kbps
Kanali : 2 kanala
Učestalost uzorkovanja : 44,1 KHz
Veličina toka : 49,8 MiB (100%)
Kodirano pomoću knjižnice : LAME3.100
Alfi Nipič in Vinko Šimek - Ko toti Štajerc v dravo pade

Klikni za povečavo!
20-04-2021 09:32 naložil Timoreck
Sejalci: 1 / Odjemalci: 0 / Velikost: 6.05 MB / Dokončani: 7
Prenesi torrent Poročaj torrent Opis torrenta NFO
Zvrst: Glasbeni
Kategorija: GLASBA > Video

Alfi Nipič in Vinko Šimek - Ko toti Štajerc v dravo pade



Izvajalec: Alfi Nipič
Izvajalec: Jaka Šraufciger (Vinko Šimek)
Avtor besedila: Vinko Šimek
Avtor glasbe: Boris Rošker

-------------------------------------------------------------------------------

Avdio/Video podatki ;
Oblik datoteke : MPEG-4
Profil oblika datoteke : Base Media / Version 2
ID kôdeka : mp42
Veličina datoteke : 6,05 MiB
Trajanje : 1min 31s
Način ukupnog protoka podataka : Promjenjivo
Ukupni protok podataka : 556 Kbps
Nadnevak kodiranja : UTC 2015-12-12 14:42:32
Nadnevak označavanja : UTC 2015-12-12 14:42:32
Xtra : WM/MediaClassPrimaryID

Video
ID : 1
Oblik datoteke : AVC
Oblik datoteke/Informacija : Advanced Video Codec
Profil oblika datoteke : Baseline@L3.0
Postavke oblika datoteke za CABAC : Ne
Postavke oblika datoteke za ReFrames : 1 sličica
Format_Settings_GOP : M=1, N=60
ID kôdeka : avc1
ID kôdeka/Informacija : Advanced Video Coding
Trajanje : 1min 31s
Stopa protoka podataka : 457 Kbps
Maksimum protoka podataka : 798 Kbps
Širina : 608 piksela
Visina : 360 piksela
Omjer slike : 1,689
Način protoka sličica : Ustaljeno
Protok sličica : 25,000 fps
ColorSpace : YUV
ChromaSubsampling : 4:2:0
BitDepth/String : 8 bita
Vrsta pregledavanja : Progresivno
Bita/(piksela*sličica) : 0.084
Veličina toka : 4,97 MiB (82%)
Nadnevak označavanja : UTC 2015-12-12 14:42:32

Audio
ID : 2
Oblik datoteke : AAC
Oblik datoteke/Informacija : Advanced Audio Codec
Profil oblika datoteke : LC
ID kôdeka : 40
Trajanje : 1min 31s
Način protoka podataka : Promjenjivo
Stopa protoka podataka : 96,0 Kbps
Maksimum protoka podataka : 104 Kbps
Kanali : 2 kanala
Položaj kanala : Front: L R
Učestalost uzorkovanja : 44,1 KHz
Veličina toka : 1,04 MiB (17%)
Naslov : IsoMedia File Produced by Google, 5-11-2011
Nadnevak kodiranja : UTC 2015-12-12 14:42:32
Nadnevak označavanja : UTC 2015-12-12 14:42:32

--------------------------------------------------------------------

Ansambel bratov Avsenik - Zlati Zvoki (1972)

Klikni za povečavo!
20-04-2021 08:32 naložil Timoreck
Sejalci: 0 / Odjemalci: 0 / Velikost: 91.86 MB / Dokončani: 5
Prenesi torrent Poročaj torrent Opis torrenta NFO
Zvrst: Glasbeni
Kategorija: GLASBA > Glasba

Ansambel bratov Avsenik - Zlati Zvoki (1972)




Avdio/Video podatki ;

Oblik datoteke : MPEG-4
Profil oblika datoteke : Base Media
ID kôdeka : isom
Veličina datoteke : 91,9 MiB
Trajanje : 1h 10min
Ukupni protok podataka : 182 Kbps
Naslov filma : Zlati Zvoki (1972)
Izvođač : Ansambel bratov Avsenik
Kodirajući program : Lavf58.29.100
Omot : Yes
Komentar : www.mediahuman.com

Video
ID : 1
Oblik datoteke : AVC
Oblik datoteke/Informacija : Advanced Video Codec
Profil oblika datoteke : Main@L3.1
Postavke oblika datoteke za CABAC : Da
Postavke oblika datoteke za ReFrames : 3 sličice
ID kôdeka : avc1
ID kôdeka/Informacija : Advanced Video Coding
Trajanje : 1h 10min
Stopa protoka podataka : 48,2 Kbps
Širina : 854 piksela
Visina : 480 piksela
Omjer slike : 16:9
Način protoka sličica : Ustaljeno
Protok sličica : 29,970 fps
ColorSpace : YUV
ChromaSubsampling : 4:2:0
BitDepth/String : 8 bita
Vrsta pregledavanja : Progresivno
Bita/(piksela*sličica) : 0.004
Veličina toka : 24,3 MiB (26%)

Audio
ID : 2
Oblik datoteke : AAC
Oblik datoteke/Informacija : Advanced Audio Codec
Profil oblika datoteke : LC
ID kôdeka : 40
Trajanje : 1h 10min
Način protoka podataka : Ustaljeno
Stopa protoka podataka : 126 Kbps
Kanali : 2 kanala
Položaj kanala : Front: L R
Učestalost uzorkovanja : 44,1 KHz
Veličina toka : 63,4 MiB (69%)

--------------------------------------------------------------------

Seznam skladb

1 Zlati zvoki
2 Nikar domov
3 Ob slapu
4 Gremo na Pokljuko
5 Valček s harmoniko
6 Shujševalna kura
7 Rana ura, huda ura
8 Cvetoče tulpe
9 Na avtocesti
10 Zinka, Zefka, Zofka
11 Nasvidenje
12 Pogled v dolino
13 S polko v svet
14 Gozdovi v mesečini
15 Čez Korensko sedlo
16 Pri sedmerih jezerih
17 Z mano se ozri
18 Med rojaki v Ameriki
19 Gozdarjeva povest
20 V švicarskih Alpah
21 Jedraj z menoj
22 Miss
23 Po planinski magistrali
24 Najlepše je doma

50.jubilejni Festival narečnih popevk TV Maribor

Klikni za povečavo!
19-04-2021 06:04 naložil Timoreck
Sejalci: 0 / Odjemalci: 0 / Velikost: 1.01 GB / Dokončani: 2
Prenesi torrent Poročaj torrent Opis torrenta NFO
Zvrst: Glasbeni
Kategorija: GLASBA > Video

50.jubilejni Festival narečnih popevk TV Maribor
28.9.2012



Festival narečnih popevk, ki letos ni bil tekmovalne narave, praznuje abrahama. Osrednja tema festivala je bilo tako obujanje spominov.

Obiskovalci, gledalci in poslušalci so lahko ob častitljivem jubileju uživali v največjih uspešnicah festivala iz preteklih 50 let.

Večina programa je bila izvedena z izvirnimi izvajalci, ki so bili na narečnem festivalu v vseh teh letih najuspešnejši. Prepevali so ob spremljavi vokalnega kvarteta in Big banda RTV Slovenija pod dirigentsko taktirko Lojzeta Krajnčana, Edvarda Holnthanerja in Bertija Rodoška.

Jubilejni festival je otvorila Lidija Kodrič s pesmijo Moja mala tiha sreča, zaključil pa se je z nastopom Alfija Nipiča in pomočjo vseh ostalih udeležencev, ki so skupaj zapeli skladbo Štajerc.

Več kot 150 nastopajočih je poskrbelo, da je bil večer nepozaben. Poleg omenjenih so nastopili še: Edvin Fliser, Nuša Derenda, Lado Leskovar, Braco Koren, Berti Rodošek, Janko Ropret, Irena Vrčkovnik, Branka Kraner, Domen Kumer, Rudi Šantl, Jerica Mrzel, Marjan Smode, Dušan Kobal, Anita Kralj, Milan Kamnik, Lea Likar, Robi Horvat, Nataša Mihelič, Rudi Miložič, Damjan Zih, Zorica Fingušt Fatur, Damjana Golavšek, Monika in Alenka Heričko, Modrijani, Vinko Šimek, Jože Kobler, Malibu, Prifarski muzikanti, Štajerskih 7, Frajkinclari, Zreška pomlad, Halgato band, Langa, Čudežna polja, Vesele Štajerke, Pajdaši, Rdeči dečki, Dori, Cmok, Crescendo, Folkrola, Završki fantje in drugi.

-------------------------------------------------------------------------------

Avdio/Video podatki ;

Potpuni naziv : G:\Glazba\50.jubilejni Festival narečnih popevk TV Maribor 28.9.2012.mp4
Oblik datoteke : Matroska
Inačica oblika datoteke : Version 4 / Version 2
Veličina datoteke : 1,01 GiB
Trajanje : 2h 30min
Ukupni protok podataka : 963 Kbps
Kodirajući program : Lavf57.26.100
Kodirano pomoću knjižnice : Lavf57.26.100

Video
ID : 2
Oblik datoteke : AVC
Oblik datoteke/Informacija : Advanced Video Codec
Profil oblika datoteke : Main@L3.0
Postavke oblika datoteke za CABAC : Da
Postavke oblika datoteke za ReFrames : 3 sličice
ID kôdeka : V_MPEG4/ISO/AVC
Trajanje : 2h 30min
Širina : 766 piksela
Visina : 480 piksela
Omjer slike : 16:10
Način protoka sličica : Ustaljeno
Protok sličica : 25,000 fps
ColorSpace : YUV
ChromaSubsampling : 4:2:0
BitDepth/String : 8 bita
Vrsta pregledavanja : Progresivno
Default : Da
Forced : Ne
HANDLER_NAME : VideoHandler
DURATION : 02:30:09.680000000

Audio
ID : 1
Oblik datoteke : AAC
Oblik datoteke/Informacija : Advanced Audio Codec
Profil oblika datoteke : LC
ID kôdeka : A_AAC
Trajanje : 2h 30min
Kanali : 2 kanala
Položaj kanala : Front: L R
Učestalost uzorkovanja : 44,1 KHz
Default : Da
Forced : Ne
HANDLER_NAME : SoundHandler
DURATION : 02:30:09.783000000
--------------------------------------------------------------------


Ansambel Lojzeta Slaka - MIX

Klikni za povečavo!
18-04-2021 10:20 naložil Timoreck
Sejalci: 1 / Odjemalci: 0 / Velikost: 263.59 MB / Dokončani: 52
Prenesi torrent Poročaj torrent Opis torrenta NFO
Zvrst: Glasbeni
Kategorija: GLASBA > Glasba


Ansambel Lojzeta Slaka - MIX



Avdio/Video podatki ;

Potpuni naziv : F:\Glazba\Lojze Slak Mix 2013.mp4
Oblik datoteke : Matroska
Inačica oblika datoteke : Version 4 / Version 2
Veličina datoteke : 39,1 MiB
Trajanje : 31min
Ukupni protok podataka : 173 Kbps
Kodirajući program : Lavf57.26.100
Kodirano pomoću knjižnice : Lavf57.26.100

Video
ID : 2
Oblik datoteke : AVC
Oblik datoteke/Informacija : Advanced Video Codec
Profil oblika datoteke : Main@L3.1
Postavke oblika datoteke za CABAC : Da
Postavke oblika datoteke za ReFrames : 3 sličice
ID kôdeka : V_MPEG4/ISO/AVC
Trajanje : 31min
Širina : 854 piksela
Visina : 480 piksela
Omjer slike : 16:9
Način protoka sličica : Ustaljeno
Protok sličica : 29,970 fps
ColorSpace : YUV
ChromaSubsampling : 4:2:0
BitDepth/String : 8 bita
Vrsta pregledavanja : Progresivno
Default : Da
Forced : Ne
HANDLER_NAME : VideoHandler
DURATION : 00:31:33.291000000

Audio
ID : 1
Oblik datoteke : AAC
Oblik datoteke/Informacija : Advanced Audio Codec
Profil oblika datoteke : LC
ID kôdeka : A_AAC
Trajanje : 31min
Kanali : 2 kanala
Položaj kanala : Front: L R
Učestalost uzorkovanja : 44,1 KHz
Default : Da
Forced : Ne
HANDLER_NAME : SoundHandler
DURATION : 00:31:33.355000000
--------------------------------------------------------------------

Potpuni naziv : F:\Ansambel Lojzeta Slaka-MIX najlepših pesmi(2018).mp4
Oblik datoteke : Matroska
Inačica oblika datoteke : Version 4 / Version 2
Veličina datoteke : 168 MiB
Trajanje : 1h 28min
Ukupni protok podataka : 265 Kbps
Kodirajući program : Lavf57.26.100
Kodirano pomoću knjižnice : Lavf57.26.100

Video
ID : 2
Oblik datoteke : AVC
Oblik datoteke/Informacija : Advanced Video Codec
Profil oblika datoteke : Main@L3.1
Postavke oblika datoteke za CABAC : Da
Postavke oblika datoteke za ReFrames : 3 sličice
ID kôdeka : V_MPEG4/ISO/AVC
Trajanje : 1h 28min
Širina : 1 .280 piksela
Visina : 720 piksela
Omjer slike : 16:9
Način protoka sličica : Ustaljeno
Protok sličica : 29,970 fps
ColorSpace : YUV
ChromaSubsampling : 4:2:0
BitDepth/String : 8 bita
Vrsta pregledavanja : Progresivno
Default : Da
Forced : Ne
colour_primaries : BT.709
transfer_characteristics : BT.709
matrix_coefficients : BT.709
HANDLER_NAME : VideoHandler
DURATION : 01:28:34.075000000

Audio
ID : 1
Oblik datoteke : AAC
Oblik datoteke/Informacija : Advanced Audio Codec
Profil oblika datoteke : LC
ID kôdeka : A_AAC
Trajanje : 1h 28min
Kanali : 2 kanala
Položaj kanala : Front: L R
Učestalost uzorkovanja : 44,1 KHz
Jezik : Engleski
Default : Da
Forced : Ne
HANDLER_NAME : SoundHandler
DURATION : 01:28:34.142000000
---------------------------------------------------------------------

Vsebina :

Ansambel Lojzeta Slaka - Božični večer.mp4
Ansambel Lojzeta Slaka - Titanik.mp4
Lojze Slak - Po Dekle.mp4
Ansambel Lojzeta Slaka-MIX najlepših pesmi(2018).mp4
Lojze Slak Mix 2013.mp4


André Rieu - Christmas in London (2017)

Klikni za povečavo!
17-04-2021 08:30 naložil Timoreck
Sejalci: 0 / Odjemalci: 0 / Velikost: 939.54 MB / Dokončani: 3
Prenesi torrent Poročaj torrent Opis torrenta NFO
Zvrst: Glasbeni
Kategorija: GLASBA > Video

André Rieu - Christmas in London (2017)



Christmas in London

Christmas is now more beautiful and cosy than ever! Experience Christmas in London, together with André Rieu. Decorated Christmas trees everywhere you look, beautifully lit streets, tempting Christmas window displays… Combine the unique London Christmas atmosphere with a magnificent Christmas concert by André Rieu, and you have all the ingredients for a lovely party in the dark December days.

Together with fantastic soloists and his always joyful Johann Strauss orchestra, André Rieu provides a fabulous evening with the most beautiful and moving Christmas carols, but also with emotional songs such as Leonard Cohen’s Hallelujah, The Holy City and the classic Concierto de Aranjuez.

Christmas in London means an evening enjoying lovely music, beautiful costumes and plenty of London cosiness.

-------------------------------------------------------------------------------

Avdio/Video podatki ;

Oblik datoteke : Matroska
Inačica oblika datoteke : Version 4 / Version 2
Veličina datoteke : 940 MiB
Trajanje : 55min
Ukupni protok podataka : 2 .360 Kbps
Kodirajući program : Lavf57.26.100
Kodirano pomoću knjižnice : Lavf57.26.100

Video
ID : 2
Oblik datoteke : AVC
Oblik datoteke/Informacija : Advanced Video Codec
Profil oblika datoteke : Main@L3.2
Postavke oblika datoteke za CABAC : Da
Postavke oblika datoteke za ReFrames : 3 sličice
ID kôdeka : V_MPEG4/ISO/AVC
Trajanje : 55min
Širina : 1 .280 piksela
Visina : 720 piksela
Omjer slike : 16:9
Način protoka sličica : Ustaljeno
Protok sličica : 48,000 fps
ColorSpace : YUV
ChromaSubsampling : 4:2:0
BitDepth/String : 8 bita
Vrsta pregledavanja : Progresivno
Default : Da
Forced : Ne
colour_primaries : BT.709
transfer_characteristics : BT.709
matrix_coefficients : BT.709
HANDLER_NAME : VideoHandler
DURATION : 00:55:39.417000000

Audio
ID : 1
Oblik datoteke : AAC
Oblik datoteke/Informacija : Advanced Audio Codec
Profil oblika datoteke : LC
ID kôdeka : A_AAC
Trajanje : 55min
Kanali : 2 kanala
Položaj kanala : Front: L R
Učestalost uzorkovanja : 44,1 KHz
Default : Da
Forced : Ne
HANDLER_NAME : SoundHandler
DURATION : 00:55:39.470000000



Ansambel Avsenik - MIX + Bonus

Klikni za povečavo!
17-04-2021 05:48 naložil Timoreck
Sejalci: 1 / Odjemalci: 0 / Velikost: 1.11 GB / Dokončani: 33
Prenesi torrent Poročaj torrent Opis torrenta NFO
Zvrst: Glasbeni
Kategorija: GLASBA > Glasba

Ansambel Avsenik - MIX + Bonus


Avdio podatki ;

Oblik datoteke : Windows Media
Veličina datoteke : 2,81 MiB
Trajanje : 2min 59s
Način ukupnog protoka podataka : Ustaljeno
Ukupni protok podataka : 131 Kbps
Maksimum ukupnog protoka podataka : 129 Kbps
Album : Na Golici-arhiv 1953-1955
Naziv snimke : Ko lovec je na štoru spal
Naziv snimke/položaj : 12
Izvođač : Trio Slavka Avsenika
Glazbeni smjer : Narodnozabavna
Nadnevak snimanja : 2005
Nadnevak kodiranja : UTC 2013-10-23 18:18:12.711
Omot : Y
Vrjednovanje : 0
Provider : User Feedback
MediaFoundationVersion : 2.112
WM/OriginalAlbumArtist : Trio Slavka Avsenika
WM/SharedUserRating : 0

Audio
ID : 1
Oblik datoteke : WMA
Inačica oblika datoteke : Version 2
ID kôdeka : 161
ID kôdeka/Informacija : Windows Media Audio
Opis kôdeka : Windows Media Audio 9.2 - 128 kbps, 44 kHz, stereo 1-pass CBR
Trajanje : 2min 59s
Način protoka podataka : Ustaljeno
Stopa protoka podataka : 128 Kbps
Kanali : 2 kanala
Učestalost uzorkovanja : 44,1 KHz
BitDepth/String : 16 bita
Veličina toka : 2,74 MiB (98%)
--------------------------------------------------------------------------------------------------------
Oblik datoteke : FLAC
Oblik datoteke/Informacija : Free Lossless Audio Codec
Veličina datoteke : 16,4 MiB
Trajanje : 2min 38s
Način ukupnog protoka podataka : Promjenjivo
Ukupni protok podataka : 867 Kbps
Album : Tam kjer murke cveto
Album/Izvođač : Ansambel bratov Avsenik
Naziv snimke : Tam kjer murke cveto
Naziv snimke/položaj : 3
Naziv snimke/ukupno : 16
Izvođač : Ansambel bratov Avsenik
Glazbeni smjer : Narodnozabavna
Nadnevak snimanja : 1997
Omot : Yes
Vrsta omota : Cover (front)
MIME omota : image/jpeg
Komentar : [SloLord]
Source : CD (Lossless)

Audio
Oblik datoteke : FLAC
Oblik datoteke/Informacija : Free Lossless Audio Codec
Trajanje : 2min 38s
Način protoka podataka : Promjenjivo
Stopa protoka podataka : 864 Kbps
Kanali : 2 kanala
Učestalost uzorkovanja : 44,1 KHz
BitDepth/String : 16 bita
Veličina toka : 16,3 MiB (100%)
Kodirano pomoću knjižnice : libFLAC 1.2.1 (UTC 2007-09-17)
----------------------------------------------------------------------------------------------------------
Oblik datoteke : MPEG Audio
Veličina datoteke : 8,26 MiB
Trajanje : 3min 35s
Način ukupnog protoka podataka : Ustaljeno
Ukupni protok podataka : 320 Kbps
Album : Srecno novo leto
Dio/položaj : 1
Dio/ukupno : 1
Naziv snimke : Srecno novo leto
Naziv snimke/položaj : 01
Naziv snimke/ukupno : 24
Izvođač : Ansambel bratov Avsenik
Kodirao : Exact Audio Copy (Burst mode)
Glazbeni smjer : Folk/Narodna
Nadnevak snimanja : 1981
Kodirano pomoću knjižnice : LAME3.98r
Omot : Yes
MIME omota : image/jpeg

Audio
Oblik datoteke : MPEG Audio
Inačica oblika datoteke : Version 1
Profil oblika datoteke : Layer 3
Format_Settings_Mode : Joint stereo
Trajanje : 3min 35s
Način protoka podataka : Ustaljeno
Stopa protoka podataka : 320 Kbps
Kanali : 2 kanala
Učestalost uzorkovanja : 44,1 KHz
Veličina toka : 8,21 MiB (99%)
Kodirano pomoću knjižnice : LAME3.98r
Postavke kodiranja : -m j -V 4 -q 2 -lowpass 20.5
--------------------------------------------------------------------------------------------

Vsebina :

Ansambel Avsenik - Na Golici-arhiv 1953-1955 - 2005

01 Na Golici
02 Pozno v noč
03 V planinski koči
04 Slovo
05 Vaška polka
06 Na izletu
07 Pleničke je prala
08 Čez Trojane
09 Rez'ka
10 V pustnih dneh
11 Še, še en krajcarček 'mam
12 Ko lovec je na štoru spal
13 Če vinček govori
14 Zmeraj veseli

Ansambel bratov Avsenik - 2000 še in še (1999) Flac

1 2000 še in še -
2 Poskočna polka
3 Vsepovsod po naši prelepi deželi
4 Tam kjer murke cveto
5 Veselo s harmoniko in kitaro
6 Venček polk - Na robleku
7 Moj Floki
8 Čez zelene trate - Proti jutru
9 Zvezde na nebu žare
10 Spomin
11 Glasbena voščilnica
12 Slovenski pozdravi
13 Kitare plešejo
14 Mami
15 Očetu
16 Te pa tikou vredi
17 Na Golici

Ansambel bratov Avsenik - Tam kjer murke cveto - 1997 Flac

01 Ansambel bratov Avsenik - Prelepa Gorenjska
02 Ansambel bratov Avsenik - So mam'ca mi djali
03 Ansambel bratov Avsenik - Tam kjer murke cveto
04 Ansambel bratov Avsenik - Pri sosedovih na obisku
05 Ansambel bratov Avsenik - Moj rodni kraj, moj rodni dom
06 Ansambel bratov Avsenik - Če vinček govori
07 Ansambel bratov Avsenik - Stara polka
08 Ansambel bratov Avsenik - Na mostu
09 Ansambel bratov Avsenik - Čujte me, čujte, mamica vi
10 Ansambel bratov Avsenik - Kadar bom vandral
11 Ansambel bratov Avsenik - Spet na vasi
12 Ansambel bratov Avsenik - Hodil po gozdu sem
13 Ansambel bratov Avsenik - Kaj pa reče mam'ca moja
14 Ansambel bratov Avsenik - Jej, jej, k'mam težko glavo
15 Ansambel bratov Avsenik - Jesenska (Bila jesen je)
16 Ansambel bratov Avsenik - Rez'ka

Ansambel bratov Avsenik-Srečno Novo Leto 1981

01 Srecno novo leto
02 Izlet na dezelo
03 Pozdrav s Pohorja
04 Ponocnjaki
05 Na Gorjusah
06 Prelep je svet
07 Praznik prsuta in terana
08 Domace veselje
09 Ljubici v slovo
10 Zaplesimo polko
11 Majski izlet
12 Nasim znancem
13 Tingel tangel polka
14 Franc-vseved
15 Prvi soncni zarek
16 Ko se zjutraj prebudim
17 Zbrani in veseli
18 Enkrat na leto praznujem
19 Jesenska polka
20 Kadar pridem na Planico
21 Kam tako hitis
22 Ko bos tod mimo sel
23 Vaski godec
24 Najlepsi cvet

Ansambel bratov Avsenik- Srečno Novo Leto 1991

01 Novoletno voščilo Zvezde na nebu žare
02 Zimska pravljica
03 Otroške želje
04 Prelepi zimski čas
05 Zimski večer
06 Okoli novega leta
07 Dedek mraz prihaja
08 Družinski praznik
09 Koledarska polka
10 Polnočni zvonovi
11 Novoletni koledar
12 S polko v novo leto
13 Srečno novo leto
14 Izlet na deželo
15 Pozdrav s Pohorja
16 Ponočnjaki
17 Na Gorjušah
18 Prelep je svet
19 Praznik pršuta in terana
20 Domače veselje


-----------------------------------------------------------------------------------------

Bonus (delni video):

Rafko Irgolič - OH SUZANA
Rafko Irgolic - Moj crni konj
Rafko Irgolič - Zabučale gore
Rafko Irgolič in Stane Mancini - Domovina
Rafko Irgolič JAHAM SPET V KOLORADO

-------------------------------------------------------------------------------------------------------

Stanka Kovačič - Kitara
Stanka Kovačič - Mix


Noč Modrijanov 2018- (1)

Klikni za povečavo!
15-04-2021 06:16 naložil Timoreck
Sejalci: 1 / Odjemalci: 0 / Velikost: 1.33 GB / Dokončani: 3
Prenesi torrent Poročaj torrent Opis torrenta NFO
Zvrst: Glasbeni
Kategorija: GLASBA > Video

Noč Modrijanov 2018- (1)
Year : 2018
Modrijani so tudi letos poskrbeli za nepozabno noč, kjer je nastopilo kar sedemsto
nastopajočih glasbenikov in plesalcev. Koncerta pa se je udeležilo kar 12 tisoč
obiskovalcev, tudi predsednik države, Borut Pahor.

900 kvadratnih metrov, 8 nivojev in 110 kubičnih metrov lesa

Takšna je bila letošnja scena Noči. Organizatorji so predstavili Slovenijo na enem
mestu, piko na i pa so dodale tipične hiše iz slovenskih pokrajin. Obiskovalce so
nagovorili različni Slovenci, ki so povedali zakaj imajo radi svojo domovino. Na
odru je obiskovalce pozdravil stoletnik Viktor Miklič, kraljica terana Tinkara Gulič,
pesnik Feri Lainšček, dva frančiškanska patra iz Brezij, 15 članska družina, babice
iz porodnišnice v Slovenj Gradcu, ribiča iz Izole in drugi.

Potpuni naziv : F:\Glazba\Noč Modrijanov 2018 poklon Sloveniji in njenim ljudem HD 720p\Noč Modrijanov 2018 poklon Sloveniji in njenim ljudem 1 del HD.mkv
Oblik datoteke : Matroska
Inačica oblika datoteke : Version 2
Veličina datoteke : 1,33 GiB
Trajanje : 1h 37min
Ukupni protok podataka : 1 .962 Kbps
Nadnevak kodiranja : UTC 2019-01-14 16:30:58
Kodirajući program : mkvmerge v4.0.0 ('The Stars were mine') built on Jun 6 2010 16:18:42
Kodirano pomoću knjižnice : Lavf54.63.104

Video
ID : 1
Oblik datoteke : AVC
Oblik datoteke/Informacija : Advanced Video Codec
Profil oblika datoteke : High@L3.1
Postavke oblika datoteke za CABAC : Da
Postavke oblika datoteke za ReFrames : 2 sličice
ID kôdeka : V_MPEG4/ISO/AVC
Trajanje : 1h 37min
Nominalni protok podataka : 1 .800 Kbps
Širina : 1 .280 piksela
Visina : 720 piksela
Omjer slike : 16:9
Način protoka sličica : Ustaljeno
Protok sličica : 25,000 fps
ColorSpace : YUV
ChromaSubsampling : 4:2:0
BitDepth/String : 8 bita
Vrsta pregledavanja : Progresivno
Bita/(piksela*sličica) : 0.078
Kodirano pomoću knjižnice : x264 core 129
Default : Ne
Forced : Ne

Audio
ID : 2
Oblik datoteke : AAC
Oblik datoteke/Informacija : Advanced Audio Codec
Profil oblika datoteke : LC
ID kôdeka : A_AAC
Trajanje : 1h 37min
Kanali : 2 kanala
Položaj kanala : Front: L R
Učestalost uzorkovanja : 48,0 KHz
Default : Ne
Forced : Ne




Če bo zanimanje,naložim še drugi del.
Gilda.no.me.arrepiento.de.este.amor.2016.SloSubs.HDTVRip.x264.R77

Klikni za povečavo!
10-04-2021 13:44 naložil rado77
Sejalci: 1 / Odjemalci: 0 / Velikost: 1.64 GB / Dokončani: 10
Prenesi torrent Poročaj torrent Opis torrenta
Kategorija: FILMI > HDTV

[align=center]Gilda.no.me.arrepiento.de.este.amor.2016.SloSubs.HDTVRip.x264.R77



I AM GILDA

Gilda, no me arrepiento de este amor (2016)

Jaz sem Gilda


[size=5]Žanri: Biografija , drama , glasba
Režija: Lorena Muñoz
Scenarij: Tamara Viñes, Lorena Muñoz, Maria Laura Gargarella
Igrajo: Natalia Oreiro, Lautaro Delgado, Javier Drolas, Ángela Torres, Daniel Melingo, Susana Pampin, Roly Serrano, Roberto Vallejos, Daniel Valenzuela
Država: Argentina | Urugvaj
Jezik: Španski
Podnapisi: Slovenski


[b]Zgodba:

Biografska drama po resničnih dogodkih. Film o življenju in smrti Gilde, znamenite argentinske pevke posebne zvrsti glasbe, imenovane cumbia, ki je v devetdesetih letih prejšnjega stoletja razburkala glasbeno sceno v Južni Ameriki. Rodila se je kot Miriam Alejandra Bianchi in je bila do 30. leta starosti vrtnarica in vzgojiteljica v vrtcu, potem pa je v šestih letih, vse do svoje tragične smrti, dosegla v glasbi vse, kar mnogim glasbenikom ne uspe v dolgoletni karieri. Postala je kulturna glasbena ikona in za nekatere celo svetnica.
Film odlikuje odlična in doživeta igra urugvajske igralke Natalie Oriero z izjemno lepim in spevnim glasom, ki so ga ustvarjalci filma vzeli za osnovo pri poustvaritvi Gildinega petja v filmu. Gilda je v tem verodostojnem igranem portretu predstavljena kot zagnana, vztrajna in močna osebnost, ki se zna postaviti po robu vsem oviram na karierni poti, tudi najbolj mračnim, porojenim iz nezakonitega glasbenega podzemlja. Film je pripoved o izjemnem dekletu in ženski, ki jo je usoda spodrezala na vrhuncu glasbene poti.


Tehnične specifikacije:
Ime datoteke: Gilda.no.me.arrepiento.de.este.amor.2016.SloSubs.HDTVRip.x264.R77.mp4
Oblika: MP4
Informacije o obliki: QuickTime / MOV
Trajanje: 01: 53: 16.525
Velikost datoteke: 1,64 GB

Video informacije:
Video kodirnik: h264 (h.264 / avc / mpeg-4 avc / mpeg-4 del 10)
Ločljivost: 1280 * 720
Širina: 1280
Višina: 720
Razmerje zaslona: 16: 9
Hitrost sličic: 25 sličic na sekundo
Video bitna hitrost: 1945 kb / s
Barvni prostor: yuv420p

Zvočne informacije:
Dajalnik zvoka: aac (napredno kodiranje zvoka)
Avdio bitna hitrost: 127 kb / s
Hitrost vzorčenja: 48000 Hz
Zvočni kanali: stereo
Jezik: und
Trajanje: 01: 53: 16.499

Uživajte in ne pozabite na sejanje!
Andre.Rieu-Magic of the musicals.MultiSubs.1080p.DTS-HD.LPCM

Klikni za povečavo!
01-04-2021 14:03 naložil rado77
Sejalci: 1 / Odjemalci: 0 / Velikost: 10.85 GB / Dokončani: 1
Prenesi torrent Poročaj torrent Opis torrenta
Zvrst: Glasbeni
Kategorija: GLASBA > Video

Andre.Rieu-Magic of the musicals.MultiSubs.1080p.DTS-HD.LPCM


André Rieu - Magic of the Musicals

Čarobni muzikali



(kompilacija)


Nizozemski violinist in orkester Johanna Straussa izvajajo številne glasbene uspešnice. Andr Rieu je eden najbolj prodajanih sodobnih klasičnih umetnikov, saj ima za seboj več kot 20 milijonov prodaj po vsem svetu in vrsto uspešnih turnej. Rieu je leta 1987 ustanovil orkester Johanna Straussa z dvojnim ciljem promocije glasbe, ki jo ima rad, hkrati pa širši publiki približa užitke klasične glasbe. Tu Rieu in njegov orkester pozornost usmerjata na nepozabne pesmi iz odrskih muzikalov, s čimer si priskrbijo številne priljubljene melodije.


Podnapisi: Nizozemski, nemški, francoski, portugalski, španski, angleški


André Rieu skozi 18 prijetnih skladb razpre zavese in odnese glasbeni oder v vaš dom. Na tem albumu so pesmi iz številnih muzikalov, od katerih je vsaka skrbno izbrana.


Spisek izbranih skladb:
01. The Sound Of Music
02. I Will Follow Him
03. Music Of The Night
04. Somewhere Over The Rainbow
05. The Impossible Dream
06. Cinderella Waltz
07. Wishing You Were Somehow Here Again
08. All I Ask Of You
09. I Could Have Danced All Night
10. With A Little Bit Of Luck
11. Send In The Clowns
12. Supercalifragilisticexpialidocious
13. Feed The Birds
14. Don’t Cry For Me Argentina
15. Trumpet Voluntary
16. I Belong To Me
17. Memory
18. You’ll Never Walk Alone


Tehnične specifikacije:


Popolno ime: Andre.Rieu-Magic of the musicals.MultiSubs.1080p.DTS-HD.LPCM
Oblika: Matroska
Različica formata: različica 4
Velikost datoteke: 10,8 GiB
Trajanje: 1 h 31 min
Splošni način bitne hitrosti: spremenljivka
Skupna bitna hitrost: 17,0 Mb / s
Zakodiran datum: UTC 2021-03-18 16:41:47
Aplikacija za pisanje: mkvmerge v55.0.0 ('Waiting For Space'), 64-bitna
Knjižnica za pisanje: libebml v1.4.2 + libmatroska v1.6.4

Video
ID: 1
Oblika: AVC
Format / Info: Napredni video
Profil oblike: Main @ L4
Nastavitve formata: CABAC / 4 Ref
Nastavitve formata, CABAC: Da
Nastavitve formata, referenčni okviri: 4 sličice
ID kodeka: V_MPEG4 / ISO / AVC
Trajanje: 1 h 31 min
Bitna hitrost: 10 000 kb / s
Širina: 1 920 slikovnih pik
Višina: 1 080 slikovnih pik
Razmerje zaslona: 16: 9
Način hitrosti sličic: konstantno
Hitrost sličic: 29.970 FPS
Barvni prostor: YUV
Podvzorčenje kroma: 4: 2: 0
Globina bitov: 8 bitov
Vrsta optičnega branja: progresivno
Bit / / (Pixel * Frame): 0,161
Velikost toka: 6,37 GiB (59%)
Knjižnica za pisanje: jedro x264 157 r2935
Jezik: angleščina
Privzeto: Da
Prisilno: Ne
Barvno območje: omejeno
Barvne barve: BT.709
Značilnosti prenosa: BT.709
Matrični koeficienti: BT.709

Zvok št. 1
ID: 2
Oblika: DTS XLL
Format / informacije: Digitalno gledališče
Trgovsko ime: DTS-HD Troll
ID kodeka: A_DTS
Trajanje: 1 h 31 min
Način bitne hitrosti: spremenljiv
Bitna hitrost: 4.722 kb / s
Kanali: 6 kanalov
Postavitev kanala: C L R Ls Rs LFE
Hitrost vzorčenja: 48,0 kHz
Hitrost sličic: 93.750 FPS (512 SPF)
Globina bitov: 24 bitov
Način stiskanja: brez izgub
Velikost toka: 3,01 GiB (28%)
Privzeto: Da
Prisilno: Ne

[b]Zvok št. 2[/b]
ID: 3
Oblika: PCM
Nastavitve formata: malo / podpisano
ID kodeka: A_PCM / INT / LIT
Trajanje: 1 h 31 min
Način bitne hitrosti: konstantno
Bitna hitrost: 2 304 kb / s
Kanali: 2 kanala
Hitrost vzorčenja: 48,0 kHz
Hitrost sličic: 200.000 FPS (240 SPF)
Globina bitov: 24 bitov
Velikost toka: 1,47 GiB (14%)
Privzeto: Ne
Prisilno: Ne


Veliko užitkov in ne pozabite na sejanje!
Dalida.2016.SloSubs.720p.HDTVRip

Klikni za povečavo!
26-03-2021 18:11 naložil rado77
Sejalci: 1 / Odjemalci: 0 / Velikost: 2.77 GB / Dokončani: 6
Prenesi torrent Poročaj torrent Opis torrenta
Kategorija: FILMI > HDTV

Dalida.2016.SloSubs.720p.HDTVRip


Dalida (2016)


Originalni naslov: DALIDA
Leto produkcije: 2016
Država: koprodukcija - Itaija, Francija
Žanr: biografska drama
Režija: Lisa Azuelos
Scenarij: Lisa Azuelos po knjigi Catherine Rihoit in Orlanda
Igrajo: Sveva Alviti, Riccardo Scamarcio, Jean-Paul Rouve, Niels Schneider, Alessandro Borghi
Podnapisi: Slovenščina
Jezik: Francoščina, Italijanščina, Angleščina, arabsko

Portret nekonvencionalne ženske, ki je živela v konvencionalnih časih. Čeprav se je Dalida tragično poslovila že leta 1987, njeno izjemno izročilo živi naprej.


Biografija ene najpopularnejših evropskih pevk, katere kariera je trajala skoraj trideset let: od revijskih popevk prek San Rema do diska. Gre za ganljivo in tragično zgodbo emocionalno izjemno kompleksne osebe, ki ji je bilo usojeno postati mednarodna zvezda.


Tehnične specifikacije:
Ime datoteke: Dalida.2016.SloSubs.720p.HDTVRip.mp4
Oblika: MP4
Informacije o obliki: QuickTime / MOV
Trajanje: 02: 01: 43.505
Velikost datoteke: 2,77 GB


Video informacije:
Video kodirnik: h264 (h.264 / avc / mpeg-4 avc / mpeg-4 del 10)
Ločljivost: 1280 * 720
Širina: 1280
Višina: 720
Razmerje zaslona: 16: 9
Hitrost sličic: 25 sličic na sekundo
Video bitna hitrost: 3123 kb / s
Barvni prostor: yuv420p

Zvočne informacije:
Zvočni kodirnik: aac (napredno kodiranje zvoka)
Avdio bitna hitrost: 128 kb / s
Hitrost vzorčenja: 44100 Hz
Zvočni kanali: stereo
Jezik: und
Trajanje: 02: 01: 43.481


Uživajte in ne pozabite sejati!
Wild.Rose.2018.SLOSubs.BRRip.XviD-DrSi

Klikni za povečavo!
17-03-2021 11:06 naložil Ziva
Sejalci: 2 / Odjemalci: 0 / Velikost: 2.31 GB / Dokončani: 18
Prenesi torrent Poročaj torrent Opis torrenta NFO
Zvrst: Drama | Glasbeni | Komedija
Kategorija: FILMI >  BRRip



Naziv: Wild.Rose.2018.SLOSubs.BRRip.XviD-DrSi
Source: Wild.Rose.2018.720p.BluRay.DD5.1.x264-PTer
Leto izida ........: 2018
Velikost ...........: 2,30 GB
Dolžina ............: 100 Minut
Video ...............: 2820 Kbps | 720x304 | 23,976 fps
Zvok .................: Dolby Digital AC3 5.1 @ 448 Kbps
Kodek.................: XviD
Zvrst………….: Drama | Glasbeni | Komedija
Država .............: VB | ZDA | Kanada
Jezik ................: Angleški
Podnapisi…….: Slovenski (RETAiL)
Prevod: Blitz Film
TVRip: Toyan
Za HD priredil: metalcamp
Tehnična obdelava: DVD Rippers Slovenija
IMDb Ocena ...: 7.2/10 (10,970 glasov)
Režija.........: Tom Harper
Scenarij......: Nicole Taylor


Jessie Buckley ... Rose-Lynn
Julie Walters ... Marion
Sophie Okonedo ... Susannah
Maureen Carr ... Eileen
James Harkness ... Elliot
Adam Mitchell ... Lyle
Daisy Littlefield ... Wynonna
Louise Mccarthy ... Amanda
Janey Godley ... Jackie
Craig Parkinson ... Alan


22-letna Rose-Lynn pride po letu dni iz zapora zaradi prekrška , vendar se ni nič
spremenila in želi nadaljevati, kjer je ostala – torej postati country pevka. Nekako
je pozabila, da ima dva otroka, mlajša od 10 let, za katera skrbi njena mama, ali
pa je to dejstvo potlačila v predale “pozneje”. Najprej se želi dobiti z Elliotom,
a dojame, da le prelaga neizbežno in da se mora soočiti z mamo Marion. Ko se končno
srečata, je njun odnos milo rečeno hladen. Rose-Lynn se počuti, kot da je iz enega
zapora prišla v drugega. Mama ji govori, naj se zaposli kot čistilka, Rose pa želi
samo peti. Ji bo uspelo?
Military.Wives.2019.SLOSubs.BRRip.XviD-DrSi(2)

Klikni za povečavo!
13-03-2021 18:10 naložil Ziva
Sejalci: 1 / Odjemalci: 0 / Velikost: 2.61 GB / Dokončani: 9
Prenesi torrent Poročaj torrent Opis torrenta NFO
Zvrst: Drama | Glasbeni | Komedija
Kategorija: FILMI >  BRRip



Naziv: Military.Wives.2019.SLOSubs.BRRip.XviD-DrSi
Source: Military.Wives.2019.1080p.BluRay.X264-AMIABLE
Leto izida ........: 2019
Velikost ...........: 2,60 GB
Dolžina ............: 118 Minut
Video ...............: 2858 Kbps | 720x304 | 23,976 fps
Zvok .................: Dolby Digital AC3 5.1 @ 448 Kbps
Kodek.................: XviD
Zvrst………….: Drama | Komedija | Glasbeni
Država .............: VB
Jezik ................: Angleški
Podnapisi…….: Slovenski (RETAiL)
Prevod: Blitz Film
TVRip: Toyan
Za HD priredil in uredil: metalcamp
Tehnična obdelava: DVD Rippers Slovenija
IMDb Ocena ...: 6.5/10 (3,521 glasov)
Režija.........: Peter Cattaneo
Scenarij......: Rachel Tunnard, Rosanne Flynn


Kristin Scott Thomas ... Kate
Sharon Horgan ... Lisa
Emma Lowndes ... Annie
Gaby French ... Jess
Lara Rossi ... Ruby
Amy James-Kelly ... Sarah
India Ria Amarteifio ... Frankie
Greg Wise ... Richard
Jason Flemyng ... Crooks
Laura Checkley ... Maz


Navdihujoča zgodba o prijateljstvu, ljubezni in podpori od doma. Skupina žena,
katerih partnerji služijo v Afganistanu, se zberejo in ustanovijo pravi zbor
vojaških žena, kjer si pomagajo skozi najtežje trenutke v življenju in postanejo
medijska senzacija ter globalno gibanje.




Ansambel Franca Potočarja.izbor.MP3.MP4.R77

Klikni za povečavo!
01-03-2021 10:54 naložil System
Sejalci: 0 / Odjemalci: 0 / Velikost: 409.93 MB / Dokončani: 7
Prenesi torrent Poročaj torrent Opis torrenta
Zvrst: Glasbeni
Kategorija: GLASBA > Video
Anonimen nalagalec

Ansambel Franca Potočarja.izbor.MP3.MP4.R77

Ansambla Franca Potočarja
Želja uporabnika: silvoa
Komponist in dolgoletni vodja Ansambla Franca Potočarja.

Njegova glasbena pot se je začela leta 1960, ko je navdušen oprtal očetovo harmoniko. Vredno je omeniti, da je bil Francev oče, prav tako Franc Potočar, znan dolenjski ohcetni godec in hkrati velik vzornik Lojzetu Slaku.
Čas izvajanja: 1 h 34 min 45 s



Tehnične specifikacije:
MP3:
Audio
Format : MPEG Audio / MP3
Format version : Version 1
Format profile : Layer 3
Format settings : Joint stereo
Bit rate mode : Constant
Bit rate : 160 kb/s
Channel(s) : 2 channels
Sampling rate : 44.1 kHz
Frame rate : 38.281 FPS (1152 SPF)
Compression mode : Lossy
Stream size : Audio
omplete name : Ansambel Franca Potočarja.izbor.MP3.MP4.R77
Format : MPEG-4
Format profile : Base Media / Version 2
Codec ID : mp42 (isom/mp42)
File size : 90.2 MiB
Duration : 1 h 34 min 45 s
Overall bit rate mode : Variable
Overall bit rate : 218 kb/s
Encoded date : UTC 2018-11-12 18:35:33
Tagged date : UTC 2018-11-12 18:35:33
Video
ID : 1
Format : AVC
Format/Info : Advanced Video Codec
Format profile : Baseline@L1.3
Format settings : 1 Ref Frames
Format settings, CABAC : No
Format settings, Reference frames : 1 frame
Format settings, GOP : M=1, N=60
Codec ID : avc1
Codec ID/Info : Advanced Video Coding
Duration : 57 min 45 s
Duration_LastFrame : -1 ms
Bit rate : 120 kb/s
Width : 342 pixels
Height : 224 pixels
Display aspect ratio : 3:2
Frame rate mode : Constant
Frame rate : 29.818 FPS
Color space : YUV
Chroma subsampling : 4:2:0
Bit depth : 8 bits
Scan type : Progressive
Bits/(Pixel*Frame) : 0.052
Stream size : 49.5 MiB (55%)
Title : ISO Media file produced by Google Inc. Created on: 11/12/2018.
Encoded date : UTC 2018-11-12 18:35:33
Tagged date : UTC 2018-11-12 18:35:33
Codec configuration box : avcC
Audio
ID : 2
Format : AAC LC
Format/Info : Advanced Audio Codec Low Complexity
Codec ID : mp4a-40-2
Duration : 1 h 34 min 45 s
Bit rate mode : Variable
Bit rate : 96.0 kb/s
Channel(s) : 2 channels
Channel layout : L R
Sampling rate : 44.1 kHz
Frame rate : 43.066 FPS (1024 SPF)
Compression mode : Lossy
Stream size : 39.7 MiB (44%)
Title : ISO Media file produced by Google Inc. Created on: 11/12/2018.
Encoded date : UTC 2018-11-12 18:35:33
Tagged date : UTC 2018-11-12 18:35:33
Uživajte!
SLOVENSKI.ZAKLAD.NARODNO.ZABAVNE.GLASBE.izbor.2.del..720p.TVRip-R77

Klikni za povečavo!
25-02-2021 16:34 naložil rado77
Sejalci: 1 / Odjemalci: 0 / Velikost: 1.51 GB / Dokončani: 8
Prenesi torrent Poročaj torrent Opis torrenta
Zvrst: Glasbeni
Kategorija: GLASBA > Video

SLOVENSKI.ZAKLAD.NARODNO.ZABAVNE.GLASBE.izbor.2.del..720p.TVRip-R77


SLOVENSKI ZAKLAD
NARODNOZABAVNE GLASBE

izbor 2.del


Narodno-zabavna glasba je pomemben segment popularne glasbe v slovenskem in širšem
alpskem prostoru in s tem tudi del popularne kulture, ki preko medijev vpliva na percepcijo
samoprepoznavnosti in identitete nekega, v tem primeru slovenskega naroda.
Vir: Torkar Klemen -diplomska

Narodnozabavna glasba (avtor imena: Janez Bitenc) je glasbena zvrst, za katero so značilne ljudsko (etnično) obarvane pesmi. Razširjena je predvsem v Sloveniji, Avstriji, Švici in Nemčiji, pa tudi na Češkem ter v Italiji (južna Tirolska). Na Slovenskem je znana in razširjena še najbolj po zaslugi številnih narodnozabavnih ansamblov. Tovrstna glasba je pogosto prisotna na veselicah, porokah, njej pa je posvečenih tudi kar nekaj festivalov in tekmovanj. Nekateri ji slabšalno pravijo goveja muska ali kar govedna, to pa zato, ker naj bi ta glasba, kakor meni poznavalec Ivan Sivec, verjetno sodila zraven nedeljske goveje juhe. S to glasbo je tesno povezan tudi njen najznačilnejši instrument, to je diatonična harmonika (pogovorno frajtonerica), ki je v našem prostoru dobro zastopana na račun okoli 65 izdelovalcev.


Izvajalci:
1.Ans. Franca Miheliča - Danes mi praznujemo 1984.mp4
2.Fantje s vseh vetrov - Na zdravje muzikant 1987.mp4
3.Ansambel Henček - Polka, valček, rock & roll.mp4
4.Avsenik - Za kratek čas.mp4
5.Slovenski muzikanti_Oberkrainer Sextett & Regenbogen.mp4
6.Veseli Hribovci - polka.mp4
7.Ansambel bratov Avsenik - Čez zelene trate.mp4
8.Ansambel Lojzeta Slaka - Deželica sonca in grozdja.mp4
9.Ansambel Vilija Petriča - Dolina Drave.mp4
10.Ansambel bratov Avsenik - Po klančku gor po klančku dol.mp4
11.Ans. Lojzeta Slaka - Med brajdami.mp4
12.Veseli planšarji - Na saneh.mp4
13.Štirje Kovači - Mala solzica.mp4
14.Ansambel Lojzeta Slaka - Krka sanjava.mp4
15.Avsenik - Slalom polka.mp4
16.Ansambel Vilija Petriča - Še en liter.mp4
17.Trio Lojze Slak - Znana polka.mp4
18.Beneški fantje - Oj božime.mp4
19.Ansambel Lojzeta Slaka - Na ohceti.mp4
20.Štirje Kovači - Danes je nedelja.mp4
21.Ansambel Lojzeta Slaka - Med cvetlicami po logu.mp4
22.Veseli Planšarji - Tiha je Loka.mp4
23.Beneški fantje - Kdor je dobre volje.mp4
24.Ansambel Vilija Petriča - Na šank.mp4
25.Ansambel Lojzeta Slaka - Pri dobri kapljici.mp4
26.Štirje Kovači - Na paure.mp4
28.Ansambel Vilija Petriča - Vem zakaj1994.mp4
29.Avsenik v Postojnski jami.mp4
30.Slovenski intrumentalni kvintet, Danica FIlipič Vsak dan pa bajta stoji.mp4
31.ANSAMBEL MIHE DOVŽANA - SRNE.mp4
32.Ans. Rudija Bardorferja - Starka ZimaZimska.mp4
33.Ansambel bratov Avsenik - Veselje klarinetov (1967).mp4
34.Ansambel Janeza Kalška - Moj fantič je prijezdil.mp4
35.Ansambel bratov Avsenik - Srečno pot (1967).mp4
36.Ansambel Slavka in Vilka Avsenika 1967, Avsenik Oberkrainer 1967, Avseniki.mp4
37.Franc Delčnjak - čreda v galopu.mp4
38.Ansambel bratov Avsenik - Igrajoči klarineti (1967).mp4
39.Ansambel bratov Avsenik - Jesenska (1967).mp4
40.Fantje treh dolin - Mladost na vasi.mp4
41.Ansambel bratov Avsenik - Veseli svatjeLustige Hochzeit (1967).mp4
42.Avsenik - Horoskop.mp4
43.Fantje treh dolin - Na Naravskih ledinah.mp4
44.MIHA DOVZAN Muhasta plavolaska TVL 30 10 1966.mp4
45.Ansambel Toneta Kmetca - Je leto naokoli.mp4
46.Fantje treh dolin - Na steleraji.mp4
47.Ansambel bratov Avsenik - Pod Grintovcem (1967).mp4
48.Ansambel Mihe Dovžana - Ne joči dekle ob slovesu.mp4
49.Ansambel Ludvika Lesjaka - Pozdrav s Katarine.mp4
50.Fantje treh dolin - Na rosnih tratah.mp4
51.Slovenski instrumentalni kvintet - Na Gorenjskem je fletno.mp4
52.Ansambel bratov Avsenik - Viničarska.mp4
53.Rafko Irgolic & Stanka Kovacic - Dober dan, sonce.mp4
54.Vokalni kvintet Gorenjci in Miha Dovžan - Moravška dolina.mp4
55.Slavko Avsenik - Z Bohinja.mp4
56.Slovenski inštr kvintet - Moje dekle.mp4
57.Slavko Avsenik - Lisička in Marička SV.mp4
58.Slavko Avsenik - Iz Bohinja SV.mp4
59.Slavko Avsenik - V postojnski jami.mp4
60.MIHA DOVZAN Ujemi me 1969.mp4
61.Ansambel bratov Avsenik - Ja, ja, k' je luštno (1967).mp4
62.Slavko Avsenik - Vlak drvi.mp4
63.Ansambel bratov Avsenik - Proti jutru(1967).mp4
64.Ansambel bratov Avsenik - Lepe ste ve Karavanke (1967).mp4
65.Ansambel bratov Avsenik - Otoček sredi jezera (1967).mp4
66.Ansambel bratov Avsenik - Pastirček (1967).mp4
67.Avsenik - Die Lustigen Oberkrainer Musikanten - Sirenen Polka 1960.mp4
68.Z Avseniki v novo leto - Prav fletno se imamo- 1986 (Cro subtitles).mp4
69.Z Avseniki v novo leto - Na Golici-1986 (Cro subtitles).mp4
70.Ansambel bratov Avsenik - Proti jutru-Sirenen Polka (1967).mp4


Tehnične specifikacije:

Complete name : SLOVENSKI ZAKLAD NARODNOZABAVNE GLASBE-izbor 2.del
Format : MPEG-4
Format profile : Base Media
Codec ID : isom (isom/iso2/avc1/mp41)
File size : 1.51 GiB
Duration : 3 h 25 min
Overall bit rate : 1 055 kb/s

Video
ID : 1
Format : AVC
Format/Info : Advanced Video Codec
Format profile : Main@L3.1
Format settings : CABAC / 1 Ref Frames
Format settings, CABAC : Yes
Format settings, Reference frames : 1 frame
Codec ID : avc1
Codec ID/Info : Advanced Video Coding
Duration : 3 h 25 min
Source duration : 3 h 25 min
Bit rate : 860 kb/s
Width : 500 pixels
Height : 500 pixels
Display aspect ratio : 1.000
Frame rate mode : Variable
Frame rate : 26.820 FPS
Minimum frame rate : 10.000 FPS
Maximum frame rate : 45.534 FPS
Color space : YUV
Chroma subsampling : 4:2:0
Bit depth : 8 bits
Scan type : Progressive
Bits/(Pixel*Frame) : 0.128
Stream size : 1.23 GiB (82%)
Source stream size : 1.23 GiB (82%)
Codec configuration box : avcC

Audio
ID : 2
Format : AAC LC
Format/Info : Advanced Audio Codec Low Complexity
Codec ID : mp4a-40-2
Duration : 3 h 25 min
Bit rate mode : Constant
Bit rate : 192 kb/s
Channel(s) : 2 channels
Channel layout : L R
Sampling rate : 44.1 kHz
Frame rate : 43.066 FPS (1024 SPF)
Compression mode : Lossy
Stream size : 281 MiB (18%)
Default : Yes
Alternate group : 1

Veliko užitkov!
ABBA_Live.At.Wembley.Arena.720p.HDTVRip-R77

Klikni za povečavo!
24-02-2021 15:18 naložil rado77
Sejalci: 0 / Odjemalci: 0 / Velikost: 2.28 GB / Dokončani: 8
Prenesi torrent Poročaj torrent Opis torrenta
Zvrst: Glasbeni
Kategorija: GLASBA > Video

ABBA_Live.At.Wembley.Arena.720p.HDTVRip-R77


ABBA Live At Wembley Arena


"V živo na areni Wembley"
Kako je skupina ABBA z nastopom v živo presegla vsa pričakovanja


Če pogledamo nazaj, se zdi, da je za sedež na enem od šestih londonskih koncertov ABBA, na njihovi turneji leta 1979, popolna zlata vvstopnica. Tudi takrat je bilo povpraševanje več kot preseženo, vendar nihče ne bi mogel uganiti, da bo to zadnja priložnost oboževalcev, da švedsko superskupino ujamejo v živo v Veliki Britaniji. Za tiste, ki so ga zamudili, album Live At Wembley Arena , ki je bil prvotno izdan v Evropi 29. septembra 2014, ponuja vse dokaze, ki jih potrebujete za dokaz, da je ABBA v svojih najboljših letih na zalost vseh praktično izginila iz javnosti!
Znameniti švedski pop kvartet perfekcionistov je bil vedno raje v snemalnem studiu, da pričara njihov slavni zvok, in z nastopi v živo ni bil nikoli povsem zadovoljen. ABBA pa je popustila s to izdajo albuma v živo, ki prihaja 35 let po začetku druge, zadnje svetovne turneje, ki zajema Severno Ameriko, Evropo in Japonsko.
Nekaj posnetkov je bilo predvajanih že v prejšnjih zbirkah video-spotov. Verjemite vse kar sem vam naložil do sedaj je bil le uvod v spektakelj, ki je pred vami!
Prepričan sem , da si ga boste ogledali večkrat!
Datum koncerta: 10. novembra 1979

Tehnične specifikacije:

Complete name : ABBA_Live At Wembley Arena_R77
Format : MPEG-4
Format profile : Base Media
Codec ID : isom (mp41)
File size : 2.28 GiB
Duration : 1 h 18 min
Overall bit rate mode : Variable
Overall bit rate : 4 161 kb/s
Encoded date : UTC 2014-08-28 04:15:00
Tagged date : UTC 2014-08-28 04:15:00
Video
ID : 2
Format : AVC
Format/Info : Advanced Video Codec
Format profile : Baseline@L3.1
Format settings : 1 Ref Frames
Format settings, CABAC : No
Format settings, Reference frames : 1 frame
Format settings, GOP : M=1, N=29
Muxing mode : Container profile=Baseline@3.0
Codec ID : avc1
Codec ID/Info : Advanced Video Coding
Duration : 1 h 18 min
Bit rate mode : Variable
Bit rate : 4 004 kb/s
Maximum bit rate : 4 800 kb/s
Width : 1 280 pixels
Height : 720 pixels
Display aspect ratio : 16:9
Frame rate mode : Constant
Frame rate : 29.970 (30000/1001) FPS
Color space : YUV
Chroma subsampling : 4:2:0
Bit depth : 8 bits
Scan type : Progressive
Bits/(Pixel*Frame) : 0.145
Stream size : 2.19 GiB (96%)
Language : English
Codec configuration box : avcC
Audio
ID : 1
Format : AAC LC
Format/Info : Advanced Audio Codec Low Complexity
Codec ID : mp4a-40-2
Duration : 1 h 18 min
Bit rate mode : Constant
Bit rate : 152 kb/s
Channel(s) : 2 channels
Channel layout : L R
Sampling rate : 44.1 kHz
Frame rate : 43.066 FPS (1024 SPF)
Compression mode : Lossy
Stream size : 85.1 MiB (4%)
Language : English


UŽIVAJTE !
Đorđe Balašević - The best of (1998) MP3

Klikni za povečavo!
21-02-2021 11:51 naložil System
Sejalci: 1 / Odjemalci: 0 / Velikost: 267.23 MB / Dokončani: 22
Prenesi torrent Poročaj torrent Opis torrenta NFO
Zvrst: Glasbeni
Kategorija: GLASBA > Glasba
Anonimen nalagalec

---------------------------------------------------------------------
Đorđe Balašević - The Best Of
---------------------------------------------------------------------
Artist...............: Đorđe Balašević
Album................: The Best Of
Genre................: Pop
Source...............: CD
Year.................: 1998
Ripper...............: EAC (Secure mode) / LAME 3.92 & Asus CD-S520
Codec................: LAME 3.99
Version..............: MPEG 1 Layer III
Quality..............: Insane, (avg. bitrate: 320kbps)
Channels.............: Joint Stereo / 44100 hz
T
News Server..........: news.astraweb.com
News Group(s)........: alt.binaries.pl.mp3
Included.............: NFO
---------------------------------------------------------------------
Tracklisting
---------------------------------------------------------------------
1. Đorđe Balašević - Sve Je Otišlo U Honduras [03:50]
2. Đorđe Balašević - Ne Volim Januar [04:05]
3. Đorđe Balašević - Jednom Su Sadili Lipu [04:40]
4. Đorđe Balašević - Čekajući Montenegro Express [03:33]
5. Đorđe Balašević - Nemam Ništa S Tim [05:32]
6. Đorđe Balašević - Još Jedna Pesma O Maloj Garavoj [03:13]
7. Đorđe Balašević - Remorker [03:48]
8. Đorđe Balašević - Slow Motion [05:51]
9. Đorđe Balašević - Saputnik [04:50]
10. Đorđe Balašević - Kad Odem... [05:53]
11. Đorđe Balašević - Devojka Sa ''čardaš'' Nogama [03:21]
12. Đorđe Balašević - Ćaletova Pesma [04:47]
13. Đorđe Balašević - Bezdan [04:26]
14. Đorđe Balašević - Ne Lomite Mi Bagrenje [05:33]
15. Đorđe Balašević - Starim [06:07]
Playing Time.........: 01:09:35
Total Size...........: 164,21 MB
ABBA.Music.Videos.Collection.720p.TVRip.R77

Klikni za povečavo!
15-02-2021 12:22 naložil rado77
Sejalci: 0 / Odjemalci: 1 / Velikost: 2.67 GB / Dokončani: 4
Prenesi torrent Poročaj torrent Opis torrenta
Zvrst: Glasbeni
Kategorija: GLASBA > Video

ABBA.Music.Videos.Collection.720p.TVRip.R77


ABBA Music Videos Collection


ABBA video collection.mp4"
Video-spoti: 2h 15min


ABBA - The Day Before You Came 1981.mp4"
ABBA - Chiquitita 1979.mp4"
ABBA - The Name Of The Game 1977.mp4"
ABBA - The Winner Takes It All 1980.mp4"
ABBA - Estoy Sonando (I Have A Dream) 1979.mp4"
ABBA - One Man, One Woman 1977.mp4"
ABBA - Happy New Year 1980.mp4"
ABBA - Felicidad (Happy New Year) 1980.mp4"
ABBA - Fernando 1976.mp4"
ABBA - On And On And On 1980.mp4"
ABBA - Voulez-Vous 1979.mp4"
ABBA - Super Trooper 1980.mp4"
ABBA - Knowing Me, Knowing You 1976.mp4"
ABBA - Take A Chance On Me 1977.mp4"
ABBA - Dancing Queen 1976.mp4"
ABBA - One Of Us 1981.mp4"
ABBA - Eagle 1977.mp4"
ABBA - Under Attack 1982.mp4"
ABBA - Thank You For The Music 1977.mp4"
ABBA - Dancing Queen (Live At The Swedish Royal Opera) 1976.mp4"
ABBA - Head Over Heels 1981.mp4"
ABBA - Summer Night City 1978.mp4"
ABBA - Mamma Mia 1975.mp4"
ABBA - Gimme Gimmie Gimmie (A Man After Midnight) 1979.mp4"
ABBA - No Hay A Quien Culpar (When All Is Said And Done) 1981.mp4"
ABBA - I Do I Do I Do I Do I Do 1975.mp4"
ABBA - SOS 1975.mp4"
ABBA - When All Is Said And Done 1981.mp4"
ABBA - That-s Me 1977.mp4"
ABBA - Money, Money, Money 1976.mp4"
ABBA - Does Your Mother Know 1979.mp4"
ABBA - Ring Ring 1973.mp4"
ABBA - Bang-A-Boomerang 1974.mp4"
ABBA - When I Kissed the Teacher 1976.mp4"
ABBA - Waterloo 1974.mp4"

DODATEK:
ABBA - Video Picture Gallery.mp4"
Video-spoti s slikami: 21 min

DODATEK:
ABBA. Daba Du.Documentary.avi"
Dokumentarni film o skupini


O skupini ABBA:
ABBA je bila švedska pop skupina, ustanovljena v Stockholmu leta 1972, v kateri so bili Agnetha Fältskog, Björn Ulvaeus, Benny Andersson in Anni-Frid Lyngstad. ABBA je kratica prvih črk imen članov skupine in je včasih stilizirana kot registrirana blagovna znamka ABBA. Skupina je postala eno komercialno najuspešnejših zasedb v zgodovini popularne glasbe, ki je bila od leta 1975 do 1982. na lestvici po vsem svetu. Zmagala je tudi na Evroviziji 1974, s čimer je Švedska prvič zmagala v zgodovini tekmovanja in postala najbolj uspešna skupina, ki se je kdaj udeležila tekmovanja.


Tehnične specifikacije:
Complete name : ABBA video collection
Format : MPEG-4
Format profile : Base Media
Codec ID : isom (isom/iso2/avc1/mp41)
File size : 1.62 GiB
Duration : 2 h 15 min
Overall bit rate : 1 708 kb/s

Video
ID : 1
Format : AVC
Format/Info : Advanced Video Codec
Format profile : Main@L3.1
Format settings : CABAC / 1 Ref Frames
Format settings, CABAC : Yes
Format settings, Reference frames : 1 frame
Codec ID : avc1
Codec ID/Info : Advanced Video Coding
Duration : 2 h 15 min
Bit rate : 1 511 kb/s
Width : 768 pixels
Height : 576 pixels
Display aspect ratio : 4:3
Frame rate mode : Variable
Frame rate : 25.000 FPS
Minimum frame rate : 10.000 FPS
Maximum frame rate : 25.000 FPS
Color space : YUV
Chroma subsampling : 4:2:0
Bit depth : 8 bits
Scan type : Progressive
Bits/(Pixel*Frame) : 0.137
Stream size : 1.43 GiB (88%)
Codec configuration box : avcC

Audio
ID : 2
Format : AAC LC
Format/Info : Advanced Audio Codec Low Complexity
Codec ID : mp4a-40-2
Duration : 2 h 15 min
Bit rate mode : Constant
Bit rate : 192 kb/s
Channel(s) : 2 channels
Channel layout : L R
Sampling rate : 48.0 kHz
Frame rate : 46.875 FPS (1024 SPF)
Compression mode : Lossy
Stream size : 190 MiB (11%)
Default : Yes
Alternate group : 1

SE NADALJUJE!

Veliko užitkov!
Mia Borisavljević - Jedna ja (2019) MP3

Klikni za povečavo!
14-02-2021 08:43 naložil System
Sejalci: 1 / Odjemalci: 0 / Velikost: 71.17 MB / Dokončani: 10
Prenesi torrent Poročaj torrent Opis torrenta NFO
Zvrst: Glasbeni
Kategorija: GLASBA > Glasba
Anonimen nalagalec

---------------------------------------------------------------------
Mia Borisavljević - Jedna Ja
------------------------------------------------------------------
Artist...............: Mia Borisavljević
Album................: Jedna Ja
Genre................: Pop
Source...............: CD
Year.................: 2019
Ripper...............: EAC (Secure mode) / LAME 3.92 & Asus CD-S520
Codec................: LAME 3.98
Version..............: MPEG 1 Layer III
Quality..............: Insane, (avg. bitrate: 320kbps)
Channels.............: Stereo / 44100 hz
News Server..........: news.astraweb.com
News Group(s)........: alt.binaries.pl.mp3
Included.............: NFO
---------------------------------------------------------------------
Tracklisting
---------------------------------------------------------------------
1. Mia Borisavljević - Pričaju Po Gradu [03:11]
2. Mia Borisavljević - Skandal [03:14]
3. Mia Borisavljević - Ave Cezare [03:02]
4. Mia Borisavljević - Dođi Juče [02:54]
5. Mia Borisavljević - Campari [02:56]
6. Mia Borisavljević - Zaljubljiva [02:59]
7. Mia Borisavljević - Nije Ljubav Luda [03:35]
8. Mia Borisavljević - Beograd Noću [02:55]
9. Mia Borisavljević - Jedna Ja [03:20]
Playing Time.........: 28:10
Total Size...........: 70,82 MB
Massimo Savic - 1 dan ljubavi (2015) MP3

Klikni za povečavo!
12-02-2021 14:57 naložil System
Sejalci: 1 / Odjemalci: 0 / Velikost: 123.66 MB / Dokončani: 11
Prenesi torrent Poročaj torrent Opis torrenta NFO
Zvrst: Glasbeni
Kategorija: GLASBA > Glasba
Anonimen nalagalec

---------------------------------------------------------------------
Massimo Savic - 1 dan ljubavi
---------------------------------------------------------------------
Artist...............: Massimo Savic
Album................: 1 dan ljubavi
Genre................: Pop Rock
Source...............: CD
Year.................: 2015
Ripper...............: EAC (Secure mode) / LAME 3.92 & Asus CD-S520
Codec................: LAME 3.99
Version..............: MPEG 1 Layer III
Quality..............: Insane, (avg. bitrate: 320kbps)
Channels.............: Joint Stereo / 44100 hz
News Server..........: news.astraweb.com
News Group(s)........: alt.binaries.pl.mp3
Included.............: NFO
---------------------------------------------------------------------
Tracklisting
---------------------------------------------------------------------
1. Massimo Savic - Ne dam grijehu na tebe [03:59]
2. Massimo Savic - Kladim se na nas [03:38]
3. Massimo Savic - Pirova pobjeda [03:50]
4. Massimo Savic - Zemlja zove oblake [04:51]
5. Massimo Savic - 1 dan ljubavi [03:49]
6. Massimo Savic - Cuvam te (feat. B. Navojec) [04:10]
7. Massimo Savic - Ispod nekog drugog neba [05:55]
8. Massimo Savic - Slamka spasa [04:02]
9. Massimo Savic - Suze nam stale na put [05:18]
10. Massimo Savic - Ostani tu [04:45]
11. Massimo Savic - Gdje poljupci krote lava [03:54]
12. Massimo Savic - Pirova pobjeda (Instrumental) [03:51]
Playing Time.........: 52:07
Total Size...........: 123,49 MB
Colonia - Gold edition [2CD] (2005) MP3

Klikni za povečavo!
12-02-2021 14:42 naložil System
Sejalci: 2 / Odjemalci: 0 / Velikost: 339.67 MB / Dokončani: 22
Prenesi torrent Poročaj torrent Opis torrenta NFO
Zvrst: Glasbeni
Kategorija: GLASBA > Glasba
Anonimen nalagalec

---------------------------------------------------------------------
Colonia - Gold Edition
---------------------------------------------------------------------
Artist...............: Colonia
Album................: Gold Edition
Genre................: Eurodance
Source...............: CD
Year.................: 2005
Ripper...............: EAC (Secure mode) / LAME 3.92 & Asus CD-S520
Codec................: LAME 3.98
Version..............: MPEG 1 Layer III
Quality..............: Insane, (avg. bitrate: 320kbps)
Channels.............: Stereo / 44100 hz
News Server..........: news.astraweb.com
News Group(s)........: alt.binaries.pl.mp3
Included.............: NFO
---------------------------------------------------------------------
Tracklisting CD1
---------------------------------------------------------------------
1. Colonia - Sve Oko Mene Je Grijeh [04:49]
2. Colonia - Njeno Ime Ne Zovi U Snu [03:58]
3. Colonia - Deja Vu [03:36]
4. Colonia - Za Tvoje Snene Oči (Feat. Neno Dj) [04:37]
5. Colonia - Svijet Voli Pobjednike [04:03]
6. Colonia - Nikad Više (Feat. Jacques Houdek) [04:10]
7. Colonia - Takvi Kao Ti [04:20]
8. Colonia - Nevjera [04:27]
9. Colonia - Oduzimaš mi dah [04:19]
10. Colonia - Svjetla Grada [04:41]
11. Colonia - Na Tvojoj Strani Postelje [03:46]
12. Colonia - Zadnji Let Za Pariz [04:36]
13. Colonia - C'est La Vie [04:06]
14. Colonia - Plamen Od Ljubavi [03:58]
15. Colonia - Luda Za Tobom [04:24]
16. Colonia - Ljeto 80 I Neke [05:32]
17. Colonia - Običan Dan [04:02]
18. Colonia - Prvi Poljubac [04:16]
Playing Time.........: 01:17:47
Total Size...........: 179,63 MB
---------------------------------------------------------------------
Tracklisting CD2
---------------------------------------------------------------------
1. Colonia - U Ritmu Ljubavi (Summer Extended Rmx) [04:13]
2. Colonia - Dok Je Tebe I Ljubavi (Unreleased Extended Rmx)[04:09]
3. Colonia - Ti Da Bu Di Bu Da (Goblin Extended Rmx) [04:36]
4. Colonia - Božićna Noć (Remix) [03:54]
5. Colonia - Prvi I Zadnji (Lp Extended Rmx) [06:24]
6. Colonia - Takvi Kao Ti (Lp Extended Rmx) [06:53]
7. Colonia - Još Jednom Za Kraj (Lp Extended Rmx) [05:51]
8. Colonia - Svijet Voli Pobjednike (Feat. Neno Dj) (Lp Extended Rmx)[04:53]
9. Colonia - Za Tvoje Snene Oči (Lp Extended Rmx) [07:52]
10. Colonia - Oduzimaš Mi Dah (Acapella Dub Mix) [03:50]
11. Colonia - C'est La Vie (Pop Carousel Mix) [03:26]
12. Colonia - Običan Dan (Motiwwwo Remix) [06:43]
13. Colonia - Medley Hit Mix 2005 (Vatra I Led - Sve Oko Mene Je Grijeh - Dio Nje)[06:33]
Playing Time.........: 01:09:24
Total Size...........: 159,99 MB
Severina - The Best Of Collection (2020) MP3

Klikni za povečavo!
12-02-2021 12:24 naložil System
Sejalci: 3 / Odjemalci: 0 / Velikost: 197.32 MB / Dokončani: 35
Prenesi torrent Poročaj torrent Opis torrenta NFO
Zvrst: Glasbeni
Kategorija: GLASBA > Glasba
Anonimen nalagalec

---------------------------------------------------------------------
Severina - The Best Of Collection
---------------------------------------------------------------------
Artist...............: Severina
Album................: The Best Of Collection
Genre................: Pop
Source...............: CD
Year.................: 2020
Ripper...............: EAC (Secure mode) / LAME 3.92 & Asus CD-S520
Codec................: LAME 3.99
Version..............: MPEG 1 Layer III
Quality..............: Insane, (avg. bitrate: 320kbps)
Channels.............: Stereo / 44100 hz
T
News Server..........: news.astraweb.com
News Group(s)........: alt.binaries.pl.mp3
Included.............: NFO
---------------------------------------------------------------------
Tracklisting
---------------------------------------------------------------------
1. Severina - Dalmatinka [03:57]
2. Severina - Covjek Kojeg Volim [03:55]
3. Severina - Paloma Nera [03:21]
4. Severina - Ti Si Srce Moje [03:52]
5. Severina - Tvoja Prva Djevojka [04:32]
6. Severina - Prijateljice [03:16]
7. Severina - Djevojka Sa Sela [04:25]
8. Severina - Rastajem Se Od Zivota [02:57]
9. Severina - Trava Zelena [03:58]
10. Severina - Ante [02:48]
11. Severina - Mala Je Dala [03:34]
12. Severina - Ja Samo Pjevam [03:20]
13. Severina - Da Si Moj [03:22]
14. Severina - Krivi Spoj [03:08]
15. Severina - Kreni [03:16]
16. Severina - Ajde, Ajde Zlato Moje [03:22]
17. Severina - 'ko Je Kriv [04:30]
18. Severina - Mili Moj [03:58]
19. Severina - Pogled Ispod Obrva [04:12]
20. Severina - Virujen U Te [04:12]
Playing Time.........: 01:14:07
Total Size...........: 196,64 MB
Luka Basi - Luka Basi (2019) MP3

Klikni za povečavo!
12-02-2021 12:09 naložil System
Sejalci: 2 / Odjemalci: 0 / Velikost: 102.33 MB / Dokončani: 34
Prenesi torrent Poročaj torrent Opis torrenta NFO
Zvrst: Glasbeni
Kategorija: GLASBA > Glasba
Anonimen nalagalec

---------------------------------------------------------------------
Luka Basi - Luka Basi
---------------------------------------------------------------------
Artist...............: Luka Basi
Album................: Luka Basi
Genre................: Pop
Source...............: CD
Year.................: 2019
Ripper...............: EAC (Secure mode) / LAME 3.92 & Asus CD-S520
Codec................: LAME 3.99
Version..............: MPEG 1 Layer III
Quality..............: Insane, (avg. bitrate: 320kbps)
Channels.............: Stereo / 44100 hz
Tags.................: ID3 v1.1, ID3 v2.3
News Server..........: news.astraweb.com
News Group(s)........: alt.binaries.pl.mp3
Included.............: NFO
---------------------------------------------------------------------
Tracklisting
---------------------------------------------------------------------
1. Luka Basi - Sedam Noci [03:24]
2. Luka Basi - Ruzo Bila (Feat. Marko Skugor) [03:12]
3. Luka Basi - Istrijanko Ruzo Moja [03:16]
4. Luka Basi - U Bijelom [03:13]
5. Luka Basi - Meta [03:18]
6. Luka Basi - Solo (Feat. Lidija Bacic) [04:04]
7. Luka Basi - Moja (Feat. Ljubavnici) [03:41]
8. Luka Basi - Kad Vidin Boga - Uzivo [03:28]
9. Luka Basi - Nisam Ja Od Jucer (Feat. Jole) [03:53]
10. Luka Basi - Upalimo Ljubav (Feat. Lana Jurcevic) [03:15]
11. Luka Basi - Seko Moja [04:20]
12. Luka Basi - Kombinacija [03:41]
Playing Time.........: 42:49
Total Size...........: 101,85 MB