A
B
C
D
E
F
G
H
I
J
K
L
M
N
O
P
Q
R
S
T
U
V
W
X
Y
Z
0-9
Vikings S06 SrbSubs COMPLETE 720p WEBRip x264 AC3 PACK

Klikni za povečavo!
25-01-2021 11:34 naložil Ziva
Sejalci: 1 / Odjemalci: 0 / Velikost: 29.39 GB / Dokončani: 6
Prenesi torrent Magnet Link Poročaj torrent Opis torrenta NFO
Kategorija: FILMI > WEBRip-720



Vikings S06 COMPLETE 720p WEBRip x264 AC3 PACK
Language(s): English
Size: 29.3 GB | Duration: 20 x 44mn | Container: MKV
Audio: AC-3 | 192 Kbps | 2 Channels
Video: AVC | 4300 Kbps | 1280 x 720
Genre: Action | Adventure | History
V torrentu je vseh 20 epizod, lahko potegnete samo kar niste gledali ...


Katheryn Winnick, Gustaf Skarsgård, Alexander Ludwig
Bjorn struggles with the responsibilities of kingship and finds he can't rely on his mother, Lagertha; she has other plans. Ivar falls into the hands of Kievan Rus, and in their ruthless and unpredictable ruler, Prince Oleg, he may finally have met his match.

Kalup.2020..S01.HDTV.720p.h264.R77

Klikni za povečavo!
23-01-2021 14:56 naložil System
Sejalci: 1 / Odjemalci: 0 / Velikost: 2.22 GB / Dokončani: 3
Prenesi torrent Poročaj torrent Opis torrenta
Zvrst: Drama
Kategorija: FILMI > HDTV
Anonimen nalagalec

Kalup.2020..S01.HDTV.720p.h264.R77


KALUP 2020
TV mini Serija

Režija:Vuk Ršumović
Scenario: Bojana Maljević
Država: Srbija

Vloge:
Milivoje Obradović, Nada Šargin, Saša Torlaković, Ana Maljević, Igor Filipović, Svetlana Bojković, Branislav Zeremski, Dubravko Jovanović, Srđan Miletić, Ana Bretšnajder, Lena Trifunović, Zinaida Dedakin, Draginja Voganjac, Monika Romić, Radoje Čupić, Danica Radulović, Branislav Platiša, Aleksdandra Simić, Dragana Jovanović, Gojko Baletić, Denis Murić, Danjan Kecojevuić, Goran Belančević, Nenad Nenadović, Tanasije Uzuznović, Slobodan Tešić, Olivera Kovačević, Dragan Đorđević, Natalija Vlahović.
Jezik: Srbski
Žanr: Drama


Zgodba:
Ta celovečerna mini serija, narejena v štirih epizodah, temelji na elementih resničnih zgodb iz afere "Pogrešani dojenček". Ta zadeva se je v Srbiji odprla v začetku tega stoletja in zajema obdobje od sedemdesetih let dvajsetega stoletja. Zgodba serije je trenutno postavljena, v kateri nekdanji policist, zdaj pa zasebni preiskovalec Ljubo, na povabilo skupine staršev pogrešanih dojenčkov poskuša ugotoviti resnico.
Ta družbena drama pravi, da resnica ni preprosta, da pa mora država že dolgo storiti veliko več, da bi staršem pomagala doseči resnico, kakršna koli že je. Glede na produkcijo tega dela imajo avtorji kritičen pregled medijev v Srbiji, ki so to temo obravnavali tabloidno, cilj tega projekta pa je poleg kakovostnega dramskega programa ravno ta: pristopiti k tej težki temi na drugačen način in jo ustaviti. nadaljnja tabloidizacija, ki povzroča skoraj vsakodnevne občutke.


Tehnične specifikacije:

Name : Kalup.2020.S01.HDTV.720p.h264.R77
Format : Matroska
Format version : Version 4
File size : 563 MiB
Duration : 49 min 55 s
Overall bit rate : 1 576 kb/s
Movie name : Kalup
Encoded date : UTC 2020-03-22 10:34:18
Writing application : mkvmerge v44.0.0 ('Domino') 64-bit
Writing library : libebml v1.3.10 + libmatroska v1.5.2 / Lavf58.20.100

Video
ID : 1
Format : AVC
Format/Info : Advanced Video Codec
Format profile : High@L3.2
Format settings : CABAC / 4 Ref Frames
Format settings, CABAC : Yes
Format settings, Reference frames : 4 frames
Codec ID : V_MPEG4/ISO/AVC
Duration : 49 min 55 s
Bit rate : 1 382 kb/s
Width : 1 280 pixels
Height : 720 pixels
Display aspect ratio : 16:9
Frame rate mode : Constant
Frame rate : 30.000 FPS
Color space : YUV
Chroma subsampling : 4:2:0
Bit depth : 8 bits
Scan type : Progressive
Bits/(Pixel*Frame) : 0.050
Stream size : 493 MiB (88%)
Writing library : x264 core 146 r2538 121396c
Default : Yes
Forced : No

Audio
ID : 2
Format : AAC LC
Format/Info : Advanced Audio Codec Low Complexity
Codec ID : A_AAC-2
Duration : 49 min 55 s
Bit rate : 192 kb/s
Channel(s) : 2 channels
Channel layout : L R
Sampling rate : 48.0 kHz
Frame rate : 46.875 FPS (1024 SPF)
Compression mode : Lossy
Delay relative to video : 19 ms
Stream size : 68.7 MiB (12%)
Default : Yes
Forced : No

UŽIVAJTE!
Poklon.slovenskih.glasbenikov.S.Avseniku.2013.720p.TVRip.R77

Klikni za povečavo!
23-01-2021 14:32 naložil rado77
Sejalci: 0 / Odjemalci: 1 / Velikost: 1.16 GB / Dokončani: 6
Prenesi torrent Poročaj torrent Opis torrenta
Zvrst: Glasbeni
Kategorija: GLASBA > Video

Poklon.slovenskih.glasbenikov.S.Avseniku.2013.720p.TVRip.R77


Poklon slovenskih glasbenikov
S.Avseniku


Koncert, ki je namenjena spominu na velikana slovenske narodno-zabavne glasbe, bodo o fenomenu bratov Avsenik govorili mag. Ivan Sivec, Vinko Šimek, Ciril Zlobec ter Jani Golob. Spomnili bomo na nastanek nekaterih najlepših pesmi, kot sta Na Golici in Tam, kjer murke cveto, predvajali pa bomo arhivske posnetke še drugih uspešnic: Slovenija, od kod lepote tvoje, Cveteli so beli kostanji, Pastirček, Prelepa Gorenjska ...
Slavko Avsenik bo obudil spomin na zlata leta ansambla, njegovi posnetki in fotografije pa bodo potrdili, da ostaja njegova glasba večna.


Melodije bratov Avsenik so doživele veliko interpretacij, tokrat bomo slišali najlepše v izvedbi Alfija Nipiča, Klemna Koširja, Modrijanov, Gregorja Avsenika in Ansambla Saše Avsenika ter Čukov. K poslušanju koncerta pa nas je povabil Slavko Avsenik.


Glasbena pot Slavka Avsenika

Slavko Avsenik se je rodil 26. novembra 1929 kot zadnji od štirih otrok Ivana in Marije Avsenik. Že kot sedemletnik je na očetovo željo z diatonično harmoniko nastopal v družinskem kvartetu. Po šoli je Slavko Avsenik ostal doma in pomagal na kmetiji, igral pa le priložnostno. V tistem času se je navdušil za smučarske skoke in se leta 1946 pridružil državni smučarski skakalni reprezentanci. Svoj osebni rekord je dosegel v Planici, kjer je skočil 74 metrov. Leta 1953 nastane trio Slavka Avsenika, iz katerega kasneje nastane Gorenjski kvartet. Dve leti kasneje se ta razširi v Gorenjski kvintet oz. kvintet bratov Avsenik, v tujini pa so nastopali pod imenom Oberkrainer Quintett. V štiridesetletni karieri so Avsenikove skladbe izšle na več kot 120 nosilcih zvoka. Skupno pa je bilo prodanih več kot 36 milijonov nosilcev zvoka, za katere so prejeli 33 zlatih, dve platinasti in eno diamantno ploščo. Brata Avsenik sta z več kot 700 novimi melodijami obogatila zakladnico slovenskih melodij, njune viže pa je poslušalo na milijone poslušalcev v Avstriji, Nemčiji, Švici, Franciji, Italiji, ZDA, Kanadi in drugod. Avseniki so ustvarili nov zven, ki ga pred tem nismo poznali, njihovo obliko kvinteta pa so posnemali tako doma kot po svetu. Leta 1999 je predsednik Republike Slovenija bratoma Avsenik podelili najvišje državno priznanje »za zasluge na področju slovensko zaznamovane množične glasbene kulture doma in široko po svetu«. Avseniki so nastopili več kot 10.000-krat, domačo gorenjsko glasbo pa ponesli v najprestižnejše in največje koncertne dvorane, vse do berlinske filharmonije. Avseniki se lahko pohvalijo tudi z več kot 10.000 posnemovalci in s 150 klubi ljubiteljev Avsenikove glasbe. Avseniki so ambasadorji Slovenije po svetu, saj so z uveljavitvijo značilnega glasbenega sloga pripomogli k njeni večji prepoznavnosti. Slovenski etnografski muzej je Avsenikovo glasbo kot poseben fenomen vpisal med slovensko nesnovno oziroma duhovno, kulturno dediščino.
Vir:RTV-SLO


Tehnične specifikacije:

Complete name : Poklon.slovenskih.glasbenikov.S.Avseniku.2013.720p.TVRip.R77
Format : MPEG-4
Format profile : Base Media
Codec ID : isom (isom/iso2/avc1/mp41)
File size : 1.16 GiB
Duration : 51 min 9 s
Overall bit rate : 3 244 kb/s
Writing application : Lavf58.20.100

Video
ID : 1
Format : AVC
Format/Info : Advanced Video Codec
Format profile : High@L3.1
Format settings : CABAC / 3 Ref Frames
Format settings, CABAC : Yes
Format settings, Reference frames : 3 frames
Codec ID : avc1
Codec ID/Info : Advanced Video Coding
Duration : 51 min 9 s
Bit rate : 3 109 kb/s
Width : 1 280 pixels
Height : 720 pixels
Display aspect ratio : 16:9
Frame rate mode : Constant
Frame rate : 25.000 FPS
Color space : YUV
Chroma subsampling : 4:2:0
Bit depth : 8 bits
Scan type : Progressive
Bits/(Pixel*Frame) : 0.135
Stream size : 1.11 GiB (96%)
Writing library : x264 core 148

Audio
ID : 2
Format : AAC LC
Format/Info : Advanced Audio Codec Low Complexity
Codec ID : mp4a-40-2
Duration : 51 min 9 s
Bit rate mode : Constant
Bit rate : 129 kb/s
Channel(s) : 2 channels
Channel layout : L R
Sampling rate : 44.1 kHz
Frame rate : 43.066 FPS (1024 SPF)
Compression mode : Lossy
Stream size : 47.1 MiB (4%)
Default : Yes
Alternate group : 1


Uživajte!
Avseniki.v.mednarodnih.koprodukcijah.1990.720p.TVRip.R77

Klikni za povečavo!
23-01-2021 14:25 naložil rado77
Sejalci: 2 / Odjemalci: 0 / Velikost: 807.18 MB / Dokončani: 2
Prenesi torrent Poročaj torrent Opis torrenta
Zvrst: Glasbeni
Kategorija: GLASBA > Video

Avseniki.v.mednarodnih.koprodukcijah.1990.720p.TVRip.R77

Avseniki v mednarodnih koprodukcijah


LEPO JE BITI MUZIKANT in

SENIK Z GODCI- MUSIKANTEN STADEL
1990


Dva koprodukcijska koncerta združena v en posnetek je bila verjetno najbolj gledana oddaja v zgodovini slovenske televizije.
Ob premieri si ju je ogledalo milijone gledalcev po svetu. Zaradi priljubljenosti ANSAMBLA BRATOV AVSENIK in velikanskega avditorija, ki ga ima popularni SENIK Z GODCI- MUSIKANTEN STADEL v nemško govorečih deželah. Oddaji sta bili narejeni v Sloveniji- LEPO JE BITI MUZIKANT- ob 60 letnici Slavka Avsenika, na Bledu in SENIK Z GODCI v Mariboru, obe leta 1990. Zanimivo, v obeh se v voditeljski vlogi pojavlja mlada MARTA KOS ob dveh zelo popularnih voditeljih -KARLU MOIKU in GERHARDU LIPPERTU.
Vir: RTV-SLO


Tehnične specifikacije:

Complete name : Avseniki v mednarodnih koprodukcijah.1990\Avseniki v mednarodnih koprodukcijah.avi
Format : AVI
Format/Info : Audio Video Interleave
File size : 807 MiB
Duration : 58 min 54 s
Overall bit rate : 1 916 kb/s
Writing library : VirtualDub build 32842/release

Video
ID : 0
Format : AVC
Format/Info : Advanced Video Codec
Format profile : High@L5.1
Format settings : CABAC / 3 Ref Frames
Format settings, CABAC : Yes
Format settings, Reference frames : 3 frames
Codec ID : H264
Duration : 58 min 54 s
Bit rate : 1 647 kb/s
Width : 768 pixels
Height : 548 pixels
Display aspect ratio : 1.401
Frame rate : 25.000 FPS
Color space : YUV
Chroma subsampling : 4:2:0
Bit depth : 8 bits
Scan type : Progressive
Bits/(Pixel*Frame) : 0.157
Stream size : 694 MiB (86%)
Writing library : x264 core 130 r2274bm c832fe9

Audio
ID : 1
Format : MPEG Audio
Format version : Version 1
Format profile : Layer 3
Codec ID : 55
Codec ID/Hint : MP3
Duration : 58 min 54 s
Bit rate mode : Constant
Bit rate : 32.0 kb/s
Channel(s) : 2 channels
Sampling rate : 44.1 kHz
Compression mode : Lossy
Stream size : 108 MiB (13%)
Alignment : Aligned on interleaves
Interleave, duration : 26 ms (0.65 video frame)
Interleave, preload duration : 65 ms
Writing library : LAME3.99.5


UŽIVAJTE!
Kvintet.Bratov.Avsenik.Na.Robleku.720p.TVRip.R77

Klikni za povečavo!
23-01-2021 14:17 naložil rado77
Sejalci: 1 / Odjemalci: 0 / Velikost: 2.24 GB / Dokončani: 3
Prenesi torrent Poročaj torrent Opis torrenta
Zvrst: Glasbeni
Kategorija: GLASBA > Video

Kvintet.Bratov.Avsenik.Na.Robleku.720p.TVRip.R77


KVINTET BRATOV AVSENIK
NA ROBLEKU


ANSAMBEL BRATOV AVSENIK:
Ansambel bratov Avsenik je v svetovnem merilu verjetno najuspešnejša slovenska glasbena skupina. Delovala je od leta 1953 do 1990. Skupina je bila sprva trio, ki je kmalu prerasel v kvartet in 1955 v Gorenjski kvintet, ta pa se je preimenoval v Kvintet bratov Avsenik. V času delovanja so izdali okrog 120 plošč in kaset v skupni nakladi več kot 30 milijonov primerkov. Skupaj imajo okoli 670 skladb.
Ansambel je bil popularen tudi v Avstriji, Nemčiji in drugod po Evropi. Na nemškem govornem območju so ga poznali pod imenom Oberkrainer Quintett, ko pa se je na tem področju predstavilo še več drugih slovenskih narodno-zabavnih skupin, pa Original Oberkrainer. Jedro skupine sta predstavljala Slavko Avsenik, ki je pisal glasbo, ter njegov brat Vilko Ovsenik, ki je pripravljal priredbe za ansambel. Slavko je igral harmoniko, Vilko pa je bil klarinetist v prvih letih delovanja ansambla.
V tujini so se od leta 1962 naprej ustanavljali klubi njihovih oboževalcev, ki jih je bilo do leta 1989 skupaj že 150. Prejeli so več tujih priznanj za njihov prispevek k razvoju zabavne glasbe in za izvirnost, pa tudi 31 zlatih plošč, 1 diamantno in 1 platinasto.
Velja prepričanje, da so bili Avseniki začetniki novega žanra narodno-zabavne glasbe v Srednji Evropi in njihova kakovost na tem področju je nesporna. Med njihovimi največjimi uspehi so skladbe Na Golici, Na mostu, Tam kjer murke cveto, Slovenija, od kod lepote tvoje, Samo enkrat imaš petdeset let. Okoli 70 besedil je ansamblu napisal Ivan Sivec.
Vir: RTV SLO
Dodatek: Ansambel bratov Ravsenik - Mi ga spet tvitamo
Tehnične specifikacije:
Complete name : Kvintet.Bratov.Avsenik.720p.TVRip.R77\Kvintet Bratov Avsenik.mp4
Format : MPEG-4
Format profile : Base Media
Codec ID : isom (isom/iso2/avc1/mp41)
File size : 2.10 GiB
Duration : 49 min 20 s
Overall bit rate : 6 097 kb/s
Writing application : Lavf58.29.100

Video
ID : 1
Format : AVC
Format/Info : Advanced Video Codec
Format profile : High@L3
Format settings : CABAC / 2 Ref Frames
Format settings, CABAC : Yes
Format settings, Reference frames : 2 frames
Codec ID : avc1
Codec ID/Info : Advanced Video Coding
Duration : 49 min 20 s
Bit rate : 5 962 kb/s
Width : 720 pixels
Height : 576 pixels
Display aspect ratio : 5:4
Frame rate mode : Constant
Frame rate : 25.000 FPS
Standard : PAL
Color space : YUV
Chroma subsampling : 4:2:0
Bit depth : 8 bits
Scan type : Progressive
Bits/(Pixel*Frame) : 0.575
Stream size : 2.05 GiB (98%)
Codec configuration box : avcC

Audio
ID : 2
Format : AAC LC
Format/Info : Advanced Audio Codec Low Complexity
Codec ID : mp4a-40-2
Duration : 49 min 20 s
Bit rate mode : Constant
Bit rate : 129 kb/s
Channel(s) : 2 channels
Channel layout : L R
Sampling rate : 44.1 kHz
Frame rate : 43.066 FPS (1024 SPF)
Compression mode : Lossy
Stream size : 45.4 MiB (2%)
Default : Yes
Alternate group : 1


Uživajte!
Atlantic.Crossing.aka.Z.druge.strani.Atlanktika.2020.SLOSubsS01.720.HDTVRip.AAC-R77

Klikni za povečavo!
23-01-2021 12:31 naložil System
Sejalci: 1 / Odjemalci: 0 / Velikost: 4.7 GB / Dokončani: 4
Prenesi torrent Poročaj torrent Opis torrenta
Zvrst: Drama | Zgodovinski
Kategorija: FILMI > TV - Serija
Anonimen nalagalec

Atlantic.Crossing.aka.Z.druge.strani.Atlanktika.2020.SLOSubsS01.720.HDTVRip.AAC-R77




Atlantic Crossing 2020
TV Serija

Z DRUGE STRANI ATLANKTIKA
Sezona 01


Opis:
Princ Olaf se vse bolj vdaja pijači. Kralj mu že leta ne dovoli drugega kot opazovati dogajanje, in to ga peha v malodušje. Norveška vlada zato sklene, da mu bo dodelila položaj vrhovnega poveljnika norveških čet. To je razlog, da znova odpotuje v Washington. Ko opazuje svojo družino, se zave, da že dolgo ni več njen del. Marta razmišlja o ločenem življenju, nato pa se vojna konča in Olaf sklene, da bo obrnil nov list in se zazrl v prihodnost. Marta se tako vrne v domovino in z možem se znova povežeta.


Država: Norveška, Nemčija, ZDA, Švedska, Danska
Scenarij: Alexander Eik, Linda May Kallestein
Režija: Alexander Eik, Janic Heen
V glavnih vlogah: Sofia Helin, Kyle MacLachlan, Tobias Santelmann, Harriet Sansom Harris, Daniel Betts, Søren Pilmark, Lucy Russell
Epizode: 8
Žanri: drama, zgodovina
Podnapisi: Slovenski


Tehnićne specifikacije:
Complete name : Z druge strani Atlantika.S01.E02.SLOSubs.R77.mp4
Format : MPEG-4
Format profile : Base Media
Codec ID : isom (isom/iso2/avc1/mp41)
File size : 583 MiB
Duration : 55 min 23 s
Overall bit rate : 1 471 kb/s
Writing application : Lavf58.20.100

Video
ID : 1
Format : AVC
Format/Info : Advanced Video Codec
Format profile : High@L3.1
Format settings : CABAC / 3 Ref Frames
Format settings, CABAC : Yes
Format settings, Reference frames : 3 frames
Codec ID : avc1
Codec ID/Info : Advanced Video Coding
Duration : 55 min 23 s
Bit rate : 1 338 kb/s
Width : 1 280 pixels
Height : 720 pixels
Display aspect ratio : 16:9
Frame rate mode : Constant
Frame rate : 25.000 FPS
Color space : YUV
Chroma subsampling : 4:2:0
Bit depth : 8 bits
Scan type : Progressive
Bits/(Pixel*Frame) : 0.058
Stream size : 530 MiB (91%)
Writing library : x264 core 148

Audio
ID : 2
Format : AAC LC
Format/Info : Advanced Audio Codec Low Complexity
Codec ID : mp4a-40-2
Duration : 55 min 23 s
Bit rate mode : Constant
Bit rate : 128 kb/s
Channel(s) : 2 channels
Channel layout : L R
Sampling rate : 44.1 kHz
Frame rate : 43.066 FPS (1024 SPF)
Compression mode : Lossy
Stream size : 50.7 MiB (9%)
Default : Yes
Alternate group : 1


Veliko užitkov!
Poljub.ob.borovem.jezeru.aka.Kiss.at.Pine.Lake.SLOSubs.720p.HDTVRip x264.R77

Klikni za povečavo!
23-01-2021 11:39 naložil rado77
Sejalci: 0 / Odjemalci: 1 / Velikost: 939.69 MB / Dokončani: 2
Prenesi torrent Poročaj torrent Opis torrenta
Zvrst: Romantični
Kategorija: FILMI > HDRip

Poljub.ob.borovem.jezeru.aka.Kiss.at.Pine.Lake.SLOSubs.720p.HDTVRip x264.R77



Kiss at Pine Lake

Poljub ob borovem jezeru (2012)




O poljubu pri Pine Lakeu:


Petnajst let po poletni romantiki usoda prikliče dva zaljubljena zvezdnika. Zoe in Luke sta si prvi poljub skoraj delila ob jezeru Camp Pine, a sta ju prekinila in njuna najstniška romanca se je končala. Zdaj je Luke (Barry Watson) človekoljubni podjetnik, ki je pred kratkim zaradi sentimentalnih razlogov kupil stric's Camp Pine Lake, le da bi ugotovil, da bi lahko kamp zaprli zaradi kršitev varnostnih pravil. Zoe (Mia Kirshner) je glavna oseba iz podjetja, ki je novega lastnika kampa prepričalo, naj proda svojo zemljo.


Ko pride Zoe, z osuplostjo ugotovi, da je Luka novi lastnik. Zoe se vse spremeni, ko ugotovi, da Luke ne zanima dobiček, ampak želi, da ostane kamp odprt. Ko jo šef zapusti, se strinja, da bo prijateljstvo z Lukom izkoristila sebi v prid. Ali bosta zmogla premagati prevaro, da bi obudila svoj stari plamen in hkrati rešila umik iz otroštva?





Igrajo:

Mia Kirshner (VAMPIRJEV DNEVNIK, 24,
Barry Watson (7.NEBO,OCEANOVIH ENAJST )
Matty Finochio
Victoria Bidewell

Režija: Michael Scott

Država: Kanada
Jezik: angleščina
Podnapisi: slovenščina
Žanr: romantični





Tehnične specifikacije:



Complete name: Poljub.ob.borovem.jezeru.aka.Kiss.at.Pine.Lake.SLOSubs.720p.HDTVRip x264.R77

Format : MPEG-4
Format profile : Base Media
Codec ID : isom (isom/iso2/avc1/mp41)
File size : 940 MiB
Duration : 1 h 24 min
Overall bit rate : 1 546 kb/s
Writing application : Lavf58.29.100


Video

ID : 1
Format : AVC
Format/Info : Advanced Video Codec
Format profile : High@L3
Format settings : CABAC / 2 Ref Frames
Format settings, CABAC : Yes
Format settings, Reference frames : 2 frames
Codec ID : avc1
Codec ID/Info : Advanced Video Coding
Duration : 1 h 24 min
Bit rate : 1 412 kb/s
Width : 720 pixels
Height : 576 pixels
Display aspect ratio : 16:9
Frame rate mode : Constant
Frame rate : 25.000 FPS
Standard : PAL
Color space : YUV
Chroma subsampling : 4:2:0
Bit depth : 8 bits
Scan type : Progressive
Bits/(Pixel*Frame) : 0.136
Stream size : 858 MiB (91%)
Codec configuration box : avcC


Audio

ID : 2
Format : AAC LC
Format/Info : Advanced Audio Codec Low Complexity
Codec ID : mp4a-40-2
Duration : 1 h 24 min
Bit rate mode : Constant
Bit rate : 129 kb/s
Channel(s) : 2 channels
Channel layout : L R
Sampling rate : 44.1 kHz
Frame rate : 43.066 FPS (1024 SPF)
Compression mode : Lossy
Stream size : 78.3 MiB (8%)
Default : Yes
Alternate group : 1





UŽIVAJTE!
Podolskiye Kursanty 2020 SrbSubs 720p WEBRip XviD AC3 Unknown

Klikni za povečavo!
23-01-2021 10:55 naložil Ziva
Sejalci: 0 / Odjemalci: 0 / Velikost: 4.71 GB / Dokončani: 8
Prenesi torrent Magnet Link Poročaj torrent Opis torrenta NFO
Zvrst: Akcija | Vojni
Kategorija: FILMI > WEBRip-720



Podolskiye Kursanty 2020 720p WEBRip XviD AC3 Unknown
Language(s): Russian
Size: 4.70 GB | Duration: 2hr 16mn | Container: AVI
Audio: AC-3 | 448 Kbps | 6 Channels
Video: XviD | 4488 Kbps | 1280 x 536
Genre: Action | Drama | War


Artyom Gubin, Lubov Konstantinova, Igor Yudin


The film tells the story of the Podolsk cadets' heroic stand outside Moscow in October 1941. Cadets from the Podolsk infantry and artillery schools were sent to the Ilyinsky line of defense, fighting alongside units from the Soviet 43rd Army to hold back the German advance until reinforcements arrived. Hopelessly outnumbered, young men in their teens laid down their lives in a battle lasting almost two weeks to obstruct the far superior German forces advancing towards Moscow. This film is not only about war. It is also about love, true camaraderie, and the path from boyhood to manhood. Around 3,500 cadets and their commanding officers were sent to hold up the last line of defense outside Moscow. Most of them remained there for eternity.



Gli Anni Più Belli 2020 SloSubs 720p BDRip XviD AC3 Unknown

Klikni za povečavo!
23-01-2021 10:30 naložil Ziva
Sejalci: 1 / Odjemalci: 0 / Velikost: 4.58 GB / Dokončani: 3
Prenesi torrent Poročaj torrent Opis torrenta NFO
Zvrst: Drama
Kategorija: FILMI > BDRip



Gli Anni Più Belli 2020 720p BDRip XviD AC3 Unknown
Language(s): Italian
Size: 4.58 GB | Duration: 2hr 14mn | Container: AVI
Audio: AC-3 | 448 Kbps | 6 Channels
Video: XviD | 4425 Kbps | 1280 x 536
Genre: Drama


Pierfrancesco Favino, Micaela Ramazzotti, Kim Rossi Stuart


The story of Italy, from the 80s to nowadays, told through the life of four friends, Giulio, Gemma, Paolo e Riccardo; during 40 years of loves, aspirations, success and failures.




Severina - 18 Velikih Hitova (2002) MP3

Klikni za povečavo!
23-01-2021 04:43 naložil System
Sejalci: 1 / Odjemalci: 0 / Velikost: 171.74 MB / Dokončani: 10
Prenesi torrent Poročaj torrent Opis torrenta NFO
Zvrst: Glasbeni
Kategorija: GLASBA > Glasba
Anonimen nalagalec

---------------------------------------------------------------------
Severina - 18 Velikih Hitova
---------------------------------------------------------------------
Artist...............: Severina
Album................: 18 Velikih Hitova
Genre................: Pop, Folk
Source...............: CD
Year.................: 2002
Ripper...............: EAC (Secure mode) / LAME 3.92 & Asus CD-S520
Codec................: LAME 3.98
Version..............: MPEG 1 Layer III
Quality..............: Insane, (avg. bitrate: 320kbps)
Channels.............: Stereo / 44100 hz
Tags.................: , ID3 v2.3
In
News Server..........: news.astraweb.com
News Group(s)........: alt.binaries.pl.mp3
Included.............: NFO
---------------------------------------------------------------------
Tracklisting
---------------------------------------------------------------------
1. Severina - Dalmatinka [04:04]
2. Severina - Paloma Nera [03:27]
3. Severina - Ja Samo Pjevam [03:24]
4. Severina - Ti Si Srce Moje [03:56]
5. Severina - Djevojka Sa Sela [04:28]
6. Severina - Rastajem Se Od Zivota [03:01]
7. Severina - Da Si Moj [03:26]
8. Severina - Kad Si Sam [03:55]
9. Severina - Tvoja Prva Djevojka [04:36]
10. Severina - Trava Zelena [04:01]
11. Severina - Od Rodzendana Do Rodzendana [04:10]
12. Severina - Ante [02:52]
13. Severina - Adio, Ljube [03:04]
14. Severina - Prijateljice [03:19]
15. Severina - Sija Sunce, Trava Mirise [02:56]
16. Severina - Kreni [03:20]
17. Severina - Moja Stvar [03:40]
18. Severina - 'ko Je Kriv [04:32]
Playing Time.........: 01:06:18
Total Size...........: 171,20 MB
Dark.Blue.S01-S02.Slosub.TVRip.720p.x264.R77

Klikni za povečavo!
22-01-2021 16:48 naložil rado77
Sejalci: 0 / Odjemalci: 0 / Velikost: 7.41 GB / Dokončani: 1
Prenesi torrent Poročaj torrent Opis torrenta
Zvrst: Drama
Kategorija: FILMI > TVRip

Dark.Blue.S01-S02.Slosub.TVRip.720p.x264.R77





Dark Blue
TV serija (2009–2010)


TEMNO MODRA





Država: Združene države

Direktor: Danny Cannon (ustvarjalec), Doug Jung (ustvarjalec), Jeffrey G. Hunt





Igralska zasedba:


Dylan McDermott , Omari Hardwick , Logan Marshall-Green , Nicki Aycox , Meta Golding , Tyrees Allen , Noah Bean

Žanr: TV serija , Drama , Triler, Policajski
Jezik: angleščina
Podnapisi: Slovenski


Povzetek:



Temno modra spremlja življenje tajne ekipe policistov iz Los Angelesa tako prikrito, da mnogi njihovi lastni kolegi sploh ne vedo, da so vpleteni. Ekipo nadzira poročnik Carter Shaw (Dylan McDermott), ki s svojimi nadrejenimi pogosto trka v glavo nad tveganji, ki jih je ekipa pripravljena uničiti.






Tehnične specifikacije:



Complete name : Dark.Blue.S01-S02.Slosub.TVRip.720p.x264.R77

Format : Matroska
Format version : Version 2
File size : 406 MiB
Duration : 43 min 47 s
Overall bit rate : 1 295 kb/s
Writing application : Lavf52.94.0
Writing library : Lavf52.94.0


Video

ID : 1
Format : AVC
Format/Info : Advanced Video Codec
Format profile : High@L3
Format settings : CABAC / 2 Ref Frames
Format settings, CABAC : Yes
Format settings, Reference frames : 2 frames
Codec ID : V_MPEG4/ISO/AVC
Duration : 43 min 47 s
Bit rate : 1 100 kb/s
Width : 720 pixels
Height : 408 pixels
Display aspect ratio : 16:9
Frame rate mode : Constant
Frame rate : 25.000 FPS
Color space : YUV
Chroma subsampling : 4:2:0
Bit depth : 8 bits
Scan type : Progressive
Bits/(Pixel*Frame) : 0.150
Stream size : 337 MiB (83%)
Writing library : x264 core 112 r1834 a51816a
Default : Yes
Forced : No


Audio

ID : 2
Format : AC-3
Format/Info : Audio Coding 3
Commercial name : Dolby Digital
Codec ID : A_AC3
Duration : 43 min 47 s
Bit rate mode : Constant
Bit rate : 192 kb/s
Channel(s) : 2 channels
Channel layout : L R
Sampling rate : 48.0 kHz
Frame rate : 31.250 FPS (1536 SPF)
Bit depth : 16 bits
Compression mode : Lossy
Stream size : 60.1 MiB (15%)
Service kind : Complete Main
Default : Yes
Forced : No


Veliko užitkov!
Jelena Rozga - Oprosti Mala (2006) MP3

Klikni za povečavo!
22-01-2021 15:54 naložil System
Sejalci: 1 / Odjemalci: 0 / Velikost: 125.48 MB / Dokončani: 10
Prenesi torrent Poročaj torrent Opis torrenta NFO
Zvrst: Glasbeni
Kategorija: GLASBA > Glasba
Anonimen nalagalec

---------------------------------------------------------------------
Jelena Rozga - Oprosti Mala
---------------------------------------------------------------------
Artist...............: Jelena Rozga
Album................: Oprosti Mala
Genre................: Pop
Source...............: CD
Year.................: 2006
Ripper...............: EAC (Secure mode) / LAME 3.92 & Asus CD-S520
Codec................: LAME 3.98
Version..............: MPEG 1 Layer III
Quality..............: Insane, (avg. bitrate: 320kbps)
Channels.............: Joint Stereo / 44100 hz
Tags.................: ID3 v1.1, ID3 v2.
Posted by............: somebody on 22. 01. 2021
News Server..........: news.astraweb.com
News Group(s)........: alt.binaries.pl.mp3
Included.............: NFO
Covers...............: Front Back CD
---------------------------------------------------------------------
Tracklisting
---------------------------------------------------------------------
1. Jelena Rozga - Oprosti mala [03:00]
2. Jelena Rozga - Ja znam dobro sto mi je [03:39]
3. Jelena Rozga - Roza boja [03:16]
4. Jelena Rozga - Vrsnjaci moji [03:08]
5. Jelena Rozga - Sve se meni cini [04:06]
6. Jelena Rozga - Roba s greskom [03:51]
7. Jelena Rozga - Sve mi tvoje oci govore [03:28]
8. Jelena Rozga - Suze od kristala [03:52]
9. Jelena Rozga - Lijepa samo za tebe [04:33]
10. Jelena Rozga - Ne zovi me Marija [02:59]
11. Jelena Rozga - Bilo bi super (Motiwwwo gold remix) [05:18]
12. Jelena Rozga - Oprosti mala (Motiwwwo drum 'n' dance remix)[04:28]
13. Jelena Rozga - Ne zovi me Marija (Radio remix) [04:10]
Playing Time.........: 49:52
Total Size...........: 120,23 MB
Suzanne Vega - Retrospective - The Best Of Suzanne Vega (2003) FLAC

Klikni za povečavo!
21-01-2021 14:50 naložil System
Sejalci: 2 / Odjemalci: 0 / Velikost: 492.33 MB / Dokončani: 3
Prenesi torrent Poročaj torrent Opis torrenta NFO
Zvrst: Glasbeni
Kategorija: GLASBA > Glasba
Anonimen nalagalec

---------------------------------------------------------------------
Suzanne Vega - RetroSpective - The Best Of Suzanne Vega
---------------------------------------------------------------------
Artist...............: Suzanne Vega
Album................: RetroSpective - The Best Of Suzanne Vega
Genre................: Pop
Source...............: CD
Year.................: 2003
Ripper...............: EAC (Secure mode) / LAME 3.92 & Asus CD-S520
Codec................: Free Lossless Audio Codec (FLAC)
Version..............: reference libFLAC 1.1.2 20050205
Quality..............: Lossless, (avg. compression: 62 %)
Channels.............: Stereo / 44100 HZ / 16 Bit
Tags.................: VorbisComment
News Server..........: news.astraweb.com
News Group(s)........: alt.binaries.sounds.mp3.m
Included.............: NFO
Covers...............: Front Back CD
---------------------------------------------------------------------
Tracklisting
---------------------------------------------------------------------
1. Suzanne Vega - Luka [03:52]
2. Suzanne Vega - Tom's Diner (DNA feat. Suzanne Vega) [03:49]
3. Suzanne Vega - Marlene On The Wall [03:41]
4. Suzanne Vega - Caramel [02:54]
5. Suzanne Vega - 99.9F- [03:15]
6. Suzanne Vega - Tired Of Sleeping [04:25]
7. Suzanne Vega - Small Blue Thing [03:55]
8. Suzanne Vega - Blood Makes Noise [02:29]
9. Suzanne Vega - Left Of Center [03:30]
10. Suzanne Vega - (I'll Never Be) Your Maggie May [03:48]
11. Suzanne Vega - In Liverpool [04:44]
12. Suzanne Vega - Gypsy [04:03]
13. Suzanne Vega - Book Of Dreams [03:24]
14. Suzanne Vega - No Cheap Thrill [03:10]
15. Suzanne Vega - Calypso [04:13]
16. Suzanne Vega - World Before Columbus [03:27]
17. Suzanne Vega - Solitude Standing [04:39]
18. Suzanne Vega - Penitent [04:18]
19. Suzanne Vega - Rosemary [02:44]
20. Suzanne Vega - The Queen And The Soldier (live) [05:02]
21. Suzanne Vega - Woman On The Tier (I'll See You Through) [02:26]
Playing Time.........: 01:17:59
Total Size...........: 491,59 MB
Stevie Wonder - Song Review - A Greatest Hits Collection (1996) FLAC

Klikni za povečavo!
21-01-2021 14:48 naložil System
Sejalci: 2 / Odjemalci: 0 / Velikost: 844.55 MB / Dokončani: 4
Prenesi torrent Poročaj torrent Opis torrenta NFO
Zvrst: Glasbeni
Kategorija: GLASBA > Glasba
Anonimen nalagalec

---------------------------------------------------------------------
Stevie Wonder - Song Review: A Greatest Hits Collection
---------------------------------------------------------------------
Artist...............: Stevie Wonder
Album................: Song Review: A Greatest Hits Collection
Genre................: R&B
Source...............: CD
Year.................: 1982
Ripper...............: EAC (Secure mode) / LAME 3.92 & Asus CD-S520
Codec................: Free Lossless Audio Codec (FLAC)
Version..............: reference libFLAC 1.2.1 20070917
Quality..............: Lossless, (avg. compression: 64 %)
Channels.............: Stereo / 44100 HZ / 16 Bit
Tags.................: VorbisComment
News Server..........: news.astraweb.com
News Group(s)........: alt.binaries.sounds.mp3.m
Included.............: NFO
Covers...............: Front CD
---------------------------------------------------------------------
Tracklisting (Disc 1)
---------------------------------------------------------------------
1. Stevie Wonder - Part-Time Lover [03:43]
2. Stevie Wonder - I Just Called To Say I Love You [04:21]
3. Stevie Wonder - Superstition [03:59]
4. Stevie Wonder - Sir Duke [03:51]
5. Stevie Wonder - My Cherie Amour [02:51]
6. Stevie Wonder - I Was Made To Love Her [02:35]
7. Stevie Wonder - Overjoyed [03:41]
8. Stevie Wonder - Hey Love [02:42]
9. Stevie Wonder - Signed, Sealed, Delivered I'm Yours [02:37]
10. Stevie Wonder - You Are The Sunshine Of My Life [02:54]
11. Stevie Wonder - Ribbon In The Sky [03:42]
12. Stevie Wonder - Troll Blaster (Jammin') [04:49]
13. Stevie Wonder - Living For The City [03:41]
14. Stevie Wonder - Uptight (Everything's Alright) [02:52]
15. Stevie Wonder - Lately [04:04]
16. Stevie Wonder - Do I Do [10:27]
Playing Time.........: 01:02:57
Total Size...........: 413,31 MB
---------------------------------------------------------------------
Tracklisting (Disc 2)
---------------------------------------------------------------------
1. Stevie Wonder - Send One You Love [04:01]
2. Stevie Wonder - Ebony And Ivory [03:40]
3. Stevie Wonder - All I Do [05:16]
4. Stevie Wonder - That Girl [05:13]
5. Stevie Wonder - For Your Love [04:03]
6. Stevie Wonder - I Wish [04:11]
7. Stevie Wonder - You Will Know [04:00]
8. Stevie Wonder - Boogie On Reggae Woman [04:06]
9. Stevie Wonder - Higher Ground [03:07]
10. Stevie Wonder - These Three Words [04:53]
11. Stevie Wonder - Stay Gold [03:33]
12. Stevie Wonder - Love Light In Flight [06:54]
13. Stevie Wonder - Kiss Lonely Good-Bye [04:05]
14. Stevie Wonder - Hold On To Your Dream [04:19]
15. Stevie Wonder - Redemption Song [03:46]
Playing Time.........: 01:05:14
Total Size...........: 430,94 MB
Kim.Wilson - That's Life (1994) FLAC

Klikni za povečavo!
21-01-2021 14:46 naložil System
Sejalci: 1 / Odjemalci: 0 / Velikost: 273.54 MB / Dokončani: 2
Prenesi torrent Poročaj torrent Opis torrenta NFO
Zvrst: Glasbeni
Kategorija: GLASBA > Glasba
Anonimen nalagalec

---------------------------------------------------------------------
Kim Wilson - That's Life
---------------------------------------------------------------------
Artist...............: Kim Wilson
Album................: That's Life
Genre................: Blues
Source...............: CD
Year.................: 1994
Ripper...............: EAC (Secure mode) / LAME 3.92 & Asus CD-S520
Codec................: Free Lossless Audio Codec (FLAC)
Version..............: reference libFLAC 1.2.1 20070917
Quality..............: Lossless, (avg. compression: 64 %)
Channels.............: Stereo / 44100 HZ / 16 Bit
Tags.................: VorbisComment
In
News Server..........: news.astraweb.com
News Group(s)........: alt.binaries.pl.mp3
Included.............: NFO
Covers...............: Front Back
---------------------------------------------------------------------
Tracklisting
---------------------------------------------------------------------
1. Kim Wilson - Baby Please Don't Lie To Me [03:00]
2. Kim Wilson - Time Is On My Side [03:11]
3. Kim Wilson - Don't Bite The Hand That Feeds You [04:16]
4. Kim Wilson - She's My Baby [02:17]
5. Kim Wilson - Ooh Baby(When You Squeeze) [04:18]
6. Kim Wilson - Humpin' To Please [04:02]
7. Kim Wilson - I've Been Searchin' [03:58]
8. Kim Wilson - Pretty Baby [03:33]
9. Kim Wilson - Teach Me(How To Love You) [02:25]
10. Kim Wilson - Blues Leave Me Alone [03:59]
11. Kim Wilson - Lowdown [04:42]
Playing Time.........: 39:46
Total Size...........: 253,17 MB
Snayper 2 Tungus S01 SrbSubs 720p HDTV x264 PACK

Klikni za povečavo!
20-01-2021 15:26 naložil Ziva
Sejalci: 1 / Odjemalci: 0 / Velikost: 4.55 GB / Dokončani: 10
Prenesi torrent Poročaj torrent Opis torrenta NFO
Zvrst: Vojni
Kategorija: FILMI > HDTV



Mini serija
Snayper 2 Tungus S01 720p HDTV x264 PACK
Language(s): Russian
Size: 4.55 GB | Duration: 4 x 40mn | Container: MKV
Audio: MP-2 | 192 Kbps | 2 Channels
Video: AVC | 3800 Kbps | 1280 x 720
Genre: War
Podnapisi: srbski


World War 2 - Eastern Front: A new batch of raw, inexperienced female Soviet snipers arrive at the front. To bolster them a commander picks a Tungus medic whose people are known for their hunting skills and marksmanship to lead them in battle. Soon a merciless duel with an elite German sniper develops. The main character is based on the top Soviet sniper SEMYON NOMOKONOV who had 367 kills to his credit.



Seka Aleksic - Kraljica (2007) MP3

Klikni za povečavo!
19-01-2021 16:10 naložil System
Sejalci: 2 / Odjemalci: 0 / Velikost: 104.81 MB / Dokončani: 16
Prenesi torrent Poročaj torrent Opis torrenta NFO
Zvrst: Glasbeni
Kategorija: GLASBA > Glasba
Anonimen nalagalec

---------------------------------------------------------------------
Seka Aleksic - Kraljica
---------------------------------------------------------------------
Artist...............: Seka Aleksic
Album................: Kraljica
Genre................: Turbo Folk
Source...............: CD
Year.................: 2007
Ripper...............: EAC (Secure mode) / LAME 3.92 & Asus CD-S520
Codec................: LAME 3.98
Version..............: MPEG 1 Layer III
Quality..............: Insane, (avg. bitrate: 320kbps)
Channels.............: Joint Stereo / 44100 hz
Tags.................: ID3 v1.1, ID3 v2.3
News Server..........: news.astraweb.com
News Group(s)........: alt.binaries.pl.mp3
Included.............: NFO
Covers...............: Front Back CD
---------------------------------------------------------------------
Tracklisting
---------------------------------------------------------------------
1. Seka Aleksic - Kraljica [03:15]
2. Seka Aleksic - Aspirin [03:08]
3. Seka Aleksic - Boli Stara Ljubav [02:41]
4. Seka Aleksic - Poslednji Let [04:23]
5. Seka Aleksic - Nije Ona Ta [02:35]
6. Seka Aleksic - Milostinja [03:04]
7. Seka Aleksic - Hirosima [02:25]
8. Seka Aleksic - Tesna Koza [03:27]
9. Seka Aleksic - Impulsi [02:15]
10. Seka Aleksic - Sokole Moj [03:07]
11. Seka Aleksic - Reci Gde Smo Mi [02:58]
Playing Time.........: 33:23
Total Size...........: 104,61 MB
Paul Anka - Duets (2013) FLAC

Klikni za povečavo!
19-01-2021 14:30 naložil System
Sejalci: 3 / Odjemalci: 0 / Velikost: 469.13 MB / Dokončani: 5
Prenesi torrent Poročaj torrent Opis torrenta NFO
Zvrst: Glasbeni
Kategorija: GLASBA > Glasba
Anonimen nalagalec

---------------------------------------------------------------------
Paul Anka - Duets
---------------------------------------------------------------------
Artist...............: Paul Anka
Album................: Duets
Genre................: Pop
Source...............: CD
Year.................: 2013
Ripper...............: EAC (Secure mode) / LAME 3.92 & Asus CD-S520
Codec................: Free Lossless Audio Codec (FLAC)
Version..............: reference libFLAC 1.2.1 20070917
Quality..............: Lossless, (avg. compression: 61 %)
Channels.............: Stereo / 44100 HZ / 16 Bit
News Server..........: news.astraweb.com
News Group(s)........: alt.binaries.pl.mp3
Included.............: NFO
Covers...............: Front Back
---------------------------------------------------------------------
Tracklisting
---------------------------------------------------------------------
1. Paul Anka - Walk A Fine Line (with Michael McDonald & George Benson)[05:32]
2. Paul Anka - Find My Way Back To Your Heart (with Tita Hutchison)[04:39]
3. Paul Anka - Do I Love You (Yes, In Every Way) (with Dolly Parton)[04:53]
4. Paul Anka - This Is It (with Michael Jackson) [04:07]
5. Paul Anka - I Really Miss You (with Leon Russell) [04:45]
6. Paul Anka - Think I’m In Love Again (with Gloria Estefan)[05:05]
7. Paul Anka - Pennies From Heaven (with Michael Buble) [04:12]
8. Paul Anka - Crazy (with Willie Nelson) [04:45]
9. Paul Anka - You Are My Destiny (with Patti LaBelle) [04:11]
10. Paul Anka - Les Filles de Paris (with Chris Botti) [05:02]
11. Paul Anka - It’s Hard To Say Goodbye (with Celine Dion) [05:11]
12. Paul Anka - She's A Lady (with Tom Jones) [04:20]
13. Paul Anka - Hold Me 'til The Morning Comes (with Peter Cetera)[04:52]
14. Paul Anka - My Way (with Frank Sinatra) [05:14]
15. Paul Anka - I'm Not Anyone (with Sammy Davis, Jr.) [04:08]
16. Paul Anka - Les Filles de Paris (with Chris Botti) (French Version)[05:03]
Playing Time.........: 01:16:07
Total Size...........: 468,61 MB
Deep.Impact.1998.MultiSub.PAL.DVDR

Klikni za povečavo!
17-01-2021 12:32 naložil System
Sejalci: 0 / Odjemalci: 0 / Velikost: 4.36 GB / Dokončani: 2
Prenesi torrent Poročaj torrent Opis torrenta
Kategorija: FILMI > DVD
Anonimen nalagalec

Deep Impact (1998)
Zadnji udarec (1998)



-------------

INFO:
-------------
Source..........: DVD
Format..........: 16:9
Standard........: PAL
Release Size....: 4,35 GB
iMDB Link.......: KLIK
iMDB Rating.....: 6,2/10 (164.177)
Genre...........: Action, Drama, Romance, Sci-Fi, Thriller
Country.........: USA
Language........: English/ Russian
Video...........: Untouched
Audio...........: AC3 5.1-ch Russian/ English
Subs............: Russian/ Croatian/ Slovenian/ Serbian
Extras..........: yes
Regija..........: Prosto
Runtime.........: 117 min
Čas predvajanja.: 01:56.10 h

-------------
IGRALCI:
-------------
Robert Duvall ... Spurgeon Tanner
Tea Leoni ... Jenny Lerner
Elijah Wood ... Leo Biederman
Vanessa Redgrave ... Robin Lerner
Morgan Freeman ... President Beck
Maximilian Schell ... Jason Lerner
James Cromwell ... Alan Rittenhouse
Ron Eldard ... Oren Monash
Jon Favreau ... Gus Partenza
Laura Innes ... Beth Stanley
Mary McCormack ... Andrea Baker
Richard Schiff ... Don Biederman
Leelee Sobieski ... Sarah Hotchner
Blair Underwood ... Mark Simon
Dougray Scott ... Eric Vennekor

-------------
OPIS:
-------------
Najstnik Leo Beiderman se pridruži šolskemu astrološkemu krožku v upanju,
da ga bo opazila lepa sošolka Sarah. Še najmanj pričakuje, da bo odkril
nekaj, kar bo pretreslo svet. Fotografija, ki jo posname z malim teleskopom,
prikazuje komet, za katerega znanstveniki zatrjujejo, da bo trčil z Zemljo.
Zdaj vsi upi človeštva ležijo v posebnem vesoljskem plovilu, ki naj bi
pristalo na kometu in ga uničilo, še preden bi prišlo do katastrofe. Toda
bolj ko se bliža usodni dan, bolj napeti so odzivi ljudi...



The.Hitcher.1986.SloSub.DVDRip.XviD-Churchill

Klikni za povečavo!
16-01-2021 13:31 naložil System
Sejalci: 1 / Odjemalci: 0 / Velikost: 1.47 GB / Dokončani: 12
Prenesi torrent Poročaj torrent Opis torrenta
Zvrst: Akcija | Triler
Kategorija: FILMI > XviD
Anonimen nalagalec

The Hitcher (1986)
Avtoštopar (1986)



INFO:
-------------
Codec : XVID
Format : AVI
Size : 1.47 GiB
Bit rate : 1 801 kb/s
Width : 720 pixels
Height : 304 pixels
Aspect ratio : 16/9
Audio 1 : AC-3
Bit rate : 448 kb/s
Channel(s) : 6 channels
Channel positions: L R C LFE Ls Rs
Sampling rate : 48.0 kHz
Genre : Action, Thriller
Country : USA
Language : English/ French
Subtitles : Slovenski
Runtime : 93 min
Čas predvajanja : 1 h 33 min

IMDb user Rating: 7,2/10 (43.498)
IMDb Link: KLIK

IGRALCI:
-------------
Rutger Hauer ... John Ryder
C. Thomas Howell ... Jim Halsey
Jennifer Jason Leigh ... Nash
Jeffrey DeMunn ... Captain Esteridge
John M. Jackson ... Sergeant Starr
Billy Green Bush ... Trooper Donner
Jack Thibeau ... Trooper Prestone
Armin Shimerman ... Interrogation Sergeant
Gene Davis ... Trooper Dodge
Jon Van Ness ... Trooper Hapscomb
Henry Darrow ... Trooper Hancock
Tony Epper ... Trooper Conners
Tom Spratley ... Proprietor
Colin Campbell ... Construction Man

OPIS:
-------------
Zgodba o motenem morilcu in njegovem lovu na mladeniča...


News Of The World 2020 SrbSubs 720p AMZN WEBRip XviD AC3 Unknown

Klikni za povečavo!
16-01-2021 11:55 naložil Ziva
Sejalci: 1 / Odjemalci: 0 / Velikost: 4.03 GB / Dokončani: 10
Prenesi torrent Magnet Link Poročaj torrent Opis torrenta NFO
Kategorija: FILMI > WEBRip-720



News Of The World 2020 720p AMZN WEBRip XviD AC3 Unknown
Language(s): English
Size: 4.02 GB | Duration: 1hr 58mn | Container: AVI
Audio: AC-3 | 448 Kbps | 6 Channels
Video: XviD | 4418 Kbps | 1280 x 536
Genre: Adventure | Drama | Western


Tom Hanks, Steve Boyles, Helena Zengel


A Civil War veteran agrees to deliver a girl, taken by the Kiowa people years ago, to her aunt and uncle, against her will. They travel hundreds of miles and face grave dangers as they search for a place that either can call home.


Spasti.Leningrad.aka.Saving.Leningrad.2019.SLOSubs.BRRip.XviD-DrSi

Klikni za povečavo!
16-01-2021 11:47 naložil Ziva
Sejalci: 1 / Odjemalci: 0 / Velikost: 2.2 GB / Dokončani: 2
Prenesi torrent Poročaj torrent Opis torrenta NFO
Zvrst: Akcija | Drama | Vojni
Kategorija: FILMI >  BRRip



Naziv: Spasti.Leningrad.aka.Saving.Leningrad.2019.SLOSubs.BRRip.XviD-DrSi
Source: Spasti.Leningrad.2019.1080p.Bluray.DTS.5.1.x264-OllandGroup
Leto izida ........: 2019
Velikost ...........: 2,20 GB
Dolžina ............: 97 Minut
Video ...............: 2783 Kbps | 720x304 | 24 fps
Zvok .................: Dolby Digital AC3 5.1 @ 448 Kbps
Kodek.................: XviD
Zvrst………….: Akcija | Vojni | Drama
Država .............: Rusija
Jezik ................: Ruski
Podnapisi .........: Slovenski (custom)
Prevod: denycare –Hvala!
Tehnična obdelava: DVD Rippers Slovenija

Režija.........: Aleksey Kozlov
Scenarij.......: Aleksey Kozlov


Maria Melnikova ... Nastya
Andrey Mironov-Udalov ... Kostya
Gela Meskhi ... Petruchik
Anastasiya Melnikova ... Mariya Nikolayevna
Valeriy Degtyar ... Aleksandr Naumovich
Marina Komarova ... Anastasiya Aleksandrovna
Vitaliy Kishchenko ... Gorelov
Aleksey Shevchenkov ... Yerofeyev


Spremljamo izmišljeno zgodbo ob resničnih dogodkih med 2. sv. vojno,
ko so Nemci oblegali takrat imenovani Leningrad. Kostya je mlad
ruski kadet topništva, ki se s svojim dekletom preko noči namerava
z barko evakuirati iz mesta preko bližnjega jezera Ladoga.
Toda barka povsem razpada, ob enem pa jim iz zraka grozijo
še nemška bojna letala, ki jih ves čas obletavajo.
Tako mora okoli 1500 ljudi na krovu preživeti svojo najdaljšo noč.