A
B
C
D
E
F
G
H
I
J
K
L
M
N
O
P
Q
R
S
T
U
V
W
X
Y
Z
0-9
Terminator.Dark.Fate.2019.SloSub.1080p.WEB.x264-[cyd]

Klikni za povečavo!
16-01-2020 14:42 naložil Reaper
Sejalci: 7 / Odjemalci: 1 / Velikost: 2.44 GB / Dokončani: 54
Prenesi torrent Poročaj torrent Opis torrenta NFO
Zvrst: Akcija | Pustolovski | Z.F.
Kategorija: FILMI > WEBRip-1080

——————————————————————————————————————————————————————————————————
IMDb info:
◎ Naslov: Terminator: Temačna usoda - Terminator: Dark Fate
◎ Leto: 2019
◎ Zvrst: akcija, pustolovski, Z.F.
◎ Jezik: angleški
◎ Ocena: 6,6
◎ Stars: Linda Hamilton, Arnold Schwarzenegger, Mackenzie Davis
◎ Povzetek: v Mexico City iz prihodnosti plane goli terminator Rev-9 (Gabriel Luna), novi “T-1000”, ki naj bi likvidiral Dani Ramos (Natalia Reyes), mladenko, ki dela v avtomobilski tovarni, hkrati z njim pa se iz leta 2049 vzame tudi gola Grace (Mackenzie Davis), človeška kiborginja, ki naj bi Dani zaščitila pred neustavljivim in neuničljivim terminatorjem (dejansko dvema-v-enem). Jasno, Dani zaščitita tudi Sarah in Schwarzenegger. Čas je, da razbijejo stroje, ki jih hočejo zamenjati.
———————————————————————————————————————————————————————————
YouTube URADNI NAPOVEDNIK:
——————————————————————————————————————————————————————————————————
PODNAPISI:
◎ Jezik : slovenski [vstavljeni / softcoded / multiplexed]
——————————————————————————————————————————————————————————————————
VIR:
◎ Source:
Terminator.Dark.Fate.2019.1080p.WEBRip.x264-RARBG.mp4
◎ After coding:
Terminator.Dark.Fate.2019.SloSub.1080p.WEB.x264-[cyd].mkv
——————————————————————————————————————————————————————————————————
POVEZAVA:
◎ Seedbox NO Speed Limit
——————————————————————————————————————————————————————————————————
DJ VIHAR & DJ AJDA - SLO & HR MIX 57

Klikni za povečavo!
14-09-2019 11:14 naložil Ajda
Sejalci: 6 / Odjemalci: 0 / Velikost: 166.94 MB / Dokončani: 37
Prenesi torrent Poročaj torrent Opis torrenta NFO
Kategorija: GLASBA > Glasba




-------------------------------------------------------------------------------
Avdio podatki
-------------------------------------------------------------------------------
Complete name : DJ VIHAR & DJ AJDA - SLO & HR MIX 57
Format : MPEG Audio
File size : 166 MiB
Duration : 1h 12mn
Overall bit rate mode : Constant
Overall bit rate : 320 Kbps
Encoded by : Lavf52.39.0
Writing library : LAME3.98

Audio
Format : MPEG Audio
Format version : Version 1
Format profile : Layer 3
Mode : Joint stereo
Duration : 1h 12mn
Bit rate mode : Constant
Bit rate : 320 Kbps
Channel(s) : 2 channels
Sampling rate : 48.0 KHz
Compression mode : Lossy
Stream size : 166 MiB (100%)
Writing library : LAME3.98


01. SKUPINA ZAKA PA NE - Atmosfera
02. ŽELJKO BEBEK - 100 sam dana pio
03. ZVITA FELTNA - Zate
04. JOLE - Godišnjica
05. DANIJEL POPOVIČ - Hej lane moje
06. CECILIJA - Mangup
07. VIGOR /Feat ISSAC PALMA - Šatori
08. KLAPA PUNTAMIKA - Noč punog meseca
09. SAŠA LENDERO / DOMEN KUMER - 100%
10. ALYA -Sedam dana na moru
11. ARRIVA - Moje petke
12 . IVICA ŠEPERIČ / JASMIN STAVROS - Pravi dalmatinac
13. IVANA KOVAČ - Ti
14. DEJAN VUNJAK - Čist majčken
15. MEJAŠI - Ja još mogu
16. THE FRAJLE - Nočas si moje vino
17. MARKO ŠKUGOR - Kako te jubim ja
18. ZVITA FELTNA - Gin in tonic
19. DAVID RICOV - Adio pape, adio mama
20. NON STOP / JASMIN STAVROS - Tutta forza
21. DOMEN KUMER - Prva runda


The.Sum.of.All.Fears.2002.SLOSubs.BRRip.XviD-DrSi

Klikni za povečavo!
Včeraj ob 00:32 naložil NERON
Sejalci: 4 / Odjemalci: 0 / Velikost: 2.81 GB / Dokončani: 3
Prenesi torrent Poročaj torrent Opis torrenta
Zvrst: Akcija | Drama | Triler | Vojni
Kategorija: FILMI > BRRip

THE SUM OF ALL FEARS (2002)
VSOTA VSEH STRAHOV
akcijski vojni triler




Naziv: The.Sum.of.All.Fears.2002.SLOSubs.BRRip.XviD-DrSi
Source: The.Sum.of.All.Fears.2002.720p.BluRay.DD5.1.x264-REPTiLE

Leto izida ........: 2002
Velikost ...........: 2,80 GB
Dolžina ............: 124 Minut
Video ...............: 2795 Kbps | 720x304 | 23,976 fps
Zvok ................: Dolby Digital AC35.1 @448 kbps
Kodek...............: XviD
Zvrst………….: Akcija | Drama | Triler | Vojni
Država……….: ZDA | Nemčija | Kanada
Jezik ................: Angleški | Ruski | Nemški

Podnapisi ........: Slovenski (RETAiL)
Prevod: Gregor Pintarič
Tehnična obdelava: DVD Rippers Slovenija

Režija.........: Phil Alden Robinson
Scenarij.......: Tom Clancy (roman), Paul Attanasio


Ben Affleck ... Jack Ryan
Morgan Freeman ... DCI William Cabot
James Cromwell ... President Robert 'Bob' Fowler
Ken Jenkins ... Admiral Pollack
Liev Schreiber ... John Clark
Bruce McGill ... National Security Advisor Gene Revell
John Beasley ... General Lasseter
Russell Bobbitt ... Israeli Pilot
Philip Baker Hall ... Defense Secretary David Becker
Al Vandecruys ... US STRATCOM Colonel


Po smrti ruskega predsednika njegovo mesto zasede dotlej praktično neznan politik,
čigar osebni in svetovni nazori so povsem nepredvidljivi. Ta sprememba v političnem
vrhu Rusije vzbudi strah med ameriškimi uradniki, zato direktor CIE Cabot (Morgan
Freeman) zadolži mladega analitika Jacka Ryana (Ben Affleck) naj zbere čim več
informacij o morebitnem ruskem nadaljevanju razvijanja jedrskega orožja. Neizkušeni
Ryan se kmalu znajde sredi velike zarote teroristov, ki nameravajo zanetiti novo
svetovno vojno, zadnjo odločitev na tehtnici med mirom in vojno pa ima prav Ryan,
ki mora čimbolj hitro, spretno in preudarno interpretirati oblico nasprotujočih si
podatkov in s svojimi ugotovitvami nato tudi prepričati vse prej kot spravljive
politike.

NAPOVEDNIK:




Peel.2019.SloSub.1080p.WEB.x264-[cyd]

Klikni za povečavo!
Sreda at 19:02 naložil Reaper
Sejalci: 2 / Odjemalci: 0 / Velikost: 1.62 GB / Dokončani: 4
Prenesi torrent Poročaj torrent Opis torrenta NFO
Zvrst: Drama | Komedija
Kategorija: FILMI > WEBRip-1080

IMDb info:
◎ Naslov, leto : Peel (2019)
◎ Zvrst: komedija, drama
◎ Jezik: angleški
◎ Ocena: 6,1
◎ Povzetek: Peela vzgaja pretirano zaščitniška mati in ko ta nenadoma umre, se tridesetletnik znajde pred izzivom, saj nima službe, družine in prijateljev.
Peela Munerja je oče zapustil pri petih letih in skoraj v popolni osami ga je vzgajala ljubeča, vendar pretirano zaščitniška in čustveno nestabilna mati. Edino življenje, ki ga naslednjih 25 let pozna Peel, je tisto znotraj sten njegovega otroškega doma. Ko mati nenadoma umre, se tridesetletni Peel znajde pred težkim izzivom. Izgubljen je in osamljen, nima niti službe niti družine in prijateljev. Vendar mora sprejeti veliko odločitev. Naj živi tako, kot ga je naučila mati, sam in neustaljen, ali naj poseže v lastno usodo in se odpravi v neznano? Ker ne more plačevati bivalnih stroškov, sklene vzeti za sostanovalca dva potepuha. Ko je že videti, da nastaja nekakšna družina in bratstvo, eden od novih znancev izkoristi Peelovo zaupanje. To ga prisili, da se loti iskanja svojih pravih, že dolgo izgubljenih bratov, od katerih se je ločil pred desetletji.
———————————————————————————————————————————————————————————
YouTube URADNI NAPOVEDNIK:
——————————————————————————————————————————————————————————————————
PODNAPISI:
◎ Prevod : RETAiL
◎ Jezik : slovenski [vstavljeni / softcoded / multiplexed]
——————————————————————————————————————————————————————————————————
VIR:
◎ Source:
Peel.2019.1080p.WEBRip.x264-[YTS.AM].mp4
◎ After coding:
Peel.2019.SloSub.1080p.WEB.x264-[cyd].mkv
————————————————————————————————————————————————————-——————
POVEZAVA:
◎ Seedbox, speed limit: NO
—————————————————————————————————————————————-—————————————
Lucy.In.The.Sky.2019.SloSub.1080p.WEB.x264-[cyd]

Klikni za povečavo!
Sreda at 12:56 naložil Reaper
Sejalci: 4 / Odjemalci: 0 / Velikost: 2.39 GB / Dokončani: 8
Prenesi torrent Poročaj torrent Opis torrenta NFO
Zvrst: Drama | Z.F.
Kategorija: FILMI > WEBRip-1080

IMDb info:
◎ Naslov, leto : Lucy in the Sky (2019)
◎ Zvrst: Z.F., drama, .||.
◎ Jezik: angleški
◎ Ocena: 4,9
◎ Povzetek: Astronaut Lucy Cola returns to Earth after a transcendent experience during a mission to space, and begins to lose touch with reality in a world that now seems too small.
———————————————————————————————————————————————————————————
YouTube URADNI NAPOVEDNIK:
——————————————————————————————————————————————————————————————————
PODNAPISI:
◎ Prevod : Tanja Borozan, tehnična obdelava metalcamp
◎ Jezik : slovenski [vstavljeni / softcoded / multiplexed]
——————————————————————————————————————————————————————————————————
VIR:
◎ Source:
Lucy.In.The.Sky.2019.1080p.WEBRip.x264-RARBG.mp4
◎ After coding:
Lucy.In.The.Sky.2019.SloSub.1080p.WEB.x264-[cyd].mkv
————————————————————————————————————————————————————-——————
POVEZAVA:
◎ Seedbox, speed limit: NO
—————————————————————————————————————————————-—————————————
Stockholm.2018.SloSub.1080p.WEBx264-[cyd]

Klikni za povečavo!
Sreda at 12:55 naložil Reaper
Sejalci: 1 / Odjemalci: 0 / Velikost: 1.75 GB / Dokončani: 1
Prenesi torrent Poročaj torrent Opis torrenta NFO
Kategorija: FILMI > WEBRip-1080

———————————————————————————————————————————————————————————
IMDb info:
◎ Naslov: Stockholm
◎ Leto: 2018
◎ Zvrst: komedija kriminalka drama
◎ Jezik: angleški
◎ Ocena: ★★★★★★ (6,4)
◎ Povzetek:Based on the absurd but true 1973 bank heist and hostage crisis in Stockholm that was documented in the New Yorker as the origins of the 'Stockholm Syndrome'.
———————————————————————————————————————————————————————————
YouTube URADNI NAPOVEDNIK:
———————————————————————————————————————————————————————————
PODNAPISI:
◎ Prevod : RETAiL, priredil in uredil metalcamp, tehnična obdelava metalcamp
◎ Jezik : slovenski [vstavljeni / softcoded / multiplexed]
———————————————————————————————————————————————————————————
VIR:
◎ Source:
Stockholm.2018.1080p.WEBRip.x264-RARBG.mp4
◎ After coding:
Stockholm.2018.SloSub.1080p.WEBx264-[cyd].mkv
———————————————————————————————————————————————————————————
Dont.Go.2018.SrbSub.720p.BluRay.x264.AAC-[cyd]

Klikni za povečavo!
Ponedeljek at 21:01 naložil Reaper
Sejalci: 6 / Odjemalci: 0 / Velikost: 2.12 GB / Dokončani: 8
Prenesi torrent Poročaj torrent Opis torrenta NFO
Zvrst: Skrivnosten
Kategorija: FILMI > BRRip

——————————————————————————————————————————————————————————————————
IMDb info:
◎ Naslov: Don't Go
◎ Leto: 2018
◎ Zvrst: skrivnosten
◎ Jezik: angleški
◎ Ocena: 5,2
◎ Povzetek: Devastated by his daughter's death in a terrible accident, Ben becomes convinced that he can bring her back through a recurring dream. But is it just a dream? Or is Ben losing his mind?
———————————————————————————————————————————————————————————
YouTube URADNI NAPOVEDNIK:
——————————————————————————————————————————————————————————————————
PODNAPISI:
◎ Prevod : adm1r
◎ Jezik : srbski latinica [vstavljeni / softcoded / multiplexed]
——————————————————————————————————————————————————————————————————
VIR:
◎ Source:
Dont Go 2018 LIMITED 720p BRRip XviD AC3 Unknown.avi
◎ After coding:
Dont.Go.2018.SrbSub.720p.BRRip.x264-[cyd].mkv
————————————————————————————————————————————————————-——————
POVEZAVA:
◎ Seedbox NO Speed Limit
—————————————————————————————————————————————-—————————————
The.Red.Sea.Diving.Resort.2019.SloSub.1080p.WEB.x264-[cyd]

Klikni za povečavo!
Nedelja at 12:52 naložil Reaper
Sejalci: 9 / Odjemalci: 1 / Velikost: 2.48 GB / Dokončani: 16
Prenesi torrent Poročaj torrent Opis torrenta NFO
Kategorija: FILMI > WEBRip-1080

——————————————————————————————————————————————————————————————————
IMDb info:
◎ Naslov: The Red Sea Diving Resort-Operation Brothers
◎ Leto: 2019
◎ Zvrst: zgodovinski, drama, triler
◎ Jezik: angleški
◎ Ocena: 6,5
◎ Povzetek: Israel's Mossad agents attempt to rescue Ethiopian Jewish refugees in Sudan in 1979.
———————————————————————————————————————————————————————————
YouTube URADNI NAPOVEDNIK:
——————————————————————————————————————————————————————————————————
PODNAPISI:
◎ Prevod : Marinko
◎ Jezik : slovenski [vstavljeni / softcoded / multiplexed]
——————————————————————————————————————————————————————————————————
VIR:
◎ Source:
The.Red.Sea.Diving.Resort.2019.1080p.WEBRip.x264-RARBG.mp4
◎ After coding:
The.Red.Sea.Diving.Resort.2019.SloSub.1080p.WEB.x264-[cyd].mkv
————————————————————————————————————————————————————-——————
POVEZAVA:
◎ Seedbox NO Speed Limit
—————————————————————————————————————————————-—————————————
A.Serial.Killers.Guide.to.Life.2019.SrbSub.1080p.WEB.x264-[cyd]

Klikni za povečavo!
15-02-2020 20:49 naložil Reaper
Sejalci: 2 / Odjemalci: 0 / Velikost: 1.53 GB / Dokončani: 8
Prenesi torrent Poročaj torrent Opis torrenta NFO
Kategorija: FILMI > WEBRip-1080

——————————————————————————————————————————————————————————————————
IMDb info:
◎ Naslov: A Serial Killer's Guide to Life
◎ Leto: 2019
◎ Zvrst: pustolovski, komedija, kriminalka
◎ Jezik: angleški
◎ Ocena: 4,7
◎ Povzetek: A self-help addict unwittingly finds herself on a killing spree with her unhinged life coach.
———————————————————————————————————————————————————————————
YouTube URADNI NAPOVEDNIK:
——————————————————————————————————————————————————————————————————
PODNAPISI:
◎ Jezik : srbski latinica [vstavljeni / softcoded / multiplexed]
——————————————————————————————————————————————————————————————————
VIR:
◎ Source:
A.Serial.Killers.Guide.to.Life.2019.1080p.WEBRip.x264-RARBG.mp4
◎ After coding:
A.Serial.Killers.Guide.to.Life.2019.SrbSub.1080p.WEB.x264-[cyd].mkv
————————————————————————————————————————————————————-——————
POVEZAVA:
◎ Seedbox NO Speed Limit
—————————————————————————————————————————————-—————————————
Murder.Mystery.2019.SloSub.1080p.WEB.x264-[cyd]

Klikni za povečavo!
15-02-2020 16:03 naložil Reaper
Sejalci: 3 / Odjemalci: 0 / Velikost: 1.85 GB / Dokončani: 13
Prenesi torrent Poročaj torrent Opis torrenta NFO
Kategorija: FILMI > WEBRip-1080

———————————————————————————————————————————————————————————
IMDb info:
◎ Naslov: Murder Mystery
◎ Leto: 2019
◎ Zvrst: akcija komedija kriminalka
◎ Jezik: angleški
◎ Ocena: ★★★★★★ (6,1)
◎ Povzetek: A New York cop and his wife go on a European vacation to reinvigorate the spark in their marriage, but end up getting framed and on the run for the death of an elderly billionaire.
———————————————————————————————————————————————————————————
YouTube URADNI NAPOVEDNIK:
———————————————————————————————————————————————————————————
PODNAPISI:
◎ Jezik : slovenski [vstavljeni / softcoded / multiplexed]
———————————————————————————————————————————————————————————
VIR:
◎ Source:
Murder.Mystery.2019.1080p.WEBRip.x264-RARBG.mp4m
◎ After coding:
Murder.Mystery.2019.SloSub.1080p.WEBx264-[cyd].mkv
———————————————————————————————————————————————————————————
Frozen_II_2019_CroSubs_720p_BRRip_XviD_AC3_XVID

Klikni za povečavo!
13-02-2020 19:37 naložil NERON
Sejalci: 2 / Odjemalci: 0 / Velikost: 3.21 GB / Dokončani: 7
Prenesi torrent Poročaj torrent Opis torrenta
Kategorija: FILMI > BRRip



Frozen II 2019 720p BRRip XviD AC3 XVID
Language(s): English
Size: 3.20 GB | Duration: 1hr 43mn | Container: AVI
Audio: AC-3 | 640 Kbps | 6 Channels
Video: XviD | 3795 Kbps | 1280 x 536
Genre: Animation | Adventure | Comedy

Stars: Kristen Bell, Idina Menzel, Josh Gad

Med svoje številne oboževalce se vračata sestri Elza in Ana, ki se bosta skupaj s Krištofom, Olafom in Svenom podali na nevarno potovanje globoko v gozd, na katerem bodo skupaj odkrili, kje je sploh izvor Elsinih čarobnih moči, s pomočjo katerih bodo rešili kraljestvo.

Screens:
















Charlies.Angels.2019.SloSub.1080p.WEB.x264.AC3-[cyd]

Klikni za povečavo!
12-02-2020 12:09 naložil Reaper
Sejalci: 4 / Odjemalci: 0 / Velikost: 4.01 GB / Dokončani: 23
Prenesi torrent Poročaj torrent Opis torrenta NFO
Kategorija: FILMI > WEBRip-1080

——————————————————————————————————————————————————————————————————
IMDb info:
◎ Naslov: Charlie's Angels
◎ Leto: 2019
◎ Zvrst: akcija, pustolovski, komedija
◎ Jezik: angleški
◎ Ocena: 4,2
◎ Povzetek: When a young systems engineer blows the whistle on a dangerous technology, Charlie's Angels are called into action, putting their lives on the line to protect us all.
———————————————————————————————————————————————————————————
YouTube URADNI NAPOVEDNIK:
——————————————————————————————————————————————————————————————————
PODNAPISI:
◎ Prevod : Lorena Dobrila, tehnična obdelava metalcamp (DrSi)
◎ Jezik : srbski latinica [vstavljeni / softcoded / multiplexed]
——————————————————————————————————————————————————————————————————
VIR:
◎ Source:
Charlies.Angels.2019.1080p.WEB-DL.DD5.1.H264-FGT.mp4
◎ After coding:
Charlies.Angels.2019.SrbSub.1080p.WEB.x264.AC3-[cyd].mkv
————————————————————————————————————————————————————-——————
POVEZAVA:
◎ Seedbox NO Speed Limit
—————————————————————————————————————————————-—————————————
Vikings.S06.SloSubs.720p.HDTV.x265-[cyd]

12-02-2020 11:54 naložil Reaper
Sejalci: 2 / Odjemalci: 0 / Velikost: 2.46 GB / Dokončani: 4
Prenesi torrent Poročaj torrent Opis torrenta NFO
Kategorija: FILMI > HDTV

——————————————————————————————————————————————————————————————————
IMDb info:
◎ Naslov: Vikings
◎ Leto: 2013
◎ Sezona: 6
◎ Epizoda: 1 -10
1.New Beginnings 04.12.2019
2.The Prophet 04.12.2019
3.Ghosts, Gods and Running Dogs 11.12.2019
4.All the Prisoners 18.12.2019
5.The Key 01.01.2020
6.Death and the Serpent 08.01.2020
7.The Ice Maiden 15.01.2020
8.Valhalla Can Wait 22.01.2020
9.Resurrection 29.01.2020
10.The Best Laid Plans 05.02.2020
◎ Zvrst: akcija, drama, pustolovski
◎ Jezik: angleški
◎ Ocena: 8,6
◎ Povzetek: Vikings transports us to the brutal and mysterious world of Ragnar Lothbrok, a Viking warrior and farmer who yearns to explore - and raid - the distant shores across the ocean.
———————————————————————————————————————————————————————————
YouTube URADNI NAPOVEDNIK:
——————————————————————————————————————————————————————————————————
PODNAPISI:
◎ Jezik : slovenski [vstavljeni / softcoded / multiplexed]
——————————————————————————————————————————————————————————————————
VIR:
◎ Source:
Vikings.S06.720p.HDTV.x265-MinX.mp4
◎ After coding:
Vikings.S06.SloSubs.720p.HDTV.x265-[cyd].mkv
———————————————————————————————————————————————————————————
CONNECTION:
◎ Seedbox NO Speed Limit
———————————————————————————————————————————————————————————
Juzni.vetar.2018.SrbSub.1080p.BDRip.x264

Klikni za povečavo!
12-02-2020 10:26 naložil Reaper
Sejalci: 3 / Odjemalci: 0 / Velikost: 9.84 GB / Dokončani: 8
Prenesi torrent Poročaj torrent Opis torrenta NFO
Zvrst: Akcija | Drama | Kriminalka
Kategorija: FILMI > BDRip

——————————————————————————————————————————————————————————————————
IMDb info:
◎ Naslov: Južni vetar - South Wind (2018)
◎ Leto: 2018
◎ Zvrst: kriminalka, drama, triler
◎ Jezik: srbski
◎ Ocena: 8,2
◎ Povzetek: A young member of an underground gang in Belgrade puts himself and his family in danger when he crosses a mafia leader who works for the chief of police.
———————————————————————————————————————————————————————————
YouTube URADNI NAPOVEDNIK:
——————————————————————————————————————————————————————————————————
PODNAPISI:
◎ Prevod : RETAIL
◎ Jezik : srbski latinica [vstavljeni / softcoded / multiplexed]
——————————————————————————————————————————————————————————————————
VIR:
◎ Source:
Juzni.vetar.2018.SrbSub.1080p.BDRip.x264.mkv
————————————————————————————————————————————————————-——————
POVEZAVA:
◎ Seedbox NO Speed Limit
—————————————————————————————————————————————-—————————————
Dolittle.2020.SrbSub.1080p.HDRip.x264-[cyd]

Klikni za povečavo!
11-02-2020 06:59 naložil Reaper
Sejalci: 6 / Odjemalci: 1 / Velikost: 3.61 GB / Dokončani: 22
Prenesi torrent Poročaj torrent Opis torrenta NFO
Zvrst: Akcija | Pustolovski | Z.F.
Kategorija: FILMI > HDRip

——————————————————————————————————————————————————————————————————
IMDb info:
◎ Naslov: Dolittle
◎ Leto: 2020
◎ Zvrst: akcija, pustolovski, komedija
◎ Jezik: angleški
◎ Ocena: 5,6
◎ Povzetek: A physician who can talk to animals embarks on an adventure to find a legendary island with a young apprentice and a crew of strange pets.
———————————————————————————————————————————————————————————
YouTube URADNI NAPOVEDNIK:
——————————————————————————————————————————————————————————————————
PODNAPISI:
◎ Prevod : SiČa
◎ Jezik : srbski latinica [vstavljeni / softcoded / multiplexed]
——————————————————————————————————————————————————————————————————
VIR:
◎ Source:
Dolittle.2020.1080p.HDRip.x264.AAC2.0-STUTTERSHIT.mp4
◎ After coding:
Dolittle.2020.SrbSub.1080p.HDRip.x264-[cyd].mkv
————————————————————————————————————————————————————-——————
POVEZAVA:
◎ Seedbox NO Speed Limit
—————————————————————————————————————————————-—————————————
Knives.Out.2019.CROSUB.1080p.WEBRip.x264-NOGRP

Klikni za povečavo!
09-02-2020 16:13 naložil el201
Sejalci: 2 / Odjemalci: 0 / Velikost: 2.48 GB / Dokončani: 13
Prenesi torrent Poročaj torrent Opis torrenta
Kategorija: FILMI > WEBRip-1080

Knives.Out.2019.CROSUB.1080p.WEBRip.x264

Jamie Lee Curtis, Don Johnson, Toni Collette, Christopher Plummer, Daniel Craig, Chris Evans, Michael Shannon, Ana de Armas, LaKeith Stanfield, Jaeden Martell, and Katherine Langford in Knives Out (2019)


Video
ID : 1
Format : AVC
Format/Info : Advanced Video Codec
Format profile : High@L4.1
Format settings : CABAC / 4 Ref Frames
Format settings, CABAC : Yes
Format settings, Reference frames : 4 frames
Codec ID : avc1
Codec ID/Info : Advanced Video Coding
Duration : 2 h 10 min
Bit rate : 2 500 kb/s
Width : 1 920 pixels
Height : 1 036 pixels
Display aspect ratio : 1.85:1
Frame rate mode : Constant
Frame rate : 23.976 (23976/1000) FPS
Color space : YUV
Chroma subsampling : 4:2:0
Bit depth : 8 bits
Scan type : Progressive
Bits/(Pixel*Frame) : 0.052
Stream size : 2.27 GiB (92%)
Writing library : x264 core 152 r2851M ba24899


Zvok
ID : 2
Format : AAC LC
Format/Info : Advanced Audio Codec Low Complexity
Codec ID : mp4a-40-2
Duration : 2 h 10 min
Bit rate mode : Constant
Bit rate : 224 kb/s
Channel(s) : 6 channels
Channel layout : C L R Ls Rs LFE
Sampling rate : 48.0 kHz
Frame rate : 46.875 FPS (1024 SPF)
Compression mode : Lossy
Stream size : 208 MiB (8%)
Language : English

IGRAJO

Daniel Craig ... Benoit Blanc
Chris Evans ... Ransom Drysdale
Ana de Armas ... Marta Cabrera
Jamie Lee Curtis ... Linda Drysdale
Michael Shannon ... Walt Thrombey
Don Johnson ... Richard Drysdale

VSEBINA

A detective investigates the death of a patriarch of an eccentric, combative family.