A
B
C
D
E
F
G
H
I
J
K
L
M
N
O
P
Q
R
S
T
U
V
W
X
Y
Z
0-9
Divje.potovanje.aka.Pork.Pie.2017.SLOSubs.720p.HDTVRip x264.R77

Klikni za povečavo!
01-02-2021 11:25 naložil System
Sejalci: 0 / Odjemalci: 0 / Velikost: 1.46 GB / Dokončani: 4
Prenesi torrent Poročaj torrent Opis torrenta
Zvrst: Akcija | Drama
Kategorija: FILMI > HDRip
Anonimen nalagalec

Divje.potovanje.aka.Pork.Pie.2017.SLOSubs.720p.HDTVRip x264.R77Pork Pie (2017)


Divje potovanje

Pork Pie 2017



O filmu:

Film spremlja prigode trojice nenavadnih izobčencev, ki potujejo po Novi Zelandiji v rumenem minimorisu, se upirajo konvencionalnosti in lovijo izgubljeno ljubezen – za petami pa so jim policisti in mrzlični iskalci novinarskih senzacij.
Film je predelava ene največjih novozelandskih uspešnic. Poleg simpatičnih likov in tekoče zgodbe ga odlikujejo spektakularni prizori avtomobilskih pregonov in dih jemajoči novozelandski kraji.

Zgodba:

Spoznajmo nenavadno trojico, ki se znajde v ukradenem mini cooperju.
Jon je pisatelj z blokado, ki se je pojavila približno takrat, ko je pobegnil z lastne poroke. Zdaj je na poti k svoji bivši, na drugi konec države, da bi popravil napako svojega življenja. Na cesti ga z že omenjenim avtomobilom skoraj povozi mladenič Luke, ki beži pred skupino nevarnih nasilnežev. Med potjo ju zagrabi lakota, tako da v obratu s hitro prehrano naletita še na Keiro, aktivistično vegetarijanko.
Na poti proti Južnemu otoku se med okoljevarstvenim protestom zapletejo v nevarno dirko po ulicah Wellingtona. Nekako jim uspe pobegniti na trajekt, Keira pa začne njihove podvige objavljati na družbenih omrežjih in trojica, ki na poti srečuje najrazličnejše čudake, kmalu postane glavna tarča tako policije kot medijev.


Leto produkcije: 2017
Država: Nova Zelandija
Žanr: akcijska komedija
Režija: Matt Murphy
Scenarij: Matt Murphy
Igrajo: Dean O'Gorman, James Rolleston, Ashleigh Cummings
Podnapisi: Slovenski


Tehnične specifikacije:

Complete name : Divje.potovanje.aka.Pork.Pie.2017.SLOSubs.720p.HDTVRip x264.R77
Format : MPEG-4
Format profile : Base Media
Codec ID : isom (isom/iso2/avc1/mp41)
File size : 1.46 GiB
Duration : 1 h 40 min
Overall bit rate : 2 078 kb/s
Writing application : Lavf58.29.100
Video
ID : 1
Format : AVC
Format/Info : Advanced Video Codec
Format profile : High@L3.1
Format settings : CABAC / 2 Ref Frames
Format settings, CABAC : Yes
Format settings, Reference frames : 2 frames
Codec ID : avc1
Codec ID/Info : Advanced Video Coding
Duration : 1 h 40 min
Bit rate : 1 944 kb/s
Width : 1 280 pixels
Height : 720 pixels
Display aspect ratio : 16:9
Frame rate mode : Constant
Frame rate : 25.000 FPS
Color space : YUV
Chroma subsampling : 4:2:0
Bit depth : 8 bits
Scan type : Progressive
Bits/(Pixel*Frame) : 0.084
Stream size : 1.37 GiB (94%)
Codec configuration box : avcC
Audio
ID : 2
Format : AAC LC
Format/Info : Advanced Audio Codec Low Complexity
Codec ID : mp4a-40-2
Duration : 1 h 40 min
Bit rate mode : Constant
Bit rate : 128 kb/s
Channel(s) : 2 channels
Channel layout : L R
Sampling rate : 48.0 kHz
Frame rate : 46.875 FPS (1024 SPF)
Compression mode : Lossy
Stream size : 92.7 MiB (6%)
Default : Yes
Alternate group : 1


UŽIVAJTE!
Ara.Malikian-una.vida.entre.las.cuerdas.2019.SLOSubs.720p.HDTVRip-R77

Klikni za povečavo!
31-01-2021 15:38 naložil rado77
Sejalci: 1 / Odjemalci: 0 / Velikost: 2.05 GB / Dokončani: 2
Prenesi torrent Poročaj torrent Opis torrenta
Zvrst: Glasbeni
Kategorija: GLASBA > Video

Ara.Malikian-una.vida.entre.las.cuerdas.2019.SLOSubs.720p.HDTVRip-R77





Ara Malikian: una vida entre las cuerdas (2019)

Življenje med strunami






Režija Nata Moreno

Scenarij: Nacho R. Piedra (pisatelj), Nata Moreno
Žanr: celovečerni dokumentarni
Država: Španija
Jezik: Španščina, angleščina
Podnapisi: Slovenski

Glavna vloga: Ara Malikian


Povzetek:


Potovanje skozi življenje violinista Ara Malikiana in njegov nedvomen prispevek k klasični in sodobni glasbi. Nadaljevanje med njegovo zadnjo simfonično turnejo po Španiji in državah, kot so Libanon, Francija, Anglija, Kitajska, Rusija ...

Hkrati pove svojo fascinantno osebno zgodbo: glasba mu je rešila življenje z begom pred vojno. Ara je zapustil Bejrut pri 14 letih in od takrat živi kot nomad, ki svojo glasbo popelje po vsem svetu.

Film ki gledalca zelo pritegne, mu postavi marsikatero vprašanje in hkrati odgovore!





Tehnične specifikacije:


Complete name : Ara.Malikian-una.vida.entre.las.cuerdas.2019.SLOSubs.720p.HDTVRip-R77
Format : MPEG-4
Format profile : Base Media
Codec ID : isom (isom/iso2/avc1/mp41)
File size : 2.05 GiB
Duration : 1 h 28 min
Overall bit rate : 3 302 kb/s
Writing application : Lavf58.29.100

Video
ID : 1
Format : AVC
Format/Info : Advanced Video Codec
Format profile : High@L3.1
Format settings : CABAC / 3 Ref Frames
Format settings, CABAC : Yes
Format settings, Reference frames : 3 frames
Codec ID : avc1
Codec ID/Info : Advanced Video Coding
Duration : 1 h 28 min
Bit rate : 3 167 kb/s
Width : 1 280 pixels
Height : 720 pixels
Display aspect ratio : 16:9
Frame rate mode : Constant
Frame rate : 25.000 FPS
Color space : YUV
Chroma subsampling : 4:2:0
Bit depth : 8 bits
Scan type : Progressive
Bits/(Pixel*Frame) : 0.137
Stream size : 1.97 GiB (96%)
Codec configuration box : avcC

Audio

ID : 2
Format : AAC LC
Format/Info : Advanced Audio Codec Low Complexity
Codec ID : mp4a-40-2
Duration : 1 h 28 min
Bit rate mode : Constant
Bit rate : 128 kb/s
Channel(s) : 2 channels
Channel layout : L R
Sampling rate : 44.1 kHz
Frame rate : 43.066 FPS (1024 SPF)
Compression mode : Lossy
Stream size : 81.6 MiB (4%)
Default : Yes
Alternate group : 1


UŽIVAJTE!
Abba.za.vedno.aka.ABBA.Forever-The.Winner.Takes.It.All.2019.SLOSubs.720p.TVRip.R77

Klikni za povečavo!
31-01-2021 14:32 naložil rado77
Sejalci: 1 / Odjemalci: 0 / Velikost: 705.75 MB / Dokončani: 12
Prenesi torrent Poročaj torrent Opis torrenta
Zvrst: Glasbeni
Kategorija: GLASBA > Video

Abba.za.vedno.aka.ABBA.Forever-The.Winner.Takes.It.All.2019.SLOSubs.720p.TVRip.R77





ABBA Forever - The Winner Takes It All (2019)


ABBA ZA VEDNO: Zmagovalec vzame vse






O filmu:

Agnetha, Bjorn, Benny in Anni-Frid so se srečali pred petimi desetletji in ustanovili zasedbo Abba; ime skupine je sestavljeno iz začetnic njihovih imen. Prodali so več kot 400 milijonov plošč, pred dvajsetimi leti pa je na londonskem West Endu zaživel še muzikal s 27 njihovimi pesmimi. Predstavo Mamma Mia! si je ogledalo kar 60 milijonov ljudi. Čeravno je Abba obstajala le približno desetletje – razšli so se leta 1982 –, člani še danes dobivajo pisma najstniških oboževalcev.
Ta dokončni glasbeni dokumentarni film z glasbenim posnetkom največjih uspešnic in obilico klasičnih izvedbenih posnetkov ponuja notranji pogled na to, kako je nastala glasba švedska pop skupine ABBA, saj nekdanji člani in različni kolegi pripovedujejo svojo zgodbo od dni pred ABBA in dalje.





Režija: Chris Hunt

Kinematografija: Martin Hailey , Steve Haskett , Simon Wagen , Paul Wheeler
Igrajo : Agnetha Fältskog , Benny Andersson , Björn Ulvaeus , Anni-Frid
Žanr: Dokumentarni
Jezik: angleščina , švedščina
Podnapisi: Slovenski




Tehnične specifikacije:



Complete name : Abba.za.vedno.aka.ABBA.Forever-The.Winner.Takes.It.All.2019.SLOSubs.720p.TVRip.R77.mp4

Format : MPEG-4
Format profile : Base Media
Codec ID : isom (isom/iso2/avc1/mp41)
File size : 706 MiB
Duration : 51 min 4 s
Overall bit rate mode : Variable
Overall bit rate : 1 932 kb/s

Video
ID : 2
Format : AVC
Format/Info : Advanced Video Codec
Format profile : High@L4
Format settings : CABAC / 4 Ref Frames
Format settings, CABAC : Yes
Format settings, Reference frames : 4 frames
Codec ID : avc1
Codec ID/Info : Advanced Video Coding
Duration : 51 min 4 s
Source duration : 51 min 4 s
Bit rate mode : Constant
Bit rate : 1 800 kb/s
Width : 1 280 pixels
Height : 720 pixels
Display aspect ratio : 16:9
Frame rate mode : Variable
Frame rate : 25.000 FPS
Minimum frame rate : 6.250 FPS
Maximum frame rate : 75.000 FPS
Standard : PAL
Color space : YUV
Chroma subsampling : 4:2:0
Bit depth : 8 bits
Scan type : Progressive
Bits/(Pixel*Frame) : 0.078
Stream size : 657 MiB (93%)
Source stream size : 657 MiB (93%)
Color range : Limited
Color primaries : BT.709
Transfer characteristics : BT.709
Matrix coefficients : BT.709
mdhd_Duration : 3064400
Codec configuration box : avcC

Audio

ID : 3
Format : AAC LC
Format/Info : Advanced Audio Codec Low Complexity
Codec ID : mp4a-40-2
Duration : 51 min 4 s
Bit rate mode : Variable
Bit rate : 126 kb/s
Maximum bit rate : 427 kb/s
Channel(s) : 2 channels
Channel layout : L R
Sampling rate : 44.1 kHz
Frame rate : 43.066 FPS (1024 SPF)
Compression mode : Lossy
Stream size : 45.9 MiB (7%)






UŽIVAJTE!
MC Stojan - La Miami (2018) MP3

Klikni za povečavo!
31-01-2021 12:24 naložil System
Sejalci: 4 / Odjemalci: 0 / Velikost: 105.09 MB / Dokončani: 9
Prenesi torrent Poročaj torrent Opis torrenta NFO
Zvrst: Glasbeni
Kategorija: GLASBA > Glasba
Anonimen nalagalec

---------------------------------------------------------------------
Mc Stojan - La Miami
---------------------------------------------------------------------
Artist...............: Mc Stojan
Album................: La Miami
Genre................: Pop,Folk
Source...............: CD
Year.................: 2018
Ripper...............: EAC (Secure mode) / LAME 3.92 & Asus CD-S520
Codec................: LAME 3.99
Version..............: MPEG 1 Layer III
Quality..............: Insane, (avg. bitrate: 320kbps)
Channels.............: Stereo / 44100 hz
Tags.................: ID3 v1.1, ID3 v2.3
News Server..........: news.astraweb.com
News Group(s)........: alt.binaries.pl.mp3
Included.............: NFO
Covers...............: Front Back CD
---------------------------------------------------------------------
Tracklisting
---------------------------------------------------------------------
1. Mc Stojan - La Miami [03:09]
2. Mc Stojan - Lete Pare [02:44]
3. Mc Stojan - Jednom Majka Radja (Feta. Jovan Perisic) [02:53]
4. Mc Stojan - Ti Odlazis Ja Ostajem (Feat. Dinna) [03:25]
5. Mc Stojan - Mein Schatzi (Feat. Darko Lazic) [02:33]
6. Mc Stojan - Cekaj, Cekaj (Feat. Aleksandra Mladenovic) [03:39]
7. Mc Stojan - Pevacica (Feat. Jana & Djani) [03:08]
8. Mc Stojan - Ostani Budna [02:55]
9. Mc Stojan - Balkanka (Feat. Ljupka Stevic) [03:08]
10. Mc Stojan - Burj Khalifa (Feat. Djans & Young Palk) [02:45]
11. Mc Stojan - Pikaso [02:35]
12. Mc Stojan - Aman, Aman (Feat. Trik Fx) [02:50]
13. Mc Stojan - Fejk (Feat. Kurtoazija) [02:38]
14. Mc Stojan - Vodka I Martini (Feat. Kurtoazija) [02:33]
15. Mc Stojan - Njami Njami (Feat. Kurtoazija) [02:28]
Playing Time.........: 43:29
Total Size...........: 104,27 MB
Doroga.Na.Berlin.aka.Road.to.Berlin.2015.SLOSubs.BDRip-R77

Klikni za povečavo!
30-01-2021 14:55 naložil rado77
Sejalci: 2 / Odjemalci: 0 / Velikost: 1.46 GB / Dokončani: 9
Prenesi torrent Poročaj torrent Opis torrenta
Zvrst: Drama | Vojni
Kategorija: FILMI >  BRRip

Doroga.Na.Berlin.aka.Road.to.Berlin.2015.SLOSubs.BDRip-R77





Road to Berlin (2015)

[
img]https://i.imgur.com/cvU2Gov.jpg[/img]


Doroga na Berlin (2015)


Pot v Berlin (2015)

(Na poti do Berlina)






Režija: Sergej Popov
Scenarij: Evgeniy Nikishov
Država: Rusija
Jezik: Ruščina, Nemško
Podnapisi: Slovenščina
Žanr: drama, vojni
Dolžina: 82 min





Zgodba:

Poleti 1942 je mladi komunikacijski častnik, obtožen strahopetnosti, obsojen na smrt z streljanjem. Presenetljiv napad Nemcev odloži usmrtitev in obsojenec in njegova straža morata pobegniti. Medtem ko poskušata obsojenca dostaviti na štab, se med stražarjem in njegovim ujetnikom razvije tiho prijateljstvo, ko premagujeta ovire, da bi se prebila skozi obroč in se spopadeta z Nemci...





Tehnične specifikacije:



Complete name : Doroga.Na.Berlin.aka.Road.to.Berlin.2015.SLOSubs.BDRip-R77

Format : AVI
Format/Info : Audio Video Interleave
File size : 1.46 GiB
Duration : 1 h 25 min
Overall bit rate : 2 436 kb/s
Writing application : VirtualDubMod 1.5.10.3 | www.virtualdub-fr.org || (build 2550/release)
Writing library : VirtualDubMod build 2550/release


Video

ID : 0
Format : MPEG-4 Visual
Format profile : Advanced Simple@L5
Format settings : BVOP1 / Custom Matrix
Format settings, BVOP : 1
Format settings, QPel : No
Format settings, GMC : No warppoints
Format settings, Matrix : Custom
Codec ID : XVID
Codec ID/Hint : XviD
Duration : 1 h 25 min
Bit rate : 1 978 kb/s
Width : 720 pixels
Height : 384 pixels
Display aspect ratio : 1.85:1
Frame rate : 23.976 (24000/1001) FPS
Color space : YUV
Chroma subsampling : 4:2:0
Bit depth : 8 bits
Scan type : Progressive
Compression mode : Lossy
Bits/(Pixel*Frame) : 0.298
Stream size : 1.19 GiB (81%)
Writing library : XviD 73


Audio

ID : 1
Format : AC-3
Format/Info : Audio Coding 3
Commercial name : Dolby Digital
Codec ID : 2000
Duration : 1 h 25 min
Bit rate mode : Constant
Bit rate : 448 kb/s
Channel(s) : 6 channels
Channel layout : L R C LFE Ls Rs
Sampling rate : 48.0 kHz
Frame rate : 31.250 FPS (1536 SPF)
Compression mode : Lossy
Stream size : 275 MiB (18%)
Alignment : Split across interleaves
Interleave, duration : 42 ms (1.00 video frame)
Interleave, preload duration : 500 ms
Service kind : Complete Main





UŽIVAJTE!
Seka Aleksic - Balkan (2003) MP3

Klikni za povečavo!
30-01-2021 14:37 naložil System
Sejalci: 4 / Odjemalci: 0 / Velikost: 88.51 MB / Dokončani: 10
Prenesi torrent Poročaj torrent Opis torrenta NFO
Zvrst: Glasbeni
Kategorija: GLASBA > Glasba
Anonimen nalagalec

---------------------------------------------------------------------
Seka Aleksic - Balkan
---------------------------------------------------------------------
Artist...............: Seka Aleksic
Album................: Balkan
Genre................: Folk
Source...............: CD
Year.................: 2003
Ripper...............: EAC (Secure mode) / LAME 3.92 & Asus CD-S520
Codec................: LAME 3.98
Version..............: MPEG 1 Layer III
Quality..............: Insane, (avg. bitrate: 320kbps)
Channels.............: Joint Stereo / 44100 hz
Tags.................: ID3 v1.1, ID3 v2.3
News Server..........: news.astraweb.com
News Group(s)........: alt.binaries.pl.mp3
Included.............: NFO
Covers...............: Front Back CD
---------------------------------------------------------------------
Tracklisting
---------------------------------------------------------------------
1. Seka Aleksic - Crno I Zlatno [03:32]
2. Seka Aleksic - Ne Ostavljaj Me Samu [03:14]
3. Seka Aleksic - Oci Plave Boje [03:18]
4. Seka Aleksic - K'o Da Sutra Ne Postoji [03:42]
5. Seka Aleksic - Jedna Vise [03:56]
6. Seka Aleksic - Idi, Lepi Moj [03:28]
7. Seka Aleksic - Balkan [03:51]
8. Seka Aleksic - Sta Je Bilo, Bilo Je [03:40]
9. Seka Aleksic - Dan Od Zivota [03:12]
10. Seka Aleksic - Dim Srca Mog [03:47]
Playing Time.........: 35:44
Total Size...........: 86,42 MB
Neda Ukraden - Balade (2016) MP3

Klikni za povečavo!
30-01-2021 14:35 naložil System
Sejalci: 2 / Odjemalci: 0 / Velikost: 178.81 MB / Dokončani: 10
Prenesi torrent Poročaj torrent Opis torrenta NFO
Zvrst: Glasbeni
Kategorija: GLASBA > Glasba
Anonimen nalagalec

---------------------------------------------------------------------
Neda Ukraden - Balade
---------------------------------------------------------------------
Artist...............: Neda Ukraden
Album................: Balade
Genre................: Pop
Source...............: CD
Year.................: 2016
Ripper...............: EAC (Secure mode) / LAME 3.92 & Asus CD-S520
Codec................: LAME 3.99
Version..............: MPEG 1 Layer III
Quality..............: Insane, (avg. bitrate: 320kbps)
Channels.............: Stereo / 44100 hz
Tags.................: ID3 v1.1, ID3 v2.3
News Server..........: news.astraweb.com
News Group(s)........: alt.binaries.pl.mp3
Included.............: NFO
Covers...............: Front Back CD
---------------------------------------------------------------------
Tracklisting
---------------------------------------------------------------------
1. Neda Ukraden - Zora Je [03:20]
2. Neda Ukraden - Krijem Da Te Volim [04:05]
3. Neda Ukraden - Ako Ikad Svijes Gnjezdo [03:59]
4. Neda Ukraden - Ljubavi Zedna [03:32]
5. Neda Ukraden - Samo Je Nebo Iznad Nas (Duet Zeljko Samardzic)[04:09]
6. Neda Ukraden - Ne Budi Me Nocas [03:32]
7. Neda Ukraden - Pao Snijeg Po Dunjama (Duet Kemal Monteno)[03:49]
8. Neda Ukraden - Kise [03:06]
9. Neda Ukraden - Sto Te Nema [04:01]
10. Neda Ukraden - Eh, Da Sam Tebe Slusala [03:34]
11. Neda Ukraden - Poslije Nas [04:40]
12. Neda Ukraden - Sumi, Sumi Javore [03:39]
13. Neda Ukraden - Daljine [03:33]
14. Neda Ukraden - Kada Dodje Proljece [03:14]
15. Neda Ukraden - Sto Ti Sina Nisam Rodila [03:49]
16. Neda Ukraden - Ostaricu Cekajuci Na Te' [04:44]
17. Neda Ukraden - Nostalgija [03:47]
18. Neda Ukraden - Osjecas Li Zena Sam [03:14]
19. Neda Ukraden - Svatovi [03:38]
20. Neda Ukraden - Mezarje [03:11]
Playing Time.........: 01:14:44
Total Size...........: 177,34 MB
Lepa Brena - Udi Slobodno [Special edition] (2009) MP3

Klikni za povečavo!
30-01-2021 14:33 naložil System
Sejalci: 2 / Odjemalci: 0 / Velikost: 153.24 MB / Dokončani: 11
Prenesi torrent Poročaj torrent Opis torrenta NFO
Zvrst: Glasbeni
Kategorija: GLASBA > Glasba
Anonimen nalagalec

---------------------------------------------------------------------
Lepa Brena - Udi Slobodno (Special Edition)
---------------------------------------------------------------------
Artist...............: Lepa Brena
Album................: Udi Slobodno (Special Edition)
Genre................: Folk
Source...............: CD
Year.................: 2009
Ripper...............: EAC (Secure mode) / LAME 3.92 & Asus CD-S520
Codec................: LAME 3.98
Version..............: MPEG 1 Layer III
Quality..............: Insane, (avg. bitrate: 320kbps)
Channels.............: Joint Stereo / 44100 hz
Tags.................: ID3 v1.1, ID3 v2.3
News Server..........: news.astraweb.com
News Group(s)........: alt.binaries.pl.mp3
Included.............: NFO
Covers...............: Front Back CD
---------------------------------------------------------------------
Tracklisting
---------------------------------------------------------------------
1. Lepa Brena - Udi Slobodno [04:03]
2. Lepa Brena - Pazi Kome Zavidis [04:21]
3. Lepa Brena - Kuca Lazi [03:27]
4. Lepa Brena - Grad [04:01]
5. Lepa Brena - Zasto [03:01]
6. Lepa Brena - Kralj [03:36]
7. Lepa Brena - Sledeci [03:45]
8. Lepa Brena - Dobra Gresnica [03:27]
9. Lepa Brena - Zrno Tuge [03:17]
10. Lepa Brena - Dva Asa [04:11]
11. Lepa Brena - Pazi Kome Zavidis (Ksl Club Instrumental) [04:40]
12. Lepa Brena - Udi Slobodno (Dj Jukebox Club Mix) [05:01]
13. Lepa Brena - Pazi Kome Zavidis (Dj Device Manager Mix) [04:58]
14. Lepa Brena - Udi Slobodno (Dj Vuk Hard Version) [04:18]
15. Lepa Brena - Pazi Kome Zavidis (Denny Dennasy Club Mix) [04:21]
16. Lepa Brena - Udi Slobodno (Live) [04:21]
Playing Time.........: 01:04:54
Total Size...........: 150,92 MB
Ceca - Poziv (2013) MP3

Klikni za povečavo!
30-01-2021 14:31 naložil System
Sejalci: 3 / Odjemalci: 0 / Velikost: 84.47 MB / Dokončani: 10
Prenesi torrent Poročaj torrent Opis torrenta NFO
Zvrst: Glasbeni
Kategorija: GLASBA > Glasba
Anonimen nalagalec

---------------------------------------------------------------------
Ceca - Poziv
---------------------------------------------------------------------
Artist...............: Ceca
Album................: Poziv
Genre................: Pop-Folk
Source...............: CD
Year.................: 2013
Ripper...............: EAC (Secure mode) / LAME 3.92 & Asus CD-S520
Codec................: LAME 3.96
Version..............: MPEG 1 Layer III
Quality..............: Insane, (avg. bitrate: 320kbps)
Channels.............: Joint Stereo / 44100 hz
Tags.................: ID3 v1.1, ID3 v2.3, APE v2.000
News Server..........: news.astraweb.com
News Group(s)........: alt.binaries.pl.mp3
Included.............: NFO
Covers...............: Front Back CD
---------------------------------------------------------------------
Tracklisting
---------------------------------------------------------------------
1. Ceca - Poziv [04:13]
2. Ceca - Da raskinem sa njom [03:49]
3. Ceca - 5 minuta [03:00]
4. Ceca - Ime i prezime [03:42]
5. Ceca - Mrzi me [03:33]
6. Ceca - Brat [03:05]
7. Ceca - Udace se suze moje [03:14]
8. Ceca - Vidimo se daso [03:20]
9. Ceca - Dobro sam prosla [03:33]
10. Ceca - Turbulentno [03:14]
Playing Time.........: 34:48
Total Size...........: 80,53 MB
SLOVENSKI.ZAKLAD.NARODNO.ZABAVNE.GLASBE.izbor.720p.TVRip.R77

Klikni za povečavo!
30-01-2021 13:48 naložil rado77
Sejalci: 2 / Odjemalci: 0 / Velikost: 676.95 MB / Dokončani: 7
Prenesi torrent Poročaj torrent Opis torrenta
Zvrst: Glasbeni
Kategorija: GLASBA > Video

SLOVENSKI.ZAKLAD.NARODNO.ZABAVNE.GLASBE.izbor.720p.TVRip-R77


SLOVENSKI ZAKLAD NARODNO ZABAVNE GLASBE
izbor

Narodnozabavna glasba se je razvila iz ljudske glasbe, s čimer je mišljeno godčevsko igranje in ljudsko petje. Njeni začetki segajo v 19. stoletje, ko se je z izumom in pojavom diatonične harmonike hitro razmahnila. Predvsem po 2. svetovni vojni je število ansamblov začelo skokovito naraščati. Sprva so bili ansambli amaterski, šele kasneje tudi profesionalni. Za največjega glasbenika narodnozabavne glasbe na Slovenskem in v svetu velja Slavko Avsenik, ki je s svojim Ansamblom bratov Avsenik v 40-ih letih delovanja, začenši leta 1953, ustvaril ogromno pesmi (okrog 800), izmed katerih jih je mnogo ponarodelih. Najbolj je znana skladba Na Golici, ki velja za največkrat predvajano instrumentalno skladbo na svetu. Avsenik je tudi začetnik danes splošno razširjenega »tresočega« (udarjajočega) igranja na harmoniko, ki služi za spremljavo pesmi. Za enega najbolj znanih ansamblov v Sloveniji velja tudi Ansambel Lojzeta Slaka, ki ima poudarek na ljudsko obarvanih melodijah in besedilih. Najdlje delujoči ansambel na Slovenskem so Beneški fantje, ki preigravajo in ustvarjajo glasbo že od leta 1952.



Izvajalci:

1 Zadovoljni Kranjci - Jaz mam pa kajžico.mp4"
2 Veseli planšarji - Na saneh.mp4"
3 Slovenski inštrumentalni kvintet - Fant od fare.mp4"
4 Štirje kovači - Prišla je jesen.mp4"
5 Ansambel bratov Avsenik - Gasilska polka.mp4"
6 Beneški fantje - Na Beneškem.mp4"
7 Štirje kovači - Tam na deželi.mp4"
8 Ansambel Vilija Petriča - Ko sinoči sem vasoval.mp4"
9 Andrej Blumauer - Razposajena harmonika.mp4"
10 Ansambel bratov Avsenik - Pod Grintovcem.mp4"
11 Veseli planšarji - Pet parov cokel.mp4"
12 Ansambel Lojzeta Slaka - Pod Poncami.mp4"
13 Miha Dovžan in kvintet Gorenjci - Se zunaj mrači.mp4"
14 Trio Bordon - Ne pozabi me draga.mp4"
15 Beneški fantje - Študentovo slovo.mp4"
16 Ansambel bratov Avsenik - Veseli svatjeLustige Hochzeit (1967).mp4"
17 Ansambel Pavla Kosca - Prehitro prišla je jesen.mp4"
18 Fantje treh dolin - Metuljček zlat.mp4"
19 Ansambel Toneta Kmetca - Je leto naokoli.mp4"
20 Ansambel Lojzeta Slaka - Svatje že vriskajo.mp4"
21 Jože Bohorč s prijatelji - Snežni valček.mp4"
22 Ansambel bratov Avsenik - Drvarska polka.mp4"
23 Ansambel Borisa Kovačiča - Vasovanje.mp4"
24 The Vadnals - Roll back the carpet.mp4"
25 Ansambel Lojzeta Slaka - Na paši.mp4"
26 Ansambel Borisa Franka - Špelca in Angelca.mp4"
27 Pod lipico zeleno Ansambel Jožeta Krežeta.mp4"
28 Ansambel Lojzeta Slaka - Med brajdami.mp4"
29 Ansambel bratov Avsenik - Lepe ste ve Karavanke.mp4"
30 Zadovoljni Kranjci - Ohcetna polka.mp4"
31 The Vadnals - Venček ljudskih.mp4"
32 Vokalni kvintet Gorenjci - Moravška dolina.mp4"
33 Ansambel Ivana Ruparja - Naj živi vesela družba.mp4"
34 Ansambel Nagelj - Planinski krst (1991)_1.mp4"
35 Beneški Fantje - Rdeči Cvet.mp4"
36 Avsenik - Slalom polka.mp4"
37 Ansambel Janeza Jeršinovca s planšarji - Stari Planšar.mp4"
38 Trio Vita Ahačiča - Polka.mp4"
39 Ansambel Nagelj Vini Vini - 2014.mp4"
40 Ansambel Lojzeta Slaka - Vinska trta.mp4"
41 Andrej Blumauer - Veseli Ribenčan.mp4"
42 The Vadnals - Prinesi mi rože.mp4"
43 Veseli planšarji - Hej juhej.mp4"
45 AVSENIK 1959 Trompeten Echo & Feuerwehr Polka.mp4"
46 Stanka Kovačič - Kitara.mp4"



Tehnične specifikacije:


Complete name : SLOVENSKI.ZAKLAD.NARODNO.ZABAVNE.GLASBE.izbor.720p.TVRip.R77
Format profile : Base Media
Codec ID : isom (isom/iso2/avc1/mp41)
File size : 677 MiB
Duration : 1 h 51 min
Overall bit rate : 847 kb/s

Video
ID : 1
Format : AVC
Format/Info : Advanced Video Codec
Format profile : Main@L2.1
Format settings : CABAC / 1 Ref Frames
Format settings, CABAC : Yes
Format settings, Reference frames : 1 frame
Codec ID : avc1
Codec ID/Info : Advanced Video Coding
Duration : 1 h 51 min
Bit rate : 651 kb/s
Width : 480 pixels
Height : 360 pixels
Display aspect ratio : 4:3
Frame rate mode : Variable
Frame rate : 24.692 FPS
Minimum frame rate : 10.000 FPS
Maximum frame rate : 62.439 FPS
Color space : YUV
Chroma subsampling : 4:2:0
Bit depth : 8 bits
Scan type : Progressive
Bits/(Pixel*Frame) : 0.153
Stream size : 520 MiB (77%)
Codec configuration box : avcC

Audio
ID : 2
Format : AAC LC
Format/Info : Advanced Audio Codec Low Complexity
Codec ID : mp4a-40-2
Duration : 1 h 51 min
Bit rate mode : Constant
Bit rate : 192 kb/s
Channel(s) : 2 channels
Channel layout : L R
Sampling rate : 44.1 kHz
Frame rate : 43.066 FPS (1024 SPF)
Compression mode : Lossy
Stream size : 154 MiB (23%)
Default : Yes
Alternate group : 1


VELIKO UŽITKOV!
RÉMI.SANS.FAMILLE.aka.Rémi.in.mojster.Vitalis.SLOSubs.720p.HDTVRip x264.R77

Klikni za povečavo!
30-01-2021 13:39 naložil rado77
Sejalci: 0 / Odjemalci: 0 / Velikost: 2.37 GB / Dokončani: 4
Prenesi torrent Poročaj torrent Opis torrenta
Zvrst: Drama | Družinski
Kategorija: FILMI > HDTV

RÉMI.SANS.FAMILLE.aka.Rémi.in.mojster.Vitalis.SLOSubs.720p.HDTVRip x264.R77






RÉMI SANS FAMILLE 2018


RÉMI IN MOJSTER VITALIS







Režija: Antoine Blossier

Scenarij: Antoine Blossier, Hector Malot (roman)
Igrajo: Daniel Auteuil, Maleaume Paquin, Virginie Ledoyen
Žanr: Družinski, drama
Podnapisi: Slovenščina





Zgodba:


Družinska pustolovščina o osirotelem dečku v alpskih gorah. Rémi s svojo ljubečo mamo odrašča na idilični kmetiji, vendar ne ve, da ga je ta posvojila, ne da bi to povedala svojemu potujočemu možu. Ta se lepega dne vrne in tujega otroka proda gospodu Vitalisu, uličnemu zabavljaču z opico in psom. Za Rémija se s tem začnejo pustolovščine in nesreče, saj spozna trdo življenje pouličnega zabavljača, trpi lakoto, mraz in številne krivice. Vitalis dečka spodbuja, da se izkaže s svojim čudovitim glasom, zaradi česar Rémi postane prava zvezda. Postopoma odkriva tudi svoje korenine in družinske skrivnosti.






Tehnične specifikacije:


Complete name : RÉMI.SANS.FAMILLE.aka.Rémi.in.mojster.Vitalis.SLOSubs.720p.HDTVRip x264.R77
Format : MPEG-4
Format profile : Base Media
Codec ID : isom (isom/iso2/avc1/mp41)
File size : 2.37 GiB
Duration : 1 h 43 min
Overall bit rate : 3 266 kb/s
Writing application : Lavf58.29.100


Video

ID : 1
Format : AVC
Format/Info : Advanced Video Codec
Format profile : High@L3.1
Format settings : CABAC / 2 Ref Frames
Format settings, CABAC : Yes
Format settings, Reference frames : 2 frames
Codec ID : avc1
Codec ID/Info : Advanced Video Coding
Duration : 1 h 43 min
Bit rate : 3 131 kb/s
Width : 1 280 pixels
Height : 720 pixels
Display aspect ratio : 16:9
Frame rate mode : Constant
Frame rate : 25.000 FPS
Color space : YUV
Chroma subsampling : 4:2:0
Bit depth : 8 bits
Scan type : Progressive
Bits/(Pixel*Frame) : 0.136
Stream size : 2.27 GiB (96%)
Codec configuration box : avcC


Audio

ID : 2
Format : AAC LC
Format/Info : Advanced Audio Codec Low Complexity
Codec ID : mp4a-40-2
Duration : 1 h 43 min
Bit rate mode : Constant
Bit rate : 129 kb/s
Channel(s) : 2 channels
Channel layout : L R
Sampling rate : 44.1 kHz
Frame rate : 43.066 FPS (1024 SPF)
Compression mode : Lossy
Stream size : 95.4 MiB (4%)
Default : Yes
Alternate group : 1





Uživajte!
Colonia - The Best Of - Vol. 1 (2002) MP3

Klikni za povečavo!
28-01-2021 14:34 naložil System
Sejalci: 4 / Odjemalci: 0 / Velikost: 151.16 MB / Dokončani: 13
Prenesi torrent Poročaj torrent Opis torrenta NFO
Kategorija: GLASBA > Glasba
Anonimen nalagalec

---------------------------------------------------------------------
Colonia - The Best Of - Vol. 1
---------------------------------------------------------------------
Artist...............: Colonia
Album................: The Best Of - Vol. 1
Genre................: Pop Folk
Source...............: CD
Year.................: 2002
Ripper...............: EAC (Secure mode) / LAME 3.92 & Asus CD-S520
Codec................: LAME 3.98
Version..............: MPEG 1 Layer III
Quality..............: Insane, (avg. bitrate: 320kbps)
Channels.............: Stereo / 44100 hz
News Server..........: news.astraweb.com
News Group(s)........: alt.binaries.pl.mp3
Included.............: NFO
Covers...............: Front Back CD
---------------------------------------------------------------------
Tracklisting
---------------------------------------------------------------------
1. Colonia - Nek' Vatre Gore Sve [03:40]
2. Colonia - Sve Oko Mene Je Grijeh [04:43]
3. Colonia - Vatra I Led [04:07]
4. Colonia - Dio Nje [03:30]
5. Colonia - Red Light Zone [04:02]
6. Colonia - U Ritmu Ljubavi [02:44]
7. Colonia - Lady Blue [03:35]
8. Colonia - Ti [03:11]
9. Colonia - Njeno Ime Ne Zovi U Snu [03:52]
10. Colonia - Ljubav Ne Stanuje Tu [03:39]
11. Colonia - Dok Je Tebe I Ljubavi (Video 2000 Mix) [03:17]
12. Colonia - Budi Mi Zbogom [04:02]
13. Colonia - Deja Vu [03:32]
14. Colonia - Ti Da Bu Di Bu Da [03:32]
15. Colonia - Za Tvoje Snene Oci [04:31]
16. Colonia - Svijet Voli Pobjednike [03:58]
Playing Time.........: 01:00:02
Total Size...........: 149,22 MB
Neda Ukraden - Biti svoja (2012) MP3

Klikni za povečavo!
28-01-2021 13:25 naložil System
Sejalci: 2 / Odjemalci: 0 / Velikost: 87.94 MB / Dokončani: 17
Prenesi torrent Poročaj torrent Opis torrenta NFO
Zvrst: Glasbeni
Kategorija: GLASBA > Glasba
Anonimen nalagalec

---------------------------------------------------------------------
Neda Ukraden - Biti svoja
---------------------------------------------------------------------
Artist...............: Neda Ukraden
Album................: Biti svoja
Genre................: Pop
Source...............: CD
Year.................: 2012
Ripper...............: EAC (Secure mode) / LAME 3.92 & Asus CD-S520
Codec................: LAME 3.98
Version..............: MPEG 1 Layer III
Quality..............: Insane, (avg. bitrate: 320kbps)
Channels.............: Stereo / 44100 hz
Tags.................: ID3 v1.1, ID3 v2.3, APE v2.000
News Server..........: news.astraweb.com
News Group(s)........: alt.binaries.pl.mp3
Included.............: NFO
Covers...............: Front Back CD
---------------------------------------------------------------------
Tracklisting
---------------------------------------------------------------------
1. Neda Ukraden - Najbolji klub u gradu [03:49]
2. Neda Ukraden - Na Balkanu [03:13]
3. Neda Ukraden - Pao snijeg po dunjama (duet Kemal Monteno)[03:51]
4. Neda Ukraden - Koliko tuga kosta [03:55]
5. Neda Ukraden - Nije ti dobro (Girls Night) feat. Klea i Kim[03:23]
6. Neda Ukraden - Bilo pa proslo [03:21]
7. Neda Ukraden - Izvini (duet Zeljko Vasic) [03:56]
8. Neda Ukraden - Drugi slucaj [03:39]
9. Neda Ukraden - Slobodni smo kao ptice (duet Zlatko Pejakovic)[03:45]
10. Neda Ukraden - Tetovaza (duet Ivan Zak) [03:17]
Playing Time.........: 36:13
Total Size...........: 84,96 MB
Severina - Halo (2019) MP3

Klikni za povečavo!
28-01-2021 13:05 naložil System
Sejalci: 2 / Odjemalci: 0 / Velikost: 125.41 MB / Dokončani: 15
Prenesi torrent Poročaj torrent Opis torrenta NFO
Zvrst: Glasbeni
Kategorija: GLASBA > Glasba
Anonimen nalagalec

---------------------------------------------------------------------
Severina - Halo
---------------------------------------------------------------------
Artist...............: Severina
Album................: Halo
Genre................: Pop
Source...............: CD
Year.................: 2019
Ripper...............: EAC (Secure mode) / LAME 3.92 & Asus CD-S520
Codec................: LAME 3.98
Version..............: MPEG 1 Layer III
Quality..............: Insane, (avg. bitrate: 320kbps)
Channels.............: Stereo / 44100 hz
Tags.................: , ID3 v2.3
News Server..........: news.astraweb.com
News Group(s)........: alt.binaries.pl.mp3
Included.............: NFO
---------------------------------------------------------------------
Tracklisting
---------------------------------------------------------------------
1. Severina - 'Ocu S Tobon Zivit [04:22]
2. Severina - Popila [03:41]
3. Severina - Halo [02:49]
4. Severina - Unaprijed Gotovo (Feat. Petar Graso) [04:35]
5. Severina - Bijela Vrana [03:11]
6. Severina - Fatamorgana [02:26]
7. Severina - Kuma [03:57]
8. Severina - Kafana [03:35]
9. Severina - Mirna [03:20]
10. Severina - Otrove (Feat. Jala Brat) [03:51]
11. Severina - Imas Pravo [04:04]
12. Severina - Tutorial (Feat. Ljuba Stankovic) [03:30]
13. Severina - Magija (Feat. Jala Brat) [03:24]
14. Severina - Mrtav Bez Mene [03:00]
15. Severina - Kao [03:40]
Playing Time.........: 53:33
Total Size...........: 125,27 MB
Spiral.2019.SLOSubs.BRRip.XviD-DrSi

Klikni za povečavo!
28-01-2021 11:07 naložil Ziva
Sejalci: 1 / Odjemalci: 0 / Velikost: 2 GB / Dokončani: 4
Prenesi torrent Poročaj torrent Opis torrenta NFO
Kategorija: FILMI >  BRRip



Naziv: Spiral.2019.SLOSubs.BRRip.XviD-DrSi
Source: Spiral.2019.1080p.BluRay.DTS.x264-VETO
Leto izida ........: 2019
Velikost ...........: 2,00 GB
Dolžina ............: 86 Minut
Video ...............: 2837 Kbps | 720x304 | 23,976 fps
Zvok .................: Dolby Digital AC3 5.1 @ 448 Kbps
Kodek.................: XviD
Zvrst………….: Grozljivka | Misterij | Triler | Drama
Država .............: ZDA
Jezik ................: Angleški
Podnapisi .........: Slovenski, Hrvaški, Srbski (vsi RETAiL)
Prevod: Mediatranslations
Za HD priredil in uredil: metalcamp
Tehnična obdelava: DVD Rippers Slovenija

Režija.........: Kurtis David Harder
Scenarij......: Colin Minihan, John Poliquin


Jeffrey Bowyer-Chapman ... Malik
Ari Cohen ... Aaron
Jennifer Laporte ... Kayla
Ty Wood ... Tyler
Lochlyn Munro ... Marshal
Chandra West ... Tiffany
Paul McGaffey ... Mr. Reinhart
Thomas Elms ... Matthew
Aaron Poole ... Liam (voice)
Megan Tracz ... Jessica


Okultni triler spremlja istospolni par Malika (Jeffrey Bowyer-Chapman)
in Aarona (Ari Cohen), ki sta v zakotnem ameriškem mestecu, kamor sta se
preselila, da bi vzgajala najstniško hčer, deležna homofobnih groženj
neznancev. Ko te postanejo resne in še zlobnejše, začne Malik sumiti,
da so na delu zlovešče temne sile.





Monos.2019.SLOSubs.720p.BRRip.H265-DrSi

Klikni za povečavo!
28-01-2021 10:58 naložil Ziva
Sejalci: 1 / Odjemalci: 0 / Velikost: 2.66 GB / Dokončani: 11
Prenesi torrent Poročaj torrent Opis torrenta NFO
Kategorija: FILMI >  BRRip



Naziv: Monos.2019.SLOSubs.720p.BRRip.H265-DrSi
Leto..........: 2019
Velikost......: 2,70 GB
Dolžina.......: 102 min.
Video.........: 3 265 Kbps | 1280x536 | 23,976 fps | H265
Zvok..........: Dolby Digital AC3 5.1 @ 448 Kbps
Jezik.........: Španski | Angleški
Žanr..........: Triler | Pustolovski | Drama
Država .......: Kolumbija | Argentina | Urugvaj
Podnapisi.....: Slovenski, Hrvaškim Srbski (vsi RETAiL)
Prevod........: Mediatranslations
Tehnična obdelava DVD Rippers Slovenija
IMDb Ocena....: 6,9/10
Režija........: Alejandro Landes
Scenarij......: Alejandro Landes, Alexis Dos Santos
Produkcija....: Stela Cine, Bord Cadre Films, CounterNarrative Films

Sofia Buenaventura ... Rambo
Julián Giraldo ... Lobo
Karen Quintero ... Leidi
Laura Castrillón ... Sueca
Deiby Rueda ... Pitufo
Paul Cubides ... Perro
Sneider Castro ... Bum Bum
Moises Arias ... Patagrande (as Moisés Arias)
Julianne Nicholson ... Doctora
Wilson Salazar ... Mensajero


Film Alejandra Landesa je dih jemajoča drama o preživetju, ki se odvija v odmaknjenem
gorovju Latinske Amerike. Zgodba spremlja skupino mladih vojakov – v resnici še otrok,
ki so si nadeli imena, kot so Rambo, Smurf, Bigfoot, Wolf ter Boom-Boom – ki morajo
paziti na ugrabljeno ameriško talko Doctoro (Julianne Nicholson). Najstniški komandosi
se podnevi urijo, zvečer pa predajajo mladostniškim užitkom in zabavi. Nenavadno družino
združuje skrivnostna sila, znana kot Organizacija. Potem ko zaseda odpelje vod v pragozd,
se začne njihova naloga sesedati in zapletene vezi med skupino razkrajati.




The.Division.aka.A.Divisão.2020.SLOSubs.720p.BRRip.H265-DrSi

Klikni za povečavo!
28-01-2021 10:47 naložil Ziva
Sejalci: 1 / Odjemalci: 0 / Velikost: 3.44 GB / Dokončani: 7
Prenesi torrent Poročaj torrent Opis torrenta NFO
Kategorija: FILMI >  BRRip



Naziv: The.Division.aka.A.Divisao.2020.SLOSubs.720p.BRRip.H265-DrSi
Leto..........: 2020
Velikost......: 3,40 GB
Dolžina.......: 133 min.
Video.........: 3 233 Kbps | 1280x536 | 24 fps | H265
Zvok..........: Dolby Digital AC3 5.1 @ 448 Kbps
Jezik.........: Portugalski
Žanr..........: Akcijski | Kriminalni | Triler
Država .......: Brazilija
Podnapisi.....: Slovenski (RETAiL)
Prevod........: MEDIATRANSLATIONS
Priredil in uredil: metalcamp
Tehnična obdelava DVD Rippers Slovenija
IMDb Ocena....: 6,3/10
Režija........: Vicente Amorim
Scenarij......: Vicente Amorim, Aurélio Aragao
Produkcija....: AfroReggae Audiovisual, Globo Filmes, Hungry Man


Erom Cordeiro ... Juliano Santiago
Thelmo Fernandes ... Antônio Ramos
Vanessa Gerbelli ... Raquel
Bruce Gomlevsky ... Pablo Gaspar
Silvio Guindane ... Mendonça
Natália Lage ... Roberta
Marcos Palmeira ... Luís Henrique Benício
Hanna Romanazzi ... Camila
Raphael Teixeira ... Policial
Dalton Vigh ... Venâncio Flores


Rio de Janeiro leta 1997. Vsak mesec se zgodi 11 ugrabitev in ljudje so prestrašeni, brazilska vlada in državna policija pa nemočni. Tedaj sklenejo oblasti najeti kontroverzne posebne agente v boju zoper epidemijo kriminala. Mendonc¸a je nepodkupljivi častnik, ki ima za pasom že več kot sto ubojev, Santiago pa pokvarjeni policist, z obeh strani zakona zloglasen zaradi izsiljevanja denarja od zločincev. Oba moža s svojimi vprašljivimi metodami prevzameta nadzor oddelka za boj proti ugrabitvam. Mogočen, na vseh ravneh podkupljen in smrtonosen stroj se bo zdaj obrnil proti njima.




A.White.White.Day.2019.SLOSubs.BRRip.XviD-DrSi

Klikni za povečavo!
28-01-2021 10:41 naložil Ziva
Sejalci: 1 / Odjemalci: 0 / Velikost: 2.5 GB / Dokončani: 6
Prenesi torrent Poročaj torrent Opis torrenta NFO
Zvrst: Drama
Kategorija: FILMI >  BRRip



Naziv: A.White.White.Day.2019.SLOSubs.BRRip.XviD-DrSi
Source: A.White.White.Day.2019.1080p.BluRay.x264-SCARE
Leto izida ........: 2019
Velikost ...........: 2,50 GB
Dolžina ............: 108 Minut
Video ...............: 2833 Kbps | 720x304 | 24 fps
Zvok .................: Dolby Digital AC3 5.1 @ 448 Kbps
Kodek.................: XviD
Zvrst………….: Drama
Država .............: Islandija | Danska | Švedska
Jezik ................: Islandski
Podnapisi .........: Slovenski, Hrvaški (oboji RETAiL)
Prevod: Mediatranslations
Za HD priredil: metalcamp
Tehnična obdelava: DVD Rippers Slovenija

Režija.........: Hlynur Palmason
Scenarij......: Hlynur Palmason


Ingvar Sigurdsson ... Ingimundur
Ída Mekkín Hlynsdóttir ... Salka
Hilmir Snær Guðnason ... Olgeir
Sara Dögg Ásgeirsdóttir ... Ingimundur's Wife
Björn Ingi Hilmarsson... Trausti
Elma Stefania Agustsdottir ... Elín
Haraldur Stefansson ... Stefán
Laufey Elíasdóttir ... Ingibjörg

V odmaknjenem islandskem mestecu začne policijski načelnik (Ingvar Sigurdsson) sumiti nekega sokrajana, da je bil skrivni ljubimec njegove žene, ki je pred dvema letoma umrla v tragični avtomobilski nesreči. Njegova obsedenost, da bi prišel resnici do dna, se čedalje bolj stopnjuje in kmalu začenja neogibno
ogrožati sebe in svoje ljubljene.
Film režiserja Hlynura Palmasona prinaša dramo o žalovanju, maščevanju in
brezpogojni ljubezni.




Uciteljice - Luda kuca (2017) MP3

Klikni za povečavo!
26-01-2021 16:07 naložil System
Sejalci: 3 / Odjemalci: 0 / Velikost: 111.55 MB / Dokončani: 11
Prenesi torrent Poročaj torrent Opis torrenta NFO
Zvrst: Glasbeni
Kategorija: GLASBA > Glasba
Anonimen nalagalec

---------------------------------------------------------------------
Uciteljice - Luda Kuca
---------------------------------------------------------------------
Artist...............: Uciteljice
Album................: Luda Kuca
Genre................: Pop
Source...............: CD
Year.................: 2017
Ripper...............: EAC (Secure mode) / LAME 3.92 & Asus CD-S520
Codec................: LAME 3.98
Version..............: MPEG 1 Layer III
Quality..............: Insane, (avg. bitrate: 320kbps)
Channels.............: Stereo / 44100 hz
Tags.................: , ID3 v2.3
News Server..........: news.astraweb.com
News Group(s)........: alt.binaries.pl.mp3
Included.............: NFO
---------------------------------------------------------------------
Tracklisting
---------------------------------------------------------------------
1. Uciteljice - Nema Natrag (Feat. Jasmin Stavros) [03:19]
2. Uciteljice - Noci U Brazilu (Feat. Neda Ukraden) [03:19]
3. Uciteljice - Nisam Ja Tvoja Uciteljica [03:17]
4. Uciteljice - Generale (Feat. Severina) [02:57]
5. Uciteljice - Luda Kuca [02:59]
6. Uciteljice - Sok [03:14]
7. Uciteljice - Dunav [03:07]
8. Uciteljice - Ako Mi Se Ne Spava (Feat. Tarapana Band) [03:24]
9. Uciteljice - Karamela [03:10]
10. Uciteljice - Na Stanu [03:17]
11. Uciteljice - Tako Se To Radi (Feat. Dj Mateo) [03:21]
12. Uciteljice - Na Prstima [03:45]
13. Uciteljice - Slag [03:12]
Playing Time.........: 42:27
Total Size...........: 111,44 MB
Jelena Rozga - Best Of [2CD] (2011) MP3

Klikni za povečavo!
26-01-2021 14:42 naložil System
Sejalci: 3 / Odjemalci: 0 / Velikost: 317.96 MB / Dokončani: 11
Prenesi torrent Poročaj torrent Opis torrenta NFO
Zvrst: Glasbeni
Kategorija: GLASBA > Glasba
Anonimen nalagalec

---------------------------------------------------------------------
Jelena Rozga - Best Of
---------------------------------------------------------------------
Artist...............: Jelena Rozga
Album................: Best Of
Genre................: Pop
Source...............: CD
Year.................: 2011
Ripper...............: EAC (Secure mode) / LAME 3.92 & Asus CD-S520
Codec................: LAME 3.98
Version..............: MPEG 1 Layer III
Quality..............: Insane, (avg. bitrate: 320kbps)
Channels.............: Stereo / 44100 hz
Tags.................: , ID3 v2.3
News Server..........: news.astraweb.com
News Group(s)........: alt.binaries.pl.mp3
Included.............: NFO
Covers...............: Front Back CD
---------------------------------------------------------------------
Jelena Rozga
---------------------------------------------------------------------
1. Jelena Rozga - Razmažena [03:43]
2. Jelena Rozga - Bižuterija [03:55]
3. Jelena Rozga - Rodit Ću Ti Ćer I Sina [03:29]
4. Jelena Rozga - Gospe Moja [03:08]
5. Jelena Rozga - Nemam [02:43]
6. Jelena Rozga - Oprosti Mala [02:48]
7. Jelena Rozga - Djevica [03:35]
8. Jelena Rozga - Daj Šta Daš [03:11]
9. Jelena Rozga - Ne Zovi Me Marija [02:47]
10. Jelena Rozga - Roza Boja [03:05]
11. Jelena Rozga - Sve Mi Tvoje Oči Govore [03:17]
12. Jelena Rozga - Roba S Greškom [03:40]
13. Jelena Rozga - Suze Od Kristala [03:41]
14. Jelena Rozga - Ja Znam Dobro Što Mi Je [03:28]
15. Jelena Rozga - Lijepa Samo Za Tebe [04:22]
16. Jelena Rozga - Sve Se Meni Čini [03:55]
17. Jelena Rozga - Samo Simpatija [03:12]
Playing Time.........: 57:52
Total Size...........: 152,19 MB
---------------------------------------------------------------------
Godine s Magazinom
---------------------------------------------------------------------
1. Jelena Rozga - Ginem [03:45]
2. Jelena Rozga - Da Li Znaš Da Te Ne Volim [03:35]
3. Jelena Rozga - Ne Tiče Me Se [03:39]
4. Jelena Rozga - Troši I Uživaj [03:23]
5. Jelena Rozga - Ko Me Zove [03:12]
6. Jelena Rozga - Minus I Plus [03:42]
7. Jelena Rozga - Suze Biserne [03:16]
8. Jelena Rozga - Ako Poludim [03:59]
9. Jelena Rozga - Kad Bi Bio Blizu [03:27]
10. Jelena Rozga - S Druge Strane Mjeseca [03:56]
11. Jelena Rozga - Ne Vjerujem Tebi, Ne Vjerujem Sebi [04:25]
12. Jelena Rozga - Jel Zbog Nje [03:20]
13. Jelena Rozga - Minut Srca Tvog [04:06]
14. Jelena Rozga - Nebo Boje Moje Ljubavi [04:00]
15. Jelena Rozga - Samo Navika [03:54]
16. Jelena Rozga - Opijum (Ne Daj Mene Za Nju) [02:41]
17. Jelena Rozga - Gutljaj Vina [04:51]
Playing Time.........: 01:03:19
Total Size...........: 164,70 MB
Neda Ukraden - Za pravu ljubav (2020) MP3

Klikni za povečavo!
26-01-2021 14:41 naložil System
Sejalci: 2 / Odjemalci: 0 / Velikost: 94.95 MB / Dokončani: 9
Prenesi torrent Poročaj torrent Opis torrenta NFO
Zvrst: Glasbeni
Kategorija: GLASBA > Glasba
Anonimen nalagalec

---------------------------------------------------------------------
Neda Ukraden - Za Pravu Ljubav
---------------------------------------------------------------------
Artist...............: Neda Ukraden
Album................: Za Pravu Ljubav
Genre................: Pop
Source...............: CD
Year.................: 2020
Ripper...............: EAC (Secure mode) / LAME 3.92 & Asus CD-S520
Codec................: LAME 3.99
Version..............: MPEG 1 Layer III
Quality..............: Insane, (avg. bitrate: 320kbps)
Channels.............: Stereo / 44100 hz
Tags.................: ID3 v1.1, ID3 v2.3
News Group(s)........: alt.binaries.pl.mp3
Included.............: NFO
Covers...............: Front Back CD
---------------------------------------------------------------------
Tracklisting
---------------------------------------------------------------------
1. Neda Ukraden - Za Pravu Ljubav [03:22]
2. Neda Ukraden - Ni Dubai Ni Hawaii (Feat. Luka Basi) [03:00]
3. Neda Ukraden - 3, 2, 1, 0 [02:30]
4. Neda Ukraden - Nije Posteno [03:32]
5. Neda Ukraden - Bomba [03:04]
6. Neda Ukraden - Najteze Je Kad Se Rastaje [03:12]
7. Neda Ukraden - Premalo Mi Je [03:12]
8. Neda Ukraden - Kao Vino I Gitara [03:23]
9. Neda Ukraden - Volim Zivot [02:54]
10. Neda Ukraden - Bijela Kosulja [03:35]
11. Neda Ukraden - Favorit [03:23]
12. Neda Ukraden - Tudje Sladje (Feat. Pirati) [03:02]
Playing Time.........: 38:15
Total Size...........: 93,81 MB
MC Stojan - Daljina (2020) MP3

Klikni za povečavo!
26-01-2021 14:39 naložil System
Sejalci: 4 / Odjemalci: 0 / Velikost: 66.83 MB / Dokončani: 10
Prenesi torrent Poročaj torrent Opis torrenta NFO
Zvrst: Glasbeni
Kategorija: GLASBA > Glasba
Anonimen nalagalec

---------------------------------------------------------------------
Mc Stojan - Daljina
---------------------------------------------------------------------
Artist...............: Mc Stojan
Album................: Daljina
Genre................: Pop-Folk
Source...............: CD
Year.................: 2020
Ripper...............: EAC (Secure mode) / LAME 3.92 & Asus CD-S520
Codec................: LAME 3.99
Version..............: MPEG 1 Layer III
Quality..............: Insane, (avg. bitrate: 320kbps)
Channels.............: Stereo / 44100 hz
News Server..........: news.astraweb.com
News Group(s)........: alt.binaries.pl.mp3
Included.............: NFO
Covers...............: Front Back CD
---------------------------------------------------------------------
Tracklisting
---------------------------------------------------------------------
1. Mc Stojan - Daljina Feat. Napo [03:13]
2. Mc Stojan - Ole, Ole [02:18]
3. Mc Stojan - Mogu Ja To [02:30]
4. Mc Stojan - Sve Zene Vole Feat. Janko [02:25]
5. Mc Stojan - Salji Broj [02:40]
6. Mc Stojan - 100% [02:22]
7. Mc Stojan - Udahni Duboko [02:08]
8. Mc Stojan - Alo [02:13]
9. Mc Stojan - Ole, Ole - Remix [02:23]
10. Mc Stojan - Salji Broj - Remix [02:24]
11. Mc Stojan - La Miami - Remix [02:38]
Playing Time.........: 27:19
Total Size...........: 65,98 MB
Berlin.Alexanderplatz.2020.SrpSubs.BRRip.XviD-R77

Klikni za povečavo!
25-01-2021 14:28 naložil rado77
Sejalci: 1 / Odjemalci: 0 / Velikost: 5.45 GB / Dokončani: 4
Prenesi torrent Poročaj torrent Opis torrenta
Zvrst: Drama
Kategorija: FILMI >  BRRip

Berlin.Alexanderplatz.2020.SrpSubs.BRRip.XviD-R77





Berlin Alexanderplatz (2020))





Povzetek in pregled filma:

Film, ki ruši maske in predsodke. Fluorescentno neonsko vzdušje in prijetni nočni klubi.

"Berlin Alexanderplatz" je film nemškega režiserja, rojenega v Afganistanu, Burhana Qurbanija, ki je v kinodvoranah izšel 5. avgusta 2020. Je sodobna priredba in interpretacija znamenitega romana Alfreda Döblina z istoimenskim naslovom, objavljenega leta 1929.

To je zgodba ali bolje rečeno usoda begunca, 30-letnega Frančiška. Prihaja iz Gvineje Bissau, na ladji je prečkal Sredozemlje, na morju izgubil ženo in prispel v nemško prestolnico. Želel bi biti dober človek, to vedno znova govori, toda ko si črnec, begunec in brez papirjev, te čaka življenje povsem drugačna usoda. Hitro opazi žalostno opazovanje, da mu tajni obstoj ne omogoča poštenega življenja in vpije ga spirala prestopništva. Vrtoglav spust v pekel, ki ga je do dna vlekel moteči stranski strahopetec Reinhold, temna mamila trgovec z motečim karakterjem. Kar se trudi, se trudi, da bi ostal na pravi poti in se kot hoja po vrvi oklepa svoje usode, a vrv se zlomi in je katapultiran v berlinsko podzemlje. Med bleščečimi neonskimi lučmi in pridušenimi palicami, ki jih spremlja oda avgurgije, preštete z glasom, ta odisejada predstavlja usodo človeka z vijugasto in neravno potjo, usodo mnogih drugih pa pozabljenih in prezrtih. Ta film na robu umetniškega filma daje glas in obraz tistim nevidnim ljudem, ki jih zaznamujejo stigme in predsodki.

To je osupljivo grandiozen film, ki se dotakne srca. Ganljivi liki, ki tvorijo središče pozornosti in narativne teže filma: kamera lebdi okoli njih in v usodni vihri odnese gledalca. Pravi potop v fascinantno in včasih moteče berlinsko podzemlje, med klubi, trgovci z ljudmi, transspolnimi ljudmi in prostitutkami. Skoraj tri ure dramatične, brezčasne begunske usode beguncev, alegorija vseh ostalih, katerih imena so neimenovana. Edina negativna točka je zelo prisoten moški pogled, še vedno preveč zasidran v kinu, zaradi česar so ženske pasivni liki, krhke malenkosti, preprosti predmeti pogleda in seksualizirani klišeji pogosto nagi (ali celo popolnoma goli). To je primer Jelle Hasse v vlogi Mieze,

Ta film ostaja občudovanja vreden, hkrati pa ohranja kritičen občutek. Frančišek, poosebitev vseh tistih, ki morajo ostati v senci: ta lik razkrije tisto, česar nočemo videti, v času, ko se naša politika vse bolj izpodbija in ko nikoli ni bilo toliko begunskih taborišč. Film, ki se sooči s trenutno resnico in pove tisto, česar si nihče ne upa povedati.

Režiser:
Burhan Qurbani





Distribucija:

- Welket Bungué kot Francis / Franz
- Jella Hasse kot Mieze
- Albrecht Schuch kot Reinhold
- Marin Wuttke kot Pums
- Annabelle Mandeng v vlogi Eve
- Nils Verkooijen v vlogi Berte
- Lukhanyo Bele v vlogi Ayub
- Thomas Lawinky v vlogi Karla



Žanr: Drama
Jezik: Soninke | Portugalščina | Nemščina | angleščina
Država: Nemčija | Nizozemska | Francija | Kanada
Izvajanje: 183 min
Podnapisi: Srbski





Tehnične specifikacije:


Complete name : Berlin.Alexanderplatz.2020.SrpSubs.BRRip.XviD-R77
Format : MPEG-4
Format profile : Base Media
Codec ID : isom (isom/iso2/avc1/mp41)
File size : 5.45 GiB
Duration : 3 h 3 min
Overall bit rate mode : Variable
Overall bit rate : 4 257 kb/s
Writing application : Lavf56.30.100

Video
ID : 1
Format : AVC
Format/Info : Advanced Video Codec
Format profile : Main@L4
Format settings : CABAC / 3 Ref Frames
Format settings, CABAC : Yes
Format settings, Reference frames : 3 frames
Format settings, GOP : M=1, N=72
Codec ID : avc1
Codec ID/Info : Advanced Video Coding
Duration : 3 h 3 min
Bit rate mode : Variable
Bit rate : 4 026 kb/s
Maximum bit rate : 12.0 Mb/s
Width : 1 920 pixels
Height : 804 pixels
Display aspect ratio : 2.40:1
Frame rate mode : Variable
Frame rate : 23.976 (24000/1001) FPS
Minimum frame rate : 11.345 FPS
Maximum frame rate : 23.981 FPS
Color space : YUV
Chroma subsampling : 4:2:0
Bit depth : 8 bits
Scan type : Progressive
Bits/(Pixel*Frame) : 0.109
Stream size : 5.16 GiB (95%)
Codec configuration box : avcC

Audio
ID : 2
Format : AAC LC
Format/Info : Advanced Audio Codec Low Complexity
Codec ID : mp4a-40-2
Duration : 3 h 3 min
Bit rate mode : Variable
Bit rate : 224 kb/s
Maximum bit rate : 226 kb/s
Channel(s) : 2 channels
Channel layout : L R
Sampling rate : 44.1 kHz
Frame rate : 43.066 FPS (1024 SPF)
Compression mode : Lossy
Stream size : 294 MiB (5%)
Default : Yes
Alternate group : 1





Veliko užitkov!