A
B
C
D
E
F
G
H
I
J
K
L
M
N
O
P
Q
R
S
T
U
V
W
X
Y
Z
0-9
Defiance.S03E10.CroSub.XviD-AFG

Klikni za povečavo!
12-08-2015 20:12 naložil
Sejalci: 1 / Odjemalci: 0 / Velikost: 465.96 MB / Dokončani: 5
Prenesi torrent Poročaj torrent Opis torrenta NFO
Zvrst: Akcija | Drama | Z.F.
Kategorija: FILMI > HDTV

Ime: Defiance Season 03
Leto: 2015
Jezik: angleški
Žanr: akcija drama ZF
Podnapisi: hrvaški [cobrab], priredba cYd
Ocena:
Ratings: 7,0/10 from 27.198 users
Creators: Kevin Murphy, Rockne S. O'Bannon, Michael Taylor
Stars: Grant Bowler, Stephanie Leonidas, Julie Benz
http://www.imdb.com/title/tt2189221/
01. The World We Seize 12.06.2015
02. The Broken Bough 12.06.2015
03. History Rhymes 19.06.2015
04. Where the Apples Fell 26.06.2015
05. History Rhymes 03.07.2015
06. Where the Apples Fell 10.07.2015
07. The Beauty of Our Weapons 17.07.2015
08. My Name Is Datak Tarr and I Have Come to Kill You 24.07.2015
09. Ostinato in White 31.07.2015
...
13 Finale sezone
Bližnja prihodnost nezemljani Votani pridejo na zemljo po tem ko uničijo naš sončni sistem.
Na zemlji ne naletijo na dobrodošlico, prične se vojna, uničenje, teraformacija, ki na koncu v celoti spremeni podobo zemlje.
Po desetletjih vojne je razglašeno premirje in še včerajšnji sovražniki mora odkriti način kako živeti skupaj...
Serija se pretežno vrti okrob J. Nolana, ki se po vojni vrne vo rojstni St. Luis (sedaj Defiance) in tu postane šerif.
Defiance.S03E01E02.CroSub.HDTV.XviD-FUM

Klikni za povečavo!
17-06-2015 12:09 naložil
Sejalci: 1 / Odjemalci: 0 / Velikost: 688.42 MB / Dokončani: 5
Prenesi torrent Poročaj torrent Opis torrenta NFO
Zvrst: Akcija | Drama | Z.F.
Kategorija: FILMI > HDTV

Ime: Defiance Season 03
Leto: 2015
Velikost: 688 mb [cca]
Dolžina: 83 minut [cca]
Jezik: angleški
Žanr: akcija drama ZF
Podnapisi: hrvaški [cobrab], priredba cYd
Ocena:
Ratings: 7,0/10 from 27.198 users
Creators: Kevin Murphy, Rockne S. O'Bannon, Michael Taylor
Stars: Grant Bowler, Stephanie Leonidas, Julie Benz
http://www.imdb.com/title/tt2189221/
01. The World We Seize 12.06.2015
02. The Broken Bough 12.06.2015
03. History Rhymes 19.06.2015
04. Where the Apples Fell 26.06.2015
...
13 Finale sezone
Bližnja prihodnost nezemljani Votani pridejo na zemljo po tem ko uničijo naš sončni sistem.
Na zemlji ne naletijo na dobrodošlico, prične se vojna, uničenje, teraformacija, ki na koncu v celoti spremeni podobo zemlje.
Po desetletjih vojne je razglašeno premirje in še včerajšnji sovražniki mora odkriti način kako živeti skupaj...
Serija se pretežno vrti okrob J. Nolana, ki se po vojni vrne vo rojstni St. Luis (sedaj Defiance) in tu postane šerif.
Dark.Matter.S01E01.CGSub.HDTV.XviD-FUM

Klikni za povečavo!
14-06-2015 18:51 naložil
Sejalci: 1 / Odjemalci: 0 / Velikost: 349.08 MB / Dokončani: 9
Prenesi torrent Poročaj torrent Opis torrenta NFO
Zvrst: Drama | Triler | Z.F.
Kategorija: FILMI > HDTV

Ime: Dark Matter season 01
Leto: 2015
Velikost: 350 mb [cca]
Dolžina: 43 min [cca]
Ločljivost: 624x352 [TV]
Jezik: angleški
Žanr: drama ZF triler
Podnapisi: črnogorski [Suncani], priredba: cYd
Ocena:
Ratings: 7,4/10 from 675 users
Creators: Joseph Mallozzi, Paul Mullie, Natalie Rachel Cooper
Stars: Marc Bendavid, Melissa O'Neil, Anthony Lemke
http://www.imdb.com/title/tt4159076/
01. Episode 1 12.06.2015
02. Episode 2 19.06.2015
03. Episode 3 26.06.2015
04. Episode 4 03.07.2015
05. Episode 5 10.07.2015
06. Episode 6 17.07.2015
07. TBA
08. TBA
09. TBA
10. TBA
11. TBA
12. TBA
13. Finale sezone
Dark Matter je zgodba o dogodivščinah posadke zapuščene vesoljske ladje, ki se prebudi brez spomina o tem kdo so in kako so na ladjo prispeli.
Soočevanje z nevarnostmi na vsakem koraku jih prisili na vzajemno sodelovanje z namenom preživetja.
Potovanje polno maščevanj, izdaj in skrivnosti...
DJ VIHAR & DJ AJDA - SLO & HR MIX 40

Klikni za povečavo!
15-05-2015 19:13 naložil Ajda
Sejalci: 1 / Odjemalci: 0 / Velikost: 231.4 MB / Dokončani: 53
Prenesi torrent Poročaj torrent Opis torrenta NFO
Zvrst: Glasbeni
Kategorija: GLASBA > Glasba






INFO:
Complete name : DJ VIHAR & DJ AJDA - SLO & HR MIX 40
Format : MPEG Audio
File size : 231 MiB
Duration : 1h 40mn
Overall bit rate mode : Constant
Overall bit rate : 320 Kbps
Encoded by : Lavf52.39.0
Writing library : LAME3.98

Audio
Format : MPEG Audio
Format version : Version 1
Format profile : Layer 3
Mode : Joint stereo
Mode extension : MS Stereo
Duration : 1h 40mn
Bit rate mode : Constant
Bit rate : 320 Kbps
Channel(s) : 2 channels
Sampling rate : 48.0 KHz
Compression mode : Lossy
Stream size : 231 MiB (100%)
Writing library : LAME3.98


VSEBINA:
1.BEATTA BAND - Samo recida sam tvoj
2.MARK TIVADAR - Reci da
3.DANIJELA MARTINOVIC - Dezuraj
4.UCITELJICE _ Luda kuca
5.GRUPA BRAVO - Pati, pati
6.STJEPAN JAPAC - Poljubi je pjesmo
7.DUO ODMEV - Cutim kot ti
8.ZELJKO DVORSKI TOM - Grijeh je ne ljubiti te
9.SEDMORICA MLADIH - Jos uvek volim te
10.JURAJ GALINA - Sto te briga kako mi je
11.NALET - Rekel ji bom
12.JOZA BECAR - Dajem ti cvijet
13.BOZANKA - Andjele moj
14.AURORA BAND - Laku noc ljubavi
15.L.BRUCIC - Nek ti bude sreca sva
16.JASMINA BUC - Dej povej
17.ELITA - Ruzice, ruzo
18.SINJI GALEB - Lom
19.SASA KOVAC - Prazan mi je dom
20.ANGELO - Natoci gazda
21.SINISA ZUNEC - Da sam znao
22.LIDIJA BACIC - Neka se vino toci
23.ROMANA KRISTANEC - Sama ostala sem, a ljubim se
24.VLATKA POKOS SREBRNA KRILA - Ti si sva moja istina
25.KUMOVI - Eh da si kraj mene
26.GUPA VIGOR - Jos falis
27.TINA TRNJAR - Jaz še sanjam te oci
28.CEBO i GRUPA HOLLYWOOD - Za tvoje oci
29.JOSKO TOMICIC - Dobro jutro zlato moje
30.BOSTJAN KONECNIK - Odpri mi ljubica



DJ VIHAR & DJ AJDA - SLO & HR MIX 39

Klikni za povečavo!
05-04-2015 16:33 naložil Ajda
Sejalci: 1 / Odjemalci: 0 / Velikost: 224.69 MB / Dokončani: 46
Prenesi torrent Poročaj torrent Opis torrenta NFO
Zvrst: Glasbeni
Kategorija: GLASBA > Glasba






INFO:
Format : MPEG Audio
File size : 224 MiB
Duration : 1h 37mn
Overall bit rate mode : Constant
Overall bit rate : 320 Kbps
Encoded by : Lavf52.39.0
Writing library : LAME3.98

Audio
Format : MPEG Audio
Format version : Version 1
Format profile : Layer 3
Mode : Joint stereo
Mode extension : MS Stereo
Duration : 1h 37mn
Bit rate mode : Constant
Bit rate : 320 Kbps
Channel(s) : 2 channels
Sampling rate : 48.0 KHz
Compression mode : Lossy
Stream size : 224 MiB (100%)
Writing library : LAME3.98


MIX 39

1.NOCNI SKOK – Ribe
2.SKUPINA CALYPSO – Moja sladka ljubica
3.KUMOVI – Da mi zivot da
4.MULEC&ROPOTAR – Za eno noc zivljenja
5.NAVIHANKE – Z nami vsi norijo
6.IVAN STAPIC – Ajde cao, vidimo se
7.GRUPA VIGOR – Divna
8.MLADA POT – Ponujal sem ti nebesa
9.NINA – Nina zovu me
10.GRUPA torpedo – Sto je bilo, bilo je
11.ANDRIJA KOS & DUSA BAND – Zao mi je zao
12.IVAN ZAK – Dugujes mi ljeto
13.NIVES CELZIJUS – Lutrija
14.JASMIN STAVROS – Opet mlad
15.MEJASI – Bolje nego ikad
16.IVAN SECEN – Suze neka teku
17.SMILJAN – Tvoja oka dva
18.IVANA KOVAC – Ludilo
19.LIDIJA BACIC – Naivna sam ali nisam luda
20.FRANCE in ANITA – Ti si to
21.ZLATKO DOBRIC & VIDA SADEK – Krompircek
22.PERO PANJKOVIC – Biseri ne ljube
23.NEVEN PRASTALO – Nemam ja srce za bacanje
24.JOSKO TOMICIC – Kad ti suza ponestane
25.KORNELIJE NELLY – Andzeo sa neba
26.NEDA UKRADEN & IVAN ZAK - Tetovaza
27.DOLORES & DUSKO LOKIN – Dobro jutro dalmacijo
28.ROBERT FICKER – Mirise jutro na tvoju ljubav
29.MLADEN KOS – Ne vjeruj vinu
30.ANGELLO - Rozika


DJ VIHAR & DJ AJDA - SLO & HR MIX 38

Klikni za povečavo!
21-03-2015 16:12 naložil Ajda
Sejalci: 1 / Odjemalci: 0 / Velikost: 225.89 MB / Dokončani: 45
Prenesi torrent Poročaj torrent Opis torrenta NFO
Zvrst: Glasbeni
Kategorija: GLASBA > Glasba






INFO:
Format : MPEG Audio
File size : 225 MiB
Duration : 1h 38mn
Overall bit rate mode : Constant
Overall bit rate : 320 Kbps
Encoded by : Lavf52.39.0
Writing library : LAME3.98

Audio
Format : MPEG Audio
Format version : Version 1
Format profile : Layer 3
Mode : Joint stereo
Mode extension : MS Stereo
Duration : 1h 38mn
Bit rate mode : Constant
Bit rate : 320 Kbps
Channel(s) : 2 channels
Sampling rate : 48.0 KHz
Compression mode : Lossy
Stream size : 225 MiB (100%)
Writing library : LAME3.98


DJ VIHAR & DJ AJDA - SLO & HR MIX 38

1.MILIGRAM 3 - Vrati mi se nesreco
2.GORAN KARAN - Mali mulac
3.INES ERBUS - Moje oci plave
4.KLEMEN BUNDERLA - Na pomoc
5.PETRA KOVACEVIC - Buka galama
6.BORIS KRIVEC - Javi se
7.MARIJA SAPINA - Dugujes mi noc
8.AVANTURA - Vrni se
9.NATASA MADJAR - Daj ljubezen
10.ANTONIJA SOLA - Nezgodna
11.JASMIN STAVROS - Jos me boli ista rana
12.DOLORES - Ljubi me ljubi
13.ALEKSANDER JEZ - Rad bi nocoj pozabil te
14.GRUPA SJENE - Tko te ljubi tko te dira
15.KARME & GEZA - O, ja, o, ja
16.KOKTELSI - Ona me je busala
17.ZLATKO RIBARIC - Strankinja
18.JOLE - Remek djelo
19.STJEPAN CEBO - Zbog tebe placem
20.ZELJKO BEBEK - Gdje ce ti dusa
21.WERNER - Z vinom se veselim
22.TANJA ZAGAR - Ne cakaj me
23.GRUPA BANANA - Ni mi za
24.BEGINI - Kome da se zalim
25.LIDIJA BACIC - Kaktus
26.SEVERINA & UCITELJICE - Generale
27.KRILA - Tvoja bom
28.VLADO MARINIC - Stari decko ja cu ostat
29.BOSTJAN KONECNIK - Kriza
30.ROBERT FICKER - Andiamo



DJ VIHAR & DJ AJDA - SLO & HR MIX 37

Klikni za povečavo!
20-02-2015 19:56 naložil Ajda
Sejalci: 1 / Odjemalci: 0 / Velikost: 225.01 MB / Dokončani: 40
Prenesi torrent Poročaj torrent Opis torrenta NFO
Zvrst: Glasbeni
Kategorija: GLASBA > Glasba






INFO:
Complete name : DJ VIHAR & DJ AJDA - SLO & HR MIX 37
Format : MPEG Audio
File size : 224 MiB
Duration : 1h 37mn
Overall bit rate mode : Constant
Overall bit rate : 320 Kbps
Encoded by : Lavf52.39.0
Writing library : LAME3.98

Audio
Format : MPEG Audio
Format version : Version 1
Format profile : Layer 3
Mode : Joint stereo
Mode extension : MS Stereo
Duration : 1h 37mn
Bit rate mode : Constant
Bit rate : 320 Kbps
Channel(s) : 2 channels
Sampling rate : 48.0 KHz
Compression mode : Lossy
Stream size : 224 MiB (100%)
Writing library : LAME3.98

VSEBINA:
1.GADI - Ona
2.ROCK PARTYZANI - Nocoj pri meni druga spi
3.CALYPSO - Odklop
4.KONECNIK & DJ BOSTJAN - Moj prijatelj cvicek
5.TANJA ZAGAR - Stevilka 3
6.CUKI - Bam, bam, bam
7.4 FUN - Ne lazi mi
8.CRNA MACKA - Moj ljubi
9.MAHIR PALOS - Ruzo moja, cvijete sveli
10.ROKN BAND - Ne tezit
11.JODEL EXPRES - Jagodni izbor
12.DURDICA BARLOVIC - Ti si to, moje nesto
13.VLADO KALEMBER - Najdalje si ti
14.OPATIJSKI SUVENIRI - Ti si slika moga sna
15.TRIO RIO - Ti si moja sladka mala
16.MAKI & MILI - Nocni zivot
17.NENO PAPIC - Dovidenja Karolina
18.NATALIJA VERBOTEN - Knockout
19.ATOMIK HARMONIK - Kaj bi reku Franc Kosir
20.KORADO & BOSKO - Ledik fraj
21.DUSKO JARAMAZ - Zbog jedne ljubavi nove
22.CAPPUCCINO - Da sam cesto trijezan
23.KINGSTON - Danes je moj dan
24.TANJA ZAGAR - Dadi ladi
25.MLADEN KVESIC - Tebi ce sunce u zoru zaci
26.MEJASI - Zapjevajmo onu nasu
27.JASMIN STAVROS & UCITELJICE - Nema natrag
28.ROBERT FICKER - Vozio sam ja tu zenu
29.JELENA ROZGA - Odo ja
30.MISO KOVAC - Hajde zivote prijatelj budi




Dumb.And.Dumber.To.2014.SLOSubs.BRRip.XviD-BLiNK

Klikni za povečavo!
07-02-2015 12:15 naložil System
Sejalci: 1 / Odjemalci: 0 / Velikost: 2 GB / Dokončani: 17
Prenesi torrent Magnet Link Poročaj torrent Opis torrenta
Zvrst: Komedija
Kategorija: FILMI > BRRip
Anonimen nalagalec

Opis: Dumb And Dumber To 2014 SLOSubs BRRip XviD-tracker Dumb And Dumber To (2014)

Butec in Butec DA

Lloyd in Harry se po 20 letih podata na novo dogodivščino


iNFO:
Naziv............: Dumb.And.Dumber.To.2014.SLOSubs.BRRip.XviD-tracker
Source.........: Dumb.And.Dumber.To.2014.1080p.BluRay.x264-SPARKS
Velikost.......: 2 GB
Dolžina….....: 109 minut
Leto.............: 2014
Kodek...........: XviD
Slika.............: 720 x 384 | 2 151 kbps | 23,976 fps
Zvok.............: AC3 | 6 | 448kb/s
Jezik............: Angleški
Žanr.............:
Komedija
Podnapisi.......: Slovenski (Klemen R.)
Encoder.......: midade1
Tehnična Obdelava.......: tracker


IMDB:
Link..................: http://www.imdb.com/title/tt2096672/
Ocena................: 6,1/10 od 43.189 glasov
Režija................: Bobby Farrelly, Peter Farrelly


OPiS
Natanko dvajset let je minilo, kar smo nazadnje opazovali Lloyda in Harryja, kako se gresta slepe miši, in spremenilo se je prav vse – razen njunih inteligenčnih koeficientov.
Harry, ki potrebuje novo ledvico, izve, da ima hčerko, in mora zato Lloyda prebuditi iz "kome", v katero ga je spravila Maryjina zavrnitev, ter se z njim podati na pot, da hčer prosi za pomoč. Iskanje križem kražem po ZDA v norih prevoznih sredstvih ju iz umobolnice – kamor spadata – vodi na srečanje največjih svetovnih genijev.


iGRAJO:
Jim Carrey ... Lloyd Christmas
Jeff Daniels ... Harry Dunne
Rob Riggle ... Travis / Captain Lippincott
Laurie Holden ... Adele
Rachel Melvin ... Penny
Steve Tom ... Dr. Pinchelow
Don Lake ... Dr. Meldmann
Patricia French ... Ms. Sourpuss
Kathleen Turner ... Fraida Felcher
Bill Murray ... Ice Pick
Tembi Locke ... Dr. Walcott
Paul Blackthorne ... Dr. Meldman
Brady Bluhm ... Billy
Eddie Shin ... Gordy
Tommy Snider ... Tom


SCREENS:




Želimo vam prijeten ogled filma!
DJ VIHAR & DJ AJDA - SLO & HR MIX 36

Klikni za povečavo!
27-01-2015 18:24 naložil Ajda
Sejalci: 1 / Odjemalci: 0 / Velikost: 229.68 MB / Dokončani: 58
Prenesi torrent Poročaj torrent Opis torrenta
Zvrst: Glasbeni
Kategorija: GLASBA > Glasba





INFO:
Potpuni naziv : DJ VIHAR & DJ AJDA - SLO & HR MIX 36.mp3
Oblik datoteke : MPEG Audio
Veličina datoteke : 229 MiB
Trajanje : 1h 40min
Način ukupnog protoka podataka : Ustaljeno
Ukupni protok podataka : 320 Kbps
Kodirao : Lavf52.39.0
Kodirano pomoću knjižnice : LAME3.98

Audio
Oblik datoteke : MPEG Audio
Inačica oblika datoteke : Version 1
Profil oblika datoteke : Layer 3
Format_Settings_Mode : Joint stereo
Format_Settings_ModeExtension : MS Stereo
Trajanje : 1h 40min
Način protoka podataka : Ustaljeno
Stopa protoka podataka : 320 Kbps
Kanali : 2 kanala
Učestalost uzorkovanja : 48,0 KHz
Veličina toka : 229 MiB (100%)
Kodirano pomoću knjižnice : LAME3.98

VSEBINA:
DJ VIHAR & DJ AJDA - SLO & HR MIX 36

1.GRUPA VIGOR - Da sam ja on
2.KRILA NOČI - Zaljubljen sam draga
3.ZDRAVKO ŠKENDER - Crne oči
4.NOČNI SKOK - Stiskaj
5.CHARLIE & NAVIHANKE - Usnje nevjerne
6.POSKOČNI MUZIKANTI - Adijo madam
7.ROBERT FICKER - Moj put je dug
8.SAŠA LANDERO - Mama mia
9.TANJA ŽAGAR - Vino, vino
10.JASMIN STAVROS - Normalna
11.MEJAŠI - Zorica
12.BANANA GRUPA FT WERNER - Ne plači dušo
13.MAJA BLAGDAN - Ne bom
14.ANA i VLADO FT RAZBIJAČI ČAŠA - Ljubio bih nemam koga
15.MAMBO KINGS FT DANIJELA - Te Quero
16.LEPI CAJTI - V mojem srcu
17.CECILIJA - Ko se ljubavi napije
18.SIMONA WEISS - Dala bi vsa svoja leta
19.JANKO ROPRET - Ljubica moja lahko noč
20.MARKO MULEC - Nekoč prišel bom
21.ZLATKO DOBRIČ FT MARINA TOMAŠEVIČ - Dalmatinka
22.NEDA UKRADEN - Nema nema
23.IXES BAND - Tko zna kad
24.GRUPA BANANA - Ni mi ža
25.VANJA KUŠTRIN - Teče reka teče solza
26.FRANC GORZA - Ribica mi cuka
27.SIMON COKAN - V soboto se bom oženil
28.HARI PONČEVIČ - Di god da pođem
29.ČUDEŽNI DEČKI - Rozamunda
30.JURAJ GALINA - Na srce mi pokucaj



DJ VIHAR & DJ AJDA - SLO & HR MIX 35

Klikni za povečavo!
18-01-2015 18:17 naložil Ajda
Sejalci: 0 / Odjemalci: 1 / Velikost: 228.83 MB / Dokončani: 40
Prenesi torrent Poročaj torrent Opis torrenta NFO
Zvrst: Glasbeni
Kategorija: GLASBA > Glasba





INFO:
Format : MPEG Audio
File size : 228 MiB
Duration : 1h 39mn
Overall bit rate mode : Constant
Overall bit rate : 320 Kbps
Encoded by : Lavf52.39.0
Writing library : LAME3.98

Audio
Format : MPEG Audio
Format version : Version 1
Format profile : Layer 3
Mode : Joint stereo
Duration : 1h 39mn
Bit rate mode : Constant
Bit rate : 320 Kbps
Channel(s) : 2 channels
Sampling rate : 48.0 KHz
Compression mode : Lossy
Stream size : 228 MiB (100%)
Writing library : LAME3.98

VSEBINA:
1.ROBERT FICKER - Oprosti dušo
2.DEJAN VUNJAK - Želim želim
3.SAŠA LENDERO - Še en krog
4.LIDIJA BAČIČ - Viski
5.WERNER - Opa
6.JURAJ GALINA - Na srce mi pokucaj
7.POPnDEKL - Balerina
8.TONCI HULJIČ - Ja san rojen, da mi bude lipo
9.IVANA KOVAČ - Crno vino, crne oči
10.LIDIJA BAČIČ - Vozačka dozvola
11.DRAŽEN ZEČIČ - Tako sam sretan što te vidim
12.ČRNA MAČKA - Zorica
13.NOČNI SKOK - Bambina
14.GRUPA REMI - Prešlo mi u naviku
15.BOMBA - Mog života ti si vila
16.NENO PAPIČ - Tražim je tražim
17.TONI TEŠIJA - Ja ču tebe uvijek voljeti
18.SANJA TRUMBIČ - Sve što vrijedi
19.VANJA KUŠTRIN - S tabo zmogla bi vse
20.JUCI - Dotakni srce
21.NINA - Zašto cure boli glava
22.MEJAŠI - Zavela me ana
23.DEJAN VUNJAK - Če te poljubim
24.ELIO PISAK - Ako lažu oči moje
25.SANDI CENOV - Do tebe mi nema
26.ROBERT FICKER - Lastavice mala
27.ALEN TARABARIČ - Moja mare
28.MAGAZIN - Za jednu noč života
29.VLADO KALEMBER - Ja ne želim
30.TANJA ŽAGAR - Arriva





Dinotopija.Iskanje.rubinastega.kamna.2005.SLOSiNH.DVDRip.XviD-Route66

Klikni za povečavo!
04-01-2015 13:04 naložil
Sejalci: 0 / Odjemalci: 1 / Velikost: 700 MB / Dokončani: 13
Prenesi torrent Poročaj torrent Opis torrenta NFO
Kategorija: FILMI > Risanke



INFO:
Vir...............:
Dinotopija.Iskanje.rubinastega.kamna.2005.SLOSiNH.RETAiL.PAL.DVDR-Route66


Video kodek..........: XviD MPEG-4 codec
Video bitrate.........: 1242 Kbps
Resolucija.............: 688x512
Framerate............: 25.000 FPS
Faktor kvalitete....: 0,14 b/px

Audio kodek........: MPEG 1 or 2 Audio Layer 3 (MP3)
Audio bitrate........: 115 Kbps
Kanali...................: 2, stereo
Vzorcenje.............: 48000 Hz


Zvrst......................: Risanka
Dolzina.................: 01:12:06
Velikost................: 700 MB (734.005.248 B)
Leto......................: 2005
Jezik....................: slovenski
Podnapisi...........: /

VSEBINA:

Dozivite carobno ozracje dezele, v kateri v miru zivijo dinozavri in ljudje! Skupaj se
zoperstavijo hudobnemu Ogtharju, ki si s silo pridobi rubinasti kamen, in katerega zla moc
lahko ogrozi vso Dinotopijo in njene prebivalce!



Dj Seba Dee - Slo Turbo Mix (2014 12).mp3

16-12-2014 21:24 naložil System
Sejalci: 1 / Odjemalci: 0 / Velikost: 130.08 MB / Dokončani: 32
Prenesi torrent Poročaj torrent Opis torrenta
Zvrst: Glasbeni
Kategorija: GLASBA > Glasba
Anonimen nalagalec

V mixu Werner- Opa ,SKaTER - K Meni ali k Tebi rmx ,Nočni Skok - Ribe rmx , Atomik Harmonik - Kaj bi reku Franc Košir , Avseniki - Prijatelji, Ostanimo Prijatelji rmx , Ansambel Zajc - Všeč mi je rmx , Dejan Vunjak - Če te poljubim , Domen Kumer - Schlager Mix , Kingston - Danes Je Moj Dan (Extended Mix) , Mambo Kings ft Danijela - Te Quiero (KL3xtended Edit) , Tanja Žagar - Vino, vino rmx ,Rock Partyzani in Novi spomini - Nocoj pri meni druga spi ,Ansambel Mladika - Ne Bi Te Varala rmx , Boštjan Konečnik & DJ Boštjan - Moj prijatelj cviček
Dj Prevy & Dj Ney Slo & Cro Mix 2014 (december)

Klikni za povečavo!
15-12-2014 12:40 naložil System
Sejalci: 0 / Odjemalci: 1 / Velikost: 122.45 MB / Dokončani: 8
Prenesi torrent Poročaj torrent Opis torrenta NFO
Kategorija: GLASBA > Glasba
Anonimen nalagalec

Despicable.Me.2.2013.SLOSiNH.DVDRip.XviD-DrSi

Klikni za povečavo!
14-09-2014 17:48 naložil Ziva
Sejalci: 1 / Odjemalci: 0 / Velikost: 1.36 GB / Dokončani: 245
Prenesi torrent Poročaj torrent Opis torrenta NFO Trailer
IMDB Rating: 7.6 7.6/10 Zvrst: Risanka
Kategorija: FILMI > Risanke
http://www.imdb.com/title/tt1690953/



INFO:
Despicable Me 2 (2013)
Jaz baraba 2
Source.............. NTSC.DVDR-CCAT
Leto................. 2013
Kodek............... XviD
Slika................. 1529 kbps | 720x384 | 23.976
Zvok................. AC3 - 448 kb/s 5.1 ch
Dolžina............. 97 Minut
Jezik.................. Slovenski
Podnapisi.......... Brez
Tehnična obdelava: DVD Rippers Slovenija
Zvrst.......................: Animirani | Komedija | Družinski
IGRAJO - Glasovi:
Aljoša Koltak..............Gru (Steve Carell)
Jana Zupančič..............Lucy (Kristen Wiig)
Lena Hribar..............Margo (Miranda Cosgrove)
Zara Karoli..............Edith (Dana Gaier)
Patricia Sekelj..............Agnes (Elsie Fisher)
Primož Forte..............Dr. Nefario (Russel Brandt)
Boris Cavazza..............El Macho (Benjamin Bratt)
Boris Cavazza..............Eduardo (Benjamin Bratt)
Jernej Gašperin..............Antonio (Moises Arias)
Zvone Hribar..............Flyd (Ken Young)
KRATKA VSEBINA:
Genialni super zlobec Gru se je s posvojenimi hčerkami ustalil v mirnem predmestju in čeprav ga dolgi prsti in kriminalni um še vedno polno zaposlujejo, je povsem zadovoljen z družinskim življenjem. Toda nekega dne ga obišče agentka tajne protikriminalne agencije, ki ga želi rekrutirati v boju proti novemu super zločincu. Gruja bolj kot pomoč dobri strani jezi dejstvo, da nekdo skuša prevzeti njegovo mesto največjega zlobca, zato pristane na sodelovanje in kmalu s svojimi nenavadnimi pripomočki in še bolj čudaškimi pomočniki povzroči nezadržen kaos akcijske zabave.
Disco.ormene.2008.SLOSINH.DVDRip.XviD-BLiNK

Klikni za povečavo!
09-09-2014 15:28 naložil RoNoN
Sejalci: 0 / Odjemalci: 1 / Velikost: 1.37 GB / Dokončani: 10
Prenesi torrent Poročaj torrent Opis torrenta Trailer
IMDB Rating: 4.8 4.8/10 Zvrst: Animiran film | Družinski | Komedija
Kategorija: FILMI > Risanke
http://www.imdb.com/title/tt1087841/

Disco ormene (2008)
Disko črvi
SINHRONIZIRANO



Info:
Naziv: Disco.ormene.2008.SLOSINH.DVDRip.XviD-tracker
Source: RETAiL.DVD
Velikost.........: 1,37 GB
Dolžina..........: 75 min
Leto...............: 2008
Slika..............: 720x304 2392kbps 25fps
Zvok..............: Dolby Digital AC3 2ch 192kb/s
Kodek............: XviD
Država...........: Danska | Nemčija
Jezik..............: SLOVENSKI
Žanr...............: Animirani | Komedija | Družinski
Podnapisi........: Brez
Tehnična obdelava...: tracker


IMDb:
Link..........: http://www.imdb.com/title/tt1087841/
Ocena........: 4.8/10 (508 glasov)
Režija.........: Thomas Borch Nielsen
Scenarij.......: Morten Dragsted


Trailer:


Cast:
Glasovi: Jernej Kuntner, Miran Pibernik, Lucija Grm, Štefan Kušar,
Matija Marčina, Lija Pečnikar, Mira Berginc, Štefan Kušar, Uroš
Potočnik, Igor Potočnik




Plot:
Ni lahko biti Brane. Do deževnikov nima nihče spoštovanja, živijo na dnu
prehranjevalne verige in vse druge žuželke na dvorišču jih imajo za velike
zgube. Ni lahko živeti takšnega življenja, posebej če si poln ambicij in
velikih idej. Toda nekega dne se spotakne ob stare disko plošče in boogie
mu preide v kri. Telo se mu začne premikati in Brane izgubi nadzor. Mora
plesati! Nenadoma dojame svojo usodo - postal bo zvezda največjega disko
benda na svetu "Sončni Brane in disko črvi"!


Screens:




Želimo vam prijeten ogled risanke!

Dražen Zečič Največi hitovi MIX 2014

Klikni za povečavo!
21-08-2014 22:31 naložil Ziva
Sejalci: 0 / Odjemalci: 1 / Velikost: 439.73 MB / Dokončani: 45
Prenesi torrent Poročaj torrent Opis torrenta NFO
Zvrst: Glasbeni
Kategorija: GLASBA > Glasba



INFO;
Complete name : Dražen Zečič Največi hitovi MIX 2014.mp3
Format : MPEG Audio
File size : 440 MiB
Duration : 3h 12mn
Overall bit rate mode : Constant
Overall bit rate : 320 Kbps
Encoded by : Lavf52.39.0
Writing library : LAME3.98
Audio
Format : MPEG Audio
Format version : Version 1
Format profile : Layer 3
Mode : Joint stereo
Duration : 3h 12mn
Bit rate mode : Constant
Bit rate : 320 Kbps
Channel(s) : 2 channels
Sampling rate : 48.0 KHz
Compression mode : Lossy
Stream size : 440 MiB (100%)
Writing library : LAME3.98
Dawn.Of.The.Planet.Of.The.Apes.2014 SrbSubs.TS.XviD.MP3-RARBG

Klikni za povečavo!
27-07-2014 08:35 naložil Ziva
Sejalci: 1 / Odjemalci: 0 / Velikost: 1.69 GB / Dokončani: 30
Prenesi torrent Poročaj torrent Opis torrenta NFO Trailer
IMDB Rating: 8.3 8.3/10 Zvrst: Akcija | Drama | Z.F.
Kategorija: FILMI > WEBRip-1080
http://www.imdb.com/title/tt2103281/



INFO:
Dawn Of The Planet Of The Apes 2014 TS XviD MP3 RARBG
Jezik: English
Trajanje : 2hr 01mn | TS |
Slika: 720 x 304 | AVI |
Velikost :1.69 GB
Zvrst .: Akcija | Drama | Z.F.
Podnapisi : srbski
IGRAJO:
Andy Serkis ... Caesar
Jason Clarke ... Malcolm
Gary Oldman ... Dreyfus
Keri Russell ... Ellie
Toby Kebbell ... Koba
Kodi Smit-McPhee ... Alexander
KRATKA VSEBINA:
Rastoči populaciji gensko naprednih opic, ki jih vodi Cezar, grozi tolpa ljudi, ki so pred desetimi leti preživeli epidemijo smrtonosnega virusa. Dosežejo nestabilno premirje, ki pa ne traja dolgo, saj se nasprotni strani znajdeta na robu vojne, ki bo odločila, katera vrsta bo prevladala planetu Zemlja.


Dokumenti in pričevanja o povojnih koncentracijskih taboriščih v Sloveniji.rar

Klikni za povečavo!
23-04-2014 12:46 naložil Spartakus
Sejalci: 1 / Odjemalci: 0 / Velikost: 124.09 MB / Dokončani: 48
Prenesi torrent Poročaj torrent Opis torrenta NFO
Zvrst: Zgodovinski
Kategorija: PROGRAMI > E-Knjiga




INFO:
Dokumenti in pričevanja o povojnih koncentracijskih taboriščih v Sloveniji
Velikost: 144 MB
Jezik: Slovenia
Strani: 307
Format: PDF