A
B
C
D
E
F
G
H
I
J
K
L
M
N
O
P
Q
R
S
T
U
V
W
X
Y
Z
0-9
Dark.Matter.S03E09.BihSub.1080p.web.x264-tbs

Klikni za povečavo!
03-08-2017 16:19 naložil Reaper
Sejalci: 0 / Odjemalci: 0 / Velikost: 1.27 GB / Dokončani: 7
Prenesi torrent Poročaj torrent Opis torrenta NFO
Zvrst: Drama | Triler | Z.F.
Kategorija: FILMI > WEBRip-1080

Ocena:
Creators: Joseph Mallozzi, Paul Mullie, Natalie Rachel Cooper
Stars: Marc Bendavid, Melissa O'Neil, Anthony Lemke
Ime: Dark Matter season 03
Leto: 2017
Jezik: angleški
Žanr: drama ZF triler
Jezik : bosanski
Prevod : fAzazel
Priredba: cYd
01. Being Better is So Much Harder 09.06.2017
02. It Doesn't Have to Be Like This 09.06.2017
03. Welcome to the Revolution 16.06.2017
04. All the Time in the World 23.06.2017
05. Give It Up, Princess 30.06.2017
06. One Last Card to Play 07.07.2017
07. Wish I Could Believe You 14.07.2017
08. Hot Chocolate 21.07.2017
09. Isn’t That a Paradox? 28.07.2017
10. Built, Not Born 04.08.2017
11. The Dwarf Star Conspiracy 11.08.2017
12. My Final Gift to You 18.08.2017
13. Nowhere to Go 25.08.2017
Dark Matter je zgodba o dogodivščinah posadke zapuščene vesoljske ladje, ki se prebudi brez spomina o tem kdo so in kako so na ladjo prispeli.
Soočevanje z nevarnostmi na vsakem koraku jih prisili na vzajemno sodelovanje z namenom preživetja.
Potovanje polno maščevanj, izdaj in skrivnosti...
Dark.Matter.S03E08.BihSub.1080p.WEB.x264-tbs

Klikni za povečavo!
23-07-2017 19:01 naložil Reaper
Sejalci: 0 / Odjemalci: 0 / Velikost: 1.27 GB / Dokončani: 7
Prenesi torrent Poročaj torrent Opis torrenta NFO
Zvrst: Drama | Triler | Z.F.
Kategorija: FILMI > WEBRip-1080

Ocena:
Creators: Joseph Mallozzi, Paul Mullie, Natalie Rachel Cooper
Stars: Marc Bendavid, Melissa O'Neil, Anthony Lemke
Ime: Dark Matter season 03
Leto: 2017
Jezik: angleški
Žanr: drama ZF triler
Jezik : bosanski
Prevod : fAzazel
Priredba: cYd
01. Being Better is So Much Harder 09.06.2017
02. It Doesn't Have to Be Like This 09.06.2017
03. Welcome to the Revolution 16.06.2017
04. All the Time in the World 23.06.2017
05. Give It Up, Princess 30.06.2017
06. One Last Card to Play
07. Wish I Could Believe You
08. Hot Chocolate
09. Isn’t That a Paradox?
10. Built, Not Born
11. The Dwarf Star Conspiracy
12. My Final Gift to You
13. Nowhere to Go
Dark Matter je zgodba o dogodivščinah posadke zapuščene vesoljske ladje, ki se prebudi brez spomina o tem kdo so in kako so na ladjo prispeli.
Soočevanje z nevarnostmi na vsakem koraku jih prisili na vzajemno sodelovanje z namenom preživetja.
Potovanje polno maščevanj, izdaj in skrivnosti...
Dark.Matter.S03E07.BihSub.1080p.WEB.x264-tbs

Klikni za povečavo!
16-07-2017 14:35 naložil Reaper
Sejalci: 0 / Odjemalci: 0 / Velikost: 1.27 GB / Dokončani: 5
Prenesi torrent Poročaj torrent Opis torrenta NFO
Zvrst: Drama | Triler | Z.F.
Kategorija: FILMI > WEBRip-1080

Ocena:
Creators: Joseph Mallozzi, Paul Mullie, Natalie Rachel Cooper
Stars: Marc Bendavid, Melissa O'Neil, Anthony Lemke
Ime: Dark Matter season 03
Leto: 2017
Jezik: angleški
Žanr: drama ZF triler
Jezik : bosanski
Prevod : fAzazel
Priredba: cYd
01. Being Better is So Much Harder 09.06.2017
02. It Doesn't Have to Be Like This 09.06.2017
03. Welcome to the Revolution 16.06.2017
04. All the Time in the World 23.06.2017
05. Give It Up, Princess 30.06.2017
06. One Last Card to Play
07. Wish I Could Believe You
08. Hot Chocolate
09. Isn’t That a Paradox?
10. Built, Not Born
11. The Dwarf Star Conspiracy
12. My Final Gift to You
13. Nowhere to Go
Dark Matter je zgodba o dogodivščinah posadke zapuščene vesoljske ladje, ki se prebudi brez spomina o tem kdo so in kako so na ladjo prispeli.
Soočevanje z nevarnostmi na vsakem koraku jih prisili na vzajemno sodelovanje z namenom preživetja.
Potovanje polno maščevanj, izdaj in skrivnosti...
Denial 2016 CroSubs 1080p BrRip x264 VPPV

Klikni za povečavo!
16-07-2017 12:08 naložil Ziva
Sejalci: 0 / Odjemalci: 0 / Velikost: 2.61 GB / Dokončani: 4
Prenesi torrent Poročaj torrent Opis torrenta NFO
Zvrst: Biografija | Drama
Kategorija: FILMI > BRRip



Denial 2016 1080p BrRip x264 VPPV
Language(s): English
1hr 50mn | 1080p BrRip | 1920 x 804 | Matroska | 2.61 GB
Genre(s): Biography | Drama
IMDb : http://www.imdb.com/title/tt4645330/

Podnapisi: hrvaški


Rachel Weisz ... Deborah Lipstadt
Tom Wilkinson ... Richard Rampton
Timothy Spall ... David Irving
Andrew Scott ... Anthony Julius
Jack Lowden ... James Libson
Caren Pistorius ... Laura Tyler


Acclaimed writer and historian Deborah E. Lipstadt must battle for historical truth to prove the Holocaust actually occurred when David Irving, a renowned denier, sues her for libel.



Dag II 2016 SrbSubs 720p WEBRip x264 AC3

Klikni za povečavo!
12-07-2017 10:44 naložil Ziva
Sejalci: 0 / Odjemalci: 0 / Velikost: 2.91 GB / Dokončani: 5
Prenesi torrent Poročaj torrent Opis torrenta NFO
Zvrst: Drama | Vojni | Zgodovinski
Kategorija: FILMI > WEBRip



Dag II 2016 720p WEBRip x264 AC3
Language(s): Turkish
2hr 09mn | 720p WEBRip | 1280 x 544 | Matroska | 2.91 GB
Genre(s): Drama | History | War
IMDb : http://www.imdb.com/title/tt5813916/

Podnapisi : srbski

Ozan Agaç ... Ciya
Bedii Akin ... Boran
Murat Arkin ... Staff Sergeant Arif Sayar
Eylül Arular ... Enegül
Ufuk Bayraktar ... Specialist Bekir Özbey


In a desolate war zone where screams of the innocent echo, on the very line between disaster and valor, 7 Maroon Berets will dance with death.



Dark.Matter.S03E06.BihSub.1080p.web.x264-tbs

Klikni za povečavo!
10-07-2017 19:50 naložil Reaper
Sejalci: 0 / Odjemalci: 0 / Velikost: 1.65 GB / Dokončani: 6
Prenesi torrent Poročaj torrent Opis torrenta NFO
Zvrst: Drama | Triler | Z.F.
Kategorija: FILMI > WEBRip-1080

Ocena:
Creators: Joseph Mallozzi, Paul Mullie, Natalie Rachel Cooper
Stars: Marc Bendavid, Melissa O'Neil, Anthony Lemke
Ime: Dark Matter season 03
Leto: 2017
Jezik: angleški
Žanr: drama ZF triler
Jezik : bosanski
Prevod : fAzazel
Priredba: cYd
01. Being Better is So Much Harder 09.06.2017
02. It Doesn't Have to Be Like This 09.06.2017
03. Welcome to the Revolution 16.06.2017
04. All the Time in the World 23.06.2017
05. Give It Up, Princess 30.06.2017
06. One Last Card to Play
07. Wish I Could Believe You
08. Hot Chocolate
09. Isn’t That a Paradox?
10. Built, Not Born
11. The Dwarf Star Conspiracy
12. My Final Gift to You
13. Nowhere to Go
Dark Matter je zgodba o dogodivščinah posadke zapuščene vesoljske ladje, ki se prebudi brez spomina o tem kdo so in kako so na ladjo prispeli.
Soočevanje z nevarnostmi na vsakem koraku jih prisili na vzajemno sodelovanje z namenom preživetja.
Potovanje polno maščevanj, izdaj in skrivnosti...
DJ VIHAR & DJ AJDA - SLO & HR MIX 51

Klikni za povečavo!
07-07-2017 16:41 naložil Ajda
Sejalci: 1 / Odjemalci: 1 / Velikost: 237.81 MB / Dokončani: 70
Prenesi torrent Poročaj torrent Opis torrenta NFO
Zvrst: Glasbeni
Kategorija: GLASBA > Glasba




*******************************************************************************

\\\ ///
@/ _ _ \@
( (o) (o) )
==oOOO==(_)====OOOo====
~ www.ViDEOTEKA.org ~
=========== Oooo.====
( ) .oooO )
/
( ) (_/
\ ( \_)
*******************************************************************************
~ DJ VIHAR & DJ AJDA - SLO & HR MIX 51 ~
*******************************************************************************

-------------------------------------------------------------------------------
Avdio in Video podatki
-------------------------------------------------------------------------------
General
Complete name :DJ VIHAR & DJ AJDA - SLO & HR MIX 51.mp3
Format : MPEG Audio
File size : 237 MiB
Duration : 1 h 43 min
Overall bit rate mode : Constant
Overall bit rate : 320 kb/s
Encoded by : Lavf52.39.0
Writing library : LAME3.98

Audio
Format : MPEG Audio
Format version : Version 1
Format profile : Layer 3
Mode : Joint stereo
Duration : 1 h 43 min
Bit rate mode : Constant
Bit rate : 320 kb/s
Channel(s) : 2 channels
Sampling rate : 48.0 kHz
Compression mode : Lossy
Stream size : 237 MiB (100%)
Writing library : LAME3.98
--------------------------------------------------------------------------------------
*** Vsebina ***
--------------------------------------------------------------------------------------

MIX- 51

01. REBEKA DREMELJ - Vse je OK
02. UČITELJICE in DJ MATEO - Tako se to radi
03. ČUKI - Ruzak
04. INES ERBUS - torpedo
05. TARAPANA - Ona spava
06.ZDRAVKO ČOLIČ - Mala
07.DANIJELA MARTINOVIČ - Nemam namjeru
08.BOŠTJAN DIRNBEK - Potepuh v tvojem srcu
09.GADI - Ljubim te
10.KOKTELSI - Zvijezde domače estrade
11.DEJAN VUNJAK - Tina daj umakni telefon
12.BARABE in SAŠA LENDERO - Mišolovka
13.ZDRAVKO ŠKENDER - Ludo ljeto
14.DANIJEL POPOVIČ - Joj joj Esma
15.ANDREA PAŠKVAN - Najljebše na svijetu boje
16.ANDREJ IKICA - Super zvezda
17.KLAPA RIŠPET - Šta mi ljube očeš kazat
18.LJUBAVNICI - Ti si što mi treba
19.TANJA ŽAGAR - Mala sobica
20.JELENA KULIŠ DŽOJA - Dok sviraju tambure
21.DARE KAURIC in ANIKA HORVAT - Naj ostane hrepenenje
22.DITKA - Po poljube
23.TONČI in MADRE BADESSA -Feat BOBY - Ja bi da san opet mali
24.LUKA NIZETIČ - Lagano
25.ANTONIJA ŠOLA - Dok slušam radio
26.ZDRAVKO ŠKENDER - Slovenka
27.LIDIJA BAČIČ in LUKA BASI - Solo
28.MATE BULIČ - I ja sam čovjek
29.LJUBAVNICI - Hladne ruke
30.TARAPANA - Vidim te u bjelom


Dark.Matter.S03E05.BihSub.1080p.web.x264-tbs

Klikni za povečavo!
03-07-2017 09:55 naložil Reaper
Sejalci: 0 / Odjemalci: 0 / Velikost: 1.27 GB / Dokončani: 5
Prenesi torrent Poročaj torrent Opis torrenta NFO
Zvrst: Drama | Triler | Z.F.
Kategorija: FILMI > WEBRip-1080

Ocena:
Creators: Joseph Mallozzi, Paul Mullie, Natalie Rachel Cooper
Stars: Marc Bendavid, Melissa O'Neil, Anthony Lemke
Ime: Dark Matter season 03
Leto: 2017
Jezik: angleški
Žanr: drama ZF triler
Jezik : bosanski
Prevod : fAzazel
Priredba: cYd
01. Being Better is So Much Harder 09.06.2017
02. It Doesn't Have to Be Like This 09.06.2017
03. Welcome to the Revolution 16.06.2017
04. All the Time in the World 23.06.2017
05. Give It Up, Princess 30.06.2017
06. One Last Card to Play
07. Wish I Could Believe You
08. Hot Chocolate
09. Isn’t That a Paradox?
10. Built, Not Born
11. The Dwarf Star Conspiracy
12. My Final Gift to You
13. Nowhere to Go
Dark Matter je zgodba o dogodivščinah posadke zapuščene vesoljske ladje, ki se prebudi brez spomina o tem kdo so in kako so na ladjo prispeli.
Soočevanje z nevarnostmi na vsakem koraku jih prisili na vzajemno sodelovanje z namenom preživetja.
Potovanje polno maščevanj, izdaj in skrivnosti...
Detour.2016.SLOSubs.BRRip.XviD-DrSi

Klikni za povečavo!
26-06-2017 11:04 naložil Ziva
Sejalci: 0 / Odjemalci: 0 / Velikost: 2.11 GB / Dokončani: 4
Prenesi torrent Poročaj torrent Opis torrenta NFO
Zvrst: Triler
Kategorija: FILMI > BRRip



Naziv: Detour.2016.SLOSubs.BRRip.XviD-DrSi
Source: Detour.2016.720p.BluRay.DD5.1.x264-PriMaLHD
Leto izida .........: 2016
Velikost ...........: 2,10 GB
Dolžina ............: 97 Minut
Video ...............: 2635 Kbps | 720x304 | 24 fps
Zvok .................: Dolby Digital AC3 5.1 @ 448 Kbps
Kodek.................: XviD
Zvrst………….: Triler
Država .............: VB | Južna Afrika
Jezik ................: Angleški
Podnapisi .........: Slovenski (RETAiL)
Prevod: Mediatranslations
Priredil: metalcamp
Tehnična obdelava: DVD Rippers Slovenija

IMDb Info .........: http://www.imdb.com/title/tt4372390/


Režija.........: Christopher Smith
Scenarij.......: Christopher Smith


Emory Cohen ... Johnny Ray
Tye Sheridan ... Harper
Stephen Moyer ... Vincent
Bel Powley ... Cherry
John Lynch ... Frank
Jared Abrahamson ... Paul
Gbenga Akinnagbe ... Michael
Sibongile Mlambo ... MGM Receptionist
Reine Swart ... Claire (waitress)
Jenna Saras ... MGV Barlady


Mladi študent prava Harper sumi, da je očim kriv za avtomobilsko nesrečo, po kateri
je njegova mati v komi. Žalost utaplja v žganju in nepremišljeno sklene dogovor z
moškim, ki se ponudi, da bo ubil njegovega očima.

Študent prava in vsesplošno prijeten, pošten mladenič Harper sumi, da je njegov
zahrbtni očim Vincent odgovoren za avtomobilsko nesrečo, ki je njegovo mater potisnila
v komo. Nekega večera utaplja žalost v zakotnem baru v Los Angelesu, ko k njemu
pristopi mladenič robato kmetavzarskega videza Johnny Ray. Ponudi mu, da bo "poskrbel"
za njegovega očima v zameno za plačilo 20.000 dolarjev. Jezen, poln maščevalne zamere
in opogumljen z alkoholom Harper sklene dogovor ter preostanek večera preživi v
pijančevanju z Johnnyjem Rayem. Naslednje jutro se Harper zbudi z največjim mačkom
v svojem življenju in bežnim spominom na dogodke prejšnjega večera. Na njegova vrata
potrka in presenečen jih odpre Johnnyju Rayu ter njegovi čedni in samosvoji punci Cherry,
ki sta pripravljena na vožnjo v Las Vegas, kjer bosta izpolnila dogovor. Harper se
izgovarja, da je bil pijan in se je odločil prenagljeno, vendar se Johnny Ray ne da
pregovoriti: podnevi je videti le še bolj hladno in zastrašujoče. Harper ugotovi,
da se bo težko izmotal iz tega; če hoče preživeti, nima druge možnosti kot to,
da sodeluje v načrtu.





Dark.Matter.S03E04.BihSub.1080p.1080p.WEB.x264-TBS

Klikni za povečavo!
26-06-2017 11:01 naložil Reaper
Sejalci: 0 / Odjemalci: 0 / Velikost: 1.27 GB / Dokončani: 5
Prenesi torrent Poročaj torrent Opis torrenta NFO
Zvrst: Drama | Triler | Z.F.
Kategorija: FILMI > WEBRip-1080

Ocena:
Creators: Joseph Mallozzi, Paul Mullie, Natalie Rachel Cooper
Stars: Marc Bendavid, Melissa O'Neil, Anthony Lemke
Ime: Dark Matter season 03
Leto: 2017
Jezik: angleški
Žanr: drama ZF triler
Jezik : bosanski
Prevod : fAzazel
Priredba: cYd
01. Being Better is So Much Harder 09.06.2017
02. It Doesn't Have to Be Like This 09.06.2017
03. Welcome to the Revolution 16.06.2017
04. All the Time in the World 23.06.2017
05. Give It Up, Princess 30.06.2017
06. One Last Card to Play
07. Wish I Could Believe You
08. Hot Chocolate
09. Isn’t That a Paradox?
10. Built, Not Born
11. The Dwarf Star Conspiracy
12. My Final Gift to You
13. Nowhere to Go
Dark Matter je zgodba o dogodivščinah posadke zapuščene vesoljske ladje, ki se prebudi brez spomina o tem kdo so in kako so na ladjo prispeli.
Soočevanje z nevarnostmi na vsakem koraku jih prisili na vzajemno sodelovanje z namenom preživetja.
Potovanje polno maščevanj, izdaj in skrivnosti...
Dragonheart.3.The.Sorcerers.Curse.2015.SLOSubs.BRRip.XviD-DrSi

Klikni za povečavo!
24-06-2017 08:02 naložil Ziva
Sejalci: 0 / Odjemalci: 0 / Velikost: 2.1 GB / Dokončani: 7
Prenesi torrent Poročaj torrent Opis torrenta NFO
Kategorija: FILMI > BRRip



Naziv: Dragonheart.3.The.Sorcerers.Curse.2015.SLOSubs.BRRip.XviD-DrSi
Source: Dragonheart.3.The.Sorcerers.Curse.2015.720p.BluRay.DTS.x264-FTO
Leto izida .........: 2015
Velikost ...........: 2,10 GB
Dolžina ............: 93 Minut
Video ...............: 2637 Kbps | 720x400 | 23,976 fps
Zvok .................: Dolby Digital AC3 5.1 @ 448 Kbps
Kodek.................: XviD
Zvrst………….: Domišljijski | Pustolovski
Država .............: ZDA
Jezik ................: Angleški
Podnapisi .........: Slovenski (RETAiL)
Za HD priredil in uredil: metalcamp
Tehnična obdelava: DVD Rippers Slovenija
Režija.........: Colin Teague
Scenarij.......: Matthew Feitshans


Ben Kingsley ... Drago (voice)
Julian Morris ... Gareth
Tamzin Merchant ... Rhonu
Jassa Ahluwalia ... Lorne
Jonjo O'Neill ... Brude
Jake Curran ... Traevor
Dominic Mafham ... Sir Horsa
Christopher Fairbank ... Potter
Ozama Oancea ... Begilda
Harry Lister Smith ... Kalin


Mladi oproda Gareth išče padli komet, v katerem se menda skriva zlato,
vendar namesto tega najde zmaja Draga. Potem ko mu žival reši življenje,
se njuni usodi ključno prepleteta in skupaj bosta morala premagati
zlobnega čarodeja.

Mladi oproda Gareth išče padli komet, v katerem se menda skriva zlato,
s katerim bi si rad kupil viteški naziv. Namesto bogastva pa najde
zmaja Draga, ki je padel na zemljo in ga lovi zlobni čarodej. Po tem,
ko zmaj reši življenje Garethu, se njuni usodi ključno prepleteta
in skupaj bosta morala premagati zlobneža ter končati njegovo strahovlado.
Med potjo Gareth spozna, kaj v resnici pomeni viteštvo.
Film prinaša fantazijsko-akcijsko pustolovščino, primerno za vse starosti.


Dark.Matter.S03E03.BihSub.1080p.WEB-DL.DD5.1.H264-RARBG

Klikni za povečavo!
20-06-2017 17:35 naložil Reaper
Sejalci: 0 / Odjemalci: 0 / Velikost: 1.64 GB / Dokončani: 6
Prenesi torrent Poročaj torrent Opis torrenta NFO
Zvrst: Drama | Triler | Z.F.
Kategorija: FILMI > WEBRip-1080

Ocena:
Creators: Joseph Mallozzi, Paul Mullie, Natalie Rachel Cooper
Stars: Marc Bendavid, Melissa O'Neil, Anthony Lemke
Ime: Dark Matter season 03
Leto: 2017
Jezik: angleški
Žanr: drama ZF triler
Jezik : bosanski
Prevod : fAzazel
Priredba: cYd
01. Being Better is So Much Harder 09.06.2017
02. It Doesn't Have to Be Like This 09.06.2017
03. Welcome to the Revolution 16.06.2017
04. All the Time in the World 23.06.2017
05. Give It Up, Princess 30.06.2017
06. One Last Card to Play
07. Wish I Could Believe You
08. Hot Chocolate
09. Isn’t That a Paradox?
10. Built, Not Born
11. The Dwarf Star Conspiracy
12. My Final Gift to You
13. Nowhere to Go
Dark Matter je zgodba o dogodivščinah posadke zapuščene vesoljske ladje, ki se prebudi brez spomina o tem kdo so in kako so na ladjo prispeli.
Soočevanje z nevarnostmi na vsakem koraku jih prisili na vzajemno sodelovanje z namenom preživetja.
Potovanje polno maščevanj, izdaj in skrivnosti...
Dark.Matter.S03E02.BihSub.1080p.WEB.x264-HEAT

Klikni za povečavo!
15-06-2017 14:35 naložil Reaper
Sejalci: 0 / Odjemalci: 0 / Velikost: 1.27 GB / Dokončani: 9
Prenesi torrent Poročaj torrent Opis torrenta NFO
Zvrst: Drama | Triler | Z.F.
Kategorija: FILMI > WEBRip-1080

Ocena:
Creators: Joseph Mallozzi, Paul Mullie, Natalie Rachel Cooper
Stars: Marc Bendavid, Melissa O'Neil, Anthony Lemke
Ime: Dark Matter season 03
Leto: 2017
Jezik: angleški
Žanr: drama ZF triler
Jezik : bosanski
Prevod : fAzazel
Priredba: cYd
01. Being Better is So Much Harder 09.06.2017
02. It Doesn't Have to Be Like This 09.06.2017
03. Welcome to the Revolution 16.06.2017
04. All the Time in the World 23.06.2017
05. Give It Up, Princess 30.06.2017
06. One Last Card to Play
07. Wish I Could Believe You
08. Hot Chocolate
09. Isn’t That a Paradox?
10. Built, Not Born
11. The Dwarf Star Conspiracy
12. My Final Gift to You
13. Nowhere to Go
Dark Matter je zgodba o dogodivščinah posadke zapuščene vesoljske ladje, ki se prebudi brez spomina o tem kdo so in kako so na ladjo prispeli.
Soočevanje z nevarnostmi na vsakem koraku jih prisili na vzajemno sodelovanje z namenom preživetja.
Potovanje polno maščevanj, izdaj in skrivnosti...
Dark.Matter.S03E01.BihSub.1080p.WEB.x264-HEAT

Klikni za povečavo!
15-06-2017 14:27 naložil Reaper
Sejalci: 0 / Odjemalci: 0 / Velikost: 1.27 GB / Dokončani: 9
Prenesi torrent Poročaj torrent Opis torrenta NFO
Zvrst: Drama | Triler | Z.F.
Kategorija: FILMI > WEBRip-1080

Ocena:
Creators: Joseph Mallozzi, Paul Mullie, Natalie Rachel Cooper
Stars: Marc Bendavid, Melissa O'Neil, Anthony Lemke
Ime: Dark Matter season 03
Leto: 2017
Jezik: angleški
Žanr: drama ZF triler
Jezik : bosanski
Prevod : fazazel
Priredba: cYd
01. Being Better is So Much Harder 09.06.2017
02. It Doesn't Have to Be Like This 09.06.2017
03. Welcome to the Revolution 16.06.2017
04. All the Time in the World 23.06.2017
05. Give It Up, Princess 30.06.2017
06. One Last Card to Play
07. Wish I Could Believe You
08. Hot Chocolate
09. Isn’t That a Paradox?
10. Built, Not Born
11. The Dwarf Star Conspiracy
12. My Final Gift to You
13. Nowhere to Go
Dark Matter je zgodba o dogodivščinah posadke zapuščene vesoljske ladje, ki se prebudi brez spomina o tem kdo so in kako so na ladjo prispeli.
Soočevanje z nevarnostmi na vsakem koraku jih prisili na vzajemno sodelovanje z namenom preživetja.
Potovanje polno maščevanj, izdaj in skrivnosti...
Drone 2017 CroSubs 720p WEB DL XviD AC3 FGT

Klikni za povečavo!
14-06-2017 10:46 naložil Ziva
Sejalci: 1 / Odjemalci: 0 / Velikost: 2.24 GB / Dokončani: 19
Prenesi torrent Poročaj torrent Opis torrenta NFO
Zvrst: Triler
Kategorija: FILMI > XviD



Drone 2017 720p WEB DL XviD AC3 FGT
Language(s): English
1hr 29mn | 720p WEB DL | 1280 x 538 | AVI | 2.23 GB
Genre(s): Thriller
IMDb : http://www.imdb.com/title/tt5352846/

Podnapisi : hrvaški


Sean Bean ... Neil Wistin
Patrick Sabongui ... Imir Shaw
Mary McCormack ... Ellen Wistin
Maxwell Haynes ... Shane Wistin


Ideologies collide with fatal results when a military drone contractor meets an enigmatic Pakistani businessman.



Dragonheart.Battle.for.the.Heartfire.2017.1080p.BluRay.x264-ROVERS

Klikni za povečavo!
07-06-2017 18:28 naložil System
Sejalci: 1 / Odjemalci: 0 / Velikost: 7.65 GB / Dokončani: 1
Prenesi torrent Poročaj torrent Opis torrenta
Kategorija: FILMI > WEBRip-1080
Anonimen nalagalec

Dragonheart.Battle.for.the.Heartfire.2017.1080p.BluRay.x264-ROVERS


Actors:
Patrick Stewart , Tom Rhys Harries , Jessamine-Bliss Bell , Tamzin Merchant , André Eriksen , Richard Cordery , Martin Hutson , Delroy Brown , Turlough Convery ,
Lewis Mackinnon , Marte Germaine Christensen , Ørjan Gamst , Daniel Berge Halvorsen , Stig Frode Henriksen , Elijah Ungvary

Plot: Patrick Stewart voices Drago| the magnificent dragon who became bonded with King Gareth. When the king dies| his potential heirs| twin grandchildren who possess the
dragon's unique strengths| use their inherited powers against each other to vie for the throne. When Drago's source of power - known as the Heartfire - is stolen|
more than the throne is at stake; the siblings must end their rivalry with swords and sorcery or the kingdom may fall.


Format : Matroska
Format version : Version 4 / Version 2
File size : 7.64 GiB
Duration : 1h 37mn
Overall bit rate : 11.2 Mbps
Encoded date : UTC 2017-06-07 05:25:03
Writing application : mkvmerge v8.3.0 ('Over the Horizon') 64bit
Writing library : libebml v1.3.1 + libmatroska v1.4.2
DURATION : 01:37:45.110000000
NUMBER_OF_FRAMES : 549854
NUMBER_OF_BYTES : 1106306248
_STATISTICS_WRITING_APP : mkvmerge v8.3.0 ('Over the Horizon') 64bit
_STATISTICS_WRITING_DATE_UTC : 2017-06-07 05:25:03
_STATISTICS_TAGS : BPS DURATION NUMBER_OF_FRAMES NUMBER_OF_BYTES

Video
ID : 1
Format : AVC
Format/Info : Advanced Video Codec
Format profile : High@L4.1
Format settings, CABAC : Yes
Format settings, ReFrames : 4 frames
Codec ID : V_MPEG4/ISO/AVC
Duration : 1h 37mn
Bit rate : 9 697 Kbps
Width : 1 920 pixels
Height : 1 080 pixels
Display aspect ratio : 16:9
Frame rate mode : Constant
Frame rate : 23.976 fps
Color space : YUV
Chroma subsampling : 4:2:0
Bit depth : 8 bits
Scan type : Progressive
Bits/(Pixel*Frame) : 0.195
Stream size : 6.46 GiB (85%)
Writing library : x264 core 150 r2829 d1fe6fd
Encoding settings : cabac=1 / ref=4 / deblock=1:0:0 / analyse=0x3:0x133 / me=umh / subme=7 / psy=1 / psy_rd=1.00:0.00 / mixed_ref=1 / me_range=16 / chroma_me=1 / trellis=1 / 8x8dct=1 / cqm=0 / deadzone=21,11 / fast_pskip=0 / chroma_qp_offset=-2 / threads=12 / lookahead_threads=2 / sliced_threads=0 / nr=0 / decimate=1 / interlaced=0 / bluray_compat=0 / constrained_intra=0 / bframes=3 / b_pyramid=2 / b_adapt=1 / b_bias=0 / direct=1 / weightb=1 / open_gop=0 / weightp=2 / keyint=250 / keyint_min=23 / scenecut=40 / intra_refresh=0 / rc_lookahead=40 / rc=2pass / mbtree=1 / bitrate=9697 / ratetol=1.0 / qcomp=0.60 / qpmin=0 / qpmax=69 / qpstep=4 / cplxblur=20.0 / qblur=0.5 / ip_ratio=1.40 / aq=1:1.00
Language : English
Default : Yes
Forced : No
DURATION : 01:37:45.077000000
NUMBER_OF_FRAMES : 140621
NUMBER_OF_BYTES : 7097905618
_STATISTICS_WRITING_APP : mkvmerge v8.3.0 ('Over the Horizon') 64bit
_STATISTICS_WRITING_DATE_UTC : 2017-06-07 05:25:03
_STATISTICS_TAGS : BPS DURATION NUMBER_OF_FRAMES NUMBER_OF_BYTES

Audio
ID : 2
Format : DTS
Format/Info : Digital Theater Systems
Mode : 16
Format settings, Endianness : Big
Codec ID : A_DTS
Duration : 1h 37mn
Bit rate mode : Constant
Bit rate : 1 509 Kbps
Channel(s) : 6 channels
Channel positions : Front: L C R, Side: L R, LFE
Sampling rate : 48.0 KHz
Bit depth : 24 bits
Compression mode : Lossy
Stream size : 1.03 GiB (13%)
Language : English
Default : Yes
Forced : No

Menu
00:00:00.000 : en:00:00:00.000
00:03:39.344 : en:00:03:39.344
00:07:40.502 : en:00:07:40.502
00:13:19.298 : en:00:13:19.298
00:19:46.602 : en:00:19:46.602
00:24:57.621 : en:00:24:57.621
00:30:13.186 : en:00:30:13.186
00:35:54.652 : en:00:35:54.652
00:39:54.350 : en:00:39:54.350
00:45:37.109 : en:00:45:37.109
00:48:57.560 : en:00:48:57.560
00:51:23.831 : en:00:51:23.831
00:56:22.588 : en:00:56:22.588
01:00:07.979 : en:01:00:07.979
01:06:41.873 : en:01:06:41.873
01:14:41.602 : en:01:14:41.602
01:19:00.486 : en:01:19:00.486
01:22:40.998 : en:01:22:40.998
01:29:40.625 : en:01:29:40.625
01:34:10.687 : en:01:34:10.687

DJ VIHAR & DJ AJDA - SLO & HR MIX 50

Klikni za povečavo!
01-05-2017 15:08 naložil Ajda
Sejalci: 0 / Odjemalci: 1 / Velikost: 239.04 MB / Dokončani: 76
Prenesi torrent Poročaj torrent Opis torrenta NFO
Kategorija: GLASBA > Glasba





INFO :
Format : MPEG Audio
File size : 239 MiB
Duration : 1 h 44 min
Overall bit rate mode : Constant
Overall bit rate : 320 kb/s
Encoded by : Lavf52.39.0
Writing library : LAME3.98

Audio
Format : MPEG Audio
Format version : Version 1
Format profile : Layer 3
Mode : Joint stereo
Duration : 1 h 44 min
Bit rate mode : Constant
Bit rate : 320 kb/s
Channel(s) : 2 channels
Sampling rate : 48.0 kHz
Compression mode : Lossy
Stream size : 239 MiB (100%)
Writing library : LAME3.98

VSEBINA:

MIX- 50

01.ZDRAVKO ŠKENDER - Ne ide to tako
02.BARABE - Živjeli mladenci
03.NUŠA ROJS - Pomosna gasilka
04.POP DESIGN - Vzela si moje srce
05.DARUS DESPOT - Kraljica noči
06.MIA - Bezimeni
07.ROBERT FICKER - Sladka tajna
08.AGROPOP & FRANČEK - Če hočeš moja bit
09.MALIBU - Dobri stari časi
10.KLAPA SKALA & DARJA GAJŠEK - Mala barka
11.ALEN NIZETIČ - Ja sam te volio
12.FOSSILY BAND - E da si moja
13.LUKA NIZETIČ - Ne ne ne da da da
14.ČUDEŽNI DEČKI - Ne obsojajte jo
15.ŽELJKO BEBEK - Ono nešto naše
16.ZAKA PA NE - Malo nora sva
17.DARKO DUŠA - Oprosti
18.SKATER - Ta tamala
19.ANS. ROKA ŽLINDRE - Pogrešam te
20.MACAO BAND - Moja rano
21.JASMIN STAVROS - Mare moja
22.LIDIJA BAČIČ - Glupacho moja
23.DAVOR RADOLFI - Sanjao sam da te vozim
24.DRAŽEN ZEČIČ - Ona novo ljubav ima
25.MIROSLAV ŠKORO & VIGOR - Merak
26.PIRATI - Rane imam
27.TONČI & MADRE BADESSA - No stress
28.IVAN ZAK - Ničija
29.MODRIJANI - Digidi
30.WERNER & KLAPA LAVANDA - Tam nekje





Diaz.Dont.Clean.Up.This.Blood.2012.SLOSubs.BRRip.XviD-DrSi

Klikni za povečavo!
14-04-2017 11:44 naložil Ziva
Sejalci: 0 / Odjemalci: 0 / Velikost: 2.51 GB / Dokončani: 3
Prenesi torrent Poročaj torrent Opis torrenta NFO
Zvrst: Drama
Kategorija: FILMI > BRRip



Naziv: Diaz.Dont.Clean.Up.This.Blood.2012.SLOSubs.BRRip.XviD-DrSi
Source: Diaz.Dont.Clean.Up.This.Blood.2012.720p.BluRay.DTS.x264-PublicHD
Leto izida .........: 2012
Velikost ...........: 2,50 GB
Dolžina ............: 120 Minut
Video ...............: 2531 Kbps | 720x304 | 24 fps
Zvok .................: Dolby Digital AC3 5.1 @ 448 Kbps
Kodek.................: XviD
Država .............: Italija | Romunija | Francija
Zvrst………….: Drama
Jezik ................: Italijanski | Nemški | Francoski | Angleški
Podnapisi .........: Slovenski (RETAiL)
Prevod: Igor Divjak
Za HD priredil: metalcamp
Tehnična obdelava: DVD Rippers Slovenija

IMDb Info .......: http://www.imdb.com/title/tt1934234/


Scenarij: Daniele Vicari
Režija: Daniele Vicari


Claudio Santamaria ... Max Flamini
Jennifer Ulrich ... Alma Koch
Elio Germano ... Luca Gualtieri
Davide Iacopini ... Marco
Ralph Amoussou ... Etienne
Fabrizio Rongione ... Nick Janssen
Renato Scarpa ... Anselmo Vitali
Mattia Sbragia ... Armando Carnera
Antonio Gerardi ... Achille Faleri
Paolo Calabresi ... Francesco Scaroni
Francesco Acquaroli ... Vinicio Meconi
Alessandro Roja ... Marco Cerone


Rekonstrukcija dogodkov iz Genove leta 2001, ko je med protiglobalizacijskimi
protesti skupina policistov nasilno napadla miroljubne udeležence.

Mladi protestniki so se ob vrhu skupine G8 zbrali v šoli Diaz Pascoli. Sredi noči
doživijo presenečenje. Oborožena policijska enota vdre v stavbo in jih dve uri
brutalno pretepa. Iz različnih pogledov na tragični dogodek izvemo resnico o
žalostnem dnevu italijanske in evropske demokracije.



Dark.Places.2015.SLOSubs.720p.BRRip.XviD-DrSi

Klikni za povečavo!
06-03-2017 13:20 naložil Ziva
Sejalci: 1 / Odjemalci: 0 / Velikost: 3.4 GB / Dokončani: 8
Prenesi torrent Poročaj torrent Opis torrenta NFO
Kategorija: FILMI > BRRip



Naziv: Dark.Places.2015.SLOSubs.720p.BRRip.XviD-DrSi
Source: Dark.Places.2015.MultiSubs.BluRay.1080p.DTS-HD.MA-5.1.x264-DrSi

Leto .........: 2015
Velikost .....: 3,40 GB
Dolžina ......: 112 min.
Video ........: 3 870 Kbps | 1280x534 | 24 fps | XviD
Zvok .........: Dolby Digital AC3 5.1 @ 448 Kbps
Jezik ........: Angleški
Režija........: Gilles Paquet-Brenner
Scenarij......: Gilles Paquet-Brenner po romanu Gillian Flynn
Produkcija....: Exclusive Media Group, Mandalay Vision, Cuatro Plus Films
Žanr..........: Drama | Misterij | Triler
Država .......: VB | Francija | ZDA
Podnapisi.....: Slovenski | Prevod: CUSTOM (Lorelei Conscreor)
Popravil in uredil: metalcamp
Tehnična obdelava DVD Rippers Slovenija

IMDb Link........: http://www.imdb.com/title/tt2402101/



Charlize Theron ... Libby Day
Sterling Jerins ... Young Libby Day
Nicholas Hoult ... Lyle Wirth
Christina Hendricks ... Patty Day
Corey Stoll ... Ben Day
Tye Sheridan ... Young Ben Day
Andrea Roth ... Diondra
Chloë Grace Moretz ... Young Diondra
Sean Bridgers ... Runner Day
J. LaRose ... Trey Teepano


Libby je v mladosti preživela grozovit pokol svoje družine, ki naj bi ga zagrešil
njen brat. Ker jo 25 let kasneje grozljive podobe iz preteklosti še vedno preganjajo,
sprejme ponudbo nenavadne združbe amaterskih preiskovalcev, ki želijo razrešiti
skrivnosti takratne tragedije. Prepričani, da Libbyjin brat ni morilec, se skupaj
z njo vrnejo na kraj zločina in kmalu naletijo na številne nenavadne sledi. Libby
se je prisiljena soočiti s svojo preteklostjo, vendar utegne biti razkritje resnice
še bolj boleče in grozljivo.






Dansing 3 [2016] By Vitaly 72

Klikni za povečavo!
16-02-2017 07:24 naložil System
Sejalci: 0 / Odjemalci: 0 / Velikost: 232.56 MB / Dokončani: 4
Prenesi torrent Poročaj torrent Opis torrenta
Kategorija: GLASBA > Glasba
Anonimen nalagalec

Year Of Release: 2016
Compilation: Vitaly 72
Genre: Italo Disco
Quality: 320 kbps
Time: 01:41:03 min
Total Size: 232 Mb

01. Systems In Blue - Go Systems Go
02. Malcom & The Bad Girls - No Heaven For The Bad Girls
03. Max Tailor - Chasing Stars (Alexander Pierce Remix)
04. MS Project - Voyage Voyage
05. Stylove - Lady In The Night
06. Steve Burbon Project Feat. Mirko Hirsch - The Vibe (Extended Mix)
07. Prima Balerina - Forever (Alexander Pierce Remix)
08. Joy Peters - Asian Heart (Maxi Version)
09. Exciting Valence - The Way To You
10. MrDo Re Mi - My Own Robot (Vocal Version)
11. Estimado - I Miss You (feat. Valerio Biagi) [Extended Version]
12. Yuri Sosnin - Digital Dance
13. M.D.Project - Pelican - Dont You Know(M.D.Project Italo Disco remix 2016)
14. Casanova - Angel Eyes
15. Duke Lake - Do You
16. Valerie Dore - Get Closer
17. Cliff Turner - Moonlight Affair (12`` Version)
18. Tess - Cry Away
19. Energy Voice - Baby Goodbye
20. Alexis Voice - Black Clouds
Dansing 2 [2016] By Vitaly 72

Klikni za povečavo!
16-02-2017 07:16 naložil System
Sejalci: 0 / Odjemalci: 0 / Velikost: 173.54 MB / Dokončani: 4
Prenesi torrent Poročaj torrent Opis torrenta
Kategorija: GLASBA > Glasba
Anonimen nalagalec

Year Of Release: 2016
Compilation: Vitaly 72
Genre: Italo Disco
Quality: 192-320 kbps
Time: 01:26:37 min
Total Size: 173 Mb


01. Casanova - Summertime (Long Version)
02. Danuta - Touch My Heart
03. Ironic Remark - Rebirth ( Extended Version 1985 )
04. The Winners - Freedom
05. Eddy Huntington - Hey Senorita (Spanish Version)
06. Savage - Goodbye
07. Cheryl Hardy - It Takes A Lifetime
08. D. White - One Wish (Extended Mix)
09. Grant Miller - Wings Of Love
10. Mike Bow - Best Shot (Extended Version)
11. Mozzart - Malice And Vice
12. Mirko Hirsch - Queen Of Ice (Club Italo Chwaster Mix)
13. Marcel De Van - High Energy (Extended Version)
14. Roger Meno - I Find The Way
15. June Grand - Shy Girl
Dansing 1 [2016] By Vitaly 72

Klikni za povečavo!
15-02-2017 09:02 naložil System
Sejalci: 0 / Odjemalci: 0 / Velikost: 701.84 MB / Dokončani: 6
Prenesi torrent Poročaj torrent Opis torrenta
Kategorija: GLASBA > Glasba
Anonimen nalagalec

Year Of Release: 2016
Compilation: Vitaly 72
Genre: Eurodance,Dance,Disco,Pop
Quality: 320 kbps
Time: 05:27:28 min
Total Size: 701 Mb

01. Mark Ashley - Stop In The Name Of Love (Maxi Mix)
02. Cristina Manzano - Stay With Me (Original Mix)
03. Blue Star Project - Stay The Night (Radio Edit)
04. 1ST HEAVENUE - Leonardo Da Vinci (The 2nd Single Maxi Edit)
05. Michael Marty - Just Like ?n ?ngel
06. Blue Star Project - Stay The Night (Original)
07. 1st Heavenue - Take Your Chance - Single Version
08. Fresh Fox - No Goodbye
09. Modern Clubbing - Cheri Cheri Lady [ Tory Kay Remix ]
10. Modern Talking - Everybody Need Somebody (Ravel Extended Mix)
11. New Collective - Dwa Magiczne Cienie
12. Skynight Avenue - Last Fight Of The Vampires (Transylvanian Maxi Mix)
13. 1 st Heavenue - Single Mix
14. Alan Barry - Innocent
15. Blue System - Love Me On The Rocks (Atlantis09 Remix)
16. Modern Talking - Do You Wanna (PioneerStudio Extended Mix)
17. Wilde Herzen - Die Nummer 1
18. Thomas Anders - Take The Chance
19. Skynight Avenue - Eppur Si Muove [Maxi Version]
20. Eurotix - We Could Have Been
21. Moving Heroes - Angel's Dream
22. Betty Miranda - Take Me To the Top (Extended)
23. Blue System - G.T.O ( After Hours Mix)
24. Ken Laszlo - Fantasy
25. Thomas Anders feat ??????? - No Ordinary Love
26. Lian Ross - Say You'll Never
27. Modern Talking - You're My Heart, You're My Soul (Special U.K. Remix)
28. Tonschatz - Magic Energy (Extended Club Mix)
29. 1st Heavenue - Take your Chance (Extended Long Fox Mix Version)
30. Aldo Lesina - Romance (Disco Mix)
31. Hazell Dean - Who's Leaving Who (Boys are Back In Town Mix)
32. Francois Valery - Tous les (I Love You) (Radio Edit)
33. Nea! - See The Light (Endlich Frei)
34. Elen Cora - Astronomers in China
35. Danny Keith - One More Time (Extended)
36. Mark Ashley - Just We Two (Mona Lisa) [Long Version]
37. Thomas Anders - Make You DJ Shevtsov Remix )
38. Chito - Cold As Ice (TDHDriver version)
39. Cristina Manzano - Only Dreams (Original Mix)
40. David Lyme - Playboy (Jose Remix)
41. M-Tracking - Give Me Your Hand
42. Joy Peters - The Passion Of Love
43. Modern Talking - Geronimos Cadillac (Maxitune Remix)
44. Kerstin Merlin - Heute Nacht
45. Thomas Anders feat. Maxitune - Machine Girl
46. Beatrice Egli - Aus Verseh'n Verliebt
47. Systems In Blue - Go Systems Go (Radio Version)
48. Martin Rolinski - In And Out of Love
49. D.J. Savage - First Mix
50. Eurotix - The Best of Times
51. Mark Ashley - Baby Blue (Extended Version)
52. Nora Louisa - Komm flieg mit mir
53. New Collective - Mala Lady
54. Danny - Play It For The Girls
55. Tonschatz - Carpe Diem (Maxi Version)
56. Fresh Fox - In The Line Of Fire
57. Wolkenfrei - Sos Prinzessin In Not
58. Thomas Anders - Lunatic (Extended Version)
59. T.m.-Joy - You Are My Life (Single Edit)
60. Marco Lessentin feat. Systems - Summer (Single Version )
Dirty Lies 2016 CroSubs HDRip x264 AC3

Klikni za povečavo!
12-02-2017 18:19 naložil Ziva
Sejalci: 0 / Odjemalci: 1 / Velikost: 1.19 GB / Dokončani: 12
Prenesi torrent Poročaj torrent Opis torrenta NFO
Zvrst: Akcija | Drama | Kriminalka
Kategorija: FILMI > HDRip



Dirty Lies 2016 HDRip x264 AC3
Language(s): English
1hr 23mn | HDRip | 720 x 384 | Matroska | 1.19 GB
Genre(s): Action | Crime | Drama
IMDb : http://www.imdb.com/title/tt3449322/

Podnapisi : hrvaški


Mark L. Young ... Josh
Scout Taylor-Compton ... Stacey
Tania Raymonde ... Amber
Beau Knapp ... Viggs
Lili Simmons ... Michelle
Jesse Medeles ... Del


An under-appreciated intern entrusted with a million dollar necklace races to find out which of his money hungry room-mates betrayed him as he battles a desperate criminal duo bent on stealing.



DJ VIHAR & DJ AJDA - SLO & HR MIX 49

Klikni za povečavo!
09-02-2017 15:01 naložil Ajda
Sejalci: 0 / Odjemalci: 0 / Velikost: 188.42 MB / Dokončani: 71
Prenesi torrent Poročaj torrent Opis torrenta NFO
Kategorija: GLASBA > Glasba




INFO:
Format : MPEG Audio
File size : 188 MiB
Duration : 1 h 21 min
Overall bit rate mode : Constant
Overall bit rate : 320 kb/s
Encoded by : Lavf52.39.0
Writing library : LAME3.98

Audio
Format : MPEG Audio
Format version : Version 1
Format profile : Layer 3
Mode : Joint stereo
Duration : 1 h 21 min
Bit rate mode : Constant
Bit rate : 320 kb/s
Channel(s) : 2 channels
Sampling rate : 48.0 kHz
Compression mode : Lossy
Stream size : 188 MiB (100%)
Writing library : LAME3.98

VSEBINA:
01. IVANA KOVAC - Ako si musko
02. PETAR GRASO – Ne znam zase
03. JOLE & LUKA BASI – Nisam ja od juce
04. LEO – U dobrim rukama
05. HERVIN JAKONCIC – Beli golob
06. MODRIJANI - Rock me
07. MAKI - Zameli te snjegovi
08. ERAZEM - Bejbe iz obale
09. DEJAN VUNJAK - Nocoj bo lustno
10. OKEJ - Milijon razlogov
11. CUDEZNI DECKI - Ce bi ti dala mi
12. SREBRNA KRILA - Jos da mi te jednom ljubiti
13. BRALIC & INTRADE - Ne mogu te prestat jubit
14. ANS.ME TRI DO POLNOCI - Nasmeh ne gre nikoli iz mode
15. DARKO DUSA - Oprosti
16. MELITA BRUCIC - Nema vise ni kraljice ni kralja
17. BOSTJAN DIRNBEK - Nisam ti ja
18. SIJEPAN JAPAC - Zvijezda najveca
19. IGOR DELAC - Samo ljubav
20. HOORUK - Sol na moju ranu
21. UCITELJICE - Na stanu
22. MARKO SKUGOR _ Samo ti
23. MARINA TOMASEVIC - Tvoj sam kralj
24. ZVITA FELTNA - Ljubice
25. VILI RESNIK - Ne




Die dunkle Seite des Mondes 2015 SrbSubs 720p BRRip x264 MkvCage

Klikni za povečavo!
03-02-2017 13:21 naložil Ziva
Sejalci: 0 / Odjemalci: 0 / Velikost: 850.48 MB / Dokončani: 1
Prenesi torrent Poročaj torrent Opis torrenta NFO
Zvrst: Triler
Kategorija: FILMI > BRRip



Die dunkle Seite des Mondes 2015 720p BRRip x264 MkvCage
Language(s): German
1hr 38mn | 720p BRRip | 1280 x 536 | Matroska | 850 MB
Genre(s): Thriller
IMDb : http://www.imdb.com/title/tt1726252/


Podnapisi : srbski


Jürgen Prochnow ... Pius Ott
Moritz Bleibtreu ... Urs Blank
Nora von Waldstätten ... Lucille
André Hennicke ... Joe
Yves Robert Schaaf ... Fluri's son


A psychedelic mushroom trip turns a successful lawyer into a wanted man.