A
B
C
D
E
F
G
H
I
J
K
L
M
N
O
P
Q
R
S
T
U
V
W
X
Y
Z
0-9
Dr.Strange.2016.SLOSUB.DVDScr.XVID.AC3.HQ.Hive-CM8

Klikni za povečavo!
25-01-2017 13:04 naložil Ziva
Sejalci: 0 / Odjemalci: 0 / Velikost: 1.67 GB / Dokončani: 17
Prenesi torrent Poročaj torrent Opis torrenta NFO
Zvrst: Akcija | Pustolovski | Z.F.
Kategorija: FILMI > XviD



Video: 720x304 bitrate 1800 2pass
Audio: English AC3 Stereo
Sample: yes included
Zvrst: pustolovski, akcijski ZF
IMDb : http://www.imdb.com/title/tt1211837/

Podnapisi : slovenski


Benedict Cumberbatch ... Dr. Stephen Strange
Chiwetel Ejiofor ... Mordo
Rachel McAdams ... Christine Palmer
Benedict Wong ... Wong
Mads Mikkelsen ... Kaecilius
Tilda Swinton ... The Ancient One


Marvel's "Doctor Strange" follows the story of the talented neurosurgeon Doctor Stephen Strange who, after a tragic car accident, must put ego aside and learn the secrets of a hidden world of mysticism and alternate dimensions. Based in New York City's Greenwich Village, Doctor Strange must act as an intermediary between the real world and what lies beyond, utilising a vast array of metaphysical abilities and artifacts to protect the Marvel Cinematic Universe.


Demolition.2015.SLOSubs.DVDRip.XviD-DrSi

Klikni za povečavo!
24-01-2017 12:36 naložil Ziva
Sejalci: 1 / Odjemalci: 0 / Velikost: 1.37 GB / Dokončani: 6
Prenesi torrent Poročaj torrent Opis torrenta NFO
Zvrst: Drama
Kategorija: FILMI > DVDRip



Naziv: Demolition.2015.SLOSubs.DVDRip.XviD-DrSi
Source: Demolition.2015.RETAIL.HUN.PAL.DVD9-SNERZ

Leto .........: 2015
Velikost .....: 1,37 GB
Dolžina ......: 96 min.
Video ........: 1 582 Kbps | 720x304 | 25 fps | XviD
Zvok .........: Dolby Digital AC3 5.1 @ 448 Kbps
Jezik ........: Angleški
Režija........: Jean-Marc Vallée
Scenarij......: Bryan Sipe
Produkcija....: Black Label Media, Mr. Mudd, Right of Way Films
Žanr..........: Drama
Država .......: ZDA
Podnapisi.....: Slovenski | Prevod: RETAiL
Tehnična obdelava DVD Rippers Slovenija

IMDb Link........: http://www.imdb.com/title/tt1172049/



Jake Gyllenhaal ... Davis
Naomi Watts ... Karen
Chris Cooper ... Phil
Judah Lewis ... Chris
C.J. Wilson ... Carl
Polly Draper ... Margot
Malachy Cleary ... Davis' Dad
Debra Monk ... Davis' Mom
Heather Lind ... Julia
Wass Stevens ... Jimmy


Demolition je drama o uspešnem investicijskem bankirju Davisu (Jake Gyllenhaal),
ki se mu svet postavi na glavo, ko mu v prometni nesreči pred očmi umre žena.
Kljub pritisku njegovega zeta Phila (Chris Cooper), da se vendarle sestavi,
Davis tone vedno globlje. Iz osamljene pritožbe zaradi pokvarjenega avtomata
za hrano v bolnišnici, se to sprevrže v dopisovanje vredno dveh zaljubljencev,
njegova pisma, ki so v resnici klic na pomoč, pa pritegnejo pozornost Karen
(Naomi Watts), ki je v podjetju zadolžena za stranke. Med njima in njenim sinom
(Judah Lewis) se splete nepričakovana vez. In s tem Davis začne graditi novo
življenje, ki pa se začne šele z uničenjem (metaforičnim in fizičnim) življenja,
ki ga je nekoč poznal.






Deepwater Horizon 2016 SloSubs 1080p BluRay x264 DTS-JYK

Klikni za povečavo!
11-01-2017 12:39 naložil Ziva
Sejalci: 0 / Odjemalci: 0 / Velikost: 2.7 GB / Dokončani: 17
Prenesi torrent Poročaj torrent Opis torrenta NFO
Zvrst: Akcija | Triler
Kategorija: FILMI > WEBRip-1080



Format.......: Matroska
File Size....: 2.70 GiB
Duration.....: 1h 47mn
Bitrate......: 755 Kbps
Channels.....: 6 channels
Bitrate......: 3 607 Kbps
Frame Rate...: 23.976 fps
Width........: 1 920 pixels
Height.......: 800 pixels
Language.....: English
Subtitles....: Slovenski (malimuc - Hvala !)

IMDB....... http://www.imdb.com/title/tt1860357/

Katastrofa na Horizontu
Deepwater Horizon akcijski triler

Leto: 2016
Država: ZDA
Jezik: angleščina
Scenarij: Matthew Michael Carnahan, Matthew Sand po članku Davida Rohdea in Stephanie Saul
Režija: Peter Berg


Mark Wahlberg, Kurt Russell, John Malkovich, Gina Rodriguez, Dylan O'Brien, Kate Hudson, Ethan Suplee


Režiser spektaklov Hancock, Bojna ladja in Edini preživeli predstavlja resnično zgodbo o katastrofalnem požaru na vrtalni ploščadi v Mehiškem zalivu, ki je povzročil največje razlitje nafte v zgodovini ZDA. Običajni družinski človek Mike je eden najbolj marljivih delavcev na ploščadi, kjer pod vodstvom izkušenega delovodje Jimmyja v iskanju nafte poskušajo vrtati vedno globlje v morsko dno. Kljub opozorilom o možnih nevarnostih, brezkompromisni nadzornik Vidrine zahteva, naj čim hitreje nadaljujejo z delom, toda nepričakovana eksplozija spremeni ploščad v goreči pekel. Mike skuša po najboljših močeh pomagati sodelavcem, vendar ognjeni zublji ves čas tudi njemu strežejo po življenju.




Der.Nachtmahr.2015.SLOSubs.BRRip.XviD-DrSi

Klikni za povečavo!
09-01-2017 13:22 naložil Ziva
Sejalci: 1 / Odjemalci: 0 / Velikost: 1.9 GB / Dokončani: 7
Prenesi torrent Poročaj torrent Opis torrenta NFO
Zvrst: Drama | Skrivnosten
Kategorija: FILMI > BRRip



Naziv: Der.Nachtmahr.2015.SLOSubs.BRRip.XviD-DrSi
Source: Der.Nachtmahr.2015.1080p.BluRay.x264-USURY
Leto izida .........: 2015
Velikost ...........: 1,90 GB
Dolžina ............: 91 Minut
Video ...............: 2517 Kbps | 720x304 | 23,976 fps
Zvok .................: Dolby Digital AC3 5.1 @ 448 Kbps
Kodek.................: XviD
Zvrst………….: Drama | Misterij
Država .............: Nemčija
Jezik ................: Nemški
Podnapisi .........: Slovenski (RETAiL)
Prevod: Mediatranslations
Za HD priredil metalcamp
Tehnična obdelava: DVD Rippers Slovenija

IMDb Info .......: http://www.imdb.com/title/tt3141498/


Režija.........: Achim Bornhak (as Akiz)
Scenarij.......: Achim Bornhak (as Akiz)


Carolyn Genzkow ... Tina
Sina Tkotsch ... Barbara
Wilson Gonzalez ... Adam
Arnd Klawitter ... Tinas Vater
Julika Jenkins ... Tinas Mutter
Aram Arami ... Rashid
Michael Epp ... Polizist Schonrath
Lynn Femme ... Monika



Po celonočni zabavi v dvorcu s plavalnim bazenom začne najstnica Tina doživljati
čudne izkušnje: privide ter mučne in nelagodne zvoke. Doma jo preganja skrivnostna
pojava, ki jo lahko vidi le ona.

Šestnajstletna Tina (Carolyn Genzkow) je samo še ena izmed mnogih najstnic v skupini
vrstnikov, ki se ponoči odkradejo od doma, hodijo na raverske zabave in preizkušajo
številne prepovedane opojne snovi v družbi fantov. Po neki posebej naporni noči
zabave v dvorcu s plavalnim bazenom si začne Tina po svoje razlagati podobe, ki jih
je zabeležil njen mobilni telefon. Zbudi se s čudno majhno pojavo ob sebi, ki jo
poslej spremlja povsod in jo lahko vidi le ona. Nihče drug ne doživlja tega, starši
ji ne verjamejo, psiholog pa ji predlaga, naj se sooči s tem bitjem in ga vpraša,
kaj pravzaprav hoče od nje. Tina uboga nasvet in v čudnem pojavu nazadnje odkrije
bolj prijatelja kakor sovražnika. Vendar gre za odnos, ki bo Tino spremenil
do nerazpoznavnosti.




Dark.Angel.2016.S01.SrbSubs.720p.hdtv.x264

Klikni za povečavo!
04-01-2017 11:45 naložil Reaper
Sejalci: 0 / Odjemalci: 0 / Velikost: 2.82 GB / Dokončani: 1
Prenesi torrent Poročaj torrent Opis torrenta NFO
Zvrst: Drama | Triler
Kategorija: FILMI > WEBRip-720

Ime : Dark Angel
Sezona : 01
Leto : 2016
Jezik : angleški
Žanr : drama - triler
Jezik : srbski - latinica
Prevod : gale
Priredba: cYd
Ocena : (424 users)
Stars: Joanne Froggatt, Alun Armstrong, Isla McMonigle
URL : IMDb
1.Episode 1 31.10.2016
2.Episode 2 07.11.2016
Mari An Koton (Joanne Froggatt) potuje po deželi in zastruplja ljudi pri tem pa ne pušča vidnih sledov. Viktorijanska družba si niti ne predstavlja, da obstaja ženska sposobna tako gnusnih zočinov.
Pri potovanju po podeželju se uspešno vključuje v navadne družine po potrebi tudi poroči in ustvari novo družino ampak potem jim pa pobere ves denar in jih hladnokrvno ubije.
Deepwater.Horizon.2016.CroSub.HDRip.XviD.AC3-EVO

Klikni za povečavo!
01-01-2017 08:02 naložil Reaper
Sejalci: 0 / Odjemalci: 0 / Velikost: 1.36 GB / Dokončani: 22
Prenesi torrent Poročaj torrent Opis torrenta NFO
Zvrst: Drama | Triler
Kategorija: FILMI > HDRip

Ime : Deepwater Horizon
Leto : 2016
Jezik : angleški
Žanr : drama - triler
Jezik : hrvaški
Prevod : mauroe
Priredba: cYd
Ocena : (35.196 users)
Director: Peter Berg
Writers: Matthew Michael Carnahan (screenplay), Matthew Sand (screenplay)
Stars: Mark Wahlberg, Kurt Russell, Douglas M. Griffin
URL : IMDb
20. aprila 2010 se je v Mehiškem zalivu zgodila ena največjih katastrof, kar jih je povzročil človek.
Film sledi odločilnemu dogajanju, ki ga mnogi morda niso zaznali: zgodbi 126 članov moštva na naftni ploščadi Deepwater Horizon, ki so tisti dan opravljali delo in tam ostali ujeti v najgrozovitejših okoliščinah.
Izkušeni in izurjeni delavci in delavke, ki so prišli na naporno delo v upanju, da se po koncu vrnejo v svoje družine in življenja na obali, so se v trenutku morali soočiti z najbolj viharno uro v svojem življenju, ob kateri so morali zbrati ves pogum in se spopasti z neustavljivim ognjenim peklom sredi oceana ter – ko se je zdelo že prav vse izgubljeno – reševati eden drugega.
Deepwater Horizon, globinska vrtalna ploščad ob obali ameriške zvezne države Louisiana, je ob uničujočem udarcu, ognju in domala neustavljivem puščanju nafte iz razpoke na oceanskem dnu pritegnila pozornost celotnega sveta. Kar 87 dni so milijoni s srci v grlu spremljali, kako na površje Mehiškega zaliva vre za prek 50 tisoč sodov nafte. Na koncu se je izkazalo, da je šlo za najhujše razlitje v zgodovini človeštva. Že tako občutljivi morski ekosistem je visel na nitki, v nevarnosti je bilo delo in preživetje mnogih in začela so se pojavljati vse glasnejša vprašanja o resnični ceni in nevarnostih črpanja nafte v velikih globinah.
Dirty.Weekend.2015.SLOSubs.WEBRip.XviD-metalcamp

Klikni za povečavo!
18-12-2016 13:24 naložil Ziva
Sejalci: 0 / Odjemalci: 0 / Velikost: 1.9 GB / Dokončani: 14
Prenesi torrent Poročaj torrent Opis torrenta NFO
Zvrst: Drama | Komedija
Kategorija: FILMI > WEBRip



Naziv: Dirty.Weekend.2015.SLOSubs.WEBRip.XviD-metalcamp
Source: Dirty.Weekend.2015.720p.WEBRIP.x264.AC3-EVE
Leto izida .........: 2015
Velikost ...........: 1,90 GB
Dolžina ............: 116 Minut
Video ...............: 2399 Kbps | 720x400 | 23,976 fps
Zvok .................: Dolby Digital AC3 5.1 @ 448 Kbps
Kodek.................: XviD
Zvrst………….: Komedija | Drama
Država .............: ZDA
Jezik ................: angleški
Podnapisi .........: Slovenski (RETAiL -vgrajeni)
Prevod: Mediatranslations
Priredil: metalcamp
Tehnična obdelava: DrSi

IMDb Info .......: http://www.imdb.com/title/tt3194590/


Režija.........: Neil LaBute
Scenarij.......: Neil LaBute


Matthew Broderick ... Les Moore
Alice Eve ... Natalie Hamilton
Phil Burke ... Cabbie
Gia Crovatin ... Dylan
Monique Candelaria ... Dark Haired Beauty
Charles Duran ... Vince
Fredrick Lopez ... Proprietor
Matthew Page ... Bartender


Ko obtičita na letališču, se sodelavca Les in Natalie spoznata bolje, kot sta mislila,
da je to mogoče. Drug drugemu zaupata svoje najbolj umazane skrivnosti. Odpravita se
v mesto po poti samoodkrivanja.

Sodelavca Les (Matthew Broderick) in Natalie (Alice Eve) zaradi zamude nepričakovano
obtičita na letališču v Albuquerqueu. Les je nemiren in živčen ter ne more več prenašati
delavcev, ki jih srečuje na vsakem koraku, zato se odpravi v mesto. Natalie ga noče
zapustiti in sčasoma odkrije, da ima njegovo na videz brezciljno tavanje v resnici
nekatere koristne učinke. Tako kot on ima tudi Natalie nekatere umazane skrivnosti
in nihče od njiju ne more več dolgo molčati. Nenadejano se zbližata in spoznata bolje,
kot sta mislila, da je to sploh mogoče, in kmalu na najbolj nenavadnih krajih skupaj
iščeta iskrice vznemirjenja.




Duell.der.Bruder.2016.SLOSubs.TVRip.XviD-metalcamp

Klikni za povečavo!
13-12-2016 19:51 naložil Ziva
Sejalci: 0 / Odjemalci: 0 / Velikost: 2.11 GB / Dokončani: 11
Prenesi torrent Poročaj torrent Opis torrenta NFO
Kategorija: FILMI > TVRip



Naziv: Duell.der.Bruder.2016.SLOSubs.TVRip.XviD-metalcamp
Source: DVB-T (Cinemax)
Leto izida .........: 2016
Velikost ...........: 2,10 GB
Dolžina ............: 116 Minut
Video ...............: 2399 Kbps | 720x400 | 25 fps
Zvok .................: Dolby Digital AC3 2.0 @ 192 Kbps
Kodek.................: XviD
Zvrst………….: Biografski | Zgodovinski | Drama
Država .............: Nemčija
Jezik ................: nemški
Podnapisi .........: Slovenski (RETAiL)
Prevod: Mediatranslations
Priredil: metalcamp
Tehnična obdelava: DrSi

IMDb Info .......: http://www.imdb.com/title/tt5013980/


Režija.........: Vohn Regensburger
Scenarij.......: Vohn Regensburger


Ken Duken ... Adi Dassler
Torben Liebrecht ... Rudi Dassler
Jesse Albert ... Karl
Nadja Becker ... Friedl
Henk Buchholz ...Armin Dassler
David C. Bunners ... Josef Waitzer
Merle Collet ... Erika
Alexander Cudreasov ... Ferenc Puskás
Lars Doppler ... Bürgermeister Herzogenaurach
Christoph Gareisen ... Sepp Herberger
Annina Hellenthal ... Inge


Po resnični zgodbi med letoma 1924 in 1954 posneti film spremlja življenje,
delo in razdor nemških bratov Adolfa in Rudolfa Dasslerja, ki sta ustanovila
poslovna imperija športnih rekvizitov Adidas in Puma.

Sveta športa si ni mogoče predstavljati brez bratov Dassler. V majhnem nemškem mestu
sta živela Adolf "Adi" Dassler in njegov brat Rudolf, sila različna po značaju in
tako rekoč tudi vsem drugem. Edina stvar, glede katere sta se strinjala, je bilo njuno
življenjsko poslanstvo, da bi izdelala popolno športno obuvalo. Brata se idealno
dopolnjujeta, saj je Adi domiselni izumitelj, Rudi pa rojeni poslovnež – a kaj,
ko imata skupno tudi neko slabost: ženske. Ljubosumje se vname, ko Adijeva iznajdljiva
soproga sklene delati v podjetju, medtem ko se Rudi oklepa tradicije. Nesporazumi
vodijo v spor in ta naposled privede v propad podjetja. Brata se razideta in postaneta
tekmeca.





DJ VIHAR & DJ AJDA - SLO & HR MIX 48

Klikni za povečavo!
10-12-2016 17:59 naložil Ajda
Sejalci: 1 / Odjemalci: 0 / Velikost: 305.75 MB / Dokončani: 91
Prenesi torrent Poročaj torrent Opis torrenta NFO
Kategorija: GLASBA > Glasba






*******************************************************************************
~ DJ VIHAR & DJ AJDA - SLO & HR MIX 48 ~
*******************************************************************************

Avdio in Video podatki


Complete name : DJ VIHAR & DJ AJDA - SLO & HR MIX 48
Format : MPEG Audio
File size : 305 MiB
Duration : 2 h 13 min
Overall bit rate mode : Constant
Overall bit rate : 320 kb/s
Encoded by : Lavf52.39.0
Writing library : LAME3.98

Audio
Format : MPEG Audio
Format version : Version 1
Format profile : Layer 3
Mode : Joint stereo
Duration : 2 h 13 min
Bit rate mode : Constant
Bit rate : 320 kb/s
Channel(s) : 2 channels
Sampling rate : 48.0 kHz
Compression mode : Lossy
Stream size : 305 MiB (100%)
Writing library : LAME3.98


*** Vsebina ***


01. NATAŠA MADJAR - varaj varaj
02. RUSKO RICHIE - s tobom
03. JASMIN STAVROS - vino nek se toči
04. SKUPINA CALYPSO - skok v morje
05. FRENK NOVA IN BUNDERLA - sladko vino
06. NUŠA ROJS - ko pijem se napijem
07. STJEPAN JAPEC - godine me nisu žalile
08. NINA DONELLI - propala veza
09. NAVIHANKE - mr.perfect
10. SKATER - doktorji za žur
11. ZVITA FELTNA - katrina
12. GOSPODARI TAMBURA - lažu
13. UČITELJICE - karamela
14. SKUPINA TEGUILA - vse mi je ok
15. 101KA - Ljubice moje
16. MANCA ŠPIK in KVARTOPIRCI - pesem
17. FREDI MILER - do jutra
18. MLADEN GRDOVIC - bolis me ljubavi
19. DARJA GAJŠEK - kako pogreša te srce
20. SKUPINA KU ADN - morja ni
21. BOSTJAN KONECNIK - gospodicna
22. VLADIMIR KOČIŠ - otkada te volim
23. VIGOR - gdje si sada pile moje
24. NENAD KUMRIC CHARLIE - ako moja draga pita za mene
25. LEXINGTON - nema sanse
26. PRAVILA IGRE - na tvojim usnama
27. DAVOR RADOLFI IN RITMO LOCO - poljubi me za sečanje
28. TOMISLAV RUBINIČ - i po danu i po noču
29. IVAN ZAK - za ljubav rodeni
30. TANJA ŽAGAR - nina nana
31. COTO LJUBICA ŠPELA IN JASNA - trije petelini
32. BARABE - zvrc zvrc
33. GRDOVIČ KLAPA MUNITA - ostavljam vas moji najdraži
34. COTO PLESTENJAK MODRIJANI POSKOČNI - kok nam je luštn
35. DRAGULJI - idi sada srečo moja
36. BLANKA SMOLJIČ IN MEJAŠI - mala ane
37. DAVOR RADOLFI IN RITMO LOCO - za rodjen dan
38. SOPRANOS - vse je super
39. GORAN KARAN - dobro ti jutro ljubavi
40. MEJAŠI - sexy ritam






Doctor Strange 2016 SloSubs 720p HD TS x264 AAC

Klikni za povečavo!
28-11-2016 13:03 naložil Ziva
Sejalci: 0 / Odjemalci: 0 / Velikost: 2.42 GB / Dokončani: 18
Prenesi torrent Poročaj torrent Opis torrenta NFO
Zvrst: Akcija | Pustolovski | Z.F.
Kategorija: FILMI > HDTV



Doctor Strange 2016 720p HD TS x264 AAC
Language(s): English
1hr 48mn | 720p HD TS | 1280 x 520 | Matroska | 2.39 GB
Genre(s): Action | Adventure | Fantasy
IMDb :http://www.imdb.com/title/tt1211837/

Podnapisi : slovenski


Benedict Cumberbatch ... Dr. Stephen Strange
Chiwetel Ejiofor ... Mordo
Rachel McAdams ... Christine Palmer
Benedict Wong ... Wong
Mads Mikkelsen ... Kaecilius
Tilda Swinton ... The Ancient One


Nadarjeni toda narcisoidni nevrokirurg Stephen doživi prometno nesrečo, ki mu onemogoči nadaljne opravljanje poklica. Zagrenjen poskuša najti način, kako bi si pozdravil roke, raziskovanje na področju metafizike pa ga pripelje do odkritja nenavadnih skrivnosti. Ko pristane na ponudbo mentorice, ki pripada starodavni rasi naprednih bitij, se znajde v svetu polnem vzporednih dimenzij, kjer mora z uporabo nadnaravnih moči in starodavnih artefaktov zaščititi človeštvo.



Dusha shpiona 2015 SrbSubs 720p HDTVRip x264 Nikolspup

Klikni za povečavo!
04-11-2016 18:39 naložil Ziva
Sejalci: 0 / Odjemalci: 0 / Velikost: 2.71 GB / Dokončani: 5
Prenesi torrent Poročaj torrent Opis torrenta NFO
Zvrst: Triler
Kategorija: FILMI > HDTV



Dusha shpiona 2015 720p HDTVRip x264 Nikolspup
Language(s): Russian | English
1hr 44mn | 720p HDTVRip | 1280 x 688 | Matroska | 2.71 GB
Genre(s): Thriller
IMDb : http://www.imdb.com/title/tt3152000/

Podnapisi : srbski



Ariyon Bakare ... Sam
Helen Banks ... Passerby
Richard Banks ... Passerby
Sandrine Bonnaire ... Jacqueline
Elo CDusha shpiona 2015 720p HDTVRip x264 Nikolspup


Film tells the story of a Russian spy to performing a task in London. The main character has to solve complex problems related to the very essence of the work of a spy: bribery, blackmail and even murder.



Dont Breathe 2016 CroSubs 720p WEBRip XviD MP3 STUTTERSHIT

Klikni za povečavo!
19-10-2016 12:11 naložil Ziva
Sejalci: 0 / Odjemalci: 0 / Velikost: 2.44 GB / Dokončani: 9
Prenesi torrent Poročaj torrent Opis torrenta NFO
Kategorija: FILMI > WEBRip



Dont Breathe 2016 720p WEBRip XviD MP3 STUTTERSHIT
Language(s): English
1hr 28mn | 720p WEBRip | 1280 x 720 | AVI | 2.44 GB
Genre(s): Crime | Horror | Thriller
IMDb : http://www.imdb.com/title/tt4160708/

Podnapisi : hrvaški


Stephen Lang ... The Blind Man
Jane Levy ... Rocky
Dylan Minnette ... Alex
Daniel Zovatto ... Money
Emma Bercovici ... Diddy
Franciska Töröcsik ... Cindy

Trije detroitski delikventi se odločijo oropati hišo, v kateri naj bi bila skrita precejšna vsota denarja. A slepi lastnik jim prepreči načrte in roparji se kmalu spremenijo v preganjance, ki si v temi skušajo rešiti življenja.






Down and Out in Beverly Hills SLOSubs{SKERO}

Klikni za povečavo!
21-09-2016 17:50 naložil System
Sejalci: 1 / Odjemalci: 0 / Velikost: 719.94 MB / Dokončani: 6
Prenesi torrent Poročaj torrent Opis torrenta
Zvrst: Komedija
Kategorija: FILMI > DVDRip
Anonimen nalagalec

Po tem, ko ga novopečena bogataša z Beverly Hillsa (Richard Dreyfuss in Bette Midler) rešita pred samomorom z utopitvijo v njunem bazen, obupani brezdomec (Nick Nolte) obrne na glavo življenje vsakogar – celo družinskega psa.
Bette Midler in Richard Dreyfuss sta Barbara in Dave Whiteman, novopečena bogataša z Beverly Hillsa, katerih življenje se po dejanju zanju neznačilne velikodušnosti obrne na glavo. Nekega sončnega popoldneva Dave opazi Jerryja (Nick Nolte), razcapanega brezdomca, ki se skuša utopiti v njihovem bazenu. Dave reši obupanega moža in mu celo ponudi, naj ostane z njimi, kar močno razburi razkošnega življenja vajeno soprogo Barbaro, jeznega sina Maxa ter njegovo nesrečno ljubico in hišno pomočnico Carmen. Whitemanovi so vse prej kot srečna družina: zakon se maje, sin se sporazumeva le še s pomočjo videoposnetkov, hči je pobegnila v oddaljen kolidž, njihov nevrotičen pes ima svojega psihiatra, notranjega miru željna Barbara pa celo vojsko duhovnih gurujev. Jerryjev prihod vnese svež sunek energije v sterilno družino z Beverly Hillsa. Mož je karizmatičen in očarljiv – Dave se kmalu zabava v družbi njegovih brezdomskih kolegov, Barbara izživlja divje seksualne fantazije, Max se končno sprijazni s svojo drugačnostjo, Carmen pa se pridruži komunistični revoluciji. Jerry postane del družine in Whitemanove navduši, potem razočara, nazadnje pa opomni na to, kaj družina sploh pomeni.





Dark.Matter.Season.02.BihSub.XviD-AFG

Klikni za povečavo!
19-09-2016 15:20 naložil Reaper
Sejalci: 0 / Odjemalci: 0 / Velikost: 4.17 GB / Dokončani: 5
Prenesi torrent Poročaj torrent Opis torrenta NFO
Zvrst: Drama | Triler | Z.F.
Kategorija: FILMI > XviD

Ime: Dark Matter season 02
Leto: 2016
Jezik: angleški
Žanr: drama ZF triler
Jezik : bosanski
Prevod : fazazel
Priredba: cYd
Ocena: 7,4/10 (18.508)
Ratings: 7,4/10 from 675 users
Creators: Joseph Mallozzi, Paul Mullie, Natalie Rachel Cooper
Stars: Marc Bendavid, Melissa O'Neil, Anthony Lemke
Http: IMDb
01. Welcome To Your New Home 01.07.2016
02. Kill Them All 08.07.2016
03. I’ve Seen The Other Side Of You 15.07.2016
04. We Were Family 22.07.2016
05. We Voted Not To Space You 29.07.2016
06. We Should Have Seen This Coming 05.08.2016
07. She’s One Of Them Now 12.08.2016
08. Stuff To Steal; People To Kill 19.08.2016
09. Going Out Fighting 26.08.2016
10.Take The Shot 02.09.2016
11.Wish I'd Spaced You When I Had The Chance 09.09.2016
12. Sometimes In Life You Don't Get To Choose 09.09.2016
13. But First, We Save The Galaxy - Finale sezone 16.09.2016
Dark Matter je zgodba o dogodivščinah posadke zapuščene vesoljske ladje, ki se prebudi brez spomina o tem kdo so in kako so na ladjo prispeli.
Soočevanje z nevarnostmi na vsakem koraku jih prisili na vzajemno sodelovanje z namenom preživetja.
Potovanje polno maščevanj, izdaj in skrivnosti...
Dark.Matter.S02E13.BihSub.XviD-AFG

Klikni za povečavo!
19-09-2016 15:18 naložil Reaper
Sejalci: 0 / Odjemalci: 0 / Velikost: 287.43 MB / Dokončani: 3
Prenesi torrent Poročaj torrent Opis torrenta NFO
Zvrst: Drama | Triler | Z.F.
Kategorija: FILMI > XviD

Ime: Dark Matter season 02
Leto: 2016
Jezik: angleški
Žanr: drama ZF triler
Jezik : bosanski
Prevod : fazazel
Priredba: cYd
Ocena: 7,4/10 (18.508)
Ratings: 7,4/10 from 675 users
Creators: Joseph Mallozzi, Paul Mullie, Natalie Rachel Cooper
Stars: Marc Bendavid, Melissa O'Neil, Anthony Lemke
Http: IMDb
01. Welcome To Your New Home 01.07.2016
02. Kill Them All 08.07.2016
03. I’ve Seen The Other Side Of You 15.07.2016
04. We Were Family 22.07.2016
05. We Voted Not To Space You 29.07.2016
06. We Should Have Seen This Coming 05.08.2016
07. She’s One Of Them Now 12.08.2016
08. Stuff To Steal; People To Kill 19.08.2016
09. Going Out Fighting 26.08.2016
10.Take The Shot 02.09.2016
11.Wish I'd Spaced You When I Had The Chance 09.09.2016
12. Sometimes In Life You Don't Get To Choose 09.09.2016
13. But First, We Save The Galaxy - Finale sezone 16.09.2016
Dark Matter je zgodba o dogodivščinah posadke zapuščene vesoljske ladje, ki se prebudi brez spomina o tem kdo so in kako so na ladjo prispeli.
Soočevanje z nevarnostmi na vsakem koraku jih prisili na vzajemno sodelovanje z namenom preživetja.
Potovanje polno maščevanj, izdaj in skrivnosti...
Dad's.Army.2016.SLOSubs.BRRip.XviD-DrSi

Klikni za povečavo!
19-09-2016 12:58 naložil Ziva
Sejalci: 0 / Odjemalci: 1 / Velikost: 2.01 GB / Dokončani: 1
Prenesi torrent Poročaj torrent Opis torrenta NFO
Zvrst: Komedija | Vojni
Kategorija: FILMI > BRRip



Naziv: Dad's.Army.2016.SLOSubs.BRRip.XviD-DrSi
Source: Dad's.Army.2016.720p.BluRay.DTS.x264-GECKOS
Leto izida .........: 2016
Velikost ...........: 2,00 GB
Dolžina ............: 100 Minut
Video ...............: 2417 Kbps | 720x304 | 23,976 fps
Zvok .................: Dolby Digital AC3 5.1 @ 448 Kbps
Kodek.................: XviD
Zvrst………….: Komedija | Vojni
Država .............: Velika Britanija
Jezik ................: Angleški
Podnapisi .........: Slovenski (RETAiL)
Za HD priredil: metalcamp
Tehnična obdelava: DVD Rippers Slovenija

Režija.........: Oliver Parker
Scenarij.......: David Croft (original series), Hamish McColl


Mark Tandy...Major Cunningham
Catherine Zeta-Jones ... Rose Winters
Russell Balogh...Lundt (as Russell Balough)
Andrew Havill...Captain Meeks
Emily Atack...Daphne
Daniel Mays...Walker
Toby Jones...George Mainwaring
Blake Harrison...Frank Pike
Michael Gambon...Godfrey
Bill Nighy...Arthur Wilson


Britanska televizijska nanizanka Očetova vojska bo zaživela na velikem platnu.
V filmu bo ob britanskih igralcih, med drugim bosta v njem zaigrala Michael Gambon
in Blake Harrison, v vlogi novinarke nastopila oskarjevka Catherine Zeta-Jones.
Režijo bo prevzel Oliver Parker, scenarij pa bo napisal Hamish McColl.
Dad's Army pripoveduje o življenju britanskih vojakov v času druge svetovne vojne.
Tokrat bo Dad's Army zaživela v novi preobleki. Ustvarjalci so denimo uvedli lik
novinarke Rose Winters, ki jo bo upodobila Zeta-Jonesova. Gambon bo zaigral v vlogi
Godfreya, Danny Mays pa v vlogi Joeja Walkerja. Filmski ekipi se bosta pridružila
še Mark Gatiss, znan pisec pri nanizanki Doctor Who, ter Toby Jones, ki se med
drugim podpisuje pod televizijski portret Alfreda Hitchcocka.


Dark.Matter.S02E12.BihSub.XviD-AFG

Klikni za povečavo!
13-09-2016 05:58 naložil Reaper
Sejalci: 0 / Odjemalci: 0 / Velikost: 258.82 MB / Dokončani: 3
Prenesi torrent Poročaj torrent Opis torrenta NFO
Zvrst: Drama | Triler | Z.F.
Kategorija: FILMI > XviD

Ime: Dark Matter season 02
Leto: 2016
Jezik: angleški
Žanr: drama ZF triler
Jezik : bosanski
Prevod : fazazel
Priredba: cYd
Ocena: 7,4/10 (18.508)
Ratings: 7,4/10 from 675 users
Creators: Joseph Mallozzi, Paul Mullie, Natalie Rachel Cooper
Stars: Marc Bendavid, Melissa O'Neil, Anthony Lemke
Http: IMDb
01. Welcome To Your New Home 01.07.2016
02. Kill Them All 08.07.2016
03. I’ve Seen The Other Side Of You 15.07.2016
04. We Were Family 22.07.2016
05. We Voted Not To Space You 29.07.2016
06. We Should Have Seen This Coming 05.08.2016
07. She’s One Of Them Now 12.08.2016
08. Stuff To Steal; People To Kill 19.08.2016
09. Going Out Fighting 26.08.2016
10.Take The Shot 02.09.2016
11.Wish I'd Spaced You When I Had The Chance 09.09.2016
12. Sometimes In Life You Don't Get To Choose 09.09.2016
13. But First, We Save The Galaxy - Finale sezone 16.09.2016
Dark Matter je zgodba o dogodivščinah posadke zapuščene vesoljske ladje, ki se prebudi brez spomina o tem kdo so in kako so na ladjo prispeli.
Soočevanje z nevarnostmi na vsakem koraku jih prisili na vzajemno sodelovanje z namenom preživetja.
Potovanje polno maščevanj, izdaj in skrivnosti...
Dark.Matter.S02E11.BihSub.XviD-AFG

Klikni za povečavo!
12-09-2016 19:43 naložil Reaper
Sejalci: 0 / Odjemalci: 0 / Velikost: 429.97 MB / Dokončani: 3
Prenesi torrent Poročaj torrent Opis torrenta NFO
Zvrst: Drama | Triler | Z.F.
Kategorija: FILMI > XviD

Ime: Dark Matter season 02
Leto: 2016
Jezik: angleški
Žanr: drama ZF triler
Jezik : bosanski
Prevod : fazazel
Priredba: cYd
Ocena: 7,4/10 (18.508)
Ratings: 7,4/10 from 675 users
Creators: Joseph Mallozzi, Paul Mullie, Natalie Rachel Cooper
Stars: Marc Bendavid, Melissa O'Neil, Anthony Lemke
Http: IMDb
01. Welcome To Your New Home 01.07.2016
02. Kill Them All 08.07.2016
03. I’ve Seen The Other Side Of You 15.07.2016
04. We Were Family 22.07.2016
05. We Voted Not To Space You 29.07.2016
06. We Should Have Seen This Coming 05.08.2016
07. She’s One Of Them Now 12.08.2016
08. Stuff To Steal; People To Kill 19.08.2016
09. Going Out Fighting 26.08.2016
10.Take The Shot 02.09.2016
11.Wish I'd Spaced You When I Had The Chance 09.09.2016
12. Sometimes In Life You Don't Get To Choose 09.09.2016
13. But First, We Save The Galaxy - Finale sezone 16.09.2016
Dark Matter je zgodba o dogodivščinah posadke zapuščene vesoljske ladje, ki se prebudi brez spomina o tem kdo so in kako so na ladjo prispeli.
Soočevanje z nevarnostmi na vsakem koraku jih prisili na vzajemno sodelovanje z namenom preživetja.
Potovanje polno maščevanj, izdaj in skrivnosti...
Dubioza kolektiv - 2008 - Firmam Ilegal [Videoteka][flac]

Klikni za povečavo!
09-09-2016 14:00 naložil System
Sejalci: 0 / Odjemalci: 0 / Velikost: 218.12 MB / Dokončani: 4
Prenesi torrent Poročaj torrent Opis torrenta
Kategorija: GLASBA > Glasba
Anonimen nalagalec

Tracklist

1 Šuti I Trpi
2 Firma Ilegal
3 Svi U Štrajk
4 Blam
5 Oni Dolaze
6 Vlast I Policija
7 Zrak
8 Stav
* Vocals [Featuring] – Gino Banana*
9 Dosta
* Vocals [Featuring] – Frenkie, Zoran Čatić
Daylights End 2016 SloSubs 720p BRRip XviD AC3 RARBG

Klikni za povečavo!
09-09-2016 12:48 naložil Ziva
Sejalci: 0 / Odjemalci: 0 / Velikost: 3.26 GB / Dokončani: 3
Prenesi torrent Poročaj torrent Opis torrenta NFO
Zvrst: Akcija | Grozljivka | Z.F.
Kategorija: FILMI > BRRip



Daylights End 2016 720p BRRip XviD AC3 RARBG
Language(s): English
1hr 45mn | 720p BRRip | 1280 x 536 | AVI | 3.26 GB
Genre(s): Action | Horror | Sci-Fi
Podnapisi : slovenski
IMDb : http://www.imdb.com/title/tt3007132/



Johnny Strong ... Thomas Rourke
Lance Henriksen ... Frank Hill
Louis Mandylor ... Ethan Hill
Hakeem Kae-Kazim ... Chris Whitlock
Krzysztof Soszynski ... The Alpha
Chris Kerson ... Jimmy Dugan
Chelsea Edmundson ... Sam Sheridan


Years after a mysterious plague has devastated the planet and turned most of humanity into blood-hungry creatures, a rogue drifter on a vengeful hunt stumbles across a band of survivors in an abandoned police station and reluctantly agrees to try to help them defend themselves and escape to the sanctuary they so desperately need.



Dark.Matter.S02E10.BihSub.XviD-AFG

Klikni za povečavo!
04-09-2016 19:08 naložil Reaper
Sejalci: 0 / Odjemalci: 0 / Velikost: 286.28 MB / Dokončani: 3
Prenesi torrent Poročaj torrent Opis torrenta NFO
Zvrst: Drama | Triler | Z.F.
Kategorija: FILMI > XviD

Ime: Dark Matter season 02
Leto: 2016
Jezik: angleški
Žanr: drama ZF triler
Jezik : bosanski
Prevod : fazazel
Priredba: cYd
Ocena: 7,4/10 (18.508)
Ratings: 7,4/10 from 675 users
Creators: Joseph Mallozzi, Paul Mullie, Natalie Rachel Cooper
Stars: Marc Bendavid, Melissa O'Neil, Anthony Lemke
Http: IMDb
01. Welcome To Your New Home 01.07.2016
02. Kill Them All 08.07.2016
03. I’ve Seen The Other Side Of You 15.07.2016
04. We Were Family 22.07.2016
05. We Voted Not To Space You 29.07.2016
06. We Should Have Seen This Coming 05.08.2016
07. She’s One Of Them Now 12.08.2016
08. Stuff To Steal; People To Kill 19.08.2016
09. Going Out Fighting 26.08.2016
10. Take The Shot
11. Wish I'd Spaced You When I Had The Chance
12. Sometimes In Life You Don't Get To Choose
13. But First, We Save The Galaxy
Dark Matter je zgodba o dogodivščinah posadke zapuščene vesoljske ladje, ki se prebudi brez spomina o tem kdo so in kako so na ladjo prispeli.
Soočevanje z nevarnostmi na vsakem koraku jih prisili na vzajemno sodelovanje z namenom preživetja.
Potovanje polno maščevanj, izdaj in skrivnosti...
Dark.Matter.S02E09.BihSub.XviD-AFG

Klikni za povečavo!
29-08-2016 09:47 naložil Reaper
Sejalci: 0 / Odjemalci: 0 / Velikost: 360.12 MB / Dokončani: 8
Prenesi torrent Poročaj torrent Opis torrenta NFO
Zvrst: Drama | Triler | Z.F.
Kategorija: FILMI > XviD

Ime: Dark Matter season 02
Leto: 2016
Jezik: angleški
Žanr: drama ZF triler
Jezik : bosanski
Prevod : fazazel
Priredba: cYd
Ocena: 7,4/10 (18.508)
Ratings: 7,4/10 from 675 users
Creators: Joseph Mallozzi, Paul Mullie, Natalie Rachel Cooper
Stars: Marc Bendavid, Melissa O'Neil, Anthony Lemke
Http: IMDb
01. Welcome To Your New Home 01.07.2016
02. Kill Them All 08.07.2016
03. I’ve Seen The Other Side Of You 15.07.2016
04. We Were Family 22.07.2016
05. We Voted Not To Space You 29.07.2016
06. We Should Have Seen This Coming 05.08.2016
07. She’s One Of Them Now 12.08.2016
08. Stuff To Steal; People To Kill 19.08.2016
09. Going Out Fighting 26.08.2016
10. Take The Shot
11. Wish I'd Spaced You When I Had The Chance
12. Sometimes In Life You Don't Get To Choose
13. But First, We Save The Galaxy
Dark Matter je zgodba o dogodivščinah posadke zapuščene vesoljske ladje, ki se prebudi brez spomina o tem kdo so in kako so na ladjo prispeli.
Soočevanje z nevarnostmi na vsakem koraku jih prisili na vzajemno sodelovanje z namenom preživetja.
Potovanje polno maščevanj, izdaj in skrivnosti...
Dark.Matter.S02E08.BihSub.PROPER.XviD-AFG

Klikni za povečavo!
22-08-2016 09:07 naložil Reaper
Sejalci: 0 / Odjemalci: 0 / Velikost: 339.56 MB / Dokončani: 4
Prenesi torrent Poročaj torrent Opis torrenta NFO
Zvrst: Drama | Triler | Z.F.
Kategorija: FILMI > XviD

Ime: Dark Matter season 02
Leto: 2016
Jezik: angleški
Žanr: drama ZF triler
Jezik : bosanski
Prevod : fazazel
Priredba: cYd
Ocena: 7,4/10 (18.508)
Ratings: 7,4/10 from 675 users
Creators: Joseph Mallozzi, Paul Mullie, Natalie Rachel Cooper
Stars: Marc Bendavid, Melissa O'Neil, Anthony Lemke
Http: IMDb
01. Welcome To Your New Home 01.07.2016
02. Kill Them All 08.07.2016
03. I’ve Seen The Other Side Of You 15.07.2016
04. We Were Family 22.07.2016
05. We Voted Not To Space You 29.07.2016
06. We Should Have Seen This Coming 05.08.2016
07. She’s One Of Them Now 12.08.2016
08. Stuff To Steal; People To Kill 19.08.2016
09. Going Out Fighting 26.08.2016
10. Take The Shot
11. Wish I'd Spaced You When I Had The Chance
12. Sometimes In Life You Don't Get To Choose
13. But First, We Save The Galaxy
Dark Matter je zgodba o dogodivščinah posadke zapuščene vesoljske ladje, ki se prebudi brez spomina o tem kdo so in kako so na ladjo prispeli.
Soočevanje z nevarnostmi na vsakem koraku jih prisili na vzajemno sodelovanje z namenom preživetja.
Potovanje polno maščevanj, izdaj in skrivnosti...
Dear Eleanor 2016 CroSubs 720p WEB DL XviD AC3 FGT

Klikni za povečavo!
16-08-2016 16:15 naložil Ziva
Sejalci: 1 / Odjemalci: 0 / Velikost: 2.1 GB / Dokončani: 2
Prenesi torrent Poročaj torrent Opis torrenta NFO
Kategorija: FILMI > WEBRip



Dear Eleanor 2016 720p WEB DL XviD AC3 FGT
Language(s): English
1hr 29mn | 720p WEB DL | 1280 x 532 | AVI | 2.10 GB
Genre(s): Adventure | Comedy | Drama
IMDb : http://www.imdb.com/title/tt2927212/

Podnapisi : hrvaški


Isabelle Fuhrman ... Max the Wax
Liana Liberato ... Ellie Potter
Jonah Isaac Abrams ... Church Attendee (as Jonah Isaac Lujan)
David Adams ... Manteca Cop (as Dave Adams)
Jessica Alba ... Daisy


Two teenage girls travel across the U.S. in 1962, during the chaos of the Cuban missile crisis, in search of Eleanor Roosevelt.



DJ VIHAR & DJ AJDA - SLO & HR MIX 47

Klikni za povečavo!
14-08-2016 16:30 naložil Ajda
Sejalci: 2 / Odjemalci: 0 / Velikost: 195.51 MB / Dokončani: 95
Prenesi torrent Poročaj torrent Opis torrenta NFO
Kategorija: GLASBA > Glasba






Complete name : DJ VIHAR & DJ AJDA - SLO & HR MIX 47
Format : MPEG Audio
File size : 195 MiB
Duration : 1h 25mn
Overall bit rate mode : Constant
Overall bit rate : 320 Kbps
Encoded by : Lavf52.39.0
Writing library : LAME3.98

Audio
Format : MPEG Audio
Format version : Version 1
Format profile : Layer 3
Mode : Joint stereo
Mode extension : MS Stereo
Duration : 1h 25mn
Bit rate mode : Constant
Bit rate : 320 Kbps
Channel(s) : 2 channels
Sampling rate : 48.0 KHz
Compression mode : Lossy
Stream size : 195 MiB (100%)
Writing library : LAME3.98


1.Saša Lendero - Da ne padem dol
2.Ivan Zak - Meni se s tobom
3.Grupa VIGOR - Ne brine me
4.Jole - S kim to pričaš
5.KOKTELSI - Ljeto nam počinje
6.Karma - Puca Glava
7.Luđaci - Mamurluk
8.VERSI - Luduju svi
9.Šarmeri - Feštaj
10.Tomislav Bralić i klapa Intrade - Ne mogu te prestat jubit
11.MINEA - Doza rizika
12.Dejan Vunjak- Leza tebe
13.SASA KOVACEVIC - Temperatura
14.Minea & Garcia - U malenoj vali
15.ATOMIK HARMONIK - Mornarić
16.MLADEN GRDOVIĆ & KLAPA MUNITA - Ostavljam vas moji najdraži
17.GADI - NE GREM DOMOV
18.RADA MANOJLOVIC FEAT CVIJA & DJ VUJO - Makarena
19.Mejaši feat. Crvena jabuka - Noćima, danima
20.Tanja Žagar - Nevarno
21.Robert Ficker - Slomljeno srce
22.DANIEL POPOVIĆ - Šikibam
23.Severina, Goran Karan, Danijela i Giuliano - Manta me jubav
24.Brendi - Katarina
25.MIŠO KOVAČ - Nek' šute svi