A
B
C
D
E
F
G
H
I
J
K
L
M
N
O
P
Q
R
S
T
U
V
W
X
Y
Z
0-9
Koncert.Ansambla.Saša.Avsenika.720p.TVRip.R77

Klikni za povečavo!
Sreda at 15:13 naložil System
Sejalci: 1 / Odjemalci: 0 / Velikost: 3.19 GB / Dokončani: 1
Prenesi torrent Poročaj torrent Opis torrenta
Zvrst: Glasbeni
Kategorija: GLASBA > Video
Anonimen nalagalec

Koncert.Ansambla.Saša.Avsenika.720p.TVRip.R77


KONCERT ANSAMBLA
SAŠE AVSENIKA


Tehnične specifikacije:

Complete name : Koncert.Ansambla.Saša.Avsenika.720p.TVRip.R77\Koncert.Ansambla.Saša.Avsenika.720p.TVRip.R77.mp4
Format : MPEG-4
Format profile : Base Media
Codec ID : isom (isom/iso2/avc1/mp41)
File size : 1.99 GiB
Duration : 1 h 32 min
Overall bit rate : 3 089 kb/s
Writing application : Lavf58.29.100

Video
ID : 1
Format : AVC
Format/Info : Advanced Video Codec
Format profile : High@L3.1
Format settings : CABAC / 3 Ref Frames
Format settings, CABAC : Yes
Format settings, Reference frames : 3 frames
Codec ID : avc1
Codec ID/Info : Advanced Video Coding
Duration : 1 h 32 min
Bit rate : 2 955 kb/s
Width : 1 280 pixels
Height : 720 pixels
Display aspect ratio : 16:9
Frame rate mode : Constant
Frame rate : 25.000 FPS
Color space : YUV
Chroma subsampling : 4:2:0
Bit depth : 8 bits
Scan type : Progressive
Bits/(Pixel*Frame) : 0.128
Stream size : 1.90 GiB (96%)
Writing library : x264 core 148
Codec configuration box : avcC



Audio
ID : 2
Format : AAC LC
Format/Info : Advanced Audio Codec Low Complexity
Codec ID : mp4a-40-2
Duration : 1 h 32 min
Bit rate mode : Constant
Bit rate : 128 kb/s
Channel(s) : 2 channels
Channel layout : L R
Sampling rate : 44.1 kHz
Frame rate : 43.066 FPS (1024 SPF)
Compression mode : Lossy
Stream size : 84.6 MiB (4%)
Default : Yes
Alternate group : 1

Posnetek ne vsebuje napovednika in povezovanja voditelja!


UŽIVAJTE!
Kylie Minogue - Greatest Remix Hits Vol. 2 (1998) MP3

Klikni za povečavo!
09-01-2021 07:37 naložil System
Sejalci: 1 / Odjemalci: 0 / Velikost: 308.87 MB / Dokončani: 3
Prenesi torrent Poročaj torrent Opis torrenta NFO
Zvrst: Glasbeni
Kategorija: GLASBA > Glasba
Anonimen nalagalec

---------------------------------------------------------------------
Kylie Minogue - Greatest Remix Hits 2
---------------------------------------------------------------------
Artist...............: Kylie Minogue
Album................: Greatest Remix Hits 2
Genre................: Pop
Source...............: CD
Year.................: 1998
Ripper...............: EAC (Secure mode) / LAME 3.92 & Asus CD-S520
Codec................: LAME 3.98
Version..............: MPEG 1 Layer III
Quality..............: Insane, (avg. bitrate: 320kbps)
Channels.............: Joint Stereo / 44100 hz
Tags.................: ID3 v1.1, ID3 v2.3
News Server..........: news.astraweb.com
News Group(s)........: alt.binaries.pl.mp3
Included.............: NFO
Covers...............: Front Back CD
---------------------------------------------------------------------
Tracklisting CD1
---------------------------------------------------------------------
1. Kylie Minogue - Got To Be Certain (Extended) [06:34]
2. Kylie Minogue - Kylie's Smiley Mix (Extended) [06:18]
3. Kylie Minogue - Getting Closer [03:30]
4. Kylie Minogue - Je Ne Sais Pas Pourquoi (The Revolutionary Mix)[07:14]
5. Kylie Minogue - Made In Heaven (Made In England Mix) [06:17]
6. Kylie Minogue - Especially For You (Duet with Jason Donovan) [Extended][04:58]
7. Kylie Minogue - Hand On Your Heart (The Great Aorta Mix)[06:23]
8. Kylie Minogue - Wouldn't Change A Thing (Your Thang Mix)[07:12]
9. Kylie Minogue - Tears On My Pillow (More Tears Mix) [04:02]
10. Kylie Minogue - Better The Devil Your Know (The Mad March Hare Mix)[07:05]
11. Kylie Minogue - I'm Over Dreaming (Over You) [04:54]
Playing Time.........: 01:04:31
Total Size...........: 149,85 MB
---------------------------------------------------------------------
Tracklisting CD2
---------------------------------------------------------------------
1. Kylie Minogue - The Loco-Motion [03:13]
2. Kylie Minogue - What Do I Have To Do (The Pump And Polly Mix)[07:46]
3. Kylie Minogue - Shocked (Harding / Curnow Mix) [07:29]
4. Kylie Minogue - Say The Word - I'll Be There [04:10]
5. Kylie Minogue - Keep On Pumpin' It Up (Duet with Tony King) (Angelic Remix)[07:21]
6. Kylie Minogue - Give Me Just A Little More Time (12'') [04:32]
7. Kylie Minogue - Do You Dare (NRG Mix) [07:01]
8. Kylie Minogue - Finer Feelings (Brothers In Rhythm 12'' Mix)[06:48]
9. Kylie Minogue - Closer (The Pleasure Mix) [06:46]
10. Kylie Minogue - What Kind Of Fool (Heard All That Before) (No Tech No Logical Mix)[09:49]
11. Kylie Minogue - Got To Be Certain (Out For A Duck Bill Platter Plus Dub Mix)[03:19]
Playing Time.........: 01:08:19
Total Size...........: 158,52 MB
Kylie Minogue - Greatest Remix Hits Vol. 1 (1993) MP3

Klikni za povečavo!
08-01-2021 15:44 naložil System
Sejalci: 1 / Odjemalci: 0 / Velikost: 299.48 MB / Dokončani: 15
Prenesi torrent Poročaj torrent Opis torrenta NFO
Zvrst: Glasbeni
Kategorija: GLASBA > Glasba
Anonimen nalagalec

---------------------------------------------------------------------
Kylie Minogue - Greatest Remix Hits 1
---------------------------------------------------------------------
Artist...............: Kylie Minogue
Album................: Greatest Remix Hits 1
Genre................: Pop
Source...............: CD
Year.................: 1993
Ripper...............: EAC (Secure mode) / LAME 3.92 & Asus CD-S520
Codec................: LAME 3.98
Version..............: MPEG 1 Layer III
Quality..............: Insane, (avg. bitrate: 320kbps)
Channels.............: Joint Stereo / 44100 hz
Tags.................: ID3 v1.1, ID3 v2.3
News Server..........: news.astraweb.com
News Group(s)........: alt.binaries.pl.mp3
Included.............: NFO
Covers...............: Front Back CD
---------------------------------------------------------------------
Tracklisting CD1
---------------------------------------------------------------------
1. Kylie Minogue - I Should Be So Lucky (The Bicentennial Remix)[06:12]
2. Kylie Minogue - Got To Be Certain (Ashes To Ashes) [06:51]
3. Kylie Minogue - The Loco-Motion (The Sankie Remix) [06:54]
4. Kylie Minogue - Je Ne Sais Pas Pourquoi (Moi Non Plus Mix)[05:53]
5. Kylie Minogue - Made In Heaven [03:29]
6. Kylie Minogue - All I Wanna Do (Duet with Jason Donovan)[06:02]
7. Kylie Minogue - It's No Secret (Extended) [05:33]
8. Kylie Minogue - Hand On Your Heart (Dub) [05:32]
9. Kylie Minogue - Just Wanna Love You [03:33]
10. Kylie Minogue - Never Too Late (Extended) [06:10]
11. Kylie Minogue - We Know The Meaning Of Love [05:53]
Playing Time.........: 01:02:05
Total Size...........: 142,68 MB
---------------------------------------------------------------------
Tracklisting CD2
---------------------------------------------------------------------
1. Kylie Minogue - Step Back In Time (Walkin' Rhythm Mix) [07:58]
2. Kylie Minogue - What Do I Have To Do (Remix) [07:04]
3. Kylie Minogue - Shocked (DNA Mix) [06:12]
4. Kylie Minogue - Word Is Out [05:48]
5. Kylie Minogue - Keep On Pumpin' It Up (Duet wit Tony King) (Astral Flight Mix)[06:51]
6. Kylie Minogue - If You Were With Me Now (Duet wit Keith Washington)[05:08]
7. Kylie Minogue - Do You Dare (New Rave Mix) [06:37]
8. Kylie Minogue - Finer Feelings (Brothers In Rhythm 7'' Mix)[03:43]
9. Kylie Minogue - Closer (Edit) [03:56]
10. Kylie Minogue - What Kind Of Fool (Heard All That Before) (Tech No Logical Mix)[06:51]
11. Kylie Minogue - Celebration (Have A Party Mix) [07:02]
Playing Time.........: 01:07:13
Total Size...........: 156,32 MB
Karen Souza - Velvet Vault - [Japan CD - 2017] FLAC

Klikni za povečavo!
08-01-2021 15:43 naložil System
Sejalci: 2 / Odjemalci: 0 / Velikost: 352.86 MB / Dokončani: 4
Prenesi torrent Poročaj torrent Opis torrenta NFO
Zvrst: Glasbeni
Kategorija: GLASBA > Glasba
Anonimen nalagalec

---------------------------------------------------------------------
Karen Souza - Velvet Vault [Japan CD]
---------------------------------------------------------------------
Artist...............: Karen Souza
Album................: Velvet Vault [Japan CD]
Genre................: Latin Jazz
Source...............: CD
Year.................: 2017
Ripper...............: EAC (Secure mode) / LAME 3.92 & Asus CD-S520
Codec................: Free Lossless Audio Codec (FLAC)
Version..............: reference libFLAC 1.2.1 20070917
Quality..............: Lossless, (avg. compression: 55 %)
Channels.............: Stereo / 44100 HZ / 16 Bit
Tags.................: VorbisComment
News Server..........: news.astraweb.com
News Group(s)........: alt.binaries.pl.mp3
Included.............: NFO
Covers...............: Front Back CD
---------------------------------------------------------------------
Tracklisting
---------------------------------------------------------------------
1. Karen Souza - I Fall In Love Too Easily [03:47]
2. Karen Souza - Don't Let The Sun Go Down On Me [04:00]
3. Karen Souza - I'm Beginning To See The Light [02:36]
4. Karen Souza - Valerie [04:13]
5. Karen Souza - I'm Not In Love [04:05]
6. Karen Souza - You Got That Something [04:07]
7. Karen Souza - In Between Days [03:21]
8. Karen Souza - In The tracker Of An Eye [03:45]
9. Karen Souza - Walk On The Wild Side [03:15]
10. Karen Souza - Angel Eyes [04:19]
11. Karen Souza - Kids [03:12]
12. Karen Souza - Ain't No Sunshine [03:13]
13. Karen Souza - My One And Only Love [04:40]
Playing Time.........: 48:40
Total Size...........: 268,74 MB
Kampen.om.tungtvannet.S01.SRBSubs.720p.WEB.x264

Klikni za povečavo!
05-01-2021 12:49 naložil System
Sejalci: 4 / Odjemalci: 0 / Velikost: 2.74 GB / Dokončani: 3
Prenesi torrent Poročaj torrent Opis torrenta
Zvrst: Drama | Vojni | Zgodovinski
Kategorija: FILMI > TV - Serija
Anonimen nalagalec

Kampen.om.tungtvannet.S01.SRBSubs.720p.WEB.x264

Kampen om tungtvannet AKA The Saboteurs

TV Serija S01

Vojna s težko vodo



Zgodba o Hitlerjevem načrtu, da bi Nemčija med drugo svetovno vojno dobila atomsko bombo, in močne vodne sabotaže v Rjukanu na Norveškem, gledano s štirih zornih kotov, nemška stran, zavezniki, diverzanti in četa



OPIS DOGAJANJ:

Med drugo svetovno vojno je bil Vemork v Rjukanu v središču proizvodnje težke vode. Vojna s težko vodo je Nemce ustavila pri razvoju atomske bombe.
Če bi Nemci lahko nadaljevali z raziskovanjem težke vode, bi morda lahko zgradili atomsko bombo.
Takšen vtis so imeli zavezniški znanstveniki, medtem ko je bila druga svetovna vojna v polnem razvoju. Zaradi atomske bombe bi lahko zavezniki izgubili vojno.
Zavezniški znanstveniki so si neprestano prizadevali, da bi poskušali ustvariti jedrsko eksplozijo na podlagi drugih načel, vendar jih je čakala še dolga pot. In edini vir težke vode je bil na nemški okupirani Norveški, v Vemorku, v Rjukanu.
Sabotažne akcije, katerih namen je bil preprečiti Nemcem pridobivanje težke vode, so nekatera najbolj drzna in vznemirljiva dejanja druge svetovne vojne.
Vse se je začelo marca 1942, ko je padel samotni padalec, da bi zbral znanje o proizvodnji težke vode. 19. oktobra so v bližini Sognadalena, zahodno od Rjukana, spustili še štiri Norvežane. Vsi so bili lokalni fantje in so dobro poznali okolico. Njihova naloga je bila pripraviti diverzantsko akcijo in poslati radijska sporočila v Anglijo. Skupina je imela kodno ime "Grouse".
Potovanje skupine Grouse do predvidenega sedeža je bilo težko. Že stoletja so bili odrezani od zunanjega sveta, medtem ko so čakali na nove akumulatorje za radijsko postajo.
Mesec dni kasneje, 19. novembra 1942, je bila iz Anglije poslana britanska diverzantska skupina 34 posebej usposobljenih moških. Njihova naloga je bila napasti težko vodno tovarno v Vemorku in jo uničiti. Skupina Grouse naj bi delovala kot sprejemni odbor in pripravila pristanek na Skolandu blizu jezera Møsvatn.
Potem pa je prišlo do katastrofe. Moški so bili prepeljani z jadralnimi letali in eno letalo in jadralno letalo, ki ga je vleklo, je strmoglavilo v goro. Drugo jadralno letalo po izpustu ni uspelo pravilno pristati, pri čemer je nekaj njegovih prebivalcev umrlo, Nemci pa so preživele streljali.
Kljub temu nazadovanju je sestavljala skupina Grouse, čeprav so se spremenili v "Swallow". Zimo so bili prisiljeni preživeti skrite v surovi divjini gorske planote Hardangervidda, jesti, kar je ostalo od njihovih obrokov, in prehranjevati z mesom divjih severnih jelenov. Jedli so celo vsebino želodca severnih jelenov, da so dobili bistvena hranila.
16. februarja 1943 je nova skupina mladih Norvežanov, posebej usposobljenih za misijo, pristala na gorski planoti Hardangervidda. Pristala sta 50 km od predvidenega cilja in stopila naravnost v snežni metež. Trajalo je nekaj dni, preden je 6 članov nove skupine "Gunnerside" lahko združilo moči z nekdanjo skupino Grouse, zdaj preimenovano v Swallow.
27. februarja zvečer so bili diverzanti v Fjøsbudalenu, severno od obrata v Vemorku, in se pripravljali na napad.
Začeli so z nevarnim in izčrpavajočim spustom, prečkali sotesko, ki se je spuščala do obrata za težko vodo, in z ograjo prerezali žico.
Pokrovitelji so zavzeli svoje položaje in diverzantska skupina se je hitro odpravila do cilja.
Na posode za težko vodo so postavili eksplozivne naboje in jih večino uničili. Čudno je, da nobeden od nemških stražarjev ni ničesar opazil, dokler ni konec.
V tistem času pa diverzanti že dolgo niso več hodili po gorah in pospeševali pot po stari delovni cesti pod Krossobanenom. Sneg je ležal globoko in zelo se je temnilo. Bilo je težko potovanje, vendar so se vsi varno vrnili nazaj.
Skupina se je po počitku razdelila v dve skupini. Ena skupina je bila v celoti oborožena in v uniformi in je smučala celo čez Norveško do varnosti na Švedskem.
Druga skupina se je razširila in skrila po celotni gorski planoti Hardangervidda. Tri tisoč Nemcev je obkolilo območje in prečesalo divjino, da bi jih izsledilo, a nobenega od diverzantov ni uspelo ujeti. Radijska postaja je do konca vojne vzdrževala stike z zavezniškim poveljstvom v Londonu.
Nemci pa so obnovili obrat za težko vodo. Američani so to imeli za tako nevarno, da so se odločili bombardirati tovarno. 16. novembra 1943 je 160 letečih trdnjav priletelo nad Rjukan in bombardiralo Vemork, elektrarno in tovarno.
Nemci so bili prisiljeni opustiti načrte za proizvodnjo težke vode, vendar je napad zahteval več kot 20 norveških življenj.
Kasneje so diverzanti ugotovili, da nameravajo Nemci svoje zaloge polpredelane težke vode iz Rjukana preseliti v Nemčijo. Iz Londona so prejeli ukaz, da se pošiljka težke vode za vsako ceno in na kakršen koli način uniči.
Najšibkejši člen v transportni verigi je bil trajekt, ki je vozil vlak čez jezero Tinnsjø. Noč pred plovbo trajekta je diverzantom uspelo na plovilo vstaviti časovni naboj.
V nedeljo, 20. februarja 1944, ko je bil "Hydro" na pol poti čez jezero, je prišlo do eksplozije in trajekt se je v nekaj minutah potopil ter s seboj odnesel vitalno težko vodo, da je počivala na globini 460 metrov. Štirje Nemci in štirinajst Norvežanov so umrli, a bitka za težko vodo je bila na Norveškem končno končana.
Vir : Visitrjukan AS



Mesto tedanjih dogajanj je postalo Norveška priljubljena izletniška točka!




Igrajo:

Andreas Döhler , Robert Hunger-Bühler , Marc Ben Puch , Christoph Bach , Peri Baumeister , Espen Reboli Bjerke , Torstein Bjørklund , Ole Christoffer Ertvaag, Eirik Evjen, Anna Friel , Ragnhild H. Myntevik , Benjamin Helstad , Espen Klouman Høiner , Endre Joner Oftebro Ellefsen , Frank Kjosås , Rolf Kristian Larsen , Mads Sjøgård Pettersen , Søren Pilmark , Christian Rubeck , Maibritt Saerens , Audun Sandem , Tobias Santelmann , Dennis Storhøi , Pip Torrens , Stein Winge , David Zimmerschied , Julia Schacht , Clara Lien Sunde , Elg Elgesem , Corey Johnson , Uwe Preuss , Bjørn Iversen , Glenn Andre Kaada

Žanri:Drama, zgodovina, vojni




Podrobnosti

Država: Norveška | Danska | Združeno kraljestvo | Češka | Švedska
Jezik: Norveški | Angleščina | Nemščina | Danski
Datum izdaje:4. januar 2015 (Norveška)
Poznan tudi kot:Bitka za težko vodo
Lokacije snemanja: Praga, Češka
Izvajanje: 45 min | 267 min (skupni čas delovanja)


Tehnične specifikacije:

Complete name : Kampen.om.tungtvannet.S01.SRBSubs.720p.WEB.x264
Format : MPEG-4
Format profile : Base Media
Codec ID : isom (isom/iso2/avc1/mp41)
File size : 488 MiB
Duration : 44 min 53 s
Overall bit rate : 1 518 kb/s
Writing application : Lavf56.19.100

Video
ID : 1
Format : AVC
Format/Info : Advanced Video Codec
Format profile : High@L3.1
Format settings, CABAC : Yes
Format settings, RefFrames : 4 frames
Codec ID : avc1
Codec ID/Info : Advanced Video Coding
Duration : 44 min 53 s
Bit rate : 1 384 kb/s
Width : 1 280 pixels
Height : 720 pixels
Display aspect ratio : 16:9
Frame rate mode : Constant
Frame rate : 25.000 FPS
Color space : YUV
Chroma subsampling : 4:2:0
Bit depth : 8 bits
Scan type : Progressive
Bits/(Pixel*Frame) : 0.060
Stream size : 445 MiB (91%)
Writing library : x264 core 144 r2525 40bb568

Audio
ID : 2
Format : AAC
Format/Info : Advanced Audio Codec
Format profile : LC
Codec ID : 40
Duration : 44 min 53 s
Bit rate mode : Constant
Bit rate : 128 kb/s
Channel(s) : 2 channels
Channel positions : Front: L R
Sampling rate : 48.0 kHz
Frame rate : 46.875 FPS (1024 SPF)
Compression mode : Lossy
Stream size : 41.1 MiB (8%)
Default : Yes
Alternate group : 1

UŽIVAJTE!
Kosarkar.Naj.Bo.2017.SLOVENiAN.DVDRip.XviD-DrSi

Klikni za povečavo!
05-01-2021 12:34 naložil Ziva
Sejalci: 1 / Odjemalci: 0 / Velikost: 1.41 GB / Dokončani: 4
Prenesi torrent Poročaj torrent Opis torrenta NFO
Kategorija: FILMI > DVDRip



Naziv: Košarkar.Naj.Bo.2017.SLOVENiAN.DVDRip.XviD-DrSi
Source: RETAiL R2 PAL DVD5
Leto izida ........: 2017
Velikost ...........: 1,40 GB
Dolžina ............: 79 Minut
Video ...............: 2346 Kbps | 720x384 | 25 fps
Zvok ................: Dolby Digital AC3 2.0 @ 192 Kbps
Kodek...............: XviD
Zvrst………….: Družinski
Država .............: Slovenija
Jezik ................: Slovenski
Podnapisi .........: Brez
Tehnična obdelava: DVD Rippers Slovenija

IMDb Ocena ...: 5,5/10 (71 glasov)

Režija.........: Boris Petkovič
Scenarij.......: Primož Suhodolčan


Lado Bizovicar ... Tini Trska
Matija David Brodnik ... Smodlak
Gaja Filac ... Metka
Matjaz Javsnik ... Oce
Klemen Kostrevc ... Ranta
Gojmir Lesnjak ... Tundra
Marko Miladinovic ... Salta
Ana Marija Mitic ... Mama
Sasa Pavcek ... Enka
Ivan Vastl ... Lojz


Košarkar naj bo je zgodba o lenem, nerodnem, vedno lačnem in neskončno visokem Ranti
(tako velik, da bi lahko žirafam kravate zavezoval), ki se mu življenje postavi na glavo,
ko ga nekega dne učitelj telovadbe Salta povabi v košarkarsko ekipo. S tem se za Ranto
začne razburljiva pot, pri vseh šolskih in obšolskih dogodivščinah pa ga spremlja in
spodbuja duhoviti prijatelj/menedžer Smodlak. Iz lene nerode počasi zrase zagrizen
športnik, zvest prijatelj in privlačen fant. Pot velike spremembe otroka v mladostnika
film prikazuje z razigranostjo, humorjem in naklonjenostjo ter predstavlja pozitiven
pristop k otroškemu razmišljanju in ponuja upanje za vsakega učenca, da lahko s prizadevanjem
uspe tako v šoli kot drugje.

Suhodolčanovo razigranost in humor so odlično upodobili mladi igralci Klemen Kostrevc (Ranta),
Matija Brodnik (Smodlak) in Gaja Filač (Metka), v odraslih vlogah pa jih imenitno spremljajo
Marko Miladinović (Salta), Gojmir Lešnjak Gojc (Tundra), Lado Bizovičar (Tini Trska) ter
zaskrbljena starša Ana Maria Mitić in Matjaž Javšnik. Svež in privlačen, čudovitih barv,
zabava za otroke in odrasle, ki se gleda na podoben način kot se bere knjiga - tako pravijo
prvi odzivi.




Kosarkar.Naj.Bo.2.2019.SLOVENiAN.720p.HDTV.XviD-metalcamp

Klikni za povečavo!
05-01-2021 12:29 naložil Ziva
Sejalci: 1 / Odjemalci: 0 / Velikost: 2.44 GB / Dokončani: 7
Prenesi torrent Poročaj torrent Opis torrenta NFO
Kategorija: FILMI > HDTV



Naziv: Kosarkar.Naj.Bo.2.2019.SLOVENiAN.720p.HDTV.XviD-metalcamp
Source: Kosarkar.Naj.Bo.2.2019.1080p.HDTV-Fr33sat -HVALA!
Leto izida ........: 2019
Velikost ...........: 2,40 GB
Dolžina ............: 76 Minut
Video ...............: 4086 Kbps | 1280x696 | 25 fps
Zvok .................: Dolby Digital AC3 2.0 @ 448 Kbps
Kodek.................: XviD
Zvrst………….: Družinski | Komedija
Država .............: Slovenija
Jezik ................: Slovenski
Podnapisi .........: Brez
Tehnična obdelava: metalcamap
IMDb Ocena ...: 6,6/10 (32 glasov)
Režija.........: Boris Bezić
Scenarij......: Primož Suhodolčan


Klemen Kostrevc ... Ranta
Matija David Brodnik ... Smodlak
Gaja Filač ... Metka
Domen Novak ... Jožko
Lado Bizovičar ... Tini Trska
Marko Miladinović ... Salta
Gojmir Lešnjak ... Tundra
Tim Celarc ... Mali
Matjaž Javšnik ... Rantin Oče
Ana Marija Mitić ... Rantina Mati


Drugi del knjižne in filmske uspešnice Košarkar naj bo nadaljuje duhovito pripoved
o Ranti, fantu, ki je tako velik, da bi lahko žirafam kravate zavezoval. Vse izgleda
brezhibno, ko Rantino predpočitniško poletno vzdušje precej pretresejo nepredvidene
šolske obveznosti, ljubezenske težave in košarkaški zapleti. Ranta bo moral marsikaj
narediti in dognati povsem sam in tako bo ponovno zrastel. Samo tokrat ne le v višino.
To je film, ki ga zaznamuje otroška radoživost in sproščen humor. Pot mladostne
razigranosti prikazuje z naklonjenostjo in razumevanjem težav in napak najstnikov,
ki jih imajo pri svojem odraščanju.





Karen Souza - Essentials II {2014} FLAC

Klikni za povečavo!
03-01-2021 12:27 naložil System
Sejalci: 2 / Odjemalci: 0 / Velikost: 327.72 MB / Dokončani: 3
Prenesi torrent Poročaj torrent Opis torrenta NFO
Zvrst: Glasbeni
Kategorija: GLASBA > Glasba
Anonimen nalagalec

---------------------------------------------------------------------
Karen Souza - Essentials Ii
---------------------------------------------------------------------
Artist...............: Karen Souza
Album................: Essentials Ii
Genre................: Latin Jazz
Source...............: CD
Year.................: 2014
Ripper...............: EAC (Secure mode) / LAME 3.92 & Asus CD-S520
Codec................: Free Lossless Audio Codec (FLAC)
Version..............: reference libFLAC 1.2.1 20070917
Quality..............: Lossless, (avg. compression: 59 %)
Channels.............: Stereo / 44100 HZ / 16 Bit
Tags.................: VorbisComment
News Server..........: news.astraweb.com
News Group(s)........: alt.binaries.pl.mp3
Included.............: NFO
Covers...............: Front Back CD
---------------------------------------------------------------------
Tracklisting
---------------------------------------------------------------------
1. Karen Souza - The Way It Is [03:26]
2. Karen Souza - Wicked Game [04:06]
3. Karen Souza - Everyday Is Like Sunday [03:40]
4. Karen Souza - Dreams [03:43]
5. Karen Souza - Think It For A Minute [03:39]
6. Karen Souza - Skin Trade [03:41]
7. Karen Souza - Can't Help Falling In Love [03:23]
8. Karen Souza - Everybody Hurts [04:13]
9. Karen Souza - Never Tear Us Apart [03:21]
10. Karen Souza - Twist In My Sobriety [04:02]
11. Karen Souza - The Sound Of Violence [03:42]
12. Karen Souza - Shape Of My Heart [04:50]
13. Karen Souza - Never Gonna Give You Up [02:44]
14. Karen Souza - Have You Ever Seen The Rain (Live In Japan)[04:13]
Playing Time.........: 52:49
Total Size...........: 311,11 MB
Karen Souza - Essentials (2011) FLAC

Klikni za povečavo!
03-01-2021 10:53 naložil System
Sejalci: 1 / Odjemalci: 0 / Velikost: 334.62 MB / Dokončani: 3
Prenesi torrent Poročaj torrent Opis torrenta NFO
Zvrst: Glasbeni
Kategorija: GLASBA > Glasba
Anonimen nalagalec

---------------------------------------------------------------------
Karen Souza - Essentials
---------------------------------------------------------------------
Artist...............: Karen Souza
Album................: Essentials
Genre................: Latin Jazz
Source...............: CD
Year.................: 2011
Ripper...............: EAC (Secure mode) / LAME 3.92 & Asus CD-S520
Codec................: Free Lossless Audio Codec (FLAC)
Version..............: reference libFLAC 1.2.1 20070917
Quality..............: Lossless, (avg. compression: 65 %)
Channels.............: Stereo / 44100 HZ / 16 Bit
Tags.................: VorbisComment
News Server..........: news.astraweb.com
News Group(s)........: alt.binaries.pl.mp3
Included.............: NFO
---------------------------------------------------------------------
Tracklisting
---------------------------------------------------------------------
1. Karen Souza - Do You Really Want To Hurt Me [03:48]
2. Karen Souza - Creep [03:33]
3. Karen Souza - Strawberry Fields Forever [04:04]
4. Karen Souza - Tainted Love [03:16]
5. Karen Souza - Corcovado (Quiet Nights Of Quiet Stars) [03:57]
6. Karen Souza - Every Breath You Take [02:50]
7. Karen Souza - Personal Jesus [03:20]
8. Karen Souza - New Year's Day [03:52]
9. Karen Souza - Billie Jean [03:37]
10. Karen Souza - Wake Up And Make Love With Me [03:31]
11. Karen Souza - Have You Ever Seen The Rain [04:12]
12. Karen Souza - Bette Davis Eyes [04:01]
13. Karen Souza - Get Lucky [03:21]
14. Karen Souza - Smooth Operator [03:17]
Playing Time.........: 50:45
Total Size...........: 334,38 MB
Katie Melua - The Katie Melua Collection (2009) FLAC

Klikni za povečavo!
02-12-2020 02:50 naložil System
Sejalci: 1 / Odjemalci: 0 / Velikost: 335.06 MB / Dokončani: 9
Prenesi torrent Poročaj torrent Opis torrenta NFO
Zvrst: Glasbeni
Kategorija: GLASBA > Glasba
Anonimen nalagalec

---------------------------------------------------------------------
Katie Melua - The Katie Melua Collection
---------------------------------------------------------------------
Artist...............: Katie Melua
Album................: The Katie Melua Collection
Genre................: Blues
Source...............: CD
Year.................: 2009
Ripper...............: EAC (Secure mode) / LAME 3.92 & Asus CD-S520
Codec................: Free Lossless Audio Codec (FLAC)
Version..............: reference libFLAC 1.2.1 20070917
Quality..............: Lossless, (avg. compression: 53 %)
Channels.............: Stereo / 44100 HZ / 16 Bit
Tags.................: VorbisComment
Information..........:
News Server..........: news.astraweb.com
News Group(s)........: alt.binaries.pl.mp3
Included.............: NFO
Covers...............: Front Back CD
---------------------------------------------------------------------
Tracklisting
---------------------------------------------------------------------
1. Katie Melua - Closest Thing To Crazy [04:15]
2. Katie Melua - Nine Million Bicycles [03:17]
3. Katie Melua - What A Wonderful World [04:19]
4. Katie Melua - If You Were A Sailboat [04:01]
5. Katie Melua - Piece By Piece [03:24]
6. Katie Melua - Call Off The Search [03:25]
7. Katie Melua - On The Road Again [04:38]
8. Katie Melua - Mary Pickford [03:13]
9. Katie Melua - Spider's Web [03:56]
10. Katie Melua - Thank You Stars [03:40]
11. Katie Melua - I Cried For You [03:38]
12. Katie Melua - Crawling Up A Hill [03:25]
13. Katie Melua - Tiger In the Night [03:08]
14. Katie Melua - When You Taught Me How To Dance [03:24]
15. Katie Melua - Two Bare Feet [03:00]
16. Katie Melua - Toy Collection [03:13]
17. Katie Melua - Somewhere In The Same Hotel [03:50]
Playing Time.........: 01:01:54
Total Size...........: 330,03 MB
Kylie Minogue - DISCO (Deluxe) [2020] MP3

Klikni za povečavo!
06-11-2020 10:21 naložil System
Sejalci: 2 / Odjemalci: 0 / Velikost: 126.93 MB / Dokončani: 5
Prenesi torrent Poročaj torrent Opis torrenta NFO
Zvrst: Glasbeni
Kategorija: GLASBA > Glasba
Anonimen nalagalec

---------------------------------------------------------------------
Kylie Minogue - DISCO (Deluxe)
---------------------------------------------------------------------
Artist...............: Kylie Minogue
Album................: DISCO (Deluxe)
Genre................: Pop
Source...............: CD
Year.................: 2020
Ripper...............: EAC (Secure mode) / LAME 3.92 & Asus CD-S520
Codec................: LAME 3.10
Version..............: MPEG 1 Layer III
Quality..............: Insane, (avg. bitrate: 320kbps)
Channels.............: Stereo / 44100 hz
Tags.................: ID3 v1.1, ID3 v2.3
In
News Server..........: news.astraweb.com
News Group(s)........: alt.binaries.pl.mp3
Included.............: NFO
---------------------------------------------------------------------
Tracklisting
---------------------------------------------------------------------
1. Kylie Minogue - Magic [04:04]
2. Kylie Minogue - Miss A Thing [03:50]
3. Kylie Minogue - Real Groove [03:08]
4. Kylie Minogue - Monday Blues [03:03]
5. Kylie Minogue - Supernova [03:11]
6. Kylie Minogue - Say Something [03:26]
7. Kylie Minogue - Last Chance [02:57]
8. Kylie Minogue - I Love It [03:44]
9. Kylie Minogue - Where Does The DJ Go [02:55]
10. Kylie Minogue - Dance Floor Darling [03:06]
11. Kylie Minogue - Unstoppable [03:28]
12. Kylie Minogue - Celebrate You [03:36]
13. Kylie Minogue - Till You Love Somebody [02:56]
14. Kylie Minogue - Fine Wine [02:38]
15. Kylie Minogue - Hey Lonely [03:22]
16. Kylie Minogue - Spotlight [02:36]
Playing Time.........: 52:09
Total Size...........: 126,70 MB
Kateri pes je zame_dok.serija_SLOSub.R

Klikni za povečavo!
12-10-2020 16:03 naložil rado77
Sejalci: 1 / Odjemalci: 0 / Velikost: 904.24 MB / Dokončani: 2
Prenesi torrent Poročaj torrent Opis torrenta
Zvrst: Družinski
Kategorija: FILMI > Dokumentarni

Kateri pes je zame_dok.serija_SLOSub.R





Which Woof's for Me? tv serie - 2016
KATERI PES JE ZAME?
Sezona 01





dokumentarna serija
Potencialnim lastnikom psov svetujejo, preden jih posvojijo.




Žanri: Družina
Država: ZDA
Jezik: angleščina
Datum izdaje:31. marec 2016 (ZDA)
Podnapisi: Slovenski




KDOR SEJE TA ŽANJE!
Katy Perry - Smile (2020) Flac

Klikni za povečavo!
27-08-2020 01:41 naložil System
Sejalci: 2 / Odjemalci: 0 / Velikost: 257.59 MB / Dokončani: 6
Prenesi torrent Poročaj torrent Opis torrenta NFO
Zvrst: Glasbeni
Kategorija: GLASBA > Glasba
Anonimen nalagalec

---------------------------------------------------------------------
Katy Perry - Smile
---------------------------------------------------------------------
Artist...............: Katy Perry
Album................: Smile
Genre................: Pop
Source...............: CD
Year.................: 2020
Ripper...............: EAC (Secure mode) / LAME 3.92 & Asus CD-S520
Codec................: Free Lossless Audio Codec (FLAC)
Version..............: reference libFLAC 1.2.1 20070917
Quality..............: Lossless, (avg. compression: 69 %)
Channels.............: Stereo / 44100 HZ / 16 Bit
Tags.................: VorbisComment
Information..........:
Ripped by............: somebody on 27. 08. 2020
Posted by............: somebody on 27. 08. 2020
News Server..........: news.astraweb.com
News Group(s)........: alt.binaries.pl.mp3
Included.............: NFO
---------------------------------------------------------------------
Tracklisting
---------------------------------------------------------------------
1. Katy Perry - Never Really Over [03:43]
2. Katy Perry - Cry About It Later [03:08]
3. Katy Perry - Teary Eyes [03:02]
4. Katy Perry - Daisies [02:54]
5. Katy Perry - Resilient [03:07]
6. Katy Perry - Not The End Of The World [02:58]
7. Katy Perry - Smile [02:46]
8. Katy Perry - Champagne Problems [03:14]
9. Katy Perry - Tucked [03:07]
10. Katy Perry - Harleys In Hawaii [03:05]
11. Katy Perry - Only Love [03:16]
12. Katy Perry - What Makes A Woman [02:11]
Playing Time.........: 36:36
Total Size...........: 256,44 MB


KGB.The.Sword.and.the.Shield.2018.S01.SLOSubs.720p.WEB-DL.H264.AAC-GENOX(1)

Klikni za povečavo!
12-08-2020 08:35 naložil Spartakus
Sejalci: 0 / Odjemalci: 0 / Velikost: 2.11 GB / Dokončani: 5
Prenesi torrent Poročaj torrent Opis torrenta NFO
Zvrst: Dokumentarni
Kategorija: FILMI > Dokumentarni


Naziv: KGB.The.Sword.and.the.Shield.2018.S01.SLOSubs.720p.WEB-DL.H264.AAC-GENOX
Leto izida .........: 2018
Velikost ...........: 2.10 GiB
Video ...............: 1800 kb/s | 1280x720 | 25 fps
Zvok .................: AAC 2.1 @ 128 Kbps
Jezik ................: Slovenski | Angleški | Ruski
Kodek.................: H264
Zvrst...............: Dokumentarec
Država .............: Rusija
Podnapisi .........: SLOVENSKI (RETAiL- VGRAJENI)

VSEBINA:
Tridelna nemška dokumentarna serija razišče, kako je v stotih letih
obstoja ruska tajna obveščevalna služba, zloglasni KGB, vplivala na
razvoj svetovnih družbenopolitičnih dogodkov in oblikovala današnjo
Rusijo. Režiser Jamie Doran, štirikratni dobitnik emmyja, pojasni
zgodovino KGB-ja z bogatimi arhivskimi posnetki ter pričevanji
njegovih nekdanjih pripadnikov in žrtev.

1.del:
Lenin je tajno policijo ustanovil "le začasno", vendar so njeni pripadniki
med zatiranjem notranjega nezadovoljstva – pravega in namišljenega – pobili
na milijone državljanov Sovjetske zveze. Pripadniki varnostnih služb ZSSR-ja
so se v tujini vtihotapljali v nemško poveljstvo, britansko obveščevalno
službo in projekt Manhattan, kot so Američani imenovali razvoj atomske bombe.
Moskva je kmalu imela vse potrebno za izdelavo svojega jedrskega orožja.
Začela se je hladna vojna.

2.del:
Sovjetska zveza je avgusta 1949, najmanj pet let prej, kot so pričakovali
na Zahodu, po zaslugi vohunov, ki so Američanom ukradli skrivnosti o jedrskem
orožju, postala druga svetovna velesila. Toda Stalin je marca 1953 umrl.
Poveljnika KGB-ja, Berijo, so usmrtili istega leta. Nikita Hruščev je poskušal
zmanjšati moč varnostnih služb tako, da jih je razbil na več delov. Vendar mu
je oslabitev uspela le začasno. KGB se je kmalu vrnil. V tujini mu je uspel
veliki met – vohuna je pridobil v samem Cijinem vrhu.

3.del:
Državni udari, atentati, spolni škandali, zastrupitve z radioaktivnimi snovmi ...
Ob tem pomislimo na filme o Jamesu Bondu. Vendar je vse to v Rusiji zelo resnično.
KGB oziroma FSB, kot se služba zdaj imenuje, pod Vladimirjem Putinom vlada Rusiji
z železno roko kar iz Kremlja. Če se ji uprete, tvegate življenje, tudi če mislite,
da ste na varnem, ker ste v tujini. KGB-ju je uspelo preživeti komunizem. Rusija
zdaj ni več država z varnostno službo. Nasprotno, varnostna služba ima državo.



Killerman 2019 SrbSubs 720p BRRip XviD AC3 Unknown

05-08-2020 11:18 naložil ViHaR
Sejalci: 1 / Odjemalci: 0 / Velikost: 3.91 GB / Dokončani: 8
Prenesi torrent Magnet Link Poročaj torrent Opis torrenta NFO
Kategorija:



Killerman 2019 720p BRRip XviD AC3 Unknown
Language(s): English
Size: 3.91 GB | Duration: 1hr 52mn | Container: AVI
Audio: AC-3 | 640 Kbps | 6 Channels
Video: XviD | 4332 Kbps | 1280 x 536
Genre: Action | Crime | Thriller
Podnapisi: srbski

https://www.imdb.com/title/tt7420342/


Liam Hemsworth, Emory Cohen, Diane Guerrero


Dva prijatelja pereta denar v NYC-u. Hitro sklepata posle z drogo. Zadeve gredo po zlu, ker sodelujejo pokvarjeni policaji ...

Killer.Asteroid.2004.ExYu.Sub.PAL.DVDR

Klikni za povečavo!
21-06-2020 13:07 naložil System
Sejalci: 1 / Odjemalci: 0 / Velikost: 2.25 GB / Dokončani: 4
Prenesi torrent Poročaj torrent Opis torrenta
Zvrst: Dokumentarni
Kategorija: FILMI > Dokumentarni
Anonimen nalagalec

Killer Asteroid- Naked Science (2004)
UBUJALSKI ASTEROID- Gola znanost (2004)



-------------
INFO:
-------------
Source..........: DVD
Format..........: 4:3
Standard........: PAL
Width...........: 720 pixels
Height..........: 576 pixels
Release Size....: 2,25 GB
iMDB Link.......: KLIK
iMDB Rating.....: 6,8/10 (12)
Genre...........: Documentary, Adventure
Country.........: USA/ UK
Language........: English
Video...........: Untouched
Audio...........: MPEG-1 2-ch English
Subs............: Croatian/ Slovenian/ Serbian
Extras..........: yes
Regija..........: Prosto
Runtime.........: 00:50.22 min
Čas predvajanja.: 00:50.22 min

-------------
IGRALCI:
-------------
Raymond R. Anderson ...
Self - Project Geologist, Iowa Geological Survey
Erik Asphaug ...
Self - Planetary Scientist, Univ. of California, Santa Cruz
Dan Durda ...
Senior Research Scientist, Southwest Research Institute
Jenifer Evans ...
Self - Research Engineer, Lincoln
Monte Henderson ...
Self - Deputy Program Manager 'Deep Impact Mission'
David Levy ...
Self - Comet Discoverer
Jay Melosh ...
Planetary Scientist / University of Arizona / Tucson
Eric Meyers ...
Self - Narrator
Russell Schweickart ...
Self - Apollo 9 Astronaut
Roger Tilling ...
Narrator UK
Brian J. Witzke ...
Self - Geologist, Iowa Geological Survey

-------------
OPIS:
-------------
Štirikrat večja je verjetnost, da boste umrli zaradi udarca asteroida,
kot da bi v vas udarila strela. Gola znanost sledi aktivno tej grožnji.
Ali lahko znanost prepreči svetovno katastrofo? In kar je še pomembneje,
kdaj bo prišel ta dan?



Kalashnikov.2020.SrbSub.1080p.WEB.x264-[cyd]

Klikni za povečavo!
27-04-2020 04:20 naložil
Sejalci: 2 / Odjemalci: 0 / Velikost: 3.04 GB / Dokončani: 22
Prenesi torrent Magnet Link Poročaj torrent Opis torrenta NFO
Zvrst: Biografija
Kategorija:

——————————————————————————————————————————————————————————————————
IMDb info:
◎ Naslov, leto: Kalashnikov (2020)
◎ Zvrst: biografski
◎ Jezik: ruski
◎ Ocena: 6,1
◎ Povzetek:
Biographical film about the inventor and designer of small arms Mikhail Timofeevich Kalashnikov. Today it is difficult to find a person who does not know this name. However, not everyone ...
———————————————————————————————————————————————————————————
NAPOVEDNIK:
——————————————————————————————————————————————————————————————————
PODNAPISI:
◎ Jezik : srbski latinica [vstavljeni / softcoded / multiplexed]
——————————————————————————————————————————————————————————————————
VIR:
◎ Source:
Kalashnikov.2020.WEB-DL.(1080p).ExKinoRay[EtHD].mp4
◎ After coding:
Kalashnikov.2020.SrbSub.1080p.WEB.x264-[cyd].mkv
———————————————————————————————————————————————————————————
POVEZAVA:
◎ Seedbox, speed Limit: NO
———————————————————————————————————————————————————————————
———————————————————————————————————————————————————————————
Kingdom.2019.BosSubs.S01.720p.NF.WEB.XviD.AC3.PACK

Klikni za povečavo!
15-03-2020 12:34 naložil
Sejalci: 1 / Odjemalci: 0 / Velikost: 8.48 GB / Dokončani: 8
Prenesi torrent Magnet Link Poročaj torrent Opis torrenta
Zvrst: Akcija | Triler
Kategorija: FILMI > WEBRip-720

——————————————————————————————————————————————————————————————————
Kingdom 2019
Language(s): Korean
Size: 8.47 GB | Duration: 6 x 55mn | Container: AVI
Audio: AC-3 | 448 Kbps | 6 Channels
Video: XviD | 3400 Kbps | 1280 x 720
Source: Kingdom.2019.BosSubs.S01.720p.NF.WEB.XviD.AC3.PACK
◎ Zvrst: Action | Thriller
◎ Stars: Kim Sungkyu, Sang-ho Kim, Hye-Jun Kim
◎ Povzetek: While strange rumors about their ill King grip a kingdom, the crown prince becomes their only hope against a mysterious plague overtaking the land.
———————————————————————————————————————————————————————————
YouTube URADNI NAPOVEDNIK:
——————————————————————————————————————————————————————————————————
POVEZAVA:
◎ Seedbox NO Speed Limit
—————————————————————————————————————————————-—————————————
Kholop.2019.SrbSub.720p.WEB.XviD.AAC-[cyd]

Klikni za povečavo!
07-03-2020 18:40 naložil
Sejalci: 1 / Odjemalci: 0 / Velikost: 3 GB / Dokončani: 31
Prenesi torrent Magnet Link Poročaj torrent Opis torrenta NFO
Zvrst: Komedija
Kategorija: FILMI > WEBRip-720

IMDb info:
◎ Naslov, leto : Kholop (2019)
◎ Zvrst: komedija
◎ Jezik: ruski
◎ Ocena: 6,7
◎ Povzetek: An ill-behaved, greedy man wakes up in a 19th century village and finds he is a peasant.
———————————————————————————————————————————————————————————
YouTube URADNI NAPOVEDNIK:
——————————————————————————————————————————————————————————————————
PODNAPISI:
◎ Prevod : nAnaD
◎ Jezik : srbski latinica [vstavljeni / softcoded / multiplexed]
——————————————————————————————————————————————————————————————————
VIR:
◎ Source:
Kholop.2019.720p.WEBRip.XviD.AC3-Unknown.avi
◎ After coding:
Kholop.2019.SrbSub.720p.WEB.XviD.AAC-[cyd].mkv
————————————————————————————————————————————————————-——————
POVEZAVA:
◎ Seedbox, speed limit: NO
—————————————————————————————————————————————-—————————————
Knives.Out.2019.CROSUB.1080p.WEBRip.x264-NOGRP

Klikni za povečavo!
09-02-2020 16:13 naložil el201
Sejalci: 1 / Odjemalci: 0 / Velikost: 2.48 GB / Dokončani: 13
Prenesi torrent Magnet Link Poročaj torrent Opis torrenta
Kategorija:

Knives.Out.2019.CROSUB.1080p.WEBRip.x264

Jamie Lee Curtis, Don Johnson, Toni Collette, Christopher Plummer, Daniel Craig, Chris Evans, Michael Shannon, Ana de Armas, LaKeith Stanfield, Jaeden Martell, and Katherine Langford in Knives Out (2019)


Video
ID : 1
Format : AVC
Format/Info : Advanced Video Codec
Format profile : High@L4.1
Format settings : CABAC / 4 Ref Frames
Format settings, CABAC : Yes
Format settings, Reference frames : 4 frames
Codec ID : avc1
Codec ID/Info : Advanced Video Coding
Duration : 2 h 10 min
Bit rate : 2 500 kb/s
Width : 1 920 pixels
Height : 1 036 pixels
Display aspect ratio : 1.85:1
Frame rate mode : Constant
Frame rate : 23.976 (23976/1000) FPS
Color space : YUV
Chroma subsampling : 4:2:0
Bit depth : 8 bits
Scan type : Progressive
Bits/(Pixel*Frame) : 0.052
Stream size : 2.27 GiB (92%)
Writing library : x264 core 152 r2851M ba24899


Zvok
ID : 2
Format : AAC LC
Format/Info : Advanced Audio Codec Low Complexity
Codec ID : mp4a-40-2
Duration : 2 h 10 min
Bit rate mode : Constant
Bit rate : 224 kb/s
Channel(s) : 6 channels
Channel layout : C L R Ls Rs LFE
Sampling rate : 48.0 kHz
Frame rate : 46.875 FPS (1024 SPF)
Compression mode : Lossy
Stream size : 208 MiB (8%)
Language : English

IGRAJO

Daniel Craig ... Benoit Blanc
Chris Evans ... Ransom Drysdale
Ana de Armas ... Marta Cabrera
Jamie Lee Curtis ... Linda Drysdale
Michael Shannon ... Walt Thrombey
Don Johnson ... Richard Drysdale

VSEBINA

A detective investigates the death of a patriarch of an eccentric, combative family.






Killers.Anonymous.2019.SrbSub.1080p.WEB.x264-[cyd]

Klikni za povečavo!
05-07-2019 20:04 naložil
Sejalci: 1 / Odjemalci: 0 / Velikost: 1.83 GB / Dokončani: 21
Prenesi torrent Magnet Link Poročaj torrent Opis torrenta NFO
Kategorija:

———————————————————————————————————————————————————————————
IMDb info:
◎ Naslov:KILLERS ANONYMOUS
◎ Leto: 2019
◎ Zvrst: akcija kriminalka skrivnosten
◎ Jezik: angleški
◎ Ocena: ★★★★★★ (6,3)
◎ Stars:
◎ Povzetek: A support group of killers is held regularly. The participants sit in a circle of trust and share their transgressions.
———————————————————————————————————————————————————————————
YouTube URADNI NAPOVEDNIK:
———————————————————————————————————————————————————————————
PODNAPISI:
◎ Jezik : srbski latinica [vstavljeni / softcoded / multiplexed]
———————————————————————————————————————————————————————————
VIR:
◎ Source:
Killers.Anonymous.2019.1080p.WEBRip.x264-RARBG.mp4
◎ After coding:
Killers.Anonymous.2019.SrbSub.1080p.WEB.x264-[cyd].mkv
———————————————————————————————————————————————————————————
Kill.List.2011.SLOSubs.BRRip.XviD-DrSi

Klikni za povečavo!
24-06-2019 23:40 naložil NERON
Sejalci: 1 / Odjemalci: 0 / Velikost: 2.1 GB / Dokončani: 7
Prenesi torrent Magnet Link Poročaj torrent Opis torrenta
Kategorija:

KILL LIST (2011)
SEZNAM ZA ODSTREL
kriminalka / triler




Naziv: Kill.List.2011.SLOSubs.BRRip.XviD-DrSi
Source: Kill.List.2011.720p.BluRay.DD5.1.x264-EbP

Leto izida .........: 2011
Velikost ...........: 2,10 GB
Dolžina ............:95 Minut
Video ...............: 720x304; 2695 Kbps; 23,976 fps
Zvok .................: Dolby Digital AC3 5.1 @ 448 Kbps
Kodek.................: XviD
Država .............: VB
Zvrst ................: Kriminalka | Triler | Drama | Grozljivka
Jezik ................: Angleški
Podnapisi .........:
Slovenski(RETAiL)
Prevod: Mediatranslations

Tehnična obdelava: DVD Rippers Slovenija


Režija.......: Ben Wheatley
Scenarij.....: Ben Wheatley & Amy Jump



Neil Maskell ... Jay
MyAnna Buring ... Shel
Harry Simpson ... Sam
Michael Smiley ... Gal
Emma Fryer ... Fiona
Struan Rodger ... The Client
Esme Folley ... Hotel Receptionist
Ben Crompton ... Justin
Gemma Lise Thornton ... Keira
Robin Hill ... Stuart



Režiser Ben Wheatley v napetem žanru prinaša zgodbo, ki so jo imenovali celo najboljša
grozljivka leta. Briljantna mešanica družinske drame, akcijskega trilerja o naročenih
umorih in psihološke srhljivke. Zgodba spremlja nekdanjega vojaka, zdaj morilca po
naročilu, ki se znajde v vrtincu človeške temačnosti. Osem mesecev po katastrofalno
neuspešni nalogi v Kijevu, ki ga je umsko in telesno izčrpala, Jaya (Neil Maskell)
njegov sodelavec Gal (Michael Smiley) prepriča, da sprejme nov posel. Medtem ko se
čedalje bolj pogrezata v čudaško izkrivljeni svet naročenih umorov, se spiralno razkraja
tudi Jayev lastni svet, dokler ga strah in preganjavica ne potisneta na grozljivo točko
brez vrnitve.



NAPOVEDNIK: