A
B
C
D
E
F
G
H
I
J
K
L
M
N
O
P
Q
R
S
T
U
V
W
X
Y
Z
0-9
DJ VIHAR & DJ AJDA - SLO & HR MIX 50

Klikni za povečavo!
01-05-2017 15:08 naložil Ajda
Sejalci: 1 / Odjemalci: 0 / Velikost: 239.04 MB / Dokončani: 80
Prenesi torrent Poročaj torrent Opis torrenta NFO
Kategorija: GLASBA > Glasba





INFO :
Format : MPEG Audio
File size : 239 MiB
Duration : 1 h 44 min
Overall bit rate mode : Constant
Overall bit rate : 320 kb/s
Encoded by : Lavf52.39.0
Writing library : LAME3.98

Audio
Format : MPEG Audio
Format version : Version 1
Format profile : Layer 3
Mode : Joint stereo
Duration : 1 h 44 min
Bit rate mode : Constant
Bit rate : 320 kb/s
Channel(s) : 2 channels
Sampling rate : 48.0 kHz
Compression mode : Lossy
Stream size : 239 MiB (100%)
Writing library : LAME3.98

VSEBINA:

MIX- 50

01.ZDRAVKO ŠKENDER - Ne ide to tako
02.BARABE - Živjeli mladenci
03.NUŠA ROJS - Pomosna gasilka
04.POP DESIGN - Vzela si moje srce
05.DARUS DESPOT - Kraljica noči
06.MIA - Bezimeni
07.ROBERT FICKER - Sladka tajna
08.AGROPOP & FRANČEK - Če hočeš moja bit
09.MALIBU - Dobri stari časi
10.KLAPA SKALA & DARJA GAJŠEK - Mala barka
11.ALEN NIZETIČ - Ja sam te volio
12.FOSSILY BAND - E da si moja
13.LUKA NIZETIČ - Ne ne ne da da da
14.ČUDEŽNI DEČKI - Ne obsojajte jo
15.ŽELJKO BEBEK - Ono nešto naše
16.ZAKA PA NE - Malo nora sva
17.DARKO DUŠA - Oprosti
18.SKATER - Ta tamala
19.ANS. ROKA ŽLINDRE - Pogrešam te
20.MACAO BAND - Moja rano
21.JASMIN STAVROS - Mare moja
22.LIDIJA BAČIČ - Glupacho moja
23.DAVOR RADOLFI - Sanjao sam da te vozim
24.DRAŽEN ZEČIČ - Ona novo ljubav ima
25.MIROSLAV ŠKORO & VIGOR - Merak
26.PIRATI - Rane imam
27.TONČI & MADRE BADESSA - No stress
28.IVAN ZAK - Ničija
29.MODRIJANI - Digidi
30.WERNER & KLAPA LAVANDA - Tam nekje





Dark.Places.2015.SLOSubs.720p.BRRip.XviD-DrSi

Klikni za povečavo!
06-03-2017 13:20 naložil Ziva
Sejalci: 1 / Odjemalci: 0 / Velikost: 3.4 GB / Dokončani: 8
Prenesi torrent Poročaj torrent Opis torrenta NFO
Kategorija: FILMI > BRRip



Naziv: Dark.Places.2015.SLOSubs.720p.BRRip.XviD-DrSi
Source: Dark.Places.2015.MultiSubs.BluRay.1080p.DTS-HD.MA-5.1.x264-DrSi

Leto .........: 2015
Velikost .....: 3,40 GB
Dolžina ......: 112 min.
Video ........: 3 870 Kbps | 1280x534 | 24 fps | XviD
Zvok .........: Dolby Digital AC3 5.1 @ 448 Kbps
Jezik ........: Angleški
Režija........: Gilles Paquet-Brenner
Scenarij......: Gilles Paquet-Brenner po romanu Gillian Flynn
Produkcija....: Exclusive Media Group, Mandalay Vision, Cuatro Plus Films
Žanr..........: Drama | Misterij | Triler
Država .......: VB | Francija | ZDA
Podnapisi.....: Slovenski | Prevod: CUSTOM (Lorelei Conscreor)
Popravil in uredil: metalcamp
Tehnična obdelava DVD Rippers Slovenija

IMDb Link........: http://www.imdb.com/title/tt2402101/



Charlize Theron ... Libby Day
Sterling Jerins ... Young Libby Day
Nicholas Hoult ... Lyle Wirth
Christina Hendricks ... Patty Day
Corey Stoll ... Ben Day
Tye Sheridan ... Young Ben Day
Andrea Roth ... Diondra
Chloë Grace Moretz ... Young Diondra
Sean Bridgers ... Runner Day
J. LaRose ... Trey Teepano


Libby je v mladosti preživela grozovit pokol svoje družine, ki naj bi ga zagrešil
njen brat. Ker jo 25 let kasneje grozljive podobe iz preteklosti še vedno preganjajo,
sprejme ponudbo nenavadne združbe amaterskih preiskovalcev, ki želijo razrešiti
skrivnosti takratne tragedije. Prepričani, da Libbyjin brat ni morilec, se skupaj
z njo vrnejo na kraj zločina in kmalu naletijo na številne nenavadne sledi. Libby
se je prisiljena soočiti s svojo preteklostjo, vendar utegne biti razkritje resnice
še bolj boleče in grozljivo.






DJ VIHAR & DJ AJDA - SLO & HR MIX 49

Klikni za povečavo!
09-02-2017 15:01 naložil Ajda
Sejalci: 1 / Odjemalci: 0 / Velikost: 188.42 MB / Dokončani: 74
Prenesi torrent Poročaj torrent Opis torrenta NFO
Kategorija: GLASBA > Glasba




INFO:
Format : MPEG Audio
File size : 188 MiB
Duration : 1 h 21 min
Overall bit rate mode : Constant
Overall bit rate : 320 kb/s
Encoded by : Lavf52.39.0
Writing library : LAME3.98

Audio
Format : MPEG Audio
Format version : Version 1
Format profile : Layer 3
Mode : Joint stereo
Duration : 1 h 21 min
Bit rate mode : Constant
Bit rate : 320 kb/s
Channel(s) : 2 channels
Sampling rate : 48.0 kHz
Compression mode : Lossy
Stream size : 188 MiB (100%)
Writing library : LAME3.98

VSEBINA:
01. IVANA KOVAC - Ako si musko
02. PETAR GRASO – Ne znam zase
03. JOLE & LUKA BASI – Nisam ja od juce
04. LEO – U dobrim rukama
05. HERVIN JAKONCIC – Beli golob
06. MODRIJANI - Rock me
07. MAKI - Zameli te snjegovi
08. ERAZEM - Bejbe iz obale
09. DEJAN VUNJAK - Nocoj bo lustno
10. OKEJ - Milijon razlogov
11. CUDEZNI DECKI - Ce bi ti dala mi
12. SREBRNA KRILA - Jos da mi te jednom ljubiti
13. BRALIC & INTRADE - Ne mogu te prestat jubit
14. ANS.ME TRI DO POLNOCI - Nasmeh ne gre nikoli iz mode
15. DARKO DUSA - Oprosti
16. MELITA BRUCIC - Nema vise ni kraljice ni kralja
17. BOSTJAN DIRNBEK - Nisam ti ja
18. SIJEPAN JAPAC - Zvijezda najveca
19. IGOR DELAC - Samo ljubav
20. HOORUK - Sol na moju ranu
21. UCITELJICE - Na stanu
22. MARKO SKUGOR _ Samo ti
23. MARINA TOMASEVIC - Tvoj sam kralj
24. ZVITA FELTNA - Ljubice
25. VILI RESNIK - Ne




Demolition.2015.SLOSubs.DVDRip.XviD-DrSi

Klikni za povečavo!
24-01-2017 12:36 naložil Ziva
Sejalci: 1 / Odjemalci: 0 / Velikost: 1.37 GB / Dokončani: 6
Prenesi torrent Poročaj torrent Opis torrenta NFO
Zvrst: Drama
Kategorija: FILMI > DVDRip



Naziv: Demolition.2015.SLOSubs.DVDRip.XviD-DrSi
Source: Demolition.2015.RETAIL.HUN.PAL.DVD9-SNERZ

Leto .........: 2015
Velikost .....: 1,37 GB
Dolžina ......: 96 min.
Video ........: 1 582 Kbps | 720x304 | 25 fps | XviD
Zvok .........: Dolby Digital AC3 5.1 @ 448 Kbps
Jezik ........: Angleški
Režija........: Jean-Marc Vallée
Scenarij......: Bryan Sipe
Produkcija....: Black Label Media, Mr. Mudd, Right of Way Films
Žanr..........: Drama
Država .......: ZDA
Podnapisi.....: Slovenski | Prevod: RETAiL
Tehnična obdelava DVD Rippers Slovenija

IMDb Link........: http://www.imdb.com/title/tt1172049/



Jake Gyllenhaal ... Davis
Naomi Watts ... Karen
Chris Cooper ... Phil
Judah Lewis ... Chris
C.J. Wilson ... Carl
Polly Draper ... Margot
Malachy Cleary ... Davis' Dad
Debra Monk ... Davis' Mom
Heather Lind ... Julia
Wass Stevens ... Jimmy


Demolition je drama o uspešnem investicijskem bankirju Davisu (Jake Gyllenhaal),
ki se mu svet postavi na glavo, ko mu v prometni nesreči pred očmi umre žena.
Kljub pritisku njegovega zeta Phila (Chris Cooper), da se vendarle sestavi,
Davis tone vedno globlje. Iz osamljene pritožbe zaradi pokvarjenega avtomata
za hrano v bolnišnici, se to sprevrže v dopisovanje vredno dveh zaljubljencev,
njegova pisma, ki so v resnici klic na pomoč, pa pritegnejo pozornost Karen
(Naomi Watts), ki je v podjetju zadolžena za stranke. Med njima in njenim sinom
(Judah Lewis) se splete nepričakovana vez. In s tem Davis začne graditi novo
življenje, ki pa se začne šele z uničenjem (metaforičnim in fizičnim) življenja,
ki ga je nekoč poznal.






Der.Nachtmahr.2015.SLOSubs.BRRip.XviD-DrSi

Klikni za povečavo!
09-01-2017 13:22 naložil Ziva
Sejalci: 1 / Odjemalci: 0 / Velikost: 1.9 GB / Dokončani: 7
Prenesi torrent Poročaj torrent Opis torrenta NFO
Zvrst: Drama | Skrivnosten
Kategorija: FILMI > BRRip



Naziv: Der.Nachtmahr.2015.SLOSubs.BRRip.XviD-DrSi
Source: Der.Nachtmahr.2015.1080p.BluRay.x264-USURY
Leto izida .........: 2015
Velikost ...........: 1,90 GB
Dolžina ............: 91 Minut
Video ...............: 2517 Kbps | 720x304 | 23,976 fps
Zvok .................: Dolby Digital AC3 5.1 @ 448 Kbps
Kodek.................: XviD
Zvrst………….: Drama | Misterij
Država .............: Nemčija
Jezik ................: Nemški
Podnapisi .........: Slovenski (RETAiL)
Prevod: Mediatranslations
Za HD priredil metalcamp
Tehnična obdelava: DVD Rippers Slovenija

IMDb Info .......: http://www.imdb.com/title/tt3141498/


Režija.........: Achim Bornhak (as Akiz)
Scenarij.......: Achim Bornhak (as Akiz)


Carolyn Genzkow ... Tina
Sina Tkotsch ... Barbara
Wilson Gonzalez ... Adam
Arnd Klawitter ... Tinas Vater
Julika Jenkins ... Tinas Mutter
Aram Arami ... Rashid
Michael Epp ... Polizist Schonrath
Lynn Femme ... Monika



Po celonočni zabavi v dvorcu s plavalnim bazenom začne najstnica Tina doživljati
čudne izkušnje: privide ter mučne in nelagodne zvoke. Doma jo preganja skrivnostna
pojava, ki jo lahko vidi le ona.

Šestnajstletna Tina (Carolyn Genzkow) je samo še ena izmed mnogih najstnic v skupini
vrstnikov, ki se ponoči odkradejo od doma, hodijo na raverske zabave in preizkušajo
številne prepovedane opojne snovi v družbi fantov. Po neki posebej naporni noči
zabave v dvorcu s plavalnim bazenom si začne Tina po svoje razlagati podobe, ki jih
je zabeležil njen mobilni telefon. Zbudi se s čudno majhno pojavo ob sebi, ki jo
poslej spremlja povsod in jo lahko vidi le ona. Nihče drug ne doživlja tega, starši
ji ne verjamejo, psiholog pa ji predlaga, naj se sooči s tem bitjem in ga vpraša,
kaj pravzaprav hoče od nje. Tina uboga nasvet in v čudnem pojavu nazadnje odkrije
bolj prijatelja kakor sovražnika. Vendar gre za odnos, ki bo Tino spremenil
do nerazpoznavnosti.




Dirty.Weekend.2015.SLOSubs.WEBRip.XviD-metalcamp

Klikni za povečavo!
18-12-2016 13:24 naložil Ziva
Sejalci: 0 / Odjemalci: 0 / Velikost: 1.9 GB / Dokončani: 14
Prenesi torrent Poročaj torrent Opis torrenta NFO
Zvrst: Drama | Komedija
Kategorija: FILMI > WEBRip



Naziv: Dirty.Weekend.2015.SLOSubs.WEBRip.XviD-metalcamp
Source: Dirty.Weekend.2015.720p.WEBRIP.x264.AC3-EVE
Leto izida .........: 2015
Velikost ...........: 1,90 GB
Dolžina ............: 116 Minut
Video ...............: 2399 Kbps | 720x400 | 23,976 fps
Zvok .................: Dolby Digital AC3 5.1 @ 448 Kbps
Kodek.................: XviD
Zvrst………….: Komedija | Drama
Država .............: ZDA
Jezik ................: angleški
Podnapisi .........: Slovenski (RETAiL -vgrajeni)
Prevod: Mediatranslations
Priredil: metalcamp
Tehnična obdelava: DrSi

IMDb Info .......: http://www.imdb.com/title/tt3194590/


Režija.........: Neil LaBute
Scenarij.......: Neil LaBute


Matthew Broderick ... Les Moore
Alice Eve ... Natalie Hamilton
Phil Burke ... Cabbie
Gia Crovatin ... Dylan
Monique Candelaria ... Dark Haired Beauty
Charles Duran ... Vince
Fredrick Lopez ... Proprietor
Matthew Page ... Bartender


Ko obtičita na letališču, se sodelavca Les in Natalie spoznata bolje, kot sta mislila,
da je to mogoče. Drug drugemu zaupata svoje najbolj umazane skrivnosti. Odpravita se
v mesto po poti samoodkrivanja.

Sodelavca Les (Matthew Broderick) in Natalie (Alice Eve) zaradi zamude nepričakovano
obtičita na letališču v Albuquerqueu. Les je nemiren in živčen ter ne more več prenašati
delavcev, ki jih srečuje na vsakem koraku, zato se odpravi v mesto. Natalie ga noče
zapustiti in sčasoma odkrije, da ima njegovo na videz brezciljno tavanje v resnici
nekatere koristne učinke. Tako kot on ima tudi Natalie nekatere umazane skrivnosti
in nihče od njiju ne more več dolgo molčati. Nenadejano se zbližata in spoznata bolje,
kot sta mislila, da je to sploh mogoče, in kmalu na najbolj nenavadnih krajih skupaj
iščeta iskrice vznemirjenja.




Duell.der.Bruder.2016.SLOSubs.TVRip.XviD-metalcamp

Klikni za povečavo!
13-12-2016 19:51 naložil Ziva
Sejalci: 0 / Odjemalci: 0 / Velikost: 2.11 GB / Dokončani: 11
Prenesi torrent Poročaj torrent Opis torrenta NFO
Kategorija: FILMI > TVRip



Naziv: Duell.der.Bruder.2016.SLOSubs.TVRip.XviD-metalcamp
Source: DVB-T (Cinemax)
Leto izida .........: 2016
Velikost ...........: 2,10 GB
Dolžina ............: 116 Minut
Video ...............: 2399 Kbps | 720x400 | 25 fps
Zvok .................: Dolby Digital AC3 2.0 @ 192 Kbps
Kodek.................: XviD
Zvrst………….: Biografski | Zgodovinski | Drama
Država .............: Nemčija
Jezik ................: nemški
Podnapisi .........: Slovenski (RETAiL)
Prevod: Mediatranslations
Priredil: metalcamp
Tehnična obdelava: DrSi

IMDb Info .......: http://www.imdb.com/title/tt5013980/


Režija.........: Vohn Regensburger
Scenarij.......: Vohn Regensburger


Ken Duken ... Adi Dassler
Torben Liebrecht ... Rudi Dassler
Jesse Albert ... Karl
Nadja Becker ... Friedl
Henk Buchholz ...Armin Dassler
David C. Bunners ... Josef Waitzer
Merle Collet ... Erika
Alexander Cudreasov ... Ferenc Puskás
Lars Doppler ... Bürgermeister Herzogenaurach
Christoph Gareisen ... Sepp Herberger
Annina Hellenthal ... Inge


Po resnični zgodbi med letoma 1924 in 1954 posneti film spremlja življenje,
delo in razdor nemških bratov Adolfa in Rudolfa Dasslerja, ki sta ustanovila
poslovna imperija športnih rekvizitov Adidas in Puma.

Sveta športa si ni mogoče predstavljati brez bratov Dassler. V majhnem nemškem mestu
sta živela Adolf "Adi" Dassler in njegov brat Rudolf, sila različna po značaju in
tako rekoč tudi vsem drugem. Edina stvar, glede katere sta se strinjala, je bilo njuno
življenjsko poslanstvo, da bi izdelala popolno športno obuvalo. Brata se idealno
dopolnjujeta, saj je Adi domiselni izumitelj, Rudi pa rojeni poslovnež – a kaj,
ko imata skupno tudi neko slabost: ženske. Ljubosumje se vname, ko Adijeva iznajdljiva
soproga sklene delati v podjetju, medtem ko se Rudi oklepa tradicije. Nesporazumi
vodijo v spor in ta naposled privede v propad podjetja. Brata se razideta in postaneta
tekmeca.





DJ VIHAR & DJ AJDA - SLO & HR MIX 48

Klikni za povečavo!
10-12-2016 17:59 naložil Ajda
Sejalci: 2 / Odjemalci: 0 / Velikost: 305.75 MB / Dokončani: 95
Prenesi torrent Poročaj torrent Opis torrenta NFO
Kategorija: GLASBA > Glasba






*******************************************************************************
~ DJ VIHAR & DJ AJDA - SLO & HR MIX 48 ~
*******************************************************************************

Avdio in Video podatki


Complete name : DJ VIHAR & DJ AJDA - SLO & HR MIX 48
Format : MPEG Audio
File size : 305 MiB
Duration : 2 h 13 min
Overall bit rate mode : Constant
Overall bit rate : 320 kb/s
Encoded by : Lavf52.39.0
Writing library : LAME3.98

Audio
Format : MPEG Audio
Format version : Version 1
Format profile : Layer 3
Mode : Joint stereo
Duration : 2 h 13 min
Bit rate mode : Constant
Bit rate : 320 kb/s
Channel(s) : 2 channels
Sampling rate : 48.0 kHz
Compression mode : Lossy
Stream size : 305 MiB (100%)
Writing library : LAME3.98


*** Vsebina ***


01. NATAŠA MADJAR - varaj varaj
02. RUSKO RICHIE - s tobom
03. JASMIN STAVROS - vino nek se toči
04. SKUPINA CALYPSO - skok v morje
05. FRENK NOVA IN BUNDERLA - sladko vino
06. NUŠA ROJS - ko pijem se napijem
07. STJEPAN JAPEC - godine me nisu žalile
08. NINA DONELLI - propala veza
09. NAVIHANKE - mr.perfect
10. SKATER - doktorji za žur
11. ZVITA FELTNA - katrina
12. GOSPODARI TAMBURA - lažu
13. UČITELJICE - karamela
14. SKUPINA TEGUILA - vse mi je ok
15. 101KA - Ljubice moje
16. MANCA ŠPIK in KVARTOPIRCI - pesem
17. FREDI MILER - do jutra
18. MLADEN GRDOVIC - bolis me ljubavi
19. DARJA GAJŠEK - kako pogreša te srce
20. SKUPINA KU ADN - morja ni
21. BOSTJAN KONECNIK - gospodicna
22. VLADIMIR KOČIŠ - otkada te volim
23. VIGOR - gdje si sada pile moje
24. NENAD KUMRIC CHARLIE - ako moja draga pita za mene
25. LEXINGTON - nema sanse
26. PRAVILA IGRE - na tvojim usnama
27. DAVOR RADOLFI IN RITMO LOCO - poljubi me za sečanje
28. TOMISLAV RUBINIČ - i po danu i po noču
29. IVAN ZAK - za ljubav rodeni
30. TANJA ŽAGAR - nina nana
31. COTO LJUBICA ŠPELA IN JASNA - trije petelini
32. BARABE - zvrc zvrc
33. GRDOVIČ KLAPA MUNITA - ostavljam vas moji najdraži
34. COTO PLESTENJAK MODRIJANI POSKOČNI - kok nam je luštn
35. DRAGULJI - idi sada srečo moja
36. BLANKA SMOLJIČ IN MEJAŠI - mala ane
37. DAVOR RADOLFI IN RITMO LOCO - za rodjen dan
38. SOPRANOS - vse je super
39. GORAN KARAN - dobro ti jutro ljubavi
40. MEJAŠI - sexy ritam






Dusha shpiona 2015 SrbSubs 720p HDTVRip x264 Nikolspup

Klikni za povečavo!
04-11-2016 18:39 naložil Ziva
Sejalci: 0 / Odjemalci: 0 / Velikost: 2.71 GB / Dokončani: 5
Prenesi torrent Poročaj torrent Opis torrenta NFO
Zvrst: Triler
Kategorija: FILMI > HDTV



Dusha shpiona 2015 720p HDTVRip x264 Nikolspup
Language(s): Russian | English
1hr 44mn | 720p HDTVRip | 1280 x 688 | Matroska | 2.71 GB
Genre(s): Thriller
IMDb : http://www.imdb.com/title/tt3152000/

Podnapisi : srbski



Ariyon Bakare ... Sam
Helen Banks ... Passerby
Richard Banks ... Passerby
Sandrine Bonnaire ... Jacqueline
Elo CDusha shpiona 2015 720p HDTVRip x264 Nikolspup


Film tells the story of a Russian spy to performing a task in London. The main character has to solve complex problems related to the very essence of the work of a spy: bribery, blackmail and even murder.



Down and Out in Beverly Hills SLOSubs{SKERO}

Klikni za povečavo!
21-09-2016 17:50 naložil System
Sejalci: 1 / Odjemalci: 0 / Velikost: 719.94 MB / Dokončani: 6
Prenesi torrent Poročaj torrent Opis torrenta
Zvrst: Komedija
Kategorija: FILMI > DVDRip
Anonimen nalagalec

Po tem, ko ga novopečena bogataša z Beverly Hillsa (Richard Dreyfuss in Bette Midler) rešita pred samomorom z utopitvijo v njunem bazen, obupani brezdomec (Nick Nolte) obrne na glavo življenje vsakogar – celo družinskega psa.
Bette Midler in Richard Dreyfuss sta Barbara in Dave Whiteman, novopečena bogataša z Beverly Hillsa, katerih življenje se po dejanju zanju neznačilne velikodušnosti obrne na glavo. Nekega sončnega popoldneva Dave opazi Jerryja (Nick Nolte), razcapanega brezdomca, ki se skuša utopiti v njihovem bazenu. Dave reši obupanega moža in mu celo ponudi, naj ostane z njimi, kar močno razburi razkošnega življenja vajeno soprogo Barbaro, jeznega sina Maxa ter njegovo nesrečno ljubico in hišno pomočnico Carmen. Whitemanovi so vse prej kot srečna družina: zakon se maje, sin se sporazumeva le še s pomočjo videoposnetkov, hči je pobegnila v oddaljen kolidž, njihov nevrotičen pes ima svojega psihiatra, notranjega miru željna Barbara pa celo vojsko duhovnih gurujev. Jerryjev prihod vnese svež sunek energije v sterilno družino z Beverly Hillsa. Mož je karizmatičen in očarljiv – Dave se kmalu zabava v družbi njegovih brezdomskih kolegov, Barbara izživlja divje seksualne fantazije, Max se končno sprijazni s svojo drugačnostjo, Carmen pa se pridruži komunistični revoluciji. Jerry postane del družine in Whitemanove navduši, potem razočara, nazadnje pa opomni na to, kaj družina sploh pomeni.





Dad's.Army.2016.SLOSubs.BRRip.XviD-DrSi

Klikni za povečavo!
19-09-2016 12:58 naložil Ziva
Sejalci: 0 / Odjemalci: 0 / Velikost: 2.01 GB / Dokončani: 1
Prenesi torrent Poročaj torrent Opis torrenta NFO
Zvrst: Komedija | Vojni
Kategorija: FILMI > BRRip



Naziv: Dad's.Army.2016.SLOSubs.BRRip.XviD-DrSi
Source: Dad's.Army.2016.720p.BluRay.DTS.x264-GECKOS
Leto izida .........: 2016
Velikost ...........: 2,00 GB
Dolžina ............: 100 Minut
Video ...............: 2417 Kbps | 720x304 | 23,976 fps
Zvok .................: Dolby Digital AC3 5.1 @ 448 Kbps
Kodek.................: XviD
Zvrst………….: Komedija | Vojni
Država .............: Velika Britanija
Jezik ................: Angleški
Podnapisi .........: Slovenski (RETAiL)
Za HD priredil: metalcamp
Tehnična obdelava: DVD Rippers Slovenija

Režija.........: Oliver Parker
Scenarij.......: David Croft (original series), Hamish McColl


Mark Tandy...Major Cunningham
Catherine Zeta-Jones ... Rose Winters
Russell Balogh...Lundt (as Russell Balough)
Andrew Havill...Captain Meeks
Emily Atack...Daphne
Daniel Mays...Walker
Toby Jones...George Mainwaring
Blake Harrison...Frank Pike
Michael Gambon...Godfrey
Bill Nighy...Arthur Wilson


Britanska televizijska nanizanka Očetova vojska bo zaživela na velikem platnu.
V filmu bo ob britanskih igralcih, med drugim bosta v njem zaigrala Michael Gambon
in Blake Harrison, v vlogi novinarke nastopila oskarjevka Catherine Zeta-Jones.
Režijo bo prevzel Oliver Parker, scenarij pa bo napisal Hamish McColl.
Dad's Army pripoveduje o življenju britanskih vojakov v času druge svetovne vojne.
Tokrat bo Dad's Army zaživela v novi preobleki. Ustvarjalci so denimo uvedli lik
novinarke Rose Winters, ki jo bo upodobila Zeta-Jonesova. Gambon bo zaigral v vlogi
Godfreya, Danny Mays pa v vlogi Joeja Walkerja. Filmski ekipi se bosta pridružila
še Mark Gatiss, znan pisec pri nanizanki Doctor Who, ter Toby Jones, ki se med
drugim podpisuje pod televizijski portret Alfreda Hitchcocka.


Dubioza kolektiv - 2008 - Firmam Ilegal [Videoteka][flac]

Klikni za povečavo!
09-09-2016 14:00 naložil System
Sejalci: 0 / Odjemalci: 0 / Velikost: 218.12 MB / Dokončani: 4
Prenesi torrent Poročaj torrent Opis torrenta
Kategorija: GLASBA > Glasba
Anonimen nalagalec

Tracklist

1 Šuti I Trpi
2 Firma Ilegal
3 Svi U Štrajk
4 Blam
5 Oni Dolaze
6 Vlast I Policija
7 Zrak
8 Stav
* Vocals [Featuring] – Gino Banana*
9 Dosta
* Vocals [Featuring] – Frenkie, Zoran Čatić
Dear Eleanor 2016 CroSubs 720p WEB DL XviD AC3 FGT

Klikni za povečavo!
16-08-2016 16:15 naložil Ziva
Sejalci: 1 / Odjemalci: 0 / Velikost: 2.1 GB / Dokončani: 2
Prenesi torrent Poročaj torrent Opis torrenta NFO
Kategorija: FILMI > WEBRip



Dear Eleanor 2016 720p WEB DL XviD AC3 FGT
Language(s): English
1hr 29mn | 720p WEB DL | 1280 x 532 | AVI | 2.10 GB
Genre(s): Adventure | Comedy | Drama
IMDb : http://www.imdb.com/title/tt2927212/

Podnapisi : hrvaški


Isabelle Fuhrman ... Max the Wax
Liana Liberato ... Ellie Potter
Jonah Isaac Abrams ... Church Attendee (as Jonah Isaac Lujan)
David Adams ... Manteca Cop (as Dave Adams)
Jessica Alba ... Daisy


Two teenage girls travel across the U.S. in 1962, during the chaos of the Cuban missile crisis, in search of Eleanor Roosevelt.



DJ VIHAR & DJ AJDA - SLO & HR MIX 47

Klikni za povečavo!
14-08-2016 16:30 naložil Ajda
Sejalci: 1 / Odjemalci: 0 / Velikost: 195.51 MB / Dokončani: 97
Prenesi torrent Poročaj torrent Opis torrenta NFO
Kategorija: GLASBA > Glasba






Complete name : DJ VIHAR & DJ AJDA - SLO & HR MIX 47
Format : MPEG Audio
File size : 195 MiB
Duration : 1h 25mn
Overall bit rate mode : Constant
Overall bit rate : 320 Kbps
Encoded by : Lavf52.39.0
Writing library : LAME3.98

Audio
Format : MPEG Audio
Format version : Version 1
Format profile : Layer 3
Mode : Joint stereo
Mode extension : MS Stereo
Duration : 1h 25mn
Bit rate mode : Constant
Bit rate : 320 Kbps
Channel(s) : 2 channels
Sampling rate : 48.0 KHz
Compression mode : Lossy
Stream size : 195 MiB (100%)
Writing library : LAME3.98


1.Saša Lendero - Da ne padem dol
2.Ivan Zak - Meni se s tobom
3.Grupa VIGOR - Ne brine me
4.Jole - S kim to pričaš
5.KOKTELSI - Ljeto nam počinje
6.Karma - Puca Glava
7.Luđaci - Mamurluk
8.VERSI - Luduju svi
9.Šarmeri - Feštaj
10.Tomislav Bralić i klapa Intrade - Ne mogu te prestat jubit
11.MINEA - Doza rizika
12.Dejan Vunjak- Leza tebe
13.SASA KOVACEVIC - Temperatura
14.Minea & Garcia - U malenoj vali
15.ATOMIK HARMONIK - Mornarić
16.MLADEN GRDOVIĆ & KLAPA MUNITA - Ostavljam vas moji najdraži
17.GADI - NE GREM DOMOV
18.RADA MANOJLOVIC FEAT CVIJA & DJ VUJO - Makarena
19.Mejaši feat. Crvena jabuka - Noćima, danima
20.Tanja Žagar - Nevarno
21.Robert Ficker - Slomljeno srce
22.DANIEL POPOVIĆ - Šikibam
23.Severina, Goran Karan, Danijela i Giuliano - Manta me jubav
24.Brendi - Katarina
25.MIŠO KOVAČ - Nek' šute svi



Dido - Greatest Hits Deluxe Edition 2013[FLAC]

Klikni za povečavo!
01-08-2016 07:37 naložil andrejap
Sejalci: 1 / Odjemalci: 0 / Velikost: 1.63 GB / Dokončani: 12
Prenesi torrent Poročaj torrent Opis torrenta NFO
Zvrst: Glasbeni
Kategorija: GLASBA > Glasba

---------------------------------------------------------------------
Dido - Greatest Hits (Deluxe Edition)
---------------------------------------------------------------------
Artist...............: Dido
Album................: Greatest Hits (Deluxe Edition)
Genre................: Pop
Source...............: CD
Year.................: 2013
Ripper...............: EAC (Secure mode) / LAME 3.92 & Asus CD-S520
Codec................: Free Lossless Audio Codec (FLAC)
Version..............: Lavf56.30.100
Quality..............: Lossless, (avg. compression: 77 %)
Channels.............: Stereo / 44100 HZ / 24 Bit
Tags.................: VorbisComment
Information..........:
Ripped by............: andrejap on 31. 07. 2016
Posted by............: andrejap on 31. 07. 2016
News Server..........: news.astraweb.com
News Group(s)........: alt.binaries.sounds.mp3.m
Included.............: NFO
Covers...............: Front Back CD

---------------------------------------------------------------------
Tracklisting CD1
---------------------------------------------------------------------
1. Dido - Here With Me [04:16]
2. Dido - Thank You [03:37]
3. Dido - Hunter [03:57]
4. Dido - White Flag [04:01]
5. Dido - Life For Rent [03:42]
6. Dido - Don't Leave Home [03:48]
7. Dido - Sand In My Shoes [05:00]
8. Dido - Don't Believe In Love [03:54]
9. Dido - Quiet Times [03:18]
10. Dido - Grafton Street [05:56]
11. Dido - Everything To Lose [04:33]
12. Dido - Let Us Move On [04:11]
13. Dido - No Freedom [03:17]
14. Dido - End Of Night [03:59]
15. Dido - One Step Too Far [03:26]
16. Dido - Stan [06:45]
17. Dido - If I Rise [04:39]
18. Dido - Nyc [04:01]

Playing Time.........: 01:16:30
Total Size...........: 885,10 MB

---------------------------------------------------------------------
Tracklisting CD2
---------------------------------------------------------------------
1. Dido - Here With Me [05:16]
2. Dido - Thank You [04:11]
3. Dido - Hunter [06:08]
4. Dido - White Flag [03:30]
5. Dido - Life For Rent [04:55]
6. Dido - Sand In My Shoes [03:21]
7. Dido - Don't Leave Home [04:14]
8. Dido - Don't Believe In Love [04:32]
9. Dido - No Freedom [06:20]
10. Dido - End Of Night [05:53]
11. Dido - Go Dreaming [04:31]
12. Dido - Blackbird [06:46]
13. Dido - Northern Skies [05:53]

Playing Time.........: 01:05:35
Total Size...........: 776,17 MB

Greatest Hits is the third compilation album to be released by British singer-songwriter Dido. The album compiles all of Dido's singles since her first album No Angel (1999), through to her latest material, Girl Who Got Away (2013). The two-disc collection was released on 22 November 2013 in Ireland, and includes a new track, "NYC", as well as a collection of remixes and collaborations. The track listing was confirmed on 9 October 2013.
Dixie Chicks - Wide Open Spaces 1998[FLAC]

Klikni za povečavo!
27-07-2016 16:25 naložil andrejap
Sejalci: 1 / Odjemalci: 0 / Velikost: 322.88 MB / Dokončani: 11
Prenesi torrent Poročaj torrent Opis torrenta NFO
Zvrst: Glasbeni
Kategorija: GLASBA > Glasba

---------------------------------------------------------------------
Dixie Chicks - Wide Open Spaces
---------------------------------------------------------------------
Artist...............: Dixie Chicks
Album................: Wide Open Spaces
Genre................: Country, Pop
Source...............: CD
Year.................: 1998
Ripper...............: EAC (Secure mode) / LAME 3.92 & Asus CD-S520
Codec................: Free Lossless Audio Codec (FLAC)
Version..............: reference libFLAC 1.3.1 20141125
Quality..............: Lossless, (avg. compression: 48 %)
Channels.............: Stereo / 44100 HZ / 24 Bit
Tags.................: VorbisComment
Information..........:
Ripped by............: andrejap on 27. 07. 2016
Posted by............: andrejap on 27. 07. 2016
News Server..........: news.astraweb.com
News Group(s)........: alt.binaries.sounds.mp3.m
Included.............: NFO
Covers...............: Front Back CD
---------------------------------------------------------------------
Tracklisting
---------------------------------------------------------------------
1. Dixie Chicks - I Can Love You Better [03:53]
2. Dixie Chicks - Wide Open Spaces [03:43]
3. Dixie Chicks - Loving Arms [03:37]
4. Dixie Chicks - There's Your Trouble [03:12]
5. Dixie Chicks - You Were Mine [03:37]
6. Dixie Chicks - Never Say Die [03:56]
7. Dixie Chicks - Tonight The Heartache's On Me [03:26]
8. Dixie Chicks - Let 'er Rip [02:50]
9. Dixie Chicks - Once You've Loved Somedody [03:28]
10. Dixie Chicks - I'll Take Care Of You [03:40]
11. Dixie Chicks - Am I The Only One (Who's Ever Felt This Way)[03:25]
12. Dixie Chicks - Give It Up Or Let Me Go [04:56]

Playing Time.........: 43:50
Total Size...........: 322,47 MB

Wide Open Spaces is the fourth studio album and the major label debut of American country music band, the Dixie Chicks. It was their first record with new lead vocalist Natalie Maines, and became their breakthrough commercial success. It received diamond status by the RIAA on February 20, 2003 in the United States, having shipped 14 million units worldwide, while spending more than six years in the Australian ARIA music charts Country Top 20. The album has sold 8,841,000 copies in the United States as of October 2013.

Personnel:

Dixie Chicks:
Natalie Maines – vocals
Emily Erwin – acoustic guitar, banjo, Dobro, vocals
Martie Seidel – fiddle, mandolin, vocals

Additional personnel:
Mark Casstevens – acoustic guitar
Bobby Charles, Jr. – bass guitar
Joe Chemay – bass guitar
Billy Crain – acoustic guitar
Lloyd Maines – steel guitar
George Marinelli – electric guitar
Greg Morrow – drums
Tommy Nash – electric guitar on "Give It Up or Let Me Go"
Tony Paoletta – steel guitar on "Give It Up or Let Me Go"
Michael Rhodes – bass guitar
Tom Roady – shaker, congas, tambourine
Matt Rollings – piano, Hammond organ
Billy Joe Walker, Jr. – acoustic guitar, electric guitar
Paul Worley – acoustic guitar, electric guitar
DJ VIHAR & DJ AJDA - SLO & HR MIX 46

Klikni za povečavo!
12-07-2016 16:19 naložil Ajda
Sejalci: 1 / Odjemalci: 0 / Velikost: 227.26 MB / Dokončani: 52
Prenesi torrent Poročaj torrent Opis torrenta NFO
Kategorija: GLASBA > Glasba






General
Complete name : DJ VIHAR & DJ AJDA - SLO & HR MIX 46.mp3
Format : MPEG Audio
File size : 226 MiB
Duration : 1h 38mn
Overall bit rate mode : Constant
Overall bit rate : 320 Kbps
Encoded by : Lavf52.39.0
Writing library : LAME3.98

Audio
Format : MPEG Audio
Format version : Version 1
Format profile : Layer 3
Mode : Joint stereo
Duration : 1h 38mn
Bit rate mode : Constant
Bit rate : 320 Kbps
Channel(s) : 2 channels
Sampling rate : 48.0 KHz
Compression mode : Lossy
Stream size : 226 MiB (100%)
Writing library : LAME3.98


1. MINEA – Doza rizika
2. BELLA – Il me ljubi, il odlazi
3. MARKO MULEC – Pomlad ob tebi
4. DARYAN – Ako odes ti
5. INES ERBUS IN MISO KONTREC – Slovenec in slovenka
6. LEO – U dobrim rukama
7. 058 – Ljeto
8. BOBO – Dim
9. TANJA ZAGAR – Trava
10. DRAZEN ZECIC - Ljeto ide
11. MLADI GAMSI – Dej povej
12. UCITELJICE in TARAPANA BAND – Ako mi se ne spava
13. JOLE – Samac
14. ZDRAVKO SKENDER – Na koljena padam
15. STAVROS in BARABE – Kraljevi zabave
16. KINGSTON – Alle, alle
17. KLAPA GODIMENTI – Ti si za me zena
18. MLADEN BURNAC – Dzaba dzaba
19. TS SLAVONSKI SAN in ZVS DZAKOVCANKE – Poludi sa mnom
20. BOSTJAN KONECNIK – Zakaj me noces
21. MAGAZIN – Ima dana
22. SIMONA WEISS – Nikomur te ne dam
23. VERSI – Vragu malo, meni dosta
24. ZVITA FELTNA – Na zdravje prijatelji
25. VLADO KALEMBER – Pitas, pitas
26. DUSKO LOKIN – Oci pune suza
27. ALEKSANDER JEZ – Le ti si vse kar imam
28.ROCK PARTYZANI in ROCKNBAND – Hey baby
29. GORAN KARAN – Ti si angel ljubljeni
30. CUKI – Lahko noc


Dirty.Grandpa.2016.SLOSubs.BRRip.XviD-DrSi

Klikni za povečavo!
30-06-2016 15:53 naložil Ziva
Sejalci: 0 / Odjemalci: 0 / Velikost: 2.22 GB / Dokončani: 10
Prenesi torrent Poročaj torrent Opis torrenta NFO
Zvrst: Komedija
Kategorija: FILMI > BRRip



Source...... 1080p.BluRay.x264-LOST
Leto............. 2016
Kodek........... XviD
Slika............... 2639 kbps | 720x304 | 23.976
Zvok................. AC3 - 448 kb/s 5.1 ch
Dolžina............. 102 Minut
Jezik.................. Angleški
Podnapisi.......... Slovenski [Retail]
Tehnična obdelava: DVD Rippers Slovenija
iMDB.iNFO........... http://www.imdb.com/title/tt1860213/

Zvrst...................... Komedija



Robert De Niro.................Dick Kelly
Zac Efron.................Jason Kelly
Zoey Deutch.................Shadia
Aubrey Plaza.................Lenore
Jason Mantzoukas.................Tan Pam
Dermot Mulroney.................David Kelly
Julianne Hough.................Meredith
Jeffrey Bowyer-Chapman.................Bradley
Brandon Mychal Smith.................Tyrone
Jake Picking.................Cody
Michael Hudson.................Brah
Adam Pally.................Cousin Nick
Mo Collins.................Officer Finch


Režiser zabavne romance Prvo leto po poroki predstavlja nenavadno avanturo razvratnega dedka in redoljubnega vnuka. Pohlevni odvetnik Jason je tik pred poroko s šefovo hčerko, ko na grbo dobi ovdovelega dedka Dicka. Ta ga prepriča, naj ga nečak odpelje na Florido, kjer želi v miru žalovati, toda v resnici ima osiveli pohotnež povsem drugačne načrte. Namerava se udeležiti divjih študentskih zabav in intimno spoznati čim več deklet. Kljub Jasonovemu upiranju ne traja dolgo, da dedek povsem uide z vajeti, hkrati pa tudi mladenič spoznava svoj divjo naravo.



Divlje Jagode

Klikni za povečavo!
12-06-2016 16:37 naložil System
Sejalci: 0 / Odjemalci: 0 / Velikost: 1.19 GB / Dokončani: 2
Prenesi torrent Poročaj torrent Opis torrenta
Kategorija: GLASBA > Glasba
Anonimen nalagalec

Divlje Jagode - Diskografija mp3 2016


Artist...............: Divlje Jagode
Album................:
Genre................: Rock
Source...............: CD
Year.................:
Ripper...............: EAC (Secure mode) / LAME 3.92 & Asus CD-S520
Codec................: Xing
Version..............: MPEG 1 Layer III
Quality..............: Insane, (avg. bitrate:128 - 320 )
Channels.............: Joint Stereo / 44100 hz
Tags.................: ID3 v1.1, ID3 v2.3

Studijski albumi

Divlje jagode (1978.)
Stakleni hotel (1981.)
Motori (1982.)
Čarobnjaci (1983.)
Vatra (1985.)
Wild Strawberries (1987.) - as Wild Strawberries
Konji (1988.)
Labude, kad rata ne bude (1994.)
Sto vjekova (1996.)
Od neba do neba (2003.)
Biodinamička ljubav (2013.)
Kompilacije

The Very Best Of (2004.)
Ultimate Colection (2008.)
Ultimate Colection (2009.) Najljepse ljubavne (2011.)

Divlje jagode su bosansko-hercegovački heavy metal i hard rock sastav koji je 1977. godine osnovan u Zagrebu. Bili su vrlo popularan sastav na teritoriju bivše Jugoslavije i smatraju se začetnicima heavy metal stila na tom prostoru. U svibnju 1977. godine, Sead Lipovača zajedno s Antom Jankovićem, Nihadom Jusufhodžićem, Mustafom Ismailovskim i Adonisom Dokuzovićem kojeg je poznavao još iz Novih Akorda, osniva Divlje jagode. Tijekom godina njihovog glazbenog rada, objavili su nekoliko singlova i dvanaest studijskih albuma, a 2006. godine izdaju box set na kojemu se nalazi deset albuma i jedan singl.


Originalna postava
Sead Lipovača, Anto Toni Janković, Nihad Jusufhodžić, Mustafa Ismailovski, Adonis Dokuzović

Članovi:

Sead Lipovača
Nikola Milat
Nasko Budimlić
Andraš Išpan
Livio Berak


David Gilmour - Live In Gdansk 2008[FLAC]

Klikni za povečavo!
21-05-2016 12:35 naložil andrejap
Sejalci: 0 / Odjemalci: 0 / Velikost: 1.28 GB / Dokončani: 8
Prenesi torrent Poročaj torrent Opis torrenta NFO
Zvrst: Glasbeni
Kategorija: GLASBA > Glasba

---------------------------------------------------------------------
David Gilmour - Live In Gdansk
---------------------------------------------------------------------
Artist...............: David Gilmour
Album................: Live In Gdansk
Genre................: Pop
Source...............: CD
Year.................: 2008
Ripper...............: EAC (Secure mode) / LAME 3.92 & Asus CD-S520
Codec................: Free Lossless Audio Codec (FLAC)
Version..............: Lavf56.30.100
Quality..............: Lossless, (avg. compression: 58 %)
Channels.............: Stereo / 44100 HZ / 16 Bit
Tags.................: VorbisComment
Information..........:
Ripped by............: andrejap on 21. 05. 2016
Posted by............: andrejap on 21. 05. 2016
News Server..........: news.astraweb.com
News Group(s)........: alt.binaries.sounds.mp3.m
Included.............: NFO
Covers...............: Front Back CD

---------------------------------------------------------------------
Tracklisting CD1
---------------------------------------------------------------------
1. David Gilmour - Speak To Me [01:23]
2. David Gilmour - Breathe [02:49]
3. David Gilmour - Time [05:38]
4. David Gilmour - Breathe (Reprise) [01:32]
5. David Gilmour - Castellorizon [03:47]
6. David Gilmour - On An Island [07:27]
7. David Gilmour - The Blue [06:39]
8. David Gilmour - Red Sky At Night [03:03]
9. David Gilmour - This Heaven [04:33]
10. David Gilmour - Then I Close My Eyes [07:42]
11. David Gilmour - Smile [04:26]
12. David Gilmour - Take A Breath [06:48]
13. David Gilmour - A Pocketful Of Stones [05:41]
14. David Gilmour - Where We Start [08:01]

Playing Time.........: 01:09:38
Total Size...........: 407,10 MB

---------------------------------------------------------------------
Tracklisting CD2
---------------------------------------------------------------------
1. David Gilmour - Shine On You Crazy Diamond [12:07]
2. David Gilmour - Astronomy Domine [05:03]
3. David Gilmour - Fat Old Sun [06:40]
4. David Gilmour - High Hopes [09:58]
5. David Gilmour - Echoes [25:26]
6. David Gilmour - Wish You Were Here [05:16]
7. David Gilmour - A Great Day For Freedom [05:57]
8. David Gilmour - Comfortably Numb [09:22]

Playing Time.........: 01:19:52
Total Size...........: 467,82 MB

---------------------------------------------------------------------
Tracklisting CD3
---------------------------------------------------------------------
1. David Gilmour - Shine On You Crazy Diamond (Live In Venice And Vienne)[13:09]
2. David Gilmour - Dominoes (Live In Paris) [04:53]
3. David Gilmour - The Blue (Live In Vienne) [06:21]
4. David Gilmour - Take A Breath (Live In Munich) [06:44]
5. David Gilmour - Wish You Were Here (Live In Glasgow) [05:18]
6. David Gilmour - Coming Back To Life (Live In Florence) [07:10]
7. David Gilmour - Find The Cost Of Freedom (Live In Manchester)[01:28]
8. David Gilmour - This Heaven (Live In Vienne) [04:28]
9. David Gilmour - Wearing The Inside Out (Live In Milan) [07:32]
10. David Gilmour - A Pocketful Of Stones (Live In Vienne) [06:27]
11. David Gilmour - Where We Start (Live In Vienne) [07:37]
12. David Gilmour - On The Turning Away (Live In Venic [06:06]

Playing Time.........: 01:17:19
Total Size...........: 434,39 MB

Live in Gdansk is a live album by David Gilmour. It is a part of his On an Island project which includes an album, tour, DVD, and live album. It was released on 22 September 2008. A David Gilmour Signature Series Fender Stratocaster was released at the same time.
Dionne Warwick - Heartbreaker The Very Best Of 2002[FLAC]

Klikni za povečavo!
12-05-2016 13:28 naložil andrejap
Sejalci: 1 / Odjemalci: 0 / Velikost: 461.98 MB / Dokončani: 20
Prenesi torrent Poročaj torrent Opis torrenta NFO
Zvrst: Glasbeni
Kategorija: GLASBA > Glasba


---------------------------------------------------------------------
Dionne Warwick - Heartbreaker: Very Best of
---------------------------------------------------------------------
Artist...............: Dionne Warwick
Album................: Heartbreaker: Very Best of
Genre................: Easy Listening
Source...............: CD
Year.................: 2002
Ripper...............: EAC (Secure mode) / LAME 3.92 & Asus CD-S520
Codec................: Free Lossless Audio Codec (FLAC)
Version..............: reference libFLAC 1.3.0 20130526
Quality..............: Lossless, (avg. compression: 57 %)
Channels.............: Stereo / 44100 HZ / 16 Bit
Tags.................: VorbisComment
Information..........:
Ripped by............: andrejap on 12. 05. 2016
Posted by............: andrejap on 12. 05. 2016
News Server..........: news.astraweb.com
News Group(s)........: alt.binaries.sounds.mp3.m
Included.............: NFO
Covers...............: Front Back CD
---------------------------------------------------------------------
Tracklisting
---------------------------------------------------------------------
1. Dionne Warwick - Heartbreaker [04:17]
2. Dionne Warwick - All The Love In The World [03:28]
3. Dionne Warwick - Walk On By [02:55]
4. Dionne Warwick - Youll Never Get To Heaven (If You Break My Heart)[03:09]
5. Dionne Warwick - I Say A Little Prayer [03:05]
6. Dionne Warwick - Do You Know Tha Way To San Jose [02:56]
7. Dionne Warwick - Dont Make Me Over [03:23]
8. Dionne Warwick - Anyone Who Had A Heart [03:07]
9. Dionne Warwick - The Windows Of The World [03:17]
10. Dionne Warwick - (They Long To Be) Close To You [02:22]
11. Dionne Warwick - The Look Of Love [02:49]
12. Dionne Warwick - What The World Needs Now [03:09]
13. Dionne Warwick - Ill Never Fall In Love Again [02:58]
14. Dionne Warwick - Reach Out For Me [02:51]
15. Dionne Warwick - Trains And Boats And Planes [02:47]
16. Dionne Warwick - I Just Dont Know What To Do With Myself[02:45]
17. Dionne Warwick - This Girls In Love With You [05:17]
18. Dionne Warwick - Alfie [02:45]
19. Dionne Warwick - Then Came You (With The Detroit Spinners)[03:52]
20. Dionne Warwick - Message To Michael [03:07]
21. Dionne Warwick - (Theme From) Valley Of The Dolls [03:37]
22. Dionne Warwick - A House Is Not A Home [03:05]
23. Dionne Warwick - Once You Hit The Road [04:00]
24. Dionne Warwick - Thats What Freinds Are For (Ft Elton John Gladys Knight)[04:11]

Playing Time.........: 01:19:25
Total Size...........: 460,92 MB
Don Williams - The Definitive Collection 2004[FLAC]

Klikni za povečavo!
12-05-2016 13:24 naložil andrejap
Sejalci: 0 / Odjemalci: 0 / Velikost: 392.99 MB / Dokončani: 17
Prenesi torrent Poročaj torrent Opis torrenta NFO
Zvrst: Glasbeni
Kategorija: GLASBA > Glasba

---------------------------------------------------------------------
Don Williams - The Definitive Collection
---------------------------------------------------------------------
Artist...............: Don Williams
Album................: The Definitive Collection
Genre................: Pop Country-Pop
Source...............: CD
Year.................: 2013
Ripper...............: EAC (Secure mode) / LAME 3.92 & Asus CD-S520
Codec................: Free Lossless Audio Codec (FLAC)
Version..............: Lavf53.1.0
Quality..............: Lossless, (avg. compression: 50 %)
Channels.............: Stereo / 44100 HZ / 16 Bit
Tags.................: VorbisComment
Information..........:
Ripped by............: andrejap on 12. 05. 2016
Posted by............: andrejap on 12. 05. 2016
News Server..........: news.astraweb.com
News Group(s)........: alt.binaries.sounds.mp3.m
Included.............: NFO
Covers...............: Front Back
---------------------------------------------------------------------
Tracklisting
---------------------------------------------------------------------
1. Don Williams - Come Early Morning [03:07]
2. Don Williams - Amanda [03:08]
3. Don Williams - I Wouldn't Want To Live If You Didn't Want Me[02:58]
4. Don Williams - The Ties That Bind [02:36]
5. Don Williams - You're My Best Friend [02:45]
6. Don Williams - (Turn Out The Light And) Love Me Tonight [02:19]
7. Don Williams - Till The Rivers All Run Dry [03:25]
8. Don Williams - Say It Again [02:55]
9. Don Williams - She Never Knew Me [02:45]
10. Don Williams - Some Broken Hearts Will Never Mend [02:43]
11. Don Williams - I'm A Country Boy [03:01]
12. Don Williams - I've Got A Winner In You [02:33]
13. Don Williams - Rake And Ramblin' Man [02:51]
14. Don Williams - Tulsa Time [03:07]
15. Don Williams - It Must Be Love [02:26]
16. Don Williams - Love Me Over Again [02:56]
17. Don Williams - Good Ole Boys Like Me [04:09]
18. Don Williams - I Believe In You [04:00]
19. Don Williams - Lord I Hope This Day Is Good [04:03]
20. Don Williams - Listen To The Radio [03:10]
21. Don Williams - If Hollywood Don't Need You (Honey, I Still Do)[03:10]
22. Don Williams - Love Is On A Roll [03:37]
23. Don Williams - Nobody But You [02:39]
24. Don Williams - That's The Thing About Love [03:35]
25. Don Williams - Heartbeat In The Darkness [03:47]

Playing Time.........: 01:17:57
Total Size...........: 392,95 MB

Don Williams (born May 27, 1939, Floydada, Texas, United States) is an American country singer, songwriter and a 2010 inductee to the Country Music Hall of Fame. He grew up in Portland, Texas, and graduated in 1958 from Gregory-Portland High School. After seven years with the folk-pop group Pozo-Seco Singers, he began his solo career in 1971, singing popular ballads and amassing 17 number one country hits.
The Definitive Collection delivers 25 essential tracks by Don Williams, spanning his tenure with ABC, MCA, and Capitol Records. With the exception of "Stay Young," all of his chart-topping country hits from the '70s and '80s are here, including "Heartbeat in the Darkness," "Tulsa Time," "I Believe in You," "Lord, I Hope This Day Is Good," and "I Wouldn't Want to Live if You Didn't Want Me," his first number one from 1974. While not as generous as the 40-track Anthology set on Hip-O, it's convenient to have all his original hits on one disc.
Despicable Me (2010) [1080p]

11-05-2016 20:26 naložil System
Sejalci: 1 / Odjemalci: 0 / Velikost: 1.44 GB / Dokončani: 688
Prenesi torrent Poročaj torrent Opis torrenta
Kategorija: FILMI > Risanke
Anonimen nalagalec

risanka
Despicable Me 2 (2013) [1080p]

11-05-2016 20:24 naložil Masa2012
Sejalci: 0 / Odjemalci: 0 / Velikost: 1.45 GB / Dokončani: 11
Prenesi torrent Poročaj torrent Opis torrenta
Kategorija: FILMI > Risanke

risanke
Deadpool.2016.SLOSUB.DVDRip.XviD-DrSi

Klikni za povečavo!
28-04-2016 11:57 naložil Ziva
Sejalci: 1 / Odjemalci: 0 / Velikost: 1.37 GB / Dokončani: 19
Prenesi torrent Poročaj torrent Opis torrenta NFO
Kategorija: FILMI > DVDRip



Dolžina ..................: 106 minut
Leto .......................: 2016
Kodek ....................: XviD
Slika ......................: 720 x 304 1364 kbps 23,976 fps
Zvok ......................: Angleški AC3 5.1 448 kb/s
Podnapisi .............: Slovenski
Prevod .................: RETAiL
Tehn. obdelava ..: DrSi
Žanr ......................: Akcija / Avantura / Komedija

iMDB info ..............: http://www.imdb.com/title/tt1431045/


Ryan Reynolds ... Wade / Deadpool
Karan Soni ... Dopinder
Ed Skrein ... Ajax
Michael Benyaer ... Warlord
Stefan Kapicic ... Colossus (voice)
Brianna Hildebrand ... Negasonic Teenage Warhead
Style Dayne ... Jeremy (Pizza Guy)
Kyle Cassie ... Gavin Merchant
Taylor Hickson ... Meghan Orlovsky
Ayzee ... Teen Girl #1
Naika Toussaint ... Teen Girl #2
Randal Reeder ... Buck
T.J. Miller ... Weasel
Isaac C. Singleton Jr ... .Boothe
Morena Baccarin ... Vanessa


Iz Marvelovega vesolja herojev na velika platna prihaja zgodba o nevsakdanjem antijunaku s hudomušnim smislom za humor. Bivši pripadnik posebnih enot Wade se mora soočiti z smrtonosno boleznijo, njegov edini izhod pa je ponudba skrivnostne organizacije, ki želi na njem opraviti nevaren poskus. Wade postane grozljivo iznakažen, toda hkrati dobi izjemne moči in neumrljivost. Sprva noče sprejeti svoje nove identitete, toda ko najhujši sovražnik ogrozi ljubezen njegovega življenja, se Wade spremeni v neusmiljenega maščevalca Deadpoola, ki z raznovrstnim orožjem in komičnimi opazkami pošilja nasprotnike v onostranstvo.