A
B
C
D
E
F
G
H
I
J
K
L
M
N
O
P
Q
R
S
T
U
V
W
X
Y
Z
0-9
Dark.Matter.S02E05.BihSub.XviD-AFG

Klikni za povečavo!
01-08-2016 17:46 naložil Reaper
Sejalci: 0 / Odjemalci: 0 / Velikost: 334.7 MB / Dokončani: 3
Prenesi torrent Poročaj torrent Opis torrenta NFO
Zvrst: Drama | Triler | Z.F.
Kategorija: FILMI > XviD

Ime: Dark Matter season 02
Leto: 2016
Jezik: angleški
Žanr: drama ZF triler
Jezik : bosanski
Prevod : fazazel
Priredba: cYd
Ocena: 7,4/10 (18.508)
Ratings: 7,4/10 from 675 users
Creators: Joseph Mallozzi, Paul Mullie, Natalie Rachel Cooper
Stars: Marc Bendavid, Melissa O'Neil, Anthony Lemke
Http: IMDb
01. Welcome To Your New Home 01.07.2016
02. Kill Them All 08.07.2016
03. I’ve Seen The Other Side Of You 15.07.2016
04. We Were Family 22.07.2016
05. We Voted Not To Space You 29.07.2016
06. We Should Have Seen This Coming 05.08.2016
07. She’s One Of Them Now 12.08.2016
08. Stuff To Steal; People To Kill 19.08.2016
09. Going Out Fighting 26.08.2016
10. Take The Shot
11. Wish I'd Spaced You When I Had The Chance
12. Sometimes In Life You Don't Get To Choose
13. But First, We Save The Galaxy
Dark Matter je zgodba o dogodivščinah posadke zapuščene vesoljske ladje, ki se prebudi brez spomina o tem kdo so in kako so na ladjo prispeli.
Soočevanje z nevarnostmi na vsakem koraku jih prisili na vzajemno sodelovanje z namenom preživetja.
Potovanje polno maščevanj, izdaj in skrivnosti...
Dido - Greatest Hits Deluxe Edition 2013[FLAC]

Klikni za povečavo!
01-08-2016 07:37 naložil andrejap
Sejalci: 0 / Odjemalci: 0 / Velikost: 1.63 GB / Dokončani: 12
Prenesi torrent Poročaj torrent Opis torrenta NFO
Zvrst: Glasbeni
Kategorija: GLASBA > Glasba

---------------------------------------------------------------------
Dido - Greatest Hits (Deluxe Edition)
---------------------------------------------------------------------
Artist...............: Dido
Album................: Greatest Hits (Deluxe Edition)
Genre................: Pop
Source...............: CD
Year.................: 2013
Ripper...............: EAC (Secure mode) / LAME 3.92 & Asus CD-S520
Codec................: Free Lossless Audio Codec (FLAC)
Version..............: Lavf56.30.100
Quality..............: Lossless, (avg. compression: 77 %)
Channels.............: Stereo / 44100 HZ / 24 Bit
Tags.................: VorbisComment
Information..........:
Ripped by............: andrejap on 31. 07. 2016
Posted by............: andrejap on 31. 07. 2016
News Server..........: news.astraweb.com
News Group(s)........: alt.binaries.sounds.mp3.m
Included.............: NFO
Covers...............: Front Back CD

---------------------------------------------------------------------
Tracklisting CD1
---------------------------------------------------------------------
1. Dido - Here With Me [04:16]
2. Dido - Thank You [03:37]
3. Dido - Hunter [03:57]
4. Dido - White Flag [04:01]
5. Dido - Life For Rent [03:42]
6. Dido - Don't Leave Home [03:48]
7. Dido - Sand In My Shoes [05:00]
8. Dido - Don't Believe In Love [03:54]
9. Dido - Quiet Times [03:18]
10. Dido - Grafton Street [05:56]
11. Dido - Everything To Lose [04:33]
12. Dido - Let Us Move On [04:11]
13. Dido - No Freedom [03:17]
14. Dido - End Of Night [03:59]
15. Dido - One Step Too Far [03:26]
16. Dido - Stan [06:45]
17. Dido - If I Rise [04:39]
18. Dido - Nyc [04:01]

Playing Time.........: 01:16:30
Total Size...........: 885,10 MB

---------------------------------------------------------------------
Tracklisting CD2
---------------------------------------------------------------------
1. Dido - Here With Me [05:16]
2. Dido - Thank You [04:11]
3. Dido - Hunter [06:08]
4. Dido - White Flag [03:30]
5. Dido - Life For Rent [04:55]
6. Dido - Sand In My Shoes [03:21]
7. Dido - Don't Leave Home [04:14]
8. Dido - Don't Believe In Love [04:32]
9. Dido - No Freedom [06:20]
10. Dido - End Of Night [05:53]
11. Dido - Go Dreaming [04:31]
12. Dido - Blackbird [06:46]
13. Dido - Northern Skies [05:53]

Playing Time.........: 01:05:35
Total Size...........: 776,17 MB

Greatest Hits is the third compilation album to be released by British singer-songwriter Dido. The album compiles all of Dido's singles since her first album No Angel (1999), through to her latest material, Girl Who Got Away (2013). The two-disc collection was released on 22 November 2013 in Ireland, and includes a new track, "NYC", as well as a collection of remixes and collaborations. The track listing was confirmed on 9 October 2013.
Dead Rising Endgame 2016 SrbSubs 720p WEBRip XviD MP3 FGT

Klikni za povečavo!
31-07-2016 11:51 naložil Ziva
Sejalci: 0 / Odjemalci: 0 / Velikost: 2.62 GB / Dokončani: 2
Prenesi torrent Poročaj torrent Opis torrenta NFO
Zvrst: Akcija | Grozljivka
Kategorija: FILMI > WEBRip



Dead Rising Endgame 2016 720p WEBRip XviD MP3 FGT
Language(s): English
1hr 36mn | 720p WEBRip | 1280 x 534 | AVI | 2.62 GB
Genre(s): Action | Horror
IMDb : http://www.imdb.com/title/tt5481404/

Podnapisi : srbski


Jesse Metcalfe ... Chase
Keegan Connor Tracy ... Jordan
Jessica Harmon ... Jill
Dennis Haysbert ... General Lyons


DEAD RISING: ENDGAME drops us into the zombie-infested quarantined zone of East Mission City where investigative reporter Chase Carter must stop a secret government conspiracy.






Dixie Chicks - Wide Open Spaces 1998[FLAC]

Klikni za povečavo!
27-07-2016 16:25 naložil andrejap
Sejalci: 0 / Odjemalci: 0 / Velikost: 322.88 MB / Dokončani: 11
Prenesi torrent Poročaj torrent Opis torrenta NFO
Zvrst: Glasbeni
Kategorija: GLASBA > Glasba

---------------------------------------------------------------------
Dixie Chicks - Wide Open Spaces
---------------------------------------------------------------------
Artist...............: Dixie Chicks
Album................: Wide Open Spaces
Genre................: Country, Pop
Source...............: CD
Year.................: 1998
Ripper...............: EAC (Secure mode) / LAME 3.92 & Asus CD-S520
Codec................: Free Lossless Audio Codec (FLAC)
Version..............: reference libFLAC 1.3.1 20141125
Quality..............: Lossless, (avg. compression: 48 %)
Channels.............: Stereo / 44100 HZ / 24 Bit
Tags.................: VorbisComment
Information..........:
Ripped by............: andrejap on 27. 07. 2016
Posted by............: andrejap on 27. 07. 2016
News Server..........: news.astraweb.com
News Group(s)........: alt.binaries.sounds.mp3.m
Included.............: NFO
Covers...............: Front Back CD
---------------------------------------------------------------------
Tracklisting
---------------------------------------------------------------------
1. Dixie Chicks - I Can Love You Better [03:53]
2. Dixie Chicks - Wide Open Spaces [03:43]
3. Dixie Chicks - Loving Arms [03:37]
4. Dixie Chicks - There's Your Trouble [03:12]
5. Dixie Chicks - You Were Mine [03:37]
6. Dixie Chicks - Never Say Die [03:56]
7. Dixie Chicks - Tonight The Heartache's On Me [03:26]
8. Dixie Chicks - Let 'er Rip [02:50]
9. Dixie Chicks - Once You've Loved Somedody [03:28]
10. Dixie Chicks - I'll Take Care Of You [03:40]
11. Dixie Chicks - Am I The Only One (Who's Ever Felt This Way)[03:25]
12. Dixie Chicks - Give It Up Or Let Me Go [04:56]

Playing Time.........: 43:50
Total Size...........: 322,47 MB

Wide Open Spaces is the fourth studio album and the major label debut of American country music band, the Dixie Chicks. It was their first record with new lead vocalist Natalie Maines, and became their breakthrough commercial success. It received diamond status by the RIAA on February 20, 2003 in the United States, having shipped 14 million units worldwide, while spending more than six years in the Australian ARIA music charts Country Top 20. The album has sold 8,841,000 copies in the United States as of October 2013.

Personnel:

Dixie Chicks:
Natalie Maines – vocals
Emily Erwin – acoustic guitar, banjo, Dobro, vocals
Martie Seidel – fiddle, mandolin, vocals

Additional personnel:
Mark Casstevens – acoustic guitar
Bobby Charles, Jr. – bass guitar
Joe Chemay – bass guitar
Billy Crain – acoustic guitar
Lloyd Maines – steel guitar
George Marinelli – electric guitar
Greg Morrow – drums
Tommy Nash – electric guitar on "Give It Up or Let Me Go"
Tony Paoletta – steel guitar on "Give It Up or Let Me Go"
Michael Rhodes – bass guitar
Tom Roady – shaker, congas, tambourine
Matt Rollings – piano, Hammond organ
Billy Joe Walker, Jr. – acoustic guitar, electric guitar
Paul Worley – acoustic guitar, electric guitar
Dark.Matter.S02E04.BihSub.XviD-FUM

Klikni za povečavo!
24-07-2016 09:16 naložil Reaper
Sejalci: 0 / Odjemalci: 0 / Velikost: 349.43 MB / Dokončani: 8
Prenesi torrent Poročaj torrent Opis torrenta NFO
Zvrst: Drama | Triler | Z.F.
Kategorija: FILMI > XviD

Ime: Dark Matter season 02
Leto: 2016
Jezik: angleški
Žanr: drama ZF triler
Jezik : bosanski
Prevod : fazazel
Priredba: cYd
Ocena: 7,4/10 (18.508)
Ratings: 7,4/10 from 675 users
Creators: Joseph Mallozzi, Paul Mullie, Natalie Rachel Cooper
Stars: Marc Bendavid, Melissa O'Neil, Anthony Lemke
Http: IMDb
01. Welcome To Your New Home 01.07.2016
02. Kill Them All 08.07.2016
03. I’ve Seen The Other Side Of You 15.07.2016
04. We Were Family
05. We Voted Not To Space You
06. We Should Have Seen This Coming
07. She’s One Of Them Now
08. Stuff To Steal; People To Kill
09. Going Out Fighting
10. Take The Shot
11. Wish I'd Spaced You When I Had The Chance
12. Sometimes In Life You Don't Get To Choose
13. But First, We Save The Galaxy
Dark Matter je zgodba o dogodivščinah posadke zapuščene vesoljske ladje, ki se prebudi brez spomina o tem kdo so in kako so na ladjo prispeli.
Soočevanje z nevarnostmi na vsakem koraku jih prisili na vzajemno sodelovanje z namenom preživetja.
Potovanje polno maščevanj, izdaj in skrivnosti...
Dark.Matter.S02E03.BihSub.XviD-AFG

Klikni za povečavo!
17-07-2016 19:04 naložil Reaper
Sejalci: 0 / Odjemalci: 0 / Velikost: 337.61 MB / Dokončani: 4
Prenesi torrent Poročaj torrent Opis torrenta NFO
Zvrst: Drama | Triler | Z.F.
Kategorija: FILMI > XviD

Ime: Dark Matter season 02
Leto: 2016
Jezik: angleški
Žanr: drama ZF triler
Jezik : bosanski
Prevod : fazazel
Priredba: cYd
Ocena: 7,4/10 (18.508)
Ratings: 7,4/10 from 675 users
Creators: Joseph Mallozzi, Paul Mullie, Natalie Rachel Cooper
Stars: Marc Bendavid, Melissa O'Neil, Anthony Lemke
Http: IMDb
01. Welcome To Your New Home 01.07.2016
02. Kill Them All 08.07.2016
03. I’ve Seen The Other Side Of You 15.07.2016
04. We Were Family
05. We Voted Not To Space You
06. We Should Have Seen This Coming
07. She’s One Of Them Now
08. Stuff To Steal; People To Kill
09. Going Out Fighting
10. Take The Shot
11. Wish I'd Spaced You When I Had The Chance
12. Sometimes In Life You Don't Get To Choose
13. But First, We Save The Galaxy
Dark Matter je zgodba o dogodivščinah posadke zapuščene vesoljske ladje, ki se prebudi brez spomina o tem kdo so in kako so na ladjo prispeli.
Soočevanje z nevarnostmi na vsakem koraku jih prisili na vzajemno sodelovanje z namenom preživetja.
Potovanje polno maščevanj, izdaj in skrivnosti...
DJ VIHAR & DJ AJDA - SLO & HR MIX 46

Klikni za povečavo!
12-07-2016 16:19 naložil Ajda
Sejalci: 1 / Odjemalci: 1 / Velikost: 227.26 MB / Dokončani: 51
Prenesi torrent Poročaj torrent Opis torrenta NFO
Kategorija: GLASBA > Glasba






General
Complete name : DJ VIHAR & DJ AJDA - SLO & HR MIX 46.mp3
Format : MPEG Audio
File size : 226 MiB
Duration : 1h 38mn
Overall bit rate mode : Constant
Overall bit rate : 320 Kbps
Encoded by : Lavf52.39.0
Writing library : LAME3.98

Audio
Format : MPEG Audio
Format version : Version 1
Format profile : Layer 3
Mode : Joint stereo
Duration : 1h 38mn
Bit rate mode : Constant
Bit rate : 320 Kbps
Channel(s) : 2 channels
Sampling rate : 48.0 KHz
Compression mode : Lossy
Stream size : 226 MiB (100%)
Writing library : LAME3.98


1. MINEA – Doza rizika
2. BELLA – Il me ljubi, il odlazi
3. MARKO MULEC – Pomlad ob tebi
4. DARYAN – Ako odes ti
5. INES ERBUS IN MISO KONTREC – Slovenec in slovenka
6. LEO – U dobrim rukama
7. 058 – Ljeto
8. BOBO – Dim
9. TANJA ZAGAR – Trava
10. DRAZEN ZECIC - Ljeto ide
11. MLADI GAMSI – Dej povej
12. UCITELJICE in TARAPANA BAND – Ako mi se ne spava
13. JOLE – Samac
14. ZDRAVKO SKENDER – Na koljena padam
15. STAVROS in BARABE – Kraljevi zabave
16. KINGSTON – Alle, alle
17. KLAPA GODIMENTI – Ti si za me zena
18. MLADEN BURNAC – Dzaba dzaba
19. TS SLAVONSKI SAN in ZVS DZAKOVCANKE – Poludi sa mnom
20. BOSTJAN KONECNIK – Zakaj me noces
21. MAGAZIN – Ima dana
22. SIMONA WEISS – Nikomur te ne dam
23. VERSI – Vragu malo, meni dosta
24. ZVITA FELTNA – Na zdravje prijatelji
25. VLADO KALEMBER – Pitas, pitas
26. DUSKO LOKIN – Oci pune suza
27. ALEKSANDER JEZ – Le ti si vse kar imam
28.ROCK PARTYZANI in ROCKNBAND – Hey baby
29. GORAN KARAN – Ti si angel ljubljeni
30. CUKI – Lahko noc


Dark.Matter.S02E02.BihSub.XviD-AFG

Klikni za povečavo!
10-07-2016 06:39 naložil Reaper
Sejalci: 0 / Odjemalci: 0 / Velikost: 321.9 MB / Dokončani: 4
Prenesi torrent Poročaj torrent Opis torrenta NFO
Zvrst: Drama | Triler | Z.F.
Kategorija: FILMI > XviD

Ime: Dark Matter season 02
Leto: 2016
Jezik: angleški
Žanr: drama ZF triler
Podnapisi: bosanski
Ocena: 7,4/10 (18.508)
Ratings: 7,4/10 from 675 users
Creators: Joseph Mallozzi, Paul Mullie, Natalie Rachel Cooper
Stars: Marc Bendavid, Melissa O'Neil, Anthony Lemke
Http: IMDb
01. Welcome To Your New Home 01.07.2016
02. Kill Them All 08.07.2016
03. I’ve Seen The Other Side Of You 15.07.2016
04. We Were Family
05. We Voted Not To Space You
06. We Should Have Seen This Coming
07. She’s One Of Them Now
08. Stuff To Steal; People To Kill
09. Going Out Fighting
10. Take The Shot
11. Wish I'd Spaced You When I Had The Chance
12. Sometimes In Life You Don't Get To Choose
13. But First, We Save The Galaxy
Dark Matter je zgodba o dogodivščinah posadke zapuščene vesoljske ladje, ki se prebudi brez spomina o tem kdo so in kako so na ladjo prispeli.
Soočevanje z nevarnostmi na vsakem koraku jih prisili na vzajemno sodelovanje z namenom preživetja.
Potovanje polno maščevanj, izdaj in skrivnosti...
Dark.Matter.Season-01.BihSub.HDTV.XviD-FUM

Klikni za povečavo!
06-07-2016 11:34 naložil Reaper
Sejalci: 0 / Odjemalci: 0 / Velikost: 4.33 GB / Dokončani: 5
Prenesi torrent Poročaj torrent Opis torrenta NFO
Zvrst: Drama | Triler | Z.F.
Kategorija: FILMI > XviD

Ime: Dark Matter season 01
Leto: 2015
Jezik: angleški
Žanr: drama ZF triler
Podnapisi: bosanski [fAzazel], priredba: cYd
Ocena:
Ratings: 7,4/10 from 675 users
Creators: Joseph Mallozzi, Paul Mullie, Natalie Rachel Cooper
Stars: Marc Bendavid, Melissa O'Neil, Anthony Lemke
http://www.imdb.com/title/tt4159076/
01. Episode 1 12.06.2015
02. Episode 2 19.06.2015
03. Episode 3 26.06.2015
04. Episode 4 03.07.2015
05. Episode 5 10.07.2015
06. Episode 6 17.07.2015
07. Episode 7 24.07.2015
08. Episode 8 31.07.2015
09. Episode 9 07.08.2015
10. Episode 10 14.08.2015
11. Episode 11 21.08.2015
12. Episode 12 28.08.2015
13. Episode 13 04.09.2015
Dark Matter je zgodba o dogodivščinah posadke zapuščene vesoljske ladje, ki se prebudi brez spomina o tem kdo so in kako so na ladjo prispeli.
Soočevanje z nevarnostmi na vsakem koraku jih prisili na vzajemno sodelovanje z namenom preživetja.
Potovanje polno maščevanj, izdaj in skrivnosti...
Dark.Matter.S02E01.BihSub.XviD-AFG

Klikni za povečavo!
03-07-2016 09:52 naložil Reaper
Sejalci: 0 / Odjemalci: 0 / Velikost: 323.59 MB / Dokončani: 4
Prenesi torrent Poročaj torrent Opis torrenta NFO
Zvrst: Drama | Triler | Z.F.
Kategorija: FILMI > XviD

Ime: Dark Matter season 02
Leto: 2016
Jezik: angleški
Žanr: drama ZF triler
Podnapisi: bosanski
Ocena: 7,4/10 (18.508)
Ratings: 7,4/10 from 675 users
Creators: Joseph Mallozzi, Paul Mullie, Natalie Rachel Cooper
Stars: Marc Bendavid, Melissa O'Neil, Anthony Lemke
Http: IMDb
01. Welcome To Your New Home 01.07.2016
02. Kill Them All 08.07.2016
03. I’ve Seen The Other Side Of You 15.07.2016
04. We Were Family
05. We Voted Not To Space You
06. We Should Have Seen This Coming
07. She’s One Of Them Now
08. Stuff To Steal; People To Kill
09. Going Out Fighting
10. Take The Shot
11. Wish I'd Spaced You When I Had The Chance
12. Sometimes In Life You Don't Get To Choose
13. But First, We Save The Galaxy
Dark Matter je zgodba o dogodivščinah posadke zapuščene vesoljske ladje, ki se prebudi brez spomina o tem kdo so in kako so na ladjo prispeli.
Soočevanje z nevarnostmi na vsakem koraku jih prisili na vzajemno sodelovanje z namenom preživetja.
Potovanje polno maščevanj, izdaj in skrivnosti...
De Surprise 2015 SrbSubs 1080p BluRay x264 DTS WiKi

Klikni za povečavo!
30-06-2016 16:29 naložil Ziva
Sejalci: 0 / Odjemalci: 0 / Velikost: 8.99 GB / Dokončani: 7
Prenesi torrent Poročaj torrent Opis torrenta NFO
Kategorija: FILMI > WEBRip-1080



De Surprise 2015 1080p BluRay x264 DTS WiKi
Language(s): English | Dutch
1hr 41mn | 1080p BluRay | 1920 x 804 | Matroska | 8.98 GB
Genre(s): Comedy | Romance
Podnapisi : hrvaški
IMDb : http://www.imdb.com/title/tt3409440/



Jeroen van Koningsbrugge ... Jacob van Zuylen de With
Georgina Verbaan ... Anne de Koning
Jan Decleir ... Cornald Muller
Henry Goodman ... Mr. Jones
Ankur Bahl ... Asif


An eccentric multimillionaire signs an agreement to have his life ended. While selecting his coffin he meets a young woman who has signed up for the same arrangement. Trouble ensues when the couple falls in love and wishes to get out of the contract.


Dirty.Grandpa.2016.SLOSubs.BRRip.XviD-DrSi

Klikni za povečavo!
30-06-2016 15:53 naložil Ziva
Sejalci: 0 / Odjemalci: 0 / Velikost: 2.22 GB / Dokončani: 10
Prenesi torrent Poročaj torrent Opis torrenta NFO
Zvrst: Komedija
Kategorija: FILMI > BRRip



Source...... 1080p.BluRay.x264-LOST
Leto............. 2016
Kodek........... XviD
Slika............... 2639 kbps | 720x304 | 23.976
Zvok................. AC3 - 448 kb/s 5.1 ch
Dolžina............. 102 Minut
Jezik.................. Angleški
Podnapisi.......... Slovenski [Retail]
Tehnična obdelava: DVD Rippers Slovenija
iMDB.iNFO........... http://www.imdb.com/title/tt1860213/

Zvrst...................... Komedija



Robert De Niro.................Dick Kelly
Zac Efron.................Jason Kelly
Zoey Deutch.................Shadia
Aubrey Plaza.................Lenore
Jason Mantzoukas.................Tan Pam
Dermot Mulroney.................David Kelly
Julianne Hough.................Meredith
Jeffrey Bowyer-Chapman.................Bradley
Brandon Mychal Smith.................Tyrone
Jake Picking.................Cody
Michael Hudson.................Brah
Adam Pally.................Cousin Nick
Mo Collins.................Officer Finch


Režiser zabavne romance Prvo leto po poroki predstavlja nenavadno avanturo razvratnega dedka in redoljubnega vnuka. Pohlevni odvetnik Jason je tik pred poroko s šefovo hčerko, ko na grbo dobi ovdovelega dedka Dicka. Ta ga prepriča, naj ga nečak odpelje na Florido, kjer želi v miru žalovati, toda v resnici ima osiveli pohotnež povsem drugačne načrte. Namerava se udeležiti divjih študentskih zabav in intimno spoznati čim več deklet. Kljub Jasonovemu upiranju ne traja dolgo, da dedek povsem uide z vajeti, hkrati pa tudi mladenič spoznava svoj divjo naravo.



Deathgasm.2015.SLOSubs.BRRip.XviD-DrSi

Klikni za povečavo!
21-06-2016 12:25 naložil Ziva
Sejalci: 0 / Odjemalci: 0 / Velikost: 1.8 GB / Dokončani: 4
Prenesi torrent Poročaj torrent Opis torrenta NFO
Kategorija: FILMI > BRRip



Naziv: Deathgasm.2015.SLOSubs.BRRip.XviD-DrSi
Source: Deathgasm.2015.720p.BluRay.x264-PFa
Leto izida .........: 2015
Velikost ...........: 1,80 GB
Dolžina ............: 86 Minut
Video ...............: 2538 Kbps | 720x304 | 23,976 fps
Zvok .................: Dolby Digital AC3 5.1 @ 448 Kbps
Kodek.................: XviD
Zvrst………….: Komedija | Grozljivka
Država .............: Nova Zelandija
Jezik ................: Angleški
Podnapisi…….: Slovenski (RETAiL)
Prevod: Mediatranslations
Za HD priredil: metalcamp
Tehnična obdelava: DVD Rippers Slovenija


IMDb Info .........: http://www.imdb.com/title/tt3705412/

Režija.........: Jason Lei Howden
Scenarij.......: Jason Lei Howden


Milo Cawthorne ... Brodie
James Blake ... Zakk
Kimberley Crossman ... Medina
Sam Berkley ... Dion
Daniel Cresswell ... Giles
Delaney Tabron ... Shanna
Stephen Ure ... Rikki Daggers
Colin Moy ... Uncle Albert
Jodie Rimmer ... Aunt Mary
Nick Hoskins-Smith ... David


Prišlek v mesto Brodie in mladi upornik Zakk postaneta prijatelja, ki ju druži
ljubezen do heavy metala. Vendar z neko kitarsko skladbo nehote prikličeta zlobne
sile – in glasbena slava ju bo morala še malo počakati.

Srednja šola je pravi pekel. Nad težkometalno glasbo navdušeni Brodie je vase zaprti
izobčenec med samozavestnimi šolskimi športniki in svetlolasimi navijačicami. Nekoč
spozna uporniškega mladeniča Zakka in med njima se takoj vname prijateljska iskra
sorodnih duš. Brodie in Zakk ustanovita garažni bend in nekaj fantov iz soseske začne
vneto vaditi rokovske melodije v upanju na glasbeno slavo, ki jih čaka. Po sledeh
nekega izginulega legendarnega rokovskega kitarista naletijo na skrivnostno partituro
z naslovom Črna himna, ki naj bi glasbenemu izvajalcu podelila nedoumljive mistične moči.
Z drugimi besedami: glasba prikliče starodavnega demona Aelotha "Slepega", ki grozi,
da bo razdejal svet in uničil sam obstoj človeštva. Večine znancev in sošolcev mladih
težkometalcev se polastijo zlonamerne sile z namenom, da bi si izkopali oči in se
preobrazili v ljudožerske pošasti – in to je šele začetek. Brodie, Zakk in prijatelji
bodo morali nekako ustaviti sile čistega zla, sicer bo svet, kakršnega poznajo,
za vselej pogubljen.




Divlje Jagode

Klikni za povečavo!
12-06-2016 16:37 naložil System
Sejalci: 0 / Odjemalci: 0 / Velikost: 1.19 GB / Dokončani: 2
Prenesi torrent Poročaj torrent Opis torrenta
Kategorija: GLASBA > Glasba
Anonimen nalagalec

Divlje Jagode - Diskografija mp3 2016


Artist...............: Divlje Jagode
Album................:
Genre................: Rock
Source...............: CD
Year.................:
Ripper...............: EAC (Secure mode) / LAME 3.92 & Asus CD-S520
Codec................: Xing
Version..............: MPEG 1 Layer III
Quality..............: Insane, (avg. bitrate:128 - 320 )
Channels.............: Joint Stereo / 44100 hz
Tags.................: ID3 v1.1, ID3 v2.3

Studijski albumi

Divlje jagode (1978.)
Stakleni hotel (1981.)
Motori (1982.)
Čarobnjaci (1983.)
Vatra (1985.)
Wild Strawberries (1987.) - as Wild Strawberries
Konji (1988.)
Labude, kad rata ne bude (1994.)
Sto vjekova (1996.)
Od neba do neba (2003.)
Biodinamička ljubav (2013.)
Kompilacije

The Very Best Of (2004.)
Ultimate Colection (2008.)
Ultimate Colection (2009.) Najljepse ljubavne (2011.)

Divlje jagode su bosansko-hercegovački heavy metal i hard rock sastav koji je 1977. godine osnovan u Zagrebu. Bili su vrlo popularan sastav na teritoriju bivše Jugoslavije i smatraju se začetnicima heavy metal stila na tom prostoru. U svibnju 1977. godine, Sead Lipovača zajedno s Antom Jankovićem, Nihadom Jusufhodžićem, Mustafom Ismailovskim i Adonisom Dokuzovićem kojeg je poznavao još iz Novih Akorda, osniva Divlje jagode. Tijekom godina njihovog glazbenog rada, objavili su nekoliko singlova i dvanaest studijskih albuma, a 2006. godine izdaju box set na kojemu se nalazi deset albuma i jedan singl.


Originalna postava
Sead Lipovača, Anto Toni Janković, Nihad Jusufhodžić, Mustafa Ismailovski, Adonis Dokuzović

Članovi:

Sead Lipovača
Nikola Milat
Nasko Budimlić
Andraš Išpan
Livio Berak


David Gilmour - Live In Gdansk 2008[FLAC]

Klikni za povečavo!
21-05-2016 12:35 naložil andrejap
Sejalci: 0 / Odjemalci: 0 / Velikost: 1.28 GB / Dokončani: 8
Prenesi torrent Poročaj torrent Opis torrenta NFO
Zvrst: Glasbeni
Kategorija: GLASBA > Glasba

---------------------------------------------------------------------
David Gilmour - Live In Gdansk
---------------------------------------------------------------------
Artist...............: David Gilmour
Album................: Live In Gdansk
Genre................: Pop
Source...............: CD
Year.................: 2008
Ripper...............: EAC (Secure mode) / LAME 3.92 & Asus CD-S520
Codec................: Free Lossless Audio Codec (FLAC)
Version..............: Lavf56.30.100
Quality..............: Lossless, (avg. compression: 58 %)
Channels.............: Stereo / 44100 HZ / 16 Bit
Tags.................: VorbisComment
Information..........:
Ripped by............: andrejap on 21. 05. 2016
Posted by............: andrejap on 21. 05. 2016
News Server..........: news.astraweb.com
News Group(s)........: alt.binaries.sounds.mp3.m
Included.............: NFO
Covers...............: Front Back CD

---------------------------------------------------------------------
Tracklisting CD1
---------------------------------------------------------------------
1. David Gilmour - Speak To Me [01:23]
2. David Gilmour - Breathe [02:49]
3. David Gilmour - Time [05:38]
4. David Gilmour - Breathe (Reprise) [01:32]
5. David Gilmour - Castellorizon [03:47]
6. David Gilmour - On An Island [07:27]
7. David Gilmour - The Blue [06:39]
8. David Gilmour - Red Sky At Night [03:03]
9. David Gilmour - This Heaven [04:33]
10. David Gilmour - Then I Close My Eyes [07:42]
11. David Gilmour - Smile [04:26]
12. David Gilmour - Take A Breath [06:48]
13. David Gilmour - A Pocketful Of Stones [05:41]
14. David Gilmour - Where We Start [08:01]

Playing Time.........: 01:09:38
Total Size...........: 407,10 MB

---------------------------------------------------------------------
Tracklisting CD2
---------------------------------------------------------------------
1. David Gilmour - Shine On You Crazy Diamond [12:07]
2. David Gilmour - Astronomy Domine [05:03]
3. David Gilmour - Fat Old Sun [06:40]
4. David Gilmour - High Hopes [09:58]
5. David Gilmour - Echoes [25:26]
6. David Gilmour - Wish You Were Here [05:16]
7. David Gilmour - A Great Day For Freedom [05:57]
8. David Gilmour - Comfortably Numb [09:22]

Playing Time.........: 01:19:52
Total Size...........: 467,82 MB

---------------------------------------------------------------------
Tracklisting CD3
---------------------------------------------------------------------
1. David Gilmour - Shine On You Crazy Diamond (Live In Venice And Vienne)[13:09]
2. David Gilmour - Dominoes (Live In Paris) [04:53]
3. David Gilmour - The Blue (Live In Vienne) [06:21]
4. David Gilmour - Take A Breath (Live In Munich) [06:44]
5. David Gilmour - Wish You Were Here (Live In Glasgow) [05:18]
6. David Gilmour - Coming Back To Life (Live In Florence) [07:10]
7. David Gilmour - Find The Cost Of Freedom (Live In Manchester)[01:28]
8. David Gilmour - This Heaven (Live In Vienne) [04:28]
9. David Gilmour - Wearing The Inside Out (Live In Milan) [07:32]
10. David Gilmour - A Pocketful Of Stones (Live In Vienne) [06:27]
11. David Gilmour - Where We Start (Live In Vienne) [07:37]
12. David Gilmour - On The Turning Away (Live In Venic [06:06]

Playing Time.........: 01:17:19
Total Size...........: 434,39 MB

Live in Gdansk is a live album by David Gilmour. It is a part of his On an Island project which includes an album, tour, DVD, and live album. It was released on 22 September 2008. A David Gilmour Signature Series Fender Stratocaster was released at the same time.
Desert.Flower.2009.SLOSubs.BRRip.XviD-BLiNK

Klikni za povečavo!
14-05-2016 09:03 naložil BlackDevil
Sejalci: 0 / Odjemalci: 0 / Velikost: 2.5 GB / Dokončani: 1
Prenesi torrent Poročaj torrent Opis torrenta
Zvrst: Biografija | Drama
Kategorija: FILMI > BRRip

Desert flower (2009)
Puščavska roža
biografska drama



Info:
Naziv: Desert.Flower.2009.SLOSubs.BRRip.XviD-BLiNK
Source..........: Desert.Flower.2009.DTS.720p.BluRay.x264-RSG
Velikost.........: 2,50 GB
Dolžina..........: 127 min
Leto...............: 2009
Slika..............: 720x384 2340kbps 24fps
Zvok..............: Dolby Digital AC3 6ch 448kb/s
Kodek............: XviD
Država...........: VB | Nemčija | Avstrija | Francija
Jezik..............: Angleški | Somalijski | Francoski
Žanr...............: Biografski | Drama
Podnapisi........: Slovenski
Prevod...........: BLiNK - Hvala!!!
Tehnična obdelava...: BLiNK


IMDb:
Link..........: http://www.imdb.com/title/tt1054580/
Ocena........: 7,4/10 (8.628 glasov)
Režija.........: Sherry Hormann
Scenarij.......: Smita Bhide, Waris Dirie


Cast:
Soraya Omar-Scego ... Young Waris
Idriss Abdillahi Houfaneh ... Old Man
Awa Saïd Darar ... Amina
Roun Daher Aïnan ... Waris' Mother
Osman Aden Dalieg ... Waris' Father
Liya Kebede ... Waris Dirie
Sally Hawkins ... Marylin
Meera Syal ... Pushpa Patel
Anna Hilgedieck ... Girl in Shower
Lucrezia Phantazia ... Girl in Boardinghouse
Craig Parkinson ... Neil




Plot:
Rojena v tradicionalni somalijski družini plemenskih nomadov je ostala
nepismena, pri petih letih preživela obrezovanje in pri dvanajstih,
izčrpana od vsega hudega, ovita le v raztrgan kos tkanine pobegnila pred
vnaprej dogovorjeno poroko s starejšim moškim.
Njena pretresljiva zgodba se nadaljuje v Mogadišu in Londonu, kjer se je
zaposlila najprej kot čistilka pri stricu veleposlaniku, nato pa se s
pomočjo fotografa Terencea Donovana povzpela na modne brvi kot uspešna
manekenka in iskan model. Danes živi v New Yorku, bolj kot vse na svetu
pa si želi ponovno začutiti utrip domovine in najti svojo družino, ki je
izginila kdovekje v puščavi.


Screens:




Dionne Warwick - Heartbreaker The Very Best Of 2002[FLAC]

Klikni za povečavo!
12-05-2016 13:28 naložil andrejap
Sejalci: 0 / Odjemalci: 0 / Velikost: 461.98 MB / Dokončani: 20
Prenesi torrent Poročaj torrent Opis torrenta NFO
Zvrst: Glasbeni
Kategorija: GLASBA > Glasba


---------------------------------------------------------------------
Dionne Warwick - Heartbreaker: Very Best of
---------------------------------------------------------------------
Artist...............: Dionne Warwick
Album................: Heartbreaker: Very Best of
Genre................: Easy Listening
Source...............: CD
Year.................: 2002
Ripper...............: EAC (Secure mode) / LAME 3.92 & Asus CD-S520
Codec................: Free Lossless Audio Codec (FLAC)
Version..............: reference libFLAC 1.3.0 20130526
Quality..............: Lossless, (avg. compression: 57 %)
Channels.............: Stereo / 44100 HZ / 16 Bit
Tags.................: VorbisComment
Information..........:
Ripped by............: andrejap on 12. 05. 2016
Posted by............: andrejap on 12. 05. 2016
News Server..........: news.astraweb.com
News Group(s)........: alt.binaries.sounds.mp3.m
Included.............: NFO
Covers...............: Front Back CD
---------------------------------------------------------------------
Tracklisting
---------------------------------------------------------------------
1. Dionne Warwick - Heartbreaker [04:17]
2. Dionne Warwick - All The Love In The World [03:28]
3. Dionne Warwick - Walk On By [02:55]
4. Dionne Warwick - Youll Never Get To Heaven (If You Break My Heart)[03:09]
5. Dionne Warwick - I Say A Little Prayer [03:05]
6. Dionne Warwick - Do You Know Tha Way To San Jose [02:56]
7. Dionne Warwick - Dont Make Me Over [03:23]
8. Dionne Warwick - Anyone Who Had A Heart [03:07]
9. Dionne Warwick - The Windows Of The World [03:17]
10. Dionne Warwick - (They Long To Be) Close To You [02:22]
11. Dionne Warwick - The Look Of Love [02:49]
12. Dionne Warwick - What The World Needs Now [03:09]
13. Dionne Warwick - Ill Never Fall In Love Again [02:58]
14. Dionne Warwick - Reach Out For Me [02:51]
15. Dionne Warwick - Trains And Boats And Planes [02:47]
16. Dionne Warwick - I Just Dont Know What To Do With Myself[02:45]
17. Dionne Warwick - This Girls In Love With You [05:17]
18. Dionne Warwick - Alfie [02:45]
19. Dionne Warwick - Then Came You (With The Detroit Spinners)[03:52]
20. Dionne Warwick - Message To Michael [03:07]
21. Dionne Warwick - (Theme From) Valley Of The Dolls [03:37]
22. Dionne Warwick - A House Is Not A Home [03:05]
23. Dionne Warwick - Once You Hit The Road [04:00]
24. Dionne Warwick - Thats What Freinds Are For (Ft Elton John Gladys Knight)[04:11]

Playing Time.........: 01:19:25
Total Size...........: 460,92 MB
Don Williams - The Definitive Collection 2004[FLAC]

Klikni za povečavo!
12-05-2016 13:24 naložil andrejap
Sejalci: 0 / Odjemalci: 0 / Velikost: 392.99 MB / Dokončani: 17
Prenesi torrent Poročaj torrent Opis torrenta NFO
Zvrst: Glasbeni
Kategorija: GLASBA > Glasba

---------------------------------------------------------------------
Don Williams - The Definitive Collection
---------------------------------------------------------------------
Artist...............: Don Williams
Album................: The Definitive Collection
Genre................: Pop Country-Pop
Source...............: CD
Year.................: 2013
Ripper...............: EAC (Secure mode) / LAME 3.92 & Asus CD-S520
Codec................: Free Lossless Audio Codec (FLAC)
Version..............: Lavf53.1.0
Quality..............: Lossless, (avg. compression: 50 %)
Channels.............: Stereo / 44100 HZ / 16 Bit
Tags.................: VorbisComment
Information..........:
Ripped by............: andrejap on 12. 05. 2016
Posted by............: andrejap on 12. 05. 2016
News Server..........: news.astraweb.com
News Group(s)........: alt.binaries.sounds.mp3.m
Included.............: NFO
Covers...............: Front Back
---------------------------------------------------------------------
Tracklisting
---------------------------------------------------------------------
1. Don Williams - Come Early Morning [03:07]
2. Don Williams - Amanda [03:08]
3. Don Williams - I Wouldn't Want To Live If You Didn't Want Me[02:58]
4. Don Williams - The Ties That Bind [02:36]
5. Don Williams - You're My Best Friend [02:45]
6. Don Williams - (Turn Out The Light And) Love Me Tonight [02:19]
7. Don Williams - Till The Rivers All Run Dry [03:25]
8. Don Williams - Say It Again [02:55]
9. Don Williams - She Never Knew Me [02:45]
10. Don Williams - Some Broken Hearts Will Never Mend [02:43]
11. Don Williams - I'm A Country Boy [03:01]
12. Don Williams - I've Got A Winner In You [02:33]
13. Don Williams - Rake And Ramblin' Man [02:51]
14. Don Williams - Tulsa Time [03:07]
15. Don Williams - It Must Be Love [02:26]
16. Don Williams - Love Me Over Again [02:56]
17. Don Williams - Good Ole Boys Like Me [04:09]
18. Don Williams - I Believe In You [04:00]
19. Don Williams - Lord I Hope This Day Is Good [04:03]
20. Don Williams - Listen To The Radio [03:10]
21. Don Williams - If Hollywood Don't Need You (Honey, I Still Do)[03:10]
22. Don Williams - Love Is On A Roll [03:37]
23. Don Williams - Nobody But You [02:39]
24. Don Williams - That's The Thing About Love [03:35]
25. Don Williams - Heartbeat In The Darkness [03:47]

Playing Time.........: 01:17:57
Total Size...........: 392,95 MB

Don Williams (born May 27, 1939, Floydada, Texas, United States) is an American country singer, songwriter and a 2010 inductee to the Country Music Hall of Fame. He grew up in Portland, Texas, and graduated in 1958 from Gregory-Portland High School. After seven years with the folk-pop group Pozo-Seco Singers, he began his solo career in 1971, singing popular ballads and amassing 17 number one country hits.
The Definitive Collection delivers 25 essential tracks by Don Williams, spanning his tenure with ABC, MCA, and Capitol Records. With the exception of "Stay Young," all of his chart-topping country hits from the '70s and '80s are here, including "Heartbeat in the Darkness," "Tulsa Time," "I Believe in You," "Lord, I Hope This Day Is Good," and "I Wouldn't Want to Live if You Didn't Want Me," his first number one from 1974. While not as generous as the 40-track Anthology set on Hip-O, it's convenient to have all his original hits on one disc.
Despicable Me (2010) [1080p]

11-05-2016 20:26 naložil System
Sejalci: 0 / Odjemalci: 0 / Velikost: 1.44 GB / Dokončani: 652
Prenesi torrent Poročaj torrent Opis torrenta
Kategorija: FILMI > Risanke
Anonimen nalagalec

risanka
Despicable Me 2 (2013) [1080p]

11-05-2016 20:24 naložil Masa2012
Sejalci: 1 / Odjemalci: 0 / Velikost: 1.45 GB / Dokončani: 10
Prenesi torrent Poročaj torrent Opis torrenta
Kategorija: FILMI > Risanke

risanke
Deadpool.2016.SLOSUB.DVDRip.XviD-DrSi

Klikni za povečavo!
28-04-2016 11:57 naložil Ziva
Sejalci: 1 / Odjemalci: 0 / Velikost: 1.37 GB / Dokončani: 19
Prenesi torrent Poročaj torrent Opis torrenta NFO
Kategorija: FILMI > DVDRip



Dolžina ..................: 106 minut
Leto .......................: 2016
Kodek ....................: XviD
Slika ......................: 720 x 304 1364 kbps 23,976 fps
Zvok ......................: Angleški AC3 5.1 448 kb/s
Podnapisi .............: Slovenski
Prevod .................: RETAiL
Tehn. obdelava ..: DrSi
Žanr ......................: Akcija / Avantura / Komedija

iMDB info ..............: http://www.imdb.com/title/tt1431045/


Ryan Reynolds ... Wade / Deadpool
Karan Soni ... Dopinder
Ed Skrein ... Ajax
Michael Benyaer ... Warlord
Stefan Kapicic ... Colossus (voice)
Brianna Hildebrand ... Negasonic Teenage Warhead
Style Dayne ... Jeremy (Pizza Guy)
Kyle Cassie ... Gavin Merchant
Taylor Hickson ... Meghan Orlovsky
Ayzee ... Teen Girl #1
Naika Toussaint ... Teen Girl #2
Randal Reeder ... Buck
T.J. Miller ... Weasel
Isaac C. Singleton Jr ... .Boothe
Morena Baccarin ... Vanessa


Iz Marvelovega vesolja herojev na velika platna prihaja zgodba o nevsakdanjem antijunaku s hudomušnim smislom za humor. Bivši pripadnik posebnih enot Wade se mora soočiti z smrtonosno boleznijo, njegov edini izhod pa je ponudba skrivnostne organizacije, ki želi na njem opraviti nevaren poskus. Wade postane grozljivo iznakažen, toda hkrati dobi izjemne moči in neumrljivost. Sprva noče sprejeti svoje nove identitete, toda ko najhujši sovražnik ogrozi ljubezen njegovega življenja, se Wade spremeni v neusmiljenega maščevalca Deadpoola, ki z raznovrstnim orožjem in komičnimi opazkami pošilja nasprotnike v onostranstvo.


DJ VIHAR & DJ AJDA - SLO & HR MIX 45

Klikni za povečavo!
23-04-2016 15:34 naložil Ajda
Sejalci: 1 / Odjemalci: 1 / Velikost: 235.03 MB / Dokončani: 59
Prenesi torrent Poročaj torrent Opis torrenta NFO
Kategorija: GLASBA > Glasba






Complete name :DJ VIHAR & DJ AJDA - SLO & HR MIX 45.mp3
Format : MPEG Audio
File size : 234 MiB
Duration : 1h 42mn
Overall bit rate mode : Constant
Overall bit rate : 320 Kbps
Encoded by : Lavf52.39.0
Writing library : LAME3.98

Audio
Format : MPEG Audio
Format version : Version 1
Format profile : Layer 3
Mode : Joint stereo
Duration : 1h 42mn
Bit rate mode : Constant
Bit rate : 320 Kbps
Channel(s) : 2 channels
Sampling rate : 48.0 KHz
Compression mode : Lossy
Stream size : 234 MiB (100%)
Writing library : LAME3.98


1.NUSA ROJS - Vzemi me
2.MEJASI - Bubamara
3.SKATER - Cuj ti
4.JOLE - Najgori plan
5.IVANA KOVAC - Bila boja
6.POSKOCNI MUZIKANTI - Cao adijo
7.ELITA - Zezanje
8.CALYPSO - Stokrat
9.GRUPA BUMERANG - Cvijece cvijetu
10-JASMIN STAVROS - Rođendan
11.BUMERANG - Bolje mi je,da me nije
12.GADI - A si kaj nora name
13.ZARATINO - Barka
14.VIKTORIJA KULISIC - Bez tebe bi ljubav umrla
15.TINA & NIKSA - E da mi je
16.WERNER - Evo mene
17.CUKI - Zdaj pa kozarce vsi v zrak
18.MILI - Mlađe je slađe
19.ATOMIK HARMONIK - Ustnice brez poljubov
20.ANS.NARCIS - Ljubezen je roza
21.VLADO KALEMBER - Ako je kraj
22.DOLORES STRUJIC - Putuj daleko
23.VLADO MARINIC - Volim ovaj zivot
24.NEJC KASTELIC - Pijan od srece
25.WEISS & RIJAVEC -Ti in jaz
26.BERNY & TAZ SOLDO - Sad ti kazem zbogom
27.ROBERT FICKER - Okreni drugu stranu
28.MATKO JELAVIC - Gitara romana
29.BEGINI - Iz protesta
30.MILIGRAM - Nista




Dying of the Light 2014 SLOSubs 720p WEB-DL x264 AAC - Ozlem

Klikni za povečavo!
14-04-2016 10:07 naložil System
Sejalci: 1 / Odjemalci: 0 / Velikost: 703.05 MB / Dokončani: 9
Prenesi torrent Poročaj torrent Opis torrenta
Zvrst: Drama | Triler
Kategorija: FILMI > WEBRip
Anonimen nalagalec

Dying of the Light (2014)
Pred mrakom
misteriozna drama



Info:
Naziv:
Dying of the Light 2014 720p WEB-DL x264 AAC - Ozlem
Velikost.........:
702 MB
Dolžina..........: 90 min
Leto...............: 2014
Slika..............:
1280x544 23,976 fps
Zvok..............:
English , AAC , 2 CH , 96 Kbps
Kodek............:
x264
Država...........: Bahami
Jezik..............: Angleški
Žanr...............: Drama | Triler
Podnapisi........: Slovenski

IMDb:
Link..........: http://www.imdb.com/title/tt1274586/
Ocena........: 4,4/10 (6,424 glasov)
Režija.........: Paul Schrader
Scenarij.......: Paul Schrader


Cast:
Nicolas Cage ... Evan Lake
Anton Yelchin ... Milton Schultz
Alexander Karim ... Muhammad Banir
Irène Jacob ... Michelle Zubarain
Tomiwa Edun ... Mbui
Aymen Hamdouchi ... Aasim
Claudius Peters ... Ghedi
Robert G. Slade ... James Clifton
Geff Francis ... Dr. Clayborne
Silas Carson ... Dr. Sanjar




Plot:
Evan Lake (Nicolas Cage) je uspešni Cijin agent, ki je zaradi nenadne
hude bolezni primoran predčasno skleniti svojo kariero. Čas, ki mu je
še preostal v službi, izkušeni operativec izkoristi za lov na terorista,
ki ga je pred mnogimi leti mučil med pomembno misijo.


Uacneoyt
Zmdvrz5v
Foxsvnwp
DJ Sash - Folk summer megamix 2015

Klikni za povečavo!
01-04-2016 15:37 naložil System
Sejalci: 0 / Odjemalci: 0 / Velikost: 73.27 MB / Dokončani: 11
Prenesi torrent Poročaj torrent Opis torrenta
Zvrst: Glasbeni
Kategorija: GLASBA > Glasba
Anonimen nalagalec

DJ Sash - Folk summer megamix 2015 mp3

Folk summer megamix 2015 mp3

Tracklisting

1. Sandra Afrika & Goca Trzan - Pozovi Ga Ti
2. Tropico Band - Ni Mrtav, Ni Ziv
3. Marina Viskovic - Zenska Pesma
4. Aleksandra Stojkovic Dzidza - Lice Sa Poternice
5. DJ Djuro & Big Time - Milion
6. Sha - Top Model
7. Djogani - Veo Srece
8. Seka Aleksic - Ranjeni Lav
9. Dado Polumenta- Za Tebe Uvjek Bicu Tu
10. Ana Baresic - Kafanski Fakultet
11. Aco Pejovic - Pet Kvadrata
12. Daria Stanojevic - Nije Bitno
13. Andreana Cekic - Kraljica U Zlatu
14. Milica Pavlovic - Selfie
15. Lidija Bacic - 100% Mozda
16. Natasa Vodenicar - Srecno Pijana
17. Ljubomir Perucica - Nikada Od Nje
18. Djogani & Jana - Sve Bih Dala
19. Jana - Bravo, Bravo
20. Jana - Samo Siroko
21. Keba - Kad Puca, Nek Puca
22. Danijel Mitrovic & Milena Ceranic - Luda Noc
23. Severina - Calimero
24. Nikolija - Opasna Igra
25. Nikolina Kovac - Sumnjivo Lice
26. Aleksandra Prijovic - Za Nas Kasno Je
27. Mia Borisavljevic - Otkidam Na Tebe
28. Seka Aleksic - Lek Za Spavanje
29. Davor Badrov - Pola Kafane
30. Seka Aleksic & Sha - Ti Se Hrani Mojim Bolom
31. Seka Aleksic - Crveni Ruz
32. Natasa Bekvalac - Original
33. Mina Kostic - Nisam Ti Ja Mama
34. Tijana Stojic - Pocrveneo
35. Jelena Vuckovic & Dj Vujo - Baraba
36. MC Stojan & Mia Borisavljevic - Samo Me Ljubi
37. Relja Popovic - Hocu Da Se Napijem
38. Dara Bubamara - Volim Sve Sto Vole Mladi
39. Ivana Selakov - S.O.S.
40. Milena Ceranic - Sve Pred Sobom Gazim
41. Amar Gile - Trnje Oko Srca
42. Pedja Medenica - Cisto Da Znas
43. Marina Viskovic - Klub Utehe
44. Marina Viskovic - Za Malo
45. Djuka Djuranovic & Anabela - U Mraku
46. Cvija - Cekam Te
47. DJ SNS & Marko Vanilla - 1001 Avantura
48. Petra Kovacevic - Nije Katastrofa
49. Ilda & Lexington - Ti Nevoljo Moja
50. Aco Pejovic - A Kada Svane
51. Sasa Kovacevic - Rano Je
52. Mirna Kosanin - Urgentno
53. MC Stojan & Aca Lukas - Kraljevi Grada
54. Evrokrem Barabe - Crna Golubice
55. Olja Bajrami & DJ Ugy & Despot - Aperitiv
56. Nebojsa Vojvodic - Oci Andjela
57. Aleksandar Olujic & Marko Vanilla - Sipaj Da Ubije
58. Marina Viskovic - Zena
59. Katarina Grujic - Greska
60. Viki Miljkovic - Ono Nesto
61. Boban Rajovic - Pricaj Mi O Sebi
62. Sasa Matic & Ministarke - Zver
63. Tropico Band - Gde Si
64. Dzenan Loncarevic & Explosive Band - Danas Takve Se Traze
65. Nemanja Staletovic - Krsim Lomim
66. Ljubomir Perucica - Magnet Za Zene
67. Dusica Grabovic - Jaka Zena
68. Tropico Band - Sta Cu Tebi Ja
69. Goga Sekulic - Na Tebe Da Ne Lici
70. Milan Stankovic - Nisi Mu Ti Zena
71. Milan Stankovic & DJ Ugy - Masina
72. Cemo - Vezi Se, Polecemo
73. DJ Kissko & Juice & Jovan Perisic - Opila Me
74. Marina Tadic - Nisi Veran
75. Boban Rajovic - Padobran (DJ Sash Remix)
76. In Vivo - Zauvek Mladi
77. Anabela & Boban Rajovic - Preventiva
78. DJ Shone & Emina Jahovic - Muske Price
79. Dado Polumenta - Ovisan Sam O Njoj
80. Sandra Afrika - Usne Bez Karmina
81. Relja Popovic - Beograd Jos Zivi
82. Adil - Ista Ja
83. Dejan Matic - Oko Nas
84. Seka Aleksic - Dobri Druze Moj
85. Seka Aleksic - Nemoj Sa Njim
86. Neda Ukraden - Subota
87. Seka Aleksic - Brada Od Tri Dana
88. Vesna Zmijanac - Ponovi Za Mnom
89. Dejan Matic - Sve Bih Ti Dao



Ripper...............: EAC (Secure mode) / LAME 3.92 & Asus CD-S520
Codec................: LAME 3.99
Version..............: MPEG 1 Layer III
Quality..............: CBR 128, (avg. bitrate: 128kbps)
Channels.............: Joint Stereo / 44100 hz
Tags.................: ID3 v1.0, ID3 v2.3
Dark.Skies.2013.SLOSubs.BRRip.XviD-DrSi

Klikni za povečavo!
31-03-2016 14:17 naložil Ziva
Sejalci: 0 / Odjemalci: 1 / Velikost: 2.01 GB / Dokončani: 12
Prenesi torrent Poročaj torrent Opis torrenta NFO
Zvrst: Grozljivka
Kategorija: FILMI > BRRip



Naziv: Dark.Skies.2013.SLOSubs.BRRip.XviD-DrSi
Source: Dark.Skies.2013.PROPER.720p.BluRay.DTS.x264-DON
Leto izida .........: 2013
Velikost ...........: 2,00 GB
Dolžina ............: 97 Minut
Video ...............: 2494 Kbps | 720x304 | 23,976 fps
Zvok .................: Dolby Digital AC3 5.1 @ 448 Kbps
Kodek.................: XviD
Zvrst………….: Grozljivka
Država .............: ZDA
Jezik ................: Angleški
Podnapisi…….: Slovenski (RETAiL)
Tehnična obdelava: DVD Rippers Slovenija


IMDb Info .........: http://www.imdb.com/title/tt2387433/


Režija.........: Scott Stewart
Scenarij.......: Scott Stewart


Keri Russell ... Lacy Barrett
Josh Hamilton ... Daniel Barrett
Dakota Goyo ... Jesse Barrett
Kadan Rockett ... Sam Barrett
J.K. Simmons ... Edwin Pollard
L.J. Benet ... Kevin Ratner
Rich Hutchman ... Mike Jessop
Myndy Crist ... Karen Jessop
Annie Thurman ... Shelly Jessop
Jake Brennan ... Bobby Jessop


Producenti filmov Paranormal, Insidious in Sinister predstavljajo nadnaravno
srhljivko o mladi družini iz predmestja.

Daniel in Lacy Barrett sta priča vse hujšemu zaporedju zaskrbljujočih dogodkov,
zaradi česar začne njuna sicer varna in mirna družina pokati po šivih. Jasno
postane, da so Barettovi na muhi strašanske in smrtonosne sile, zato Daniel
in Lacy zadeve vzameta v svoje roke, da zaščitita družino in razrešita skrivnost,
ki jo je obsedla.