A
B
C
D
E
F
G
H
I
J
K
L
M
N
O
P
Q
R
S
T
U
V
W
X
Y
Z
0-9
DJ VIHAR & DJ AJDA - SLO & HR MIX 57

Klikni za povečavo!
Sobota at 11:14 naložil Ajda
Sejalci: 8 / Odjemalci: 0 / Velikost: 166.94 MB / Dokončani: 15
Prenesi torrent Poročaj torrent Opis torrenta NFO
Kategorija: GLASBA > Glasba




-------------------------------------------------------------------------------
Avdio podatki
-------------------------------------------------------------------------------
Complete name : DJ VIHAR & DJ AJDA - SLO & HR MIX 57
Format : MPEG Audio
File size : 166 MiB
Duration : 1h 12mn
Overall bit rate mode : Constant
Overall bit rate : 320 Kbps
Encoded by : Lavf52.39.0
Writing library : LAME3.98

Audio
Format : MPEG Audio
Format version : Version 1
Format profile : Layer 3
Mode : Joint stereo
Duration : 1h 12mn
Bit rate mode : Constant
Bit rate : 320 Kbps
Channel(s) : 2 channels
Sampling rate : 48.0 KHz
Compression mode : Lossy
Stream size : 166 MiB (100%)
Writing library : LAME3.98


01. SKUPINA ZAKA PA NE - Atmosfera
02. ŽELJKO BEBEK - 100 sam dana pio
03. ZVITA FELTNA - Zate
04. JOLE - Godišnjica
05. DANIJEL POPOVIČ - Hej lane moje
06. CECILIJA - Mangup
07. VIGOR /Feat ISSAC PALMA - Šatori
08. KLAPA PUNTAMIKA - Noč punog meseca
09. SAŠA LENDERO / DOMEN KUMER - 100%
10. ALYA -Sedam dana na moru
11. ARRIVA - Moje petke
12 . IVICA ŠEPERIČ / JASMIN STAVROS - Pravi dalmatinac
13. IVANA KOVAČ - Ti
14. DEJAN VUNJAK - Čist majčken
15. MEJAŠI - Ja još mogu
16. THE FRAJLE - Nočas si moje vino
17. MARKO ŠKUGOR - Kako te jubim ja
18. ZVITA FELTNA - Gin in tonic
19. DAVID RICOV - Adio pape, adio mama
20. NON STOP / JASMIN STAVROS - Tutta forza
21. DOMEN KUMER - Prva runda


Spider-Man.Far.From.Home.2019.SrbSub.1080p.HDRip.X264.AAC-[cyd]

Klikni za povečavo!
12-09-2019 10:21 naložil Reaper
Sejalci: 7 / Odjemalci: 1 / Velikost: 3.51 GB / Dokončani: 27
Prenesi torrent Poročaj torrent Opis torrenta NFO
Zvrst: Akcija | Pustolovski | Z.F.
Kategorija: FILMI > HDRip

———————————————————————————————————————————————————————————
IMDb info:
◎ Naslov:Spider-Man:Daleč od doma-Spider-Man: Far from Home(original title)
◎ Leto: 2019
◎ Zvrst: akcija pustolovski ZF
◎ Jezik: angleški
◎ Ocena: ★★★★★★★★ (7,9)
◎ Stars:

◎ Povzetek: Spider-Man se vrača po manj kot enoletnem premoru - tokrat ga bomo srečali na evropskih tleh. Peter Parker se namreč skupaj s prijatelji odpravi na šolski izlet v Evropo. Čeprav načrtuje, da si bo zgolj ogledoval znamenitosti Benetk, Londona in Pariza, se dogodki obrnejo povsem drugače - njegov oddih prekine nevarni Mysterio. Še dobro, da je v kovčku tudi njegova Spider-Man preobleka.
Vir: kolosej.si
———————————————————————————————————————————————————————————
YouTube URADNI NAPOVEDNIK:
———————————————————————————————————————————————————————————
PODNAPISI:
◎ Jezik : srbski latinica [vstavljeni / softcoded / multiplexed]
———————————————————————————————————————————————————————————
VIR:
◎ Source:
Spider-Man Far from Home.2019.1080p.HDRip.X264.AC3-EVO.mp4
◎ After coding:
Spider-Man.Far.From.Home.2019.SrbSub.1080p.HDRip.X264.AAC-[cyd].mkv
———————————————————————————————————————————————————————————
Haunt.2019.SrbSub.1080p.WEB.x264.AAC-[cyd]

Klikni za povečavo!
Včeraj ob 13:45 naložil System
Sejalci: 2 / Odjemalci: 0 / Velikost: 1.76 GB / Dokončani: 1
Prenesi torrent Poročaj torrent Opis torrenta NFO
Zvrst: Grozljivka | Triler
Kategorija: FILMI > WEBRip-1080
Anonimen nalagalec

———————————————————————————————————————————————————————————
IMDb info:
◎ Naslov:Haunt
◎ Leto: 2019
◎ Zvrst: grozljivka triler
◎ Jezik: angleški
◎ Ocena: ★★★★★★★ (6,5)
◎ Povzetek: On Halloween, a group of friends encounter an "extreme" haunted house that promises to feed on their darkest fears. The night turns deadly as they come to the horrifying realization that some nightmares are real.
———————————————————————————————————————————————————————————
YouTube URADNI NAPOVEDNIK:
———————————————————————————————————————————————————————————
PODNAPISI:
◎ Jezik : srbski latinica [vstavljeni / softcoded / multiplexed]
———————————————————————————————————————————————————————————
VIR:
◎ Source:
Haunt.2019.1080p.WEBRip.x264-RARBG.mp4
◎ After coding:
Haunt.2019.SrbSub.1080p.WEB.x264.AAC-[cyd].mkv
———————————————————————————————————————————————————————————
The.Night.Comes.for.Us.2018.SloSub.1080p.WEB.x264-[cyd]

Klikni za povečavo!
Včeraj ob 13:43 naložil System
Sejalci: 3 / Odjemalci: 0 / Velikost: 3.72 GB / Dokončani: 3
Prenesi torrent Poročaj torrent Opis torrenta NFO
Zvrst: Akcija | Triler
Kategorija: FILMI > WEBRip-1080
Anonimen nalagalec

———————————————————————————————————————————————————————————
IMDb info:
◎ Naslov:The Night Comes for Us
◎ Leto: 2018
◎ Zvrst: akcija triler
◎ Jezik: angleški
◎ Ocena: ★★★★★★ (7,0)
◎ Povzetek: Ito (Joe Taslim), a gangland enforcer, caught amidst a treacherous and violent insurrection within his Triad crime family upon his return home from a stint abroad.
———————————————————————————————————————————————————————————
YouTube URADNI NAPOVEDNIK:
———————————————————————————————————————————————————————————
PODNAPISI:
◎ Jezik : slovenski [vstavljeni / softcoded / multiplexed]
———————————————————————————————————————————————————————————
VIR:
◎ Source:
The.Night.Comes.for.Us.2018.iNTERNAL.1080p.WEB.x264-STRiFE.mp4
◎ After coding:
The.Night.Comes.for.Us.2018.SloSub.1080p.WEB.x264-[cyd].mkv (AC3)
———————————————————————————————————————————————————————————
Annabelle.Comes.Home.2019.SrbSub.1080p.WEB.x264-[cyd]+SloSub

Klikni za povečavo!
Torek at 14:52 naložil System
Sejalci: 7 / Odjemalci: 0 / Velikost: 2.02 GB / Dokončani: 8
Prenesi torrent Poročaj torrent Opis torrenta NFO
Kategorija: FILMI > WEBRip-1080
Anonimen nalagalec

———————————————————————————————————————————————————————————
IMDb info:
◎ Naslov:Annabelle Comes Home
◎ Leto: 2019
◎ Zvrst: grozljivka skrivnosten triler
◎ Jezik: angleški
◎ Ocena: ★★★★★★ (6,0)
◎ Stars:
◎ Povzetek: While babysitting the daughter of Ed and Lorraine Warren, a teenager and her friend unknowingly awaken an evil spirit trapped in a doll.
———————————————————————————————————————————————————————————
YouTube URADNI NAPOVEDNIK:
———————————————————————————————————————————————————————————
PODNAPISI:
◎ Jezik : srbski latinica [vstavljeni / softcoded / multiplexed] + slovenski v zavihku podnapisi
———————————————————————————————————————————————————————————
VIR:
◎ Source:
Annabelle.Comes.Home.2019.1080p.WEBRip.x264-RARBG.mp4
◎ After coding:
Annabelle.Comes.Home.2019.SrbSub.1080p.WEB.x264-[cyd].mkv
———————————————————————————————————————————————————————————
Deadly.Exchange.2017.SrbSub.1080p.WEB.x264-[cyd]

Klikni za povečavo!
Sobota at 19:48 naložil System
Sejalci: 3 / Odjemalci: 0 / Velikost: 1.71 GB / Dokončani: 8
Prenesi torrent Poročaj torrent Opis torrenta NFO
Zvrst: Drama | Kriminalka | Triler
Kategorija: FILMI > WEBRip-1080
Anonimen nalagalec

———————————————————————————————————————————————————————————
IMDb info:
◎ Naslov: DEADLY EXCHANGE
◎ Leto: 2019
◎ Zvrst: kriminalka drama triler
◎ Jezik: angleški
◎ Ocena: ★★★★★ (5,0)
◎ Stars:
◎ Povzetek: Dekle poiskuša uničiti življenja novih prijateljev in prevzeti svoje mesto v družini...
———————————————————————————————————————————————————————————
YouTube URADNI NAPOVEDNIK:
———————————————————————————————————————————————————————————
PODNAPISI:
◎ Jezik : srbski latinica [vstavljeni / softcoded / multiplexed]
———————————————————————————————————————————————————————————
VIR:
◎ Source:
Deadly.Exchange.2017.1080p.WEBRip.x264-RARBG.mp4
◎ After coding:
Deadly.Exchange.2017.SrbSub.1080p.WEB.x264-[cyd].mkv
———————————————————————————————————————————————————————————
After.2019.SLoSub.1080p.WEB.x264-[cyd]

Klikni za povečavo!
13-09-2019 14:23 naložil System
Sejalci: 3 / Odjemalci: 0 / Velikost: 2.02 GB / Dokončani: 5
Prenesi torrent Poročaj torrent Opis torrenta NFO
Zvrst: Drama | Romantični
Kategorija: FILMI > WEBRip-1080
Anonimen nalagalec

———————————————————————————————————————————————————————————
IMDb info:
◎ Naslov: PRVIČ (After)
◎ Leto: 2019
◎ Zvrst: drama romanca
◎ Jezik: angleški
◎ Ocena: ★★★★★★ (5,5)
◎ Povzetek: Tessa Young je predana študentka, vzorna hči in zvesta punca svoji srednješolski ljubezni. V prvem semestru kolidža pa se Tessin varni svet poruši, ko spozna skrivnostnega in motečega upornika. Dvomiti začne v vse, kar je verjela in začne se spraševati, kaj sploh hoče od življenja.
———————————————————————————————————————————————————————————
YouTube URADNI NAPOVEDNIK:
———————————————————————————————————————————————————————————
PODNAPISI:
◎ Jezik : slovenski [vstavljeni / softcoded / multiplexed]
———————————————————————————————————————————————————————————
VIR:
◎ Source:
After.2019.1080p.WEBRip.x264-RARBG.mp4
◎ After coding:
After.2019.SLoSub.1080p.WEB.x264-[cyd].mkv
———————————————————————————————————————————————————————————
Anna.2019.SrbSub.1080p.WEB.x264-[cyd]

Klikni za povečavo!
11-09-2019 12:32 naložil System
Sejalci: 6 / Odjemalci: 0 / Velikost: 2.27 GB / Dokončani: 33
Prenesi torrent Poročaj torrent Opis torrenta NFO
Zvrst: Akcija | Triler
Kategorija: FILMI > WEBRip-1080
Anonimen nalagalec

———————————————————————————————————————————————————————————
IMDb info:
◎ Naslov:ANNA
◎ Leto: 2019
◎ Zvrst: akcija triler
◎ Jezik: angleški
◎ Ocena: ★★★★★★★ (6,6)
◎ Stars:
◎ Povzetek: Beneath Anna Poliatova's striking beauty lies a secret that will unleash her indelible strength and skill to become one of the world's most feared government assassins.
———————————————————————————————————————————————————————————
YouTube URADNI NAPOVEDNIK:
———————————————————————————————————————————————————————————
PODNAPISI:
◎ Jezik : srbski latinica [vstavljeni / softcoded / multiplexed]
———————————————————————————————————————————————————————————
VIR:
◎ Source:
Anna.2019.PROPER.1080p.WEBRip.x264-RARBG.mp4
◎ After coding:
Anna.2019.SrbSub.1080p.WEB.x264-[cyd].mkv
———————————————————————————————————————————————————————————
DJ VIHAR & DJ AJDA - SLO & HR MIX 56

Klikni za povečavo!
09-09-2019 18:22 naložil System
Sejalci: 9 / Odjemalci: 0 / Velikost: 167.41 MB / Dokončani: 18
Prenesi torrent Poročaj torrent Opis torrenta NFO
Kategorija: GLASBA > Glasba
Anonimen nalagalec





-------------------------------------------------------------------------------
Avdio podatki
-------------------------------------------------------------------------------
DJ VIHAR & DJ AJDA - SLO & HR MIX 56
Format : MPEG Audio
File size : 167 MiB
Duration : 1h 12mn
Overall bit rate mode : Constant
Overall bit rate : 320 Kbps
Encoded by : Lavf52.39.0
Writing library : LAME3.98

Audio
Format : MPEG Audio
Format version : Version 1
Format profile : Layer 3
Mode : Joint stereo
Duration : 1h 12mn
Bit rate mode : Constant
Bit rate : 320 Kbps
Channel(s) : 2 channels
Sampling rate : 48.0 KHz
Compression mode : Lossy
Stream size : 167 MiB (100%)
Writing library : LAME3.98

VSEBINA:

01. IVANA KOVAČ - Za mene
02. JASMIN STAVROS/PIŠTEK/NAVIHANKE - Angel in hudič
03. NEDA UKRADEN - Najteže je kad se rastaje
04. SKUPINA CALYPSO - Mala barka
05. ŠARMERI - Usne boje vina
06. ALEN VOGRINEC VESEL - Prijatelju moj
07. JASMIN STAVROS - Na planini
08. MEJAŠI - Blago nama
09. KUMOVI - Rajna
10. NATAŠA MADJAR - Pa si mi rekel
11. TEQUILA - Vanilija
12. DOMEN KUMER - Najboljše vino
13. LUKA BASI / MARKO ŠKUGOR - Ružo bila
14. MARK ZEBRA - Marina
15. LJUBAVNICI - Jedna jedina
16. MARIO ROSO - Kaplja vina
17. NINA DONELI / TARAPANA BAND - Genijalno
18. DRAŽEN ZEČIČ - Sve je zbog nje
19. DANIJELA MARTINOVIČ - Kao prekjučer
20. MATE BULIČ / TARAPANA BAND - Ja sam nate ponosan
21. KVARTOPIRCI - Ti si zame čokolada



See.You.Yesterday.2019.SloSub.1080p.WEB.x264-[cyd]

Klikni za povečavo!
09-09-2019 11:52 naložil System
Sejalci: 6 / Odjemalci: 0 / Velikost: 1.66 GB / Dokončani: 22
Prenesi torrent Poročaj torrent Opis torrenta NFO
Kategorija: FILMI > WEBRip-1080
Anonimen nalagalec

———————————————————————————————————————————————————————————
IMDb info:
◎ Naslov: See You Yesterday
◎ Leto: 2019
◎ Zvrst: akcija pustolovski kriminalka
◎ Jezik: angleški
◎ Ocena: ★★★★★★ (5,0)
◎ Stars:
◎ Povzetek: Two Brooklyn teenage prodigies, C.J. Walker and Sebastian Thomas, build makeshift time machines to save C.J.'s brother, Calvin, from being wrongfully killed by a police officer.
———————————————————————————————————————————————————————————
YouTube URADNI NAPOVEDNIK:
———————————————————————————————————————————————————————————
PODNAPISI:
◎ Jezik : slovenski [vstavljeni / softcoded / multiplexed]
———————————————————————————————————————————————————————————
VIR:
◎ Source:
See.You.Yesterday.2019.1080p.WEBRip.x264-RARBG.mp4
◎ After coding:
See.You.Yesterday.2019.SloSub.1080p.WEB.x264-[cyd].mkv
———————————————————————————————————————————————————————————
Cold.Ground.2017.SrbSub.1080p.WEB.x264-[cyd]

Klikni za povečavo!
08-09-2019 11:19 naložil System
Sejalci: 2 / Odjemalci: 0 / Velikost: 1.42 GB / Dokončani: 4
Prenesi torrent Poročaj torrent Opis torrenta NFO
Kategorija: FILMI > WEBRip-1080
Anonimen nalagalec

———————————————————————————————————————————————————————————
IMDb info:
◎ Naslov:COLD GROUND
◎ Leto: 2017
◎ Zvrst: grozljivka skrivnosten ZF
◎ Jezik: angleški
◎ Ocena: ★★★★★★ (6,3)
◎ Stars:
◎ Povzetek: The lucky ones freeze to death.
———————————————————————————————————————————————————————————
YouTube URADNI NAPOVEDNIK:
———————————————————————————————————————————————————————————
PODNAPISI:
◎ Jezik : srbski latinica [vstavljeni / softcoded / multiplexed]
———————————————————————————————————————————————————————————
VIR:
◎ Source:
Cold.Ground.2017.1080p.WEBRip.x264-[YTS.AM].mp4
◎ After coding:
Cold.Ground.2017.SrbSub.1080p.WEB.x264-[cyd].mkv
———————————————————————————————————————————————————————————
Burn.2019.SrbSub.1080p.WEB.x264-[cyd]

Klikni za povečavo!
07-09-2019 14:54 naložil System
Sejalci: 4 / Odjemalci: 0 / Velikost: 1.68 GB / Dokončani: 16
Prenesi torrent Poročaj torrent Opis torrenta NFO
Zvrst: Triler
Kategorija: FILMI > WEBRip-1080
Anonimen nalagalec

———————————————————————————————————————————————————————————
IMDb info:
◎ Naslov:BURN
◎ Leto: 2019
◎ Zvrst: triler
◎ Jezik: angleški
◎ Ocena: ★★★★★★ (5,6)
◎ Stars:
◎ Povzetek: When a gas station is held at gunpoint by a desperate man in need of cash, a lonely and unstable gas station attendant, tired of being overshadowed by her more outgoing co-worker, finds an opportunity to make a connection with the robber
———————————————————————————————————————————————————————————
YouTube URADNI NAPOVEDNIK:
———————————————————————————————————————————————————————————
PODNAPISI:
◎ Jezik : srbski latinica [vstavljeni / softcoded / multiplexed]
———————————————————————————————————————————————————————————
VIR:
◎ Source:
Burn.2019.1080p.WEBRip.x264-RARBG.mp4
◎ After coding:
Burn.2019.SrbSub.1080p.WEB.x264-[cyd].mkv
———————————————————————————————————————————————————————————
Angel.Of.Mine.2019.SrbSub.1080p.WEB.x264-[cyd]

Klikni za povečavo!
06-09-2019 19:53 naložil System
Sejalci: 3 / Odjemalci: 0 / Velikost: 1.87 GB / Dokončani: 16
Prenesi torrent Poročaj torrent Opis torrenta NFO
Kategorija: FILMI > WEBRip-1080
Anonimen nalagalec

———————————————————————————————————————————————————————————
IMDb info:
◎ Naslov: ANGEL OF MINE
◎ Leto: 2019
◎ Zvrst: drama skrivnosten triler
◎ Jezik: angleški
◎ Ocena: ★★★★★★★ (7,1)
◎ Stars:
◎ Povzetek: A woman grieving over the death of her daughter loses grip of reality when she begins to think her girl may still be alive.
———————————————————————————————————————————————————————————
YouTube URADNI NAPOVEDNIK:
———————————————————————————————————————————————————————————
PODNAPISI:
◎ Jezik : srbski latinica [vstavljeni / softcoded / multiplexed]
———————————————————————————————————————————————————————————
VIR:
◎ Source:
Angel.Of.Mine.2019.1080p.WEBRip.x264-RARBG.mp4
◎ After coding:
Angel.Of.Mine.2019.SrbSub.1080p.WEB.x264-[cyd].mkv
———————————————————————————————————————————————————————————
Head.Count.2018.SrbSub1080p.WEB.x264-[cyd]

Klikni za povečavo!
05-09-2019 14:45 naložil System
Sejalci: 2 / Odjemalci: 0 / Velikost: 1.71 GB / Dokončani: 9
Prenesi torrent Poročaj torrent Opis torrenta NFO
Kategorija: FILMI > WEBRip-1080
Anonimen nalagalec

———————————————————————————————————————————————————————————
IMDb info:
◎ Naslov:HEAD COUNT
◎ Leto: 2018
◎ Zvrst: grozljivka skrivnosten triler
◎ Jezik: angleški
◎ Ocena: ★★★★★ (5,1)
◎ Star:
◎ Povzetek: A group of teenagers unknowingly summon a paranormal presence during their weekend trip to the Joshua Tree desert. This monster mimics their appearances to hide among them and seeks to ...
———————————————————————————————————————————————————————————
YouTube URADNI NAPOVEDNIK:
———————————————————————————————————————————————————————————
PODNAPISI:
◎ Jezik : srbski latinica [vstavljeni / softcoded / multiplexed]
———————————————————————————————————————————————————————————
VIR:
◎ Source:
Head.Count.2018.1080p.WEBRip.x264-RARBG.mp4
◎ After coding:
Head.Count.2018.SrbSub.1080p.WEB.x264-[cyd].mkv
———————————————————————————————————————————————————————————
The.Boat.2018.SrbSub.1080p.WEB.x264-[cyd]

Klikni za povečavo!
04-09-2019 15:01 naložil System
Sejalci: 5 / Odjemalci: 0 / Velikost: 1.69 GB / Dokončani: 18
Prenesi torrent Poročaj torrent Opis torrenta NFO
Kategorija: FILMI > WEBRip-1080
Anonimen nalagalec

———————————————————————————————————————————————————————————
IMDb info:
◎ Naslov:THE BOAT
◎ Leto: 2018
◎ Zvrst: skrivnosten triler
◎ Jezik: angleški
◎ Ocena: ★★★★★★ (5,3)
◎ Star: Joe Azzopardi
◎ Povzetek: A solo sailor is locked inside the head of a sailboat which is under steam on autopilot.
———————————————————————————————————————————————————————————
YouTube URADNI NAPOVEDNIK:
———————————————————————————————————————————————————————————
PODNAPISI:
◎ Jezik : srbski latinica [vstavljeni / softcoded / multiplexed]
———————————————————————————————————————————————————————————
VIR:
◎ Source:
The.Boat.2018.1080p.WEBRip.x264-RARBG.mp4
◎ After coding:
The.Boat.2018.SrbSub.1080p.WEB.x264-[cyd].mkv
———————————————————————————————————————————————————————————
Shaft.2019.SloSub.1080p.WEB.x265.AAC-[cyd]

Klikni za povečavo!
03-09-2019 10:08 naložil System
Sejalci: 2 / Odjemalci: 0 / Velikost: 2.27 GB / Dokončani: 12
Prenesi torrent Poročaj torrent Opis torrenta NFO
Kategorija: FILMI > WEBRip-1080
Anonimen nalagalec

———————————————————————————————————————————————————————————
IMDb info:
◎ Naslov: SHAFT
◎ Leto: 2019
◎ Zvrst: akcija komedija kriminalka
◎ Jezik: angleški
◎ Ocena: ★★★★★★ (6,4)
◎ Stars:
◎ Povzetek: John Shaft Jr., a cyber security expert with a degree from MIT, enlists his family's help to uncover the truth behind his best friend's untimely death.
———————————————————————————————————————————————————————————
YouTube URADNI NAPOVEDNIK:
———————————————————————————————————————————————————————————
PODNAPISI:
◎ Jezik : slovenski [vstavljeni / softcoded / multiplexed]
———————————————————————————————————————————————————————————
VIR:
◎ Source:
Shaft.2019.1080p.WEBDL.HEVC.E-AC3.mkv
◎ After coding:
Shaft.2019.SloSub.1080p.WEB.x265.AAC-[cyd].mkv
———————————————————————————————————————————————————————————
Like.Father.2018.SrbSub.1080p.WEBRip.x264.AAC-[cyd]

Klikni za povečavo!
01-09-2019 19:22 naložil System
Sejalci: 3 / Odjemalci: 0 / Velikost: 3.27 GB / Dokončani: 12
Prenesi torrent Poročaj torrent Opis torrenta NFO
Zvrst: Drama | Komedija
Kategorija: FILMI > WEBRip-1080
Anonimen nalagalec

———————————————————————————————————————————————————————————
IMDb info:
◎ Naslov: LIKE FATHER
◎ Leto: 2018
◎ Zvrst: komedija drama
◎ Jezik: angleški
◎ Ocena: ★★★★★★ (6,1)
◎ Stars:
◎ Povzetek: After she's left at the altar, a workaholic advertising executive ends up on her Caribbean honeymoon cruise with her estranged father.
———————————————————————————————————————————————————————————
YouTube URADNI NAPOVEDNIK:
———————————————————————————————————————————————————————————
PODNAPISI:
◎ Jezik : srbski latinica [vstavljeni / softcoded / multiplexed]
———————————————————————————————————————————————————————————
VIR:
◎ Source:
Like.Father.2018.1080p.NF.WEBRip.DDP5.1.x264-NTG.mp4
◎ After coding:
Like.Father.2018.SrbSub.1080p.WEBRip.x264.AAC-[cyd].mkv
———————————————————————————————————————————————————————————