All torrents are Free between 01-12-2017 - 01-01-2018
A
B
C
D
E
F
G
H
I
J
K
L
M
N
O
P
Q
R
S
T
U
V
W
X
Y
Z
0-9
Božični MIX 2017 DJ VIHAR & DJ AJDA

Klikni za povečavo!
Sobota at 14:31 naložil Ajda
Sejalci: 15 / Odjemalci: 0 / Velikost: 167.87 MB / Dokončani: 26
Prenesi torrent Poročaj torrent Opis torrenta NFO
Kategorija: GLASBA > Glasba




INFO :
Format : MPEG Audio
File size : 167 MiB
Duration : 1 h 12 min
Overall bit rate mode : Constant
Overall bit rate : 320 kb/s
Encoded by : Lavf52.39.0
Writing library : LAME3.98

Audio
Format : MPEG Audio
Format version : Version 1
Format profile : Layer 3
Mode : Joint stereo
Duration : 1 h 12 min
Bit rate mode : Constant
Bit rate : 320 kb/s
Channel(s) : 2 channels
Sampling rate : 48.0 kHz
Compression mode : Lossy
Stream size : 167 MiB (100%)
Writing library : LAME3.98


BOŽIČNI MIX 2017

01. Nejc Kastelic in Zborček - Božič je
02. Jasmin Stavros - Sretan božič ljubavi
03. Saša Lendero - Zimaj, božič za vse
04. Simona Weiss - Božične zvezdice
05. Begini - Sretan božič svakome
06. Črna Maćka - Dobri možje
07. Unikat - Najin božič
08. Modrijani - Sveta noč
09. Mladi Gamsi - Najina božična noč
10. Maja Oderlap - Vse zvezde iz neba
11. Leone - Tužan je božič bez tebe
12. Bepop - Glej, zvezdice božje
13. Oliver Dragojevič - Bijeli božič
14. Calypso - Božična pravljica
15. Lendero, Dežan, Hercog - Božič za vse ljudi
16. Saša Čuki - Božič je
17. Helena Blagne - V beli božični noči
18. Čuki Modrijani - Daj mi poljub
19. Rokn Band - Novo leto
20. Alfi Nipič - Silvesterski poljub


DJ VIHAR & DJ AJDA - SLO & HR MIX 53

Klikni za povečavo!
29-11-2017 16:08 naložil Ajda
Sejalci: 13 / Odjemalci: 0 / Velikost: 197.18 MB / Dokončani: 26
Prenesi torrent Poročaj torrent Opis torrenta NFO
Kategorija: GLASBA > Glasba




INFO:
DJ VIHAR & DJ AJDA - SLO & HR MIX 53
Format : MPEG Audio
File size : 197 MiB
Duration : 1 h 26 min
Overall bit rate mode : Constant
Overall bit rate : 320 kb/s
Encoded by : Lavf52.39.0
Writing library : LAME3.98

Audio
Format : MPEG Audio
Format version : Version 1
Format profile : Layer 3
Mode : Joint stereo
Duration : 1 h 26 min
Bit rate mode : Constant
Bit rate : 320 kb/s
Channel(s) : 2 channels
Sampling rate : 48.0 kHz
Compression mode : Lossy
Stream size : 197 MiB (100%)
Writing library : LAME3.98

VSEBINA:
01. SAŠA LANDERO - Kam ste šli prijatelji
02. ČUDEŽNI DEČKI - Nisem princ iz njenih sanj
03. DRAŽEN ZEČIČ - Stari prijetelji se ne rastaju
04. JASMIN STAVROS - Duga je noč
05.GRUPA BANANA ALEN NIZETIČ - Prodane duše
06. UČITELJICE - Šlag
07. BORIS NOVKOVIČ - Čista ljubav
08. ZDRAVKO ČOLIČ - Šljive su rodile
09. MARIJAN SMODE - Planike cvet
10. MLADI GAMSI - Ni se še taka rodila
11. LIDIJA BAČIČ - Šok
12. MEJAŠI LANA JURČEVIČ - Duplo slade
13. LUKA BASI LJUBAVNICI - Moja
14. DAVOR RADOLFI & RITMO LOKO - Pred tvojim vratima
15. LJUBAVNICI - Hladne ruke
16. BARUNI - Dobro došla mi u sječanje
17. BARABE - Da te volim
18. DUŠKO LOKIN & JADRANSKI MAESTARALI - Volim žene sve
19. ZRAVKO ŠKENDER - Da mi je
20. ZRAVKO ČOLIČ - Mala
21. LEXINGTON - Navučen na tvoje usne
22. NUŠA ROJS - Zvok kopit
23. TANJA ŽAGAR - Baraba
24. ANDREJA - Ko rožmarin cveti
25. WERNER - Stara domačija



DJ VIHAR & DJ AJDA - SLO & HR MIX 52

Klikni za povečavo!
11-09-2017 14:32 naložil Ajda
Sejalci: 10 / Odjemalci: 2 / Velikost: 236.67 MB / Dokončani: 46
Prenesi torrent Poročaj torrent Opis torrenta NFO
Kategorija: GLASBA > Glasba





INFO:
*******************************************************************************
~ DJ VIHAR & DJ AJDA - SLO & HR MIX 52 ~
* Najinemu prijatelju v slovo *
* Milan (Solist) vedno boš v najinih srcih*
*******************************************************************************

-------------------------------------------------------------------------------
Avdio in Video podatki
-------------------------------------------------------------------------------
General
Complete name :DJ VIHAR & DJ AJDA - SLO & HR MIX 52.mp3
Format : MPEG Audio
File size : 236 MiB
Duration : 1 h 43 min
Overall bit rate mode : Constant
Overall bit rate : 320 kb/s
Encoded by : Lavf52.39.0
Writing library : LAME3.98

Audio
Format : MPEG Audio
Format version : Version 1
Format profile : Layer 3
Mode : Joint stereo
Mode extension : MS Stereo
Duration : 1 h 43 min
Bit rate mode : Constant
Bit rate : 320 kb/s
Channel(s) : 2 channels
Sampling rate : 48.0 kHz
Compression mode : Lossy
Stream size : 236 MiB (100%)
Writing library : LAME3.98
--------------------------------------------------------------------------------------
*** Vsebina ***
--------------------------------------------------------------------------------------

MIX - 52

01. MATEA MATKOVIČ - Ljubav za ljubav
02. VIGOR - Marija
03. ZDRAVKO ŠKENDER - Ludo ljeto
04. MLADEN GRDOVIČ - Kap večnjosti
05. MACAO BAND - Vodi me
06. DEJAN VINJAK - A jaz ti povem, da ljubil te bom
07. LJUBAVNICI - Hladne ruke
08. GADI - Najboljša
09. GORAN KARAN - Glas sa juga
10. MEJAŠI & ŠKORO - Otključaj mi vrata
11. JAN PLESTENJAK - Jaz že vem zakaj
12. JELENA ROZGA - Svjetla neona
13. BUMERANG - Sunce je visoko
14.TAMBURAŠKI SASTAV BEHAR - Ludnica
15. MAMBO KINGS - Shaka taka
16. MAGAZIN & VIGOR - Minut srca tvog
17. IN VIVO - Jun i Jil
18. SKUPINA FOSILI - Pjesma ljubavi
19. DONAČKA - Stara šprklja
20. ANS. OKEJ - Odstrani se
21. INES ERBUS - Sama sem kriva
22. NIVES CELZIJUS & TARAPANA - Tebi u inat
23. ERAZEM - Bejba z obale
24. MODRIJANI & ISAAK PALMA - Hočem le tebe
25. MLADEN GRDOVIČ - Istrijanko ruko ti prosim
26. LEPI CAJTI - Budi uvjek tu
27. PTUJSKIH 5 - Sosedje so dejali mi
28. BOŠTJAN DIRNBEK - Potepuh v tvojem srcu
29. IVICA PEPELKO & RENATA KOS - Kad te vidim
30. MIŠO KOVAČ - Ako tvoja duša moju pesmu sluša


Lethal.Weapon.S02E10.CroSub.1080p.web.x264-tbs

Klikni za povečavo!
Danes ob 18:58 naložil System
Sejalci: 1 / Odjemalci: 2 / Velikost: 1.54 GB / Dokončani: 0
Prenesi torrent Poročaj torrent Opis torrenta NFO
Zvrst: Akcija | Kriminalka
Kategorija: FILMI > FHD - 1080
Anonimen nalagalec

Ocena :
Stars: Damon Wayans, Clayne Crawford, Keesha Sharp
Ime : Lethal Weapon
Sezona : 02
Leto : 2017
Jezik : angleški
Žanr : akcija kriminalka
Jezik : hrvaški
Prevod : kanda
Priredba: Reaper
01. El Gringo Loco 26.09.2017
02. Dancing in September 03.10.2017
03. Born to Run 10.10.2017
04. Flight Risk 17.10.2017
05. Let it Ride 07.11.2017
06. Gold Rush 14.11.2017
07. Birdwatching 21.11.2017
08. Fork-Getta-Bout-It 28.11.2017
09. Fools Rush In 05.12.2017
10. Wreck The Halls 12.12.2017
11. Funny Money 02.01.2018
12. Diggin' Up Dirt
13. Better Living Through Chemistry
...
18. Finale sezone
Zabavna akcijska serija, ki je nastala na podlagi popularnih filmov Smrtonosno orožje, spremlja nenavaden detektivski par.
Martin Riggs je rahlo neuravnotežen policist, ki se ravno ne drži klasičnih načinov reševanja primerov. Kot partnerja ga dodelijo izkušenemu detektivu Rogerju Murtaughu, ki pa se trudi živeti čim manj stresno življenje. Kljub temu, da sta si popolnoma različna, se Riggs in Murtaugh dobro ujameta in s skupnimi močmi rešujeta zapletene primere.
2.22.2017.SLOSubs.BRRip.XviD-DrSi

Klikni za povečavo!
Danes ob 13:13 naložil Ziva
Sejalci: 1 / Odjemalci: 1 / Velikost: 2.1 GB / Dokončani: 0
Prenesi torrent Poročaj torrent Opis torrenta NFO
Zvrst: Akcija | Triler
Kategorija: FILMI > BRRip



Naziv: 2.22.2017.SLOSubs.BRRip.XviD-DrSi
Source: 2.22.2017.BluRay.720p.DTS.x264-CHD
Leto izida .........: 2017
Velikost ...........: 2,10 GB
Dolžina ............: 98 Minut
Video ...............: 2584 Kbps | 720x304 | 23,976 fps
Zvok .................: Dolby Digital AC3 5.1 @448 kbps
Kodek...............: XviD
Zvrst………….: Akcija | Triler
Država……….: Avstralija | ZDA
Jezik ................: Angleški
Podnapisi .........: Slovenski (RETAiL)
Prevod: Blitz Film
HC SubRip: ugorazd
Tehnična obdelava: DVD Rippers Slovenija
IMDb Info .......: http://www.imdb.com/title/tt1131724/


Režija.........: Paul Currie
Scenarij.......: Todd Stein, Nathan Parker


Teresa Palmer ... Sarah
Michiel Huisman ... Dylan
Sam Reid ... Jonas
Maeve Dermody ... Sandy
Remy Hii ... Benny
Simone Kessell ... Serena
John Waters ... Bill
Kerry Armstrong ... Catherine
Richard Davies ... Inky
Marisa Lamonica ... Commuter


Dylan Branson (Michiel Huisman), kontrolor prometa na letališču JFK,
je poosebljenje nekoga, ki je pri svojem delu najboljši - dokler ga
nekega dne natanko ob 2h in 22 minut za nekaj usodnih sekund ne paralizira
slepeča strela. Dva potniška letala se komaj izogneta trku in Dylan
je suspendiran. Ne more v službo in zaradi izgube delovnega ritma je
povsem zgubljen, potem pa začne opažati, da se nekateri zvoki in dogodki
iz njegovega življenja ponavljajo - letalo, ki leti zelo nizko, cviljenje
koles… - in to se dogaja sleherni dan ob istem času. Izkaže se, da gre več
kot zgolj za naključja; opaziti je vzorec, ki Dylana vsak dan natanko
ob 2:22 skrivnostno privede v slovito postajo Grand Central v New Yorku,
kjer se ponovitve nadaljujejo. Poslovnež, ki bere časopis. Par, ki se
objema. Šolarji, ki prečkajo avlo.






Five.2016.SLOSubs.BRRip.XviD-DrSi

Klikni za povečavo!
Danes ob 13:04 naložil Ziva
Sejalci: 1 / Odjemalci: 1 / Velikost: 2.21 GB / Dokončani: 0
Prenesi torrent Poročaj torrent Opis torrenta NFO
Zvrst: Komedija
Kategorija: FILMI > BRRip



Naziv: Five.2016.SLOSubs.BRRip.XviD-DrSi
Source: Five.2016.720p.BluRay.DTS.x264-ZiNC
Leto izida .........: 2016
Velikost ...........: 2,20 GB
Dolžina ............: 102 Minuti
Video ...............: 2634 Kbps | 720x304 | 24 fps
Zvok .................: Dolby Digital AC3 5.1 @448 kbps
Kodek...............: XviD
Zvrst………….: Komedija
Država……….: Francija
Jezik ................: Francoski
Podnapisi .........: Slovenski (RETAiL)
Prevod: Blitz Film
Tehnična obdelava: DVD Rippers Slovenija
IMDb Info .......: http://www.imdb.com/title/tt4741714/


Režija.........: Igor Gotsmanov
Scenarij.......: Igor Gotsmanov, Mathieu Oullion


Pierre Niney ... Samuel
François Civil ... Timothée
Igor Gotsmanov ... Vadim (as Igor Gotesman)
Margot Bancilhon ... Julia
Idrissa Hanrot ... Nestor
Pascal Demolon ... Barnabé, le pere de Sophie
Michele Moretti ... Mme Simone
Philippe Duclos ... Le pere de Samuel
Bruno Lochet ... Gérard
Lucie Boujenah ... Maia


Pet najboljših prijateljev sanja o tem, da bi si delili stanovanje, zato ob
nepričakovani priložnosti Julia, Vadim, Nestor in Timothee brez razmisleka
pristanejo na to. Še posebej, ko Samuel obljubi, da bo plačeval pol najemnine.
Toda kmalu po selitvi ostane Samuel brez denarja, vendar se odloči, da ne bo tega
nikomur povedal in bo raje poskusil zaslužiti denar s preprodajanjem marihuane.
Ampak Samuel ni ravno diler, za kakršnega se ima, zato po tem, ko mu vse pade
v vodo, prosi za pomoč edino družino, ki jo ima – svoje prijatelje.



Vikings.S05E04.SrbSub.720p.HDTV.x264-KILLERS

Klikni za povečavo!
Danes ob 12:52 naložil System
Sejalci: 4 / Odjemalci: 0 / Velikost: 984.96 MB / Dokončani: 4
Prenesi torrent Poročaj torrent Opis torrenta NFO
Kategorija: FILMI > HD - 720
Anonimen nalagalec

Ocena :
Ime : VIKINGS
Sezona : 05
Leto : 2017
Jezik : angleški
Žanr : akcija, drama
Jezik : srbski - latinica
Prevod : gale
Priredba: Reaper
01. The Departed (1) 29.11.2017
02. The Departed (2) 29.11.2017
03. Homeland 06.12.2017
04. The Plan 13.12.2017
05. The Prisoner 20.12.2017
06. The Message 27.12.2017
07. TBA 03.01.2018
08. TBA 10.01.2018
09. TBA 17.01.2018
10. TBA 24.01.2018
11. TBA
12. TBA
13. TBA
14. TBA
15. TBA
16. TBA
17. TBA
18. TBA
19. TBA
20. TBA
Serijo snemajo na Finskem in jo je navdahnila zgodba o vikinškem kralju po imenu Ragnar Lodbrok, ki je eden najbolj znanih normanskih (nordijskih) herojev, a je hkrati tudi eden najbolj razvpitih, saj je poznan kot bič Francije in Anglije.
Predstavljen kot Vikinški poljedelec, ki se po morju poda odkrivati civilizacije. Skupaj s prijateljem, nadarjenim obrtnikom Flokijem, je izdelal novo generacijo ladje (Longship) ter izzval lokalnega vladarja Earla Haraldsona, da mu je dovolil popotovanje v neznano na zahod proti Angliji.
Ragnarjev pohod je podprl tudi njegov brat Rollo, ki na skrivaj hrepeni po njegovi ženi, vikinški bojevnici Lagerthi.
Prva epizoda (S01E01) je po podatkih Nielsena v ZDA dosegla 6 mio gledalcev in tako potolkla vse ostale TV hiše v rangu 19-49 let.
Crooked House 2017 SrbSubs 720p WEB DL XviD AC3 FGT

Klikni za povečavo!
Včeraj ob 13:07 naložil Ziva
Sejalci: 5 / Odjemalci: 0 / Velikost: 2.39 GB / Dokončani: 4
Prenesi torrent Poročaj torrent Opis torrenta NFO
Kategorija: FILMI > XviD



Crooked House 2017 720p WEB DL XviD AC3 FGT
Language(s): English
1hr 55mn | 720p WEB DL | 1280 x 532 | AVI | 2.38 GB
Genre(s): Crime | Drama | Mystery
IMDb : http://www.imdb.com/title/tt1869347/

Podnapisi : srbski


Christina Hendricks ... Brenda
Gillian Anderson ... Magda
Glenn Close ... Lady Edith
Terence Stamp ... Chief Inspector Taverner
Max Irons ... Charles Hayward
Julian Sands ... Philip Leonides


In Agatha Christie's most twisted tale, a spy-turned-private-detective is lured by his former lover to catch her grandfather's murderer before Scotland Yard exposes dark family secrets.




Moonlight.2016.SLOSubs.BRRip.XviD-DrSi

Klikni za povečavo!
Včeraj ob 13:00 naložil Ziva
Sejalci: 2 / Odjemalci: 0 / Velikost: 2.4 GB / Dokončani: 1
Prenesi torrent Poročaj torrent Opis torrenta NFO
Zvrst: Drama
Kategorija: FILMI > BRRip



Naziv: Moonlight.2016.SLOSubs.BRRip.XviD-DrSi
Source: Moonlight.2016.720p.BluRay.DD5.1.x264-DON
Leto izida .........: 2017
Velikost ...........: 2,40 GB
Dolžina ............: 111 Minut
Video ...............: 2639 Kbps | 720x304 | 23,976 fps
Zvok .................: Dolby Digital AC3 5.1 @448 kbps
Kodek...............: XviD
Zvrst………….: Drama
Država……….: ZDA
Jezik ................: Angleški
Podnapisi .........: Slovenski (custom-DrSi)
Za DrSi prevedel: Prnaver –Hvala!!
Tehnična obdelava: DVD Rippers Slovenija

IMDb Info .......: http://www.imdb.com/title/tt4975722/


Režija.........: Barry Jenkins
Scenarij.......: Barry Jenkins, Tarell Alvin McCraney


Mahershala Ali ... Juan
Shariff Earp ... Terrence
Duan Sanderson ... Azu
Alex R. Hibbert ... Little
Janelle Monáe ... Teresa
Naomie Harris ... Paula
Jaden Piner ... Kevin age 9
Ashton Sanders ... Chiron
Edson Jean ... Mr. Pierce
Patrick Decile ... Terrel


Mesečina je redka zgodba o istospolnosti in iskanju identitete, postavljena
v svet temnopoltih preprodajalcev mamil na sodobnem ameriškem jugu. Sledimo
Chironu, fantu, ki živi z materjo zasvojenko in je tarča napadov drugih fantov,
in njegovemu odnosu s prijateljem Kevinom, s katerim odkrije svojo spolno
identiteto ter jo potem skriva pred drugimi in samim seboj.




All Saints 2017 SloSubs 720p BRRip XviD AC3 RARBG

Klikni za povečavo!
Včeraj ob 12:53 naložil Ziva
Sejalci: 2 / Odjemalci: 0 / Velikost: 2.55 GB / Dokončani: 1
Prenesi torrent Poročaj torrent Opis torrenta NFO
Zvrst: Drama
Kategorija: FILMI > BRRip




All Saints 2017 720p BRRip XviD AC3 RARBG
Language(s): English
1hr 48mn | 720p BRRip | 1280 x 536 | AVI | 2.55 GB
Genre(s): Drama
IMDb : http://www.imdb.com/title/tt4663548/

Podnapisi : slovenski


Cara Buono ... Aimee Spurlock
Barry Corbin ... Forrest
John Corbett ... Michael Spurlock
David Keith ... Boyd
Gregory Alan Williams ... Bishop Eldon Thompson


When a group of Burmese refugees join the congregation, the pastor of a failing Anglican church attempts to aid them by planting crops and enlisting the help of the community.



The.Walking.Dead.S08E08.BihSub.1080p.WEB-DL.DD5.1.H264-RARBG

Klikni za povečavo!
Včeraj ob 07:21 naložil System
Sejalci: 6 / Odjemalci: 1 / Velikost: 2.38 GB / Dokončani: 5
Prenesi torrent Poročaj torrent Opis torrenta NFO
Zvrst: Drama | Grozljivka
Kategorija: FILMI > FHD - 1080
Anonimen nalagalec

Ocena :
Stars : Andrew Lincoln, Norman Reedus, Melissa McBride
Ime : The Walking Dead
Sezona : 08
Leto : 2017
Jezik : angleški
Žanr : drama - grozljivka
Jezik : bosanski
Prevod : randomemo
Priredba: Nemanja
01. Mercy 22.10.2017
02. The Damned 29.10.2017
03. Monsters 05.11.2017
04. Some Guy 12.11.2017
05. The Big Scary U 19.11.2017
06. The King, The Widow, and Rick 26.11.2017
07. Time for After 03.12.2017
08. How It's Gotta Be 10.12.2017
...
16. Finale sezone
Policist Rick Grimes se v bolnišnici zbudi iz kome in ugotovi, da svet, kot ga je poznal, ne obstaja več in da ga je v apokaliptičnih razsežnostih opustošila epidemija zombijev.
V bližnjem predmestju Atlante se manjša skupina ljudi trudi, da bi preživela napad "mrtvecev" na vsakem vogalu. Lahko Rick in preživeli ohranijo človeškost, medtem ko se borijo za obstanek v tem zastrašujočem novem svetu?
V težkih razmerah in nenehni medsebojni tekmovalnosti se poraja vprašanje, ali bodo na koncu sploh preživeli...
Arrow.S06E09.CroSub.iNTERNAL.1080p.WEB.x264-STRiFE

Klikni za povečavo!
Ponedeljek at 20:27 naložil System
Sejalci: 2 / Odjemalci: 1 / Velikost: 1.79 GB / Dokončani: 4
Prenesi torrent Poročaj torrent Opis torrenta NFO
Kategorija: FILMI > FHD - 1080
Anonimen nalagalec

Ocena :
Stars: Stephen Amell, Katie Cassidy, David Ramsey
Ime : ARROW
Sezona : 06
Leto : 2017
Jezik : angleški
Žanr : akcija, kriminalka, pustolovski
Jezik : hrvaški
Prevod : idiup
Priredba: Reaper
01. Fallout 12.10.2017
02. Tribute 19.10.2017
03. Next of Kin 26.10.2017
04. Reversal 02.11.2017
05. Deathstroke Returns 09.11.2017
06.Promises Kept 16.11.2017
07. Thanksgiving 23.11.2017
08. Crisis on Earth-X (2) 27.11.2017
09. Irreconcilable Differences 07.12.2017
10. Divided 18.01.2018
11. We Fall 25.01.2018
12. All for Nothing 01.02.2018
...
22. Finale sezone
Serija posneta po stripih o Green Arrow (Zelena puščica) – alter egom milijarderja Oliverja Queena, ki se ponoči po Star(ling) Cityju v imenu pravice preganja za lopovi visokega kalibra s svojim lokom in večnamenskimi puščicami.
Po hudem brodolomu sin milijarderja Oliver Queen postane pogrešan in postane domnevno mrtev 5 let, potem pa ga odkrijejo na nekem oddaljenem otoku sredi Pacifika.
Ko se vrne domov v Starling City, ga njegova mati Moira, sestra Thea in najboljši prijatelj Tommy lepo pozdravijo, a zaslutijo spremembo v Oliverju po preizkušnji na samotnem otoku.
Ko Oliver prekriva resnico o možu, ki je postal, se obupno želi odkupiti za dejanja, storjena v njegovi mladosti. Želi si sprave z bivšim dekletom Laurel Lance.
Medtem ko se Oliver ponovno povezuje s člani svoje duržine, na skrivaj ustvari osebnost Arrow (Puščica) – moža, ki vzame roko pravice v svoje roke – za popravo napak njegove družine, boj proti pokvarjencem družbe in posledično povrnitev Starling Cityju nekdanjo slavo.
Med dnevom Oliver igra krinko bogatega, brezskrbnega in neprevidnega fanta, kot je včasih tudi bil in s svojim telesnim stražarjem Johnom, da bi s tem zakril skrivno identiteto, s katero razkriva umazane posle.
Oče Laurele, detektiv Quentin Lance je odločen, da aretira moža, ki si je vzel roko pravice v svoje roke.
Oliverjeva mati pa ve precej več o smrtnem brodolomu, za katerim tudi stoji – in je bolj neusmiljen, kot si Oliver lahko zamisli...
Adobe CC 2018 Collection November 2017 (Updated) (x64) (Selective Download) [CracksNow]

Klikni za povečavo!
Ponedeljek at 16:13 naložil ViHaR
Sejalci: 1 / Odjemalci: 0 / Velikost: 24.53 GB / Dokončani: 1
Prenesi torrent Poročaj torrent Opis torrenta
Kategorija: PROGRAMI > Programi



Creative Cloud offers the best creative tools in the world, always up to date. And now, all the apps and resources, including new Adobe Stock images are always at your fingertips right there where they serve. And everything is perfectly connected through Adobe CreativeSync technology, so you can easily turn your brightest ideas in your best projects across desktops and mobile devices. MAKE IT. CREATIVE CLOUD.

– Adobe Acrobat CC 2018 18.0
– Adobe Bridge CC 2018 8.0
– Adobe Character Animater CC 2018 1.1
– Adobe Dimension 2018 1.0
– Adobe Photoshop CC 2018 v19.0.1.29687
– Adobe Prelude CC 2018 v7.0.0.134
– Adobe Audition CC 2018 v11.0.0.199
– Adobe Media Encoder CC 2018 v12.0.0.202
– Adobe InDesign CC 2018 v13.0.1.207
– Adobe Animate CC 2018 v18.0.0.107
– Adobe Dreamweaver CC 2018 v18.0.0.10136
– Adobe Muse CC 2018 v2018.0.0.685
– Adobe Illustrator CC 2018 v22.0.1.249
– Adobe After Effects CC 2018 v15.0.0.180
– Adobe Premiere Pro CC 2018 v12.0.0.224
– Adobe Photoshop Lightroom Classic CC 2018 7.0.1.10
– Adobe InCopy CC 2018 v13.0.1.207
– Adobe XD CC 2018 2.1.32

NAVODILA:
- Disconnect from Internet
- Run Setup. Copy the patch into install directory.
- Run the patch "amtemu.v0.9.2.win-painter"
- Select the program, choose the 2017 version of programs (They'll work on 2018 as well)
- Select the file "Amtlib.dll" and click on Patch.
- That's it. Enjoy ;)




Counterpart.S01E01.SrbSub.1080p.WEB.H264-STRiFE

Klikni za povečavo!
Ponedeljek at 15:48 naložil System
Sejalci: 5 / Odjemalci: 0 / Velikost: 2.58 GB / Dokončani: 11
Prenesi torrent Poročaj torrent Opis torrenta NFO
Zvrst: Drama | Triler | Z.F.
Kategorija: FILMI > FHD - 1080
Anonimen nalagalec

Ocena :
Ime : Counterpart
Sezona : 01
Leto : 2017
Jezik : angleški
Žanr : drama triler zf
Jezik :srbski latinica
Prevod : Gale
Priredba: Reaper
01. The Crossing 11.12.201721.01.2018
02. Birds of a Feather 28.01.2018
03. The Lost Art of Diplomacy 04.02.2018
04. Both Sides Now 11.02.2018
05. Shaking the Tree 18.02.2018
06. Act Like You've Been Here Before 25.02.2018
07. The Sincerest Form of Flattery 04.03.2018
08. Love the Lie 11.03.2018
09. No Man's Land (1) 18.03.2018
10. No Man's Land (2) 25.03.2018
Howard Silk (J.K. Simmons) je zaposlen pri eni od agencij ZN na najnižjem možnem položaju.
Nekega dne po naklučju odkrije, da njegova agencija varuje prehod do vsporednih dimenzij.
Edini kateremu lahko verjame je njegov dvojnik iz vzporedene dimenzije...
DIY Box Set 12 Books

Klikni za povečavo!
Nedelja at 22:25 naložil System
Sejalci: 1 / Odjemalci: 0 / Velikost: 7.23 MB / Dokončani: 0
Prenesi torrent Poročaj torrent Opis torrenta NFO
Kategorija: PROGRAMI > E-Knjiga
Anonimen nalagalec

*******************************************************************************
DIY Box Set 12 Books
*******************************************************************************
-------------------------------------------------------------------------------
General Information
-------------------------------------------------------------------------------
Type.................: EBOOK
-------------------------------------------------------------------------------
Release Notes
-------------------------------------------------------------------------------
Jewelry Making
The Ultimate Guide To Jewelry Making for Beginners. Learn How to make Jewelry
with Beautiful Jewelry Designsh
There is nothing more satisfying, prideful or pleasing than making your own
jewelry. It gives you the right to choose the design you want and also the
choice of beads, which you feel describes your style more.
Candle Making
DIY Candles: The Ultimate Homemade Candles Guide - Candle Making For Beginners.
Master Making Luxurious, Natural Candles At Home From Scratch
Candles are relatively cheap and easy to find on the market today. Because of
that, why would anyone want to make candles? For some, the pleasure comes from
making something they find meaningful or useful.
Container Gardening
The Ultimate Container Gardening Guide: DIY - How to Grow Air-Cleaning House
Plants, Flowers and Organic Vegetables at home
The Ultimate Container Gardening Guide is a very resourceful book that will
provide you with plenty of information and gardening tips to introduce
beginners to the practice and also improve the skills for those already
embracing this noble practice.
Crochet for Beginners (with pictures)
Master the Art of Crochet in 1 Day with Easy Crochet Patters for Beginners!
Outstanding Crochet Projects!
This book tells you almost everything you need to know about crocheting world
like patterns, stitches, tool etc. Crocheting is an easy thing to learn so have
fun as you start and I bet you will love it.
DIY Cleaning and Organizing
The Ultimate DIY Guide on House Cleaning, Organizing and Productivity. Learn
Smart and Easy Tricks on How to Clean and Organize Your House in 3 Days
This book talks about easy ways to clean your house be it the living room,
kitchen, bedroom and even your bathroom. You will learn how to organize your
shoes, kitchen utensils, learn about different cleaning products you can use to
clean different type of surface around your house.
DIY Gifts and Ideas
28 Amazing Easy to make Homemade Christmas Gift Ideas and Home Decoration Ideas
for Winter!
The ideas in decorations provided in this guide are all home made.
DIY Pantry
The Ultimate DIY Pantry Guide to Lemon, Baking Soda, Peroxide and Essential
Oils. Life Saving DIY Pantry Tips
The book informs you why lemons, hydrogen peroxide, baking soda and a number of
essential oils discussed are a must have in your DIY Pantry.
Indoor Gardening
The Ultimate Indoor Gardening Guide: Best Way to Grow an Indoor Vegetable
Garden - Grow Vegetables and Herbs
Whether you are a typical vegetarian or just a person who enjoys fresh green
vegetables, having an all year round, all weather supply of fresh vegetables
could be a dream.
Knitting for Beginners (with pictures)
Master the Art of Knitting in 1 Day with Knitting Instructions. BONUS Chapter
with Knitting Techniques included! Learn How to Knit fast step by step
Origami
The Ultimate Origami Crash Course with Images: Master Origami in 2 hours. Learn
Origami with 20 Step by Step Projects
Are you interested in learning the elegant and eye-catching Japanese art of
Origami but are unsure of where to start? Does the thought of learning on your
own seem daunting or overwhelming?
Quilting for Beginners
The Ultimate Quilting Crash Course: Learn Basic Quilting Techniques Master The
Art Of Quilting And Start Creating Amazing Designs
Are you looking to start a new, interesting hobby? If the answer to any of
these questions is "yes," then this is the book for you!
Sewing for Beginners
Learn to Sew with 7 Simple Sewing Patterns.
-------------------------------------------------------------------------------
Turn your Passion into Success - https://goo.gl/nq3nYm
-------------------------------------------------------------------------------
Norm of the North ( SLO sinhronizirano).mkv

Nedelja at 20:16 naložil System
Sejalci: 0 / Odjemalci: 0 / Velikost: 2.21 GB / Dokončani: 0
Prenesi torrent Poročaj torrent Opis torrenta
Kategorija: FILMI > DVDRip
Anonimen nalagalec

Od arktičnega kroga do Times Squara v slovenščini
Gotham.S04E11.SrbSub.1080p.web.x264-tbs

Klikni za povečavo!
Nedelja at 18:23 naložil System
Sejalci: 2 / Odjemalci: 0 / Velikost: 1.53 GB / Dokončani: 3
Prenesi torrent Poročaj torrent Opis torrenta NFO
Zvrst: Akcija | Drama
Kategorija: FILMI > FHD - 1080
Anonimen nalagalec

Ocena :
Stars : Ben McKenzie, Donal Logue, Jada Pinkett Smith
Ime : Gotham
Sezona : 04
Leto : 2017
Jezik : angleški
Žanr : akcija, drama
Jezik : srbski - latinica
Prevod : *MARKO CAR*
Priredba: Reaper
01. A Dark Knight: Pax Penguina 21.09.2017
02. A Dark Knight: The Fear Reaper 28.09.2017
03. A Dark Knight: They Who Hide Behind Masks 05.10.2017
04. A Dark Knight: The Demon's Head 12.10.2017
05. A Dark Knight: The Blade's Path 19.10.2017
06. A Dark Knight: Hog Day Afternoon 26.10.2017
07. A Dark Knight: A Day in the Narrows 02.11.2017
08. A Dark Knight: Stop Hitting Yourself 09.11.2017
09. A Dark Knight: Let Them Eat Pie o16.11.2017
10. A Dark Knight: Things That Go Boom 30.11.2017
11. A Dark Knight: Queen Takes Knight 07.12.2017
...
22. Finale sezone
Serija spremlja borbo proti kriminalcem v Gotham Cityju v letih pred pojavom Batmena.
Zgodba se vrti okrog mladega detektiva Jamesa Gordona, začevši z preizskavo umorov Thomasa in Marthe Wayne.
V seriji se Gordon sreča z nekaterimi že znanimi kriminalci (Fish Mooney, Oswald Cobblepot / Penguin), spremlja pa tudi zgodbe likov ki bodo pozneje postali: Batman, Riddler, Catwoman, Two-Face, Joker i Poison Ivy...
IT.2017.CroSub.720p.HDRip.X264.AC3-EVO

Klikni za povečavo!
Nedelja at 16:46 naložil System
Sejalci: 6 / Odjemalci: 0 / Velikost: 2.82 GB / Dokončani: 10
Prenesi torrent Poročaj torrent Opis torrenta NFO
Zvrst: Grozljivka | Triler
Kategorija: FILMI > HD - 720
Anonimen nalagalec

Jezik : hrvaški
Priredba: Reaper
Ul by: Reaper
The.Exorcist.S02E09.CroSub.1080p.WEB.x264-TBS

Klikni za povečavo!
Nedelja at 16:44 naložil System
Sejalci: 4 / Odjemalci: 0 / Velikost: 1.53 GB / Dokončani: 4
Prenesi torrent Poročaj torrent Opis torrenta NFO
Zvrst: Grozljivka | Triler
Kategorija: FILMI > FHD - 1080
Anonimen nalagalec

Ocena : 8,3/10 (6.084)
Stars: Alfonso Herrera, Ben Daniels, Hannah Kasulka
Ime : The Exorcist
Sezona : 02
Leto : 2017
Jezik : angleški
Žanr : grozljivka - triler
Jezik : hrvaški
Priredba: Reaper
01. Janus 29.09.2017
02. Safe as Houses 06.10.2017
03. Unclean 13.10.2017
04. One for Sorrow 20.10.2017
05.There but for the Grace of God, Go I 03.11.2017
06. Darling Nikki 10.11.2017
07. Help Me 17.11.2017
08.A Heaven of Hell 01.12.2017
09. Ritual & Repetition 08.12.2017
10. Unworthy 15.12.2017
Duhovnika Tomas Ortega in Marcus Keane morata rešiti družino, nad katero se je spravil demon.
Angela Rance začuti prisotnost demona v svoji hiši. Na pomoč pokliče mladega duhovnika Tomasa Ortego in izkušenega izganjalca hudiča, očeta Marcusa Keana.
Film Izganjalec hudiča pri številnih velja za najboljšo grozljivko vseh časov. Podrl je rekorde v zaslužku in prestrašil gledalce po vsem svetu. Zdaj, več kot štiri desetletja po filmu, nominiranem za oskarja, se Izganjalec hudiča vrača kot televizijska serija. Pod vodstvom režiserja Ruperta Wyatta (Vzpon planeta opic) je Izganjalec hudiča napet psihološki triler, v katerem spremljamo zelo različna duhovnika, ki rešujeta primer grozljive demonske obsedenosti v neki družini. Oče Tomas Ortega (Alfonso Herrera, Sense8, Izbranec) je nov obraz v Katoliški cerkvi. Je napreden, podjeten in sočuten.
Vodi majhno, vendar vdano župnijo v predmestju Chicaga. Niti sluti ne, da se bo njegovo življenje kmalu za vedno spremenilo. Globoko v slumih Ciudáda de Méxica se je drugi duhovnik znašel sredi bitke z zlobnimi silami. Oče Marcus Keane (Ben Daniels, Kri in solze, Hiša iz kart) je sodobni vitez templjar, ki ga je Vatikan od malih nog vzgajal za boj proti svojim sovražnikom. Oče Marcus je vse, kar oče Tomas ni: neustavljiv, oster in povsem predan svojemu poslanstvu.
Poleg tega pogosto pride v navzkriž s svojim sovražnikom znotraj Cerkve, z očetom Bennettom (Kurt Egyiawan, Beasts of No Nation). Med dvema duhovnikoma je ujeta družina Rance, ki je članica Tomasove župnije. Navzven so običajna ameriška družina, toda doma ni vse tako, kot se zdi. Glava družine Henry Rance (Alan Ruck, Vsi županovi možje, Prosti dan Ferrisa Buellerja) okreva po hudi poškodbi. Najstarejša sestra Katherine (Brianne Howey, Kraljice kričanja) je postala samotarka, ki noče zapustiti svoje sobe. Njena mlajša sestra Casey (Hannah Kasulka, Fosterjevi) misli, da sliši nenavadne glasove, ki prihajajo iz sten.
Mama Angela (oskarjevka in dobitnica zlatega globusa Geena Davis, Gospa predsednica, Thelma in Louise) verjame, da je nekaj v hiši, demonska prisotnost, ki je z vsakim dnem močnejša. Obupana prosi za pomoč očeta Tomasa, ki ga nespametno pošlje na pot k očetu Marcusu. Spremljali bomo, kako se vsak zase soočata z nerešljivo nalogo, vendar skupaj postaneta edino upanje Ranceevih v boju proti zlobnim silam, ki so se zbirale več stoletij.
Extinct.US.S01E08.SrbSub.720p.WEBRip.x264-EXTINCTION

Klikni za povečavo!
Nedelja at 12:42 naložil System
Sejalci: 8 / Odjemalci: 0 / Velikost: 1.08 GB / Dokončani: 10
Prenesi torrent Poročaj torrent Opis torrenta NFO
Kategorija: FILMI > HD - 720
Anonimen nalagalec

Ocena :
Ime : Extinct
Sezona : 01
Leto : 2017
Jezik : angleški
Žanr : akcija pustolovski drama
Jezik :srbski latinica
Prevod : mita53
Priredba: Reaper
1 Pilot 2017-10-01
2 Brother's Keeper 2017-10-01
3 The Contract 2017-10-08
4 Reunion 2017-10-15
5 Broken 2017-10-22
6 True or False 2017-10-29
7 Of Two Minds 2017-11-05
8 Death Did Us Part 2017-11-12
9 Wounds 2017-11-19
10 The Ancestor 2017-11-19
400 let po izumrtju človeške rase nezemljani oživijo majhno skupino ljudi za nemenom ponovne poselitve planeta...
Lucifer.S03E09.CroSub.720p.HDTV.X264-DIMENSION

Klikni za povečavo!
Nedelja at 12:34 naložil System
Sejalci: 4 / Odjemalci: 0 / Velikost: 1.53 GB / Dokončani: 8
Prenesi torrent Poročaj torrent Opis torrenta NFO
Zvrst: Z.F.
Kategorija: FILMI > HD - 720
Anonimen nalagalec

Ocena :
Stars : Stephen Amell, Katie Cassidy, David Ramsey
Ime : LUCIFER
Sezona : 03
Leto : 2017
Jezik : angleški
Žanr : zf
Jezik : hrvaški
Prevod : nt
Priredba: Reaper
01. They're Back Again, Aren't They? 02.10.2017
02. The One with the Baby Carrot 09.10.2017
03. Mr. & Mrs. Mazikeen Smith 16.10.2017
04. What Would Lucifer Do? 23.10.2017
05. Welcome Back, Charlotte Richards 30.10.2017
06. Vegas with Some Radish 06.11.2017
07. Off the Record 13.11.2017
08 .Chloe Does Lucifer 20.11.2017
09. The Sinnerman 04.12.2017
10. The Sin Bin 11.12.2017
11. Til Death Do Us Part 01.01.2018
12. TBA
13. All About Her
...
22. Finale sezone
Lucifer Morningstar (Tom Elis) odpre rezidenco v Los Angelesu v klubu Luks...
The.Gifted.S01E09.SloSub.1080p.WEB.x264-TBS

Klikni za povečavo!
Sobota at 15:12 naložil System
Sejalci: 5 / Odjemalci: 0 / Velikost: 1.58 GB / Dokončani: 9
Prenesi torrent Poročaj torrent Opis torrenta NFO
Kategorija: FILMI > FHD - 1080
Anonimen nalagalec

Ocena :
Stars: Stars: Stephen Moyer, Amy Acker, Sean Teale
Ime : The Gifted
Sezona : 01
Leto : 2017
Jezik : angleški
Žanr : akcija, domišljijski, ZF
Jezik : slovenski
Prevod : MEDIATRANSLATIONS
UL: jedinic3
Priredba: Reaper
01. eXposed 02.10.2017
02. rX 09.10.2017
03. eXodus 16.10.2017
04. eXit Strategy 23.10.2017
05. BoXed In 30.10.2017
06. Got Your SiX 06.11.2017
07. eXtreme measures prevedeno13.11.2017
08. threat of eXtinction 20.11.2017
09. outfoX 04.12.2017
10. eXploited 11.12.2017
11. quick fiX 08.01.2018
12. TBA 15.01.2018
13. TBA 15.01.2018
Serija sledi čisto običajnima staršema Reedu Struckerju (Stephen Moyer) in Caitlin Strucker (Amy Acker), ki se podata v beg pred oblastjo ko ugotovita, da imata njuna otroka nadnaravne sposobnosti.
Pridružita se skrivni organizaciji mutantov, ki se borijo za preživetje in iz podzemlja organizirajo upor proti oblastem....
Knightfall.S01E01.SloSub.720p.HDTV.x264-AVS

Klikni za povečavo!
Sobota at 15:10 naložil System
Sejalci: 5 / Odjemalci: 0 / Velikost: 1.32 GB / Dokončani: 8
Prenesi torrent Poročaj torrent Opis torrenta NFO
Zvrst: Drama | Zgodovinski
Kategorija: FILMI > HD - 720
Anonimen nalagalec

Ocena :
Ime : Knightfall
Sezona : 01
Leto : 2017
Jezik : angleški
Žanr : drama zgodovinski
Jezik : slovenski
Prevod : MEDIATRANSLATIONS
UL: jedinic3
Priredba: Reaper
1.An Incident at Creede 22.11.2017
2. The Ladies of La Belle 22.11.2017
3. Wisdom of the Horse 22.11.2017
4. Fathers and Sons 22.11.2017
5. Shot the Head off a Snake 22.11.2017
6. Dear Roy... 22.11.2017
7. Homecoming 22.11.2017
Knightfall (Zaton vitezov) je prihajajoča zgodovinsko fikcijska serija, ki se dotika zgodbe o zatonu Templjarjev, ki jo je povzročil francoski kraj Filip IV.
Templjarji so bili najmočnejši, bogatejši in misteriozni vojaški red srednjega veka. Med drugim so bili zadolženi za varstvo najbolj svete krščanske relikvije, svetega grala. je Serija se bo osredotočala na vodjo Templjarjev Sira Landrya, hrabrega bojevnika, ki ves potrt zaradi izgub Templjarjev v Sveti deželi oživi ob novici, da se je sveti gral ponovno pojavil. Kralj Filip IV je izgubljene bitke Templjarjev izkoristil za gonjo proti njim. Kralj si je namreč od njih izposodil precej denarja in 13.10.1307 je večino Templjarjev dal zapreti, mučiti do krive izpovedbe ter jih na koncu dal zažgati na grmado.
Ta teden 08-dec-2017TvRip 720p H264

Klikni za povečavo!
Sobota at 11:47 naložil System
Sejalci: 1 / Odjemalci: 0 / Velikost: 378.27 MB / Dokončani: 1
Prenesi torrent Poročaj torrent Opis torrenta
Zvrst: Komedija
Kategorija: FILMI > HD - 720
Anonimen nalagalec

Najbolj vroče dogodke minulega tedna pogleda skozi satirični drobnogled in na glas pove tisto,
kar si vsi mislimo, a ne komentiramo javno. Ta teden z Juretom Godlerjem novic ne zavija
v celofan, najbolj vroče vsebine postreže takoj, ko se zgodijo.

General
Complete name : Ta teden 08-nov-2017TvRip 720p H264.avi
Format profile : High@L4.1
Format settings, CABAC : Yes
Format settings, ReFrames : 4 frames
Codec ID : H264
Duration : 24 min 36 s
Bit rate : 2 084 kb/s
Width : 1 280 pixels
Height : 720 pixels
Display aspect ratio : 16:9
Frame rate : 25.000 FPS
Color space : YUV
Chroma subsampling : 4:2:0
Bit depth : 8 bits
Scan type : Progressive
Bits/(Pixel*Frame) : 0.090
Stream size : 367 MiB (97%)
Writing library : x264 core 148 r2694bm 3b70645
Encoding settings : cabac=1 / ref=3 / deblock=1:0:0 /

Audio
Format version : Version 2
Format profile : Layer 3
Mode extension : Intensity Stereo + MS Stereo
Bit rate : 56.0 kb/s
Channel(s) : 2 channels
Sampling rate : 22.05 kHz
Interleave, duration : 40 ms (1.00 video frame)
Interleave, preload duration : 502 ms

Bug 301.pdf

Klikni za povečavo!
Sobota at 09:30 naložil Dracula11
Sejalci: 0 / Odjemalci: 1 / Velikost: 232.73 MB / Dokončani: 4
Prenesi torrent Poročaj torrent Opis torrenta
Kategorija: PROGRAMI > E-Knjiga

Bug 301. pdf