A
B
C
D
E
F
G
H
I
J
K
L
M
N
O
P
Q
R
S
T
U
V
W
X
Y
Z
0-9
DJ VIHAR & DJ AJDA - SLO & HR MIX 59

Klikni za povečavo!
06-03-2020 19:28 naložil Ajda
Sejalci: 7 / Odjemalci: 0 / Velikost: 231.05 MB / Dokončani: 51
Prenesi torrent Poročaj torrent Opis torrenta NFO
Kategorija: GLASBA > Glasba




------------------------------------------------------------------------------
Avdio podatki
-------------------------------------------------------------------------------
General
Complete name : DJ VIHAR & DJ AJDA - SLO & HR MIX 59.mp3
Format : MPEG Audio
File size : 230 MiB
Duration : 1h 40mn
Overall bit rate mode : Constant
Overall bit rate : 320 Kbps
Encoded by : Lavf52.39.0
Writing library : LAME3.98

Audio
Format : MPEG Audio
Format version : Version 1
Format profile : Layer 3
Mode : Joint stereo
Duration : 1h 40mn
Bit rate mode : Constant
Bit rate : 320 Kbps
Channel(s) : 2 channels
Sampling rate : 48.0 KHz
Compression mode : Lossy
Stream size : 230 MiB (100%)
Writing library : LAME3.98


*******************************************************************************
~VSEBINA ~
*******************************************************************************

01. LUKA BASI - META
02. SKaTER - Al Capone
03. EROSI - Ča če mi copacabana
04. GRUPA VIGOR - Drugo ime ljubavi
05. WERNER - Lagala
06. NUŠA ROJS - Slovensko dekle
07. JASTREBI - Ena iz Ljubljane
08. SINOVI - Moja mala
09. MARIO SEPP - Pile moje maleno
10. THE FRAJLE - ŽELJKO BEBEK - Žuta ruža
11. RUSKO RICHIE-ALEN ISLAMOVIĆ - Džaba džaba
12. BANANA BAND - Opet nasmijana
13. MANCA ŠPIK - Serenada
14. CECILIJA - Hej mladosti
15. PRAVILA IGRE - Pol srca
16. ALYA - Spet zaljubljena
17. MEJAŠI- VIGOR - Suzana
18. MARKO ŠKUGOR - Deset anđela
19. IVAN ZAK - Još mi fališ ti
20. LJUBAVNICI - Ništa nije slučajno
21. GORAN KARAN - Za generaciju
22. KUMOVI - Vikend dođe
23. POLKAHOLIKI - Povej povej
24. WERNER DARJA GAJŠEK - Samo sebe imava
25. LUKA BASI - Taxi
26. KVARTOPIRCI - Deklica
27. ALYA - Ili s tobom ili sama
28. KLAPA SKALA - Spomni se me
29. DOMEN KUMER-STIL- Levo desno
30. POLKAHOLIKI - Ako te pitaju







Shelter.2014.SLOSubs.BRRip.XviD-DrSi(1)

Klikni za povečavo!
Včeraj ob 17:42 naložil ViHaR
Sejalci: 1 / Odjemalci: 0 / Velikost: 2.4 GB / Dokončani: 0
Prenesi torrent Magnet Link Poročaj torrent Opis torrenta NFO
Zvrst: Drama
Kategorija: FILMI > BRRip



Release: Shelter.2014.SLOSubs.BRRip.XviD-DrSi
Source: Shelter.2014.1080p.BluRay.DTS.x264-DON
Leto izida ........: 2014
Velikost ...........: 2,40 GB
Dolžina ............: 106 Minut
Video ...............: 2789 Kbps | 720x400 | 23,976 fps
Zvok ................: Dolby Digital AC3 5.1 @ 448 Kbps
Kodek...............: XviD
Zvrst………….: Drama
Država .............: ZDA
Jezik ................: Angleški
Podnapisi ........: Slovenski (RETAiL-DrSi)
Prevod: Blitz Film
TVRip: Toyan –Hvala!!
Za HD priredil: metalcamp
Tehnična obdelava: DVD Rippers Slovenija

IMDb Ocena ...: 6,5/10 (4.256 glasov)
IMDb Info .......: https://www.imdb.com/title/tt3136112/

Režija..........: Paul Bettany
Scenarij.......: Paul Bettany


Anthony Mackie ... Tahir
Jennifer Connelly ... Hannah
Kevin Hoffman ... Brendan
Teddy Cañez ... Station Officer
Steve Cirbus ... Jerry
Alok Tewari ... Abdul
J.D. Williams ... Drug Dealer
Bruce Altman ... Peter
Susanna Guzman ... Housekeeper
Rob Morgan ... Franklin


Hannah in Tahir se zaljubita kot brezdomca na newyorških ulicah. V zavetišču
raziskujejo, kako sta se znašla tam. Ko razkrivamo njuno zgodbo, dojamemo,
kako vedno bolj potrebujeta drug drugega, da bi si lahko ustvarila prihodnost

Cars.1.2.3.SloSinhro.DVDRip.XviD-Churchill

Klikni za povečavo!
Včeraj ob 04:59 naložil System
Sejalci: 1 / Odjemalci: 1 / Velikost: 3.94 GB / Dokončani: 0
Prenesi torrent Poročaj torrent Opis torrenta
Kategorija: FILMI > XviD
Anonimen nalagalec

Cars trilogy



Cars (2006)
Avtomobili (2006)

INFO:
-------------
Codec : XVID
Format : AVI
Size : 1.30 GiB
Bit rate : 1 473 kb/s
Width : 720-pixels
Height : 304-pixels
Aspect ratio : 16/9
Genre : Animation, Adventure, Comedy, Family, Sport
Country : USA
Language : Slovenski
Subtitles : /
Runtime : 111 min
Čas predvajanja : 1 h 51 min

IMDb user Rating: 7,1/10 (331.536)
IMDb Link: KLIK

OPIS:
-------------
Neučakani mladi dirkalnik z bleščečo prihodnostjo se med pohajkovanjem
po sloviti ameriški avtocesti Route 66 znajde v majhnem zaspanem mestecu.
Toda uglajena cestna princesa Purška, izkušeni štirikolesni župan in
zarjaveli, toda zanesljivi vlečni tovornjak vročekrvnežu pomagajo spoznati,
da v življenju obstaja še kaj več kot zmagovanje na dirkališčih...
......................................................

Cars 2 (2011)
Avtomobili 2 (2011)

INFO:
-------------
Codec : XVID
Format : AVI
Size : 1.33 GiB
Bit rate : 1 472 kb/s
Width : 720 pixels
Height : 304 pixels
Aspect ratio : 16/9
Genre : Animation, Adventure, Comedy, Family, Sport
Country : USA
Language : Slovenski
Subtitles : /
Runtime : 101 min
Čas predvajanja : 1 h 41 min

IMDb user Rating: 6,1/10 (153.527)
IMDb Link: KLIK

OPIS:
-------------
Hitri dirkaški avto Strela se z najboljšim prijateljem, čudaškim
vlečnim tovornjakom Dajzom, odpravi preko luže, da bi se udeležila
mednarodnega tekmovanja najhitrejših avtomobilov. A njuno
popotovanje zaplete mednarodna vohunska spletka, v katero se ujame
nerodni Dajz. Razpet med vdanostjo prijatelju in željo po avanturah,
se Dajz poda na osupljive cestne pregone preko Evrope in Japonske,
kjer sreča številne agente, zločince in mednarodne dirkaške ase.
......................................................

Cars 3 (2017)
Avtomobili 3 (2017)

INFO:
-------------
Codec : XVID
Format : AVI
Size : 1.32 GiB
Bit rate : 1 526 kb/s
Width : 720 pixels
Height : 304 pixels
Aspect ratio : 16/9
Genre : Animation, Adventure, Comedy, Family, Sport
Country : USA
Language : Slovenski
Subtitles : /
Runtime : 98 min
Čas predvajanja : 1 h 38 min

IMDb user Rating: 6,7/10 (70.417)
IMDb Link: KLIK

OPIS:
-------------
Kot bivši svetovni prvak v avtomobilskih dirkah, se Strela znajde
v težavah, saj se posledice staranja že poznajo na njegovem načinu
dirkanja. Za razliko od Avtomobilov 2, ki so se ukvarjali
z vohunjenjem, se bodo Avtomobili 3 še enkrat osredotočili na tekmo
in v napeti zgodbi bomo videli, kako se bodo spretni, hitri,
novodobni avtomobili znašli tik za petami Strele McQueen in kako se
bo moral z vsemi silami potruditi, da ostane v tekmovanju...
......................................................



Frozen.II.2019.SLOSiNH.BRRip.XviD-DrSi(1)

Klikni za povečavo!
Nedelja at 17:25 naložil ViHaR
Sejalci: 2 / Odjemalci: 0 / Velikost: 2.3 GB / Dokončani: 2
Prenesi torrent Magnet Link Poročaj torrent Opis torrenta NFO
Kategorija: FILMI > BRRip



Naziv: Frozen.II.2019.SLOSiNH.BRRip.XviD-DrSi
Source: Frozen.II.2019.1080p.BluRay.DD+7.1.x264-KASHMiR
Source notes: Few scenes deblocked/debanded
Leto izida ........: 2019
Velikost ...........: 2,30 GB
Dolžina ............: 103 Minute
Video ...............: 2728 Kbps | 720x304 | 23,976 fps
Zvok ................: Dolby Digital AC3 5.1 @ 448 Kbps
Kodek...............: XviD
Zvrst………….: Animirani | Pustolovski | Komedija | Muzikal
Država .............: ZDA
Jezik ................: Slovenski
Podnapisi ........: Slovenski (custom-Grimpy)
Zvokovna obdelava: Toyan –Hvala!!
Tehnična obdelava: DVD Rippers Slovenija

IMDb Ocena ...: 6.9/10 (114,780 glasov)
IMDb Info .......: https://www.imdb.com/title/tt4520988/

Režija..........: Chris Buck, Jennifer Lee
Scenarij.......: Jennifer Lee, Hans Christian Andersen


Slovenska sinhronizacija:
Nuška Drašček Rojko, Jernej Kuntner, Jan Bučar, Srđan Milovanović in drugi.


Elza in Ana živita idilicno vsakdanje življenje, ko Elza zasliši notranji glas,
ki jo klice. Ko kraljestvo zatrese čudna sila in morajo vsi prebivalci pobegniti
na varno, je jasno, da bo morala Elza na klic odgovoriti. Zdi se, da razlog za
strašljive dogodke tiči v preteklosti, Elza namreč ves čas sliši pesem, ki jima
jo je prepevala mama, ko sta bili še majhni deklici. Elza, Ana, Krištof, Olaf
in Sven se zato odpravijo na nevarno potovanje globoko v gozd, na katerem bodo
poskusili odkriti izvor Elzinih čarobnih moči. Če se je Elza v prvem delu bala
svojih nadnaravnih sposobnosti, bo v drugem zgolj upala, da jih bo dovolj.

Private Eye 2009 CroSubs 720p NF WEBRip XviD AC3 Unknown

Klikni za povečavo!
Sobota at 17:05 naložil ViHaR
Sejalci: 1 / Odjemalci: 0 / Velikost: 3.7 GB / Dokončani: 1
Prenesi torrent Magnet Link Poročaj torrent Opis torrenta NFO
Zvrst: Triler
Kategorija: FILMI > WEBRip



Private Eye 2009 720p NF WEBRip XviD AC3 Unknown
Language(s): Korean
Size: 3.70 GB | Duration: 1hr 48mn | Container: AVI
Audio: AC-3 | 448 Kbps | 6 Channels
Video: XviD | 4431 Kbps | 1280 x 720
Genre: Thriller
Podnapisi: hrvaški
https://www.imdb.com/title/tt1483004/


Jung-min Hwang, Deok-Hwan Ryu, Ji-won Uhm


Zgodba se dogaja v okupirani Koreji na začetku 20. stoletja, kjer mladi študent medicine odkrije umorjeno telo sina vladnega uslužbenca. Ker se boji, da bi ga obtožili, se odloči, da bo najel Hong Jin-hoja (detektiva), ki mu bo pomagal najti morilca, preden ga policija obtoži umora.


Ron Hoppers Misfortune 2020 SrbSubs 720p WEBRip XviD AC3 Unknown

Klikni za povečavo!
Sobota at 16:54 naložil ViHaR
Sejalci: 3 / Odjemalci: 0 / Velikost: 1.89 GB / Dokončani: 4
Prenesi torrent Magnet Link Poročaj torrent Opis torrenta NFO
Kategorija: FILMI > WEBRip



Ron Hoppers Misfortune 2020 720p WEBRip XviD AC3 Unknown
Language(s): English
Size: 1.89 GB | Duration: 1hr 33mn | Container: AVI
Audio: AC-3 | 448 Kbps | 6 Channels
Video: XviD | 2431 Kbps | 1280 x 528
Genre: Drama | Fantasy | Mystery
podnapisi srbski
https://www.imdb.com/title/tt8364590/
Vinnie Jones, Sam Medina, Alyssa Lozovskaya


Sara, lepo mlado dekle, se vrne v staro zapuščeno mehanično delavnico sredi ničesar, da bi srečala svojega nepričakovanega zaupnika Rona Hopperja; skrivnostno bitje, ki je bilo od nekdaj zasidrano na istem mestu.






Kray.aka.The.Edge.2010.SLOSubs.BRRip.XviD-DrSi

Klikni za povečavo!
Sobota at 16:25 naložil ViHaR
Sejalci: 4 / Odjemalci: 0 / Velikost: 2.8 GB / Dokončani: 4
Prenesi torrent Magnet Link Poročaj torrent Opis torrenta NFO
Kategorija: FILMI > BRRip



Naziv: Kray.aka.The.Edge.2010.SLOSubs.BRRip.XviD-DrSi
Source: Kray.2010.1080p.BluRay.DD5.1.x264-DRHD
Leto izida ........: 2010
Velikost ...........: 2,80 GB
Dolžina ............: 123 Minut
Video ...............: 2791 Kbps | 720x400 | 24 fps
Zvok ................: Dolby Digital AC3 5.1 @ 448 Kbps
Kodek...............: XviD
Zvrst………….: Pustolovski | Drama | Zgodovinski
Država .............: Rusija
Jezik ................: Ruski
Podnapisi ........: Slovenski (custom--DrSi)
Prevedla: Mousey (DrSi) –Hvala!!!
Za HD priredil: metalcamp
Tehnična obdelava: DVD Rippers Slovenija

IMDb Ocena ...: 6,5/10 (2.822 glasov)
IMDb Info .......: https://www.imdb.com/title/tt1706414/

Režija..........: Aleksey Uchitel
Scenarij.......: Aleksandr Gonorovskiy


Vladimir Mashkov ... Ignat
Anjorka Strechel ... Elza
Yuliya Peresild ... Sofiya
Sergey Garmash ... Major Fishman
Aleksey Gorbunov ... Kolivanov
Vyacheslav Krikunov ... Stepan
Aleksandr Bashirov ... Zilkin
Evgeniy Tkachuk ... Borka
Vladas Bagdonas ... Butkus
Anna Ukolova ... Matilda


V ledeno mrzli Sibriji, v delovnem taborišču z imenom Krai,
živi pisana druščina mož in žena. Zavrženi od zmagovite Rusije
in osovraženi s strani nacistične Nemčije, se tik po koncu 2.
svetovne vojne nimajo kam vrniti, zato ostajajo na prisilnem
delu v gulagu. Ignat je simbol sovjetskega junaka - narodni
heroj, močan in pogumen. V sebi pa je bolan, uničen in zagrenjen,
v edino uteho so mu vlaki. Ko najde zapuščeno lokomotivo, v njej
pa tudi nemško ubežnico, se v njegovo življenje prikradejo nova
čustva in novi pogledi na prihodnost. Koliko humanosti je še
sploh ostalo v teh vsega hudega navajenih ljudeh, se bo izkazalo
v veliki in skoraj usodni dirki skozi prostrano tajgo.

Hamilton 2020 SrbSubs 720p WEBRip XviD AC3 Unknown

Klikni za povečavo!
Sobota at 16:10 naložil ViHaR
Sejalci: 2 / Odjemalci: 0 / Velikost: 5.55 GB / Dokončani: 2
Prenesi torrent Magnet Link Poročaj torrent Opis torrenta NFO
Kategorija: FILMI > WEBRip



Hamilton 2020 720p WEBRip XviD AC3 Unknown
Language(s): English
Size: 5.54 GB | Duration: 2hr 40mn | Container: AVI
Audio: AC-3 | 448 Kbps | 6 Channels
Video: XviD | 4500 Kbps | 1280 x 720
Genre: Biography | History | Musical
Podnapisi: srbski
https://www.imdb.com/title/tt8503618/


Lin-Manuel Miranda, Phillipa Soo, Leslie Odom Jr.


Resnično življenje enega glavnih ameriških ustanoviteljev in prvega ministra zakladnice Aleksandra Hamiltona. Ujeti v živo na Broadwayu iz gledališča Richard Rodgers z izvirno igralsko zasedbo Broadway.

Shorts.2009.Multi.Subs.PAL.DVDR-Churchill

Klikni za povečavo!
07-07-2020 09:00 naložil System
Sejalci: 3 / Odjemalci: 1 / Velikost: 3.74 GB / Dokončani: 5
Prenesi torrent Poročaj torrent Opis torrenta
Kategorija: FILMI > DVD
Anonimen nalagalec

Shorts (2009)
KRATKI (2009)



-------------
INFO:
-------------
Source..........: DVD
Format..........: 16:9
Standard........: PAL
Release Size....: 3,73 GB
Width...........: 720 pixels
Height..........: 576 pixels
iMDB Link.......: KLIK
iMDB Rating.....: 4,7/10 (6.679)
Genre...........: Comedy, Family, Fantasy
Country.........: USA/ United Arab Emirates
Language........: English
Video...........: Untouched
Audio...........: AC3 5.1-ch English/ Polish/ Turkish
Subs............: English, Bulgarian, Croatian, Estonian
................: Latvian, Lithuanian, Polish, Serbian
................: Slovenian, Turkish
Extras..........: yes
Regija..........: Prosto
Runtime.........: 86 min
Čas predvajanja.: 01:25.11 min

-------------
IGRALCI:
-------------
Jimmy Bennett ... Toe Thompson
Jake Short ... Nose Noseworthy
Kat Dennings ... Stacey Thompson
Trevor Gagnon ... Loogie
Devon Gearhart ... Cole Black
Jolie Vanier ... Helvetica Black
Rebel Rodriguez ... Lug
Leo Howard ... Laser
Leslie Mann ... Mom Thompson
Jon Cryer ... Dad Thompson
William H. Macy ... Dr. Noseworthy
James Spader ... Mr. Black
Angela Lanza ... Teacher
Alejandro Rose-Garcia ... John / Boyfriend
Cambell Westmoreland ... trackerer #1

-------------
OPIS:
-------------
Film vam prinaša zabavno zgodbo o kaosu, ki ga sprožijo otroci in odrasli,
ko dobijo v roke čudežni barvni kamen. Kamen namreč izpolni vsako željo...


Talk.to.Her.aka.Hable.con.ella.2002.SLOSubs.BRRip.XviD-DrSi

Klikni za povečavo!
06-07-2020 10:07 naložil ViHaR
Sejalci: 0 / Odjemalci: 1 / Velikost: 2.31 GB / Dokončani: 0
Prenesi torrent Magnet Link Poročaj torrent Opis torrenta NFO
Zvrst: Drama
Kategorija: FILMI > BRRip



Naziv: Hable.con.ella.2002.SLOSubs.BRRip.XviD-DrSi
Vir: 720p.BluRay.x264-EbP
Velikost: 2.31 GiB
Dolžina: 1 h 52 min
Jeziki: španski
Podnapisi: slovenski (retail);
Priredil in uredil: The Dude
Tehnična obdelava: DVD Rippers Slovenija
SLIKA: XviD | 720x304 | 2 478 kb/s
ZVOK: AC3 | 448 Kbps 48000 Hz
Zvrst: drama
Ocena: 7,9/10
Dodatne info: https://www.imdb.com/title/tt0287467/
Režija:
Pedro Almodóvar


Javier Cámara ... Benigno Martín
Darío Grandinetti ... Marco Zuluaga
Leonor Watling ... Alicia
Rosario Flores ... Lydia González
Mariola Fuentes ... Rosa
Geraldine Chaplin ... Katerina Bilova


Govori z njo je zgodba o prijateljstvu dveh moških, o osamljenosti in dolgotrajnem prebolevanju bolečine, ki jo povzroči strast. To je tudi film o nekomunikativnosti med pari, ki je kljub vsemu hkrati komunikativnost. O kinu kot predmetu pogovora. O tem, kako so monologi ob tihi osebi lahko učinkovita oblika dialogov. O tišini kot "govorici telesa", o filmu kot idealnem posredniku pri odnosih med ljudmi. O tem, kako lahko film kljub besedam zaustavi čas in se vživi v življenje osebe, ki ga pripoveduje, in osebe, ki ga posluša.



Fantasy.Island.2020.Unrated.Director's.Cut.BluRay.1080p.DTS-HD.MA.5.1.AVC.REMUX-FraMeSToR

Klikni za povečavo!
06-07-2020 09:32 naložil ViHaR
Sejalci: 1 / Odjemalci: 0 / Velikost: 22.08 GB / Dokončani: 1
Prenesi torrent Magnet Link Poročaj torrent Opis torrenta NFO
Kategorija: FILMI > BluRay-1080



SOURCE : Blu-ray Disc MTeam (Thanks!)
FORMAT : MKV (Matroska)
SIZE : 22.1 GiB
DURATION : 01:49:24 (h:m:s)
CHAPTERS : Numbered (01-17)

VIDEO
CODEC : AVC
TYPE : 1080p (Progressive)
FRAME RATE : 23.976 fps
DISPLAY ASPECT RATIO : 16:9
FORMAT PROFILE LEVEL : High@L4.1
BITRATE : 25.8 Mbps
WIDTH x HEIGHT : 1920 x 1080 pixels

AUDIO (1)
CODEC : DTS-HD Troll Audio
LANGUAGE : English
CHANNEL(S) : 5.1
BITRATE : 2265 kbps
SAMPLING RATE : 48 kHz
BIT DEPTH : 16 bits
OTHER INFO : DTS Core: 5.1 / 48 kHz / 1509 kbps / 16-bit

AUDIO (2)
CODEC : AC-3
LANGUAGE : English
CHANNEL(S) : 2.0
BITRATE : 192 kbps
SAMPLING RATE : 48 kHz
OTHER INFO : Commentary by Director Jeff Wadlow, Actors Michael Peña, Portia Doubleday, Ryan Hansen, Lucy Hale, Jimmy O. Yang, Austin Stowell, Maggie Q
https://www.imdb.com/title/tt0983946/

Podnapisi:

English | English (SDH) | Arabic | Chinese (Simplified) | Chinese (Traditional) | Croatian | Czech | French | Greek
Hebrew | Hungarian | Indonesian | Italian | Korean | Polish | Portuguese (Iberian) | Romanian | Slovak | Slovenian
Spanish (Latin American) | Thai



Michael Peña Michael Peña ... Mr. Roarke
Maggie Q Maggie Q ... Gwen Olsen
Lucy Hale Lucy Hale ... Melanie Cole
Austin Stowell Austin Stowell ... Patrick Sullivan
Jimmy O. Yang Jimmy O. Yang ... Brax Weaver
Portia Doubleday Portia Doubleday ... Sloane Maddison
Ryan Hansen Ryan Hansen ... J. D. Weaver
Michael Rooker Michael Rooker ... Damon
Parisa Fitz-Henley Parisa Fitz-Henley ... Julia
Mike Vogel Mike Vogel ... Lieutenant Sullivan
Kim Coates Kim Coates ... Devil Face



Ko lastnik in upravljavec razkošnega otoka povabi izbrane goste, da v sorazmerni osamljenosti uresničijo svoje najbolj izmišljene fantazije, se kaos hitro začne....




Titus.1999.Ex.Yu.Subs.PAL.DVDR

Klikni za povečavo!
04-07-2020 14:48 naložil System
Sejalci: 2 / Odjemalci: 0 / Velikost: 4.36 GB / Dokončani: 4
Prenesi torrent Poročaj torrent Opis torrenta
Kategorija: FILMI > DVD
Anonimen nalagalec

Titus (1999)
TIT ANDRONIK (1999)




-------------
INFO:
-------------

Source..........: DVD
Format..........: 16:9
Standard........: PAL
Release Size....: 4,35 GB
iMDB Link.......: KLIK
iMDB Rating.....: 7,1/10 (19.198)
Genre...........: Drama, History, Thriller
Country.........: UK/ Italy/ USA
Language........: English/ Latin
Video...........: /
Audio...........: AC3 5.1-ch English
Subs............: Serbian/ Croatian/ Macedonian/ Slovenian
Extras..........: none
Regija..........: Prosto
Runtime.........: 156 min
Čas predvajanja.: 02:35.48

-------------
IGRALCI:
-------------

Osheen Jones ........... Young Lucius
Dario D'Ambrosi ........ Clown
Anthony Hopkins ........ Titus
Jessica Lange .......... Tamora
Raz Degan .............. Alarbus
Jonathan Rhys Meyers ... Chiron
Matthew Rhys ........... Demetrius
Harry Lennix ........... Aaron
Angus Macfadyen ........ Lucius
Kenny Doughty .......... Quintus
Blake Ritson ........... Mutius
Colin Wells ............ Martius
Ettore Geri ............ Priest
Alan Cumming ........... Saturninus
James Frain ............ Bassianus

-------------
OPIS:
-------------

Zmagoviti general Tit Andronik (Sir Anthony Hopkins) se v Rim vrača s talci:
Tamoro (Jessica Lange), kraljico gotov in njenimi sinovi...




Allagash Aka Blood And Money 2020 SrbSubs 720p BRRip XviD AC3 XVID

Klikni za povečavo!
04-07-2020 09:08 naložil ViHaR
Sejalci: 5 / Odjemalci: 0 / Velikost: 2.78 GB / Dokončani: 10
Prenesi torrent Magnet Link Poročaj torrent Opis torrenta NFO
Zvrst: Triler
Kategorija: FILMI > BRRip



Allagash Aka Blood And Money 2020 720p BRRip XviD AC3 XVID
Language(s): English
Size: 2.77 GB | Duration: 1hr 29mn | Container: AVI
Audio: AC-3 | 640 Kbps | 6 Channels
Video: XviD | 3799 Kbps | 1280 x 640
Genre: Thriller
Podnapisi: srbski
https://www.imdb.com/title/tt9248110/


Tom Berenger, Kristen Hager, Paul Ben-Victor


Upokojeni veteran, ki lovi na severu Maine, naleti na mrtvo žensko in veliko vsoto denarja.

Swallow.2019.SLOSubs.720p.WEB-DL.x264.AAC-GENOX.mkv

Klikni za povečavo!
04-07-2020 09:00 naložil ViHaR
Sejalci: 3 / Odjemalci: 0 / Velikost: 1.94 GB / Dokončani: 4
Prenesi torrent Magnet Link Poročaj torrent Opis torrenta NFO
Zvrst: Drama | Grozljivka | Triler
Kategorija: FILMI > WEBRip



Naziv: Swallow.2019.SLOSubs.720p.WEB-DL.x264.AAC-GENOX
Leto izida .........: 2019
Velikost ...........: 1.94 GiB
Video ...............: 2856 kb/s | 1280x720 | 25 fps
Zvok .................: AAC @ 192 Kbps
Jezik ................: Angleški
Kodek.................: x264
Zvrst...............: Grozljivka | Drama | Triler
Država .............: ZDA | Francija
Podnapisi .........: SLOVENSKI (RETAiL- VGRAJENI)
Prevod: BLITZ Film

IMDB:
iMDB info: https://www.imdb.com/title/tt8372298/
iMDB ocena: 6.4/10 (7.542 glasov)


Haley Bennett ... Hunter Conrad
Austin Stowell ... Richie Conrad
Denis O'Hare ... Erwin
Elizabeth Marvel ... Katherine Conrad
David Rasche ... Michael Conrad
Luna Lauren Velez ... Lucy
Zabryna Guevara ... Alice
Laith Nakli ... Luay


Hunter (Haley Bennett) je komaj zanosila, ko se njeno življenje obrne v
drugo smer in postane obsedena z goltanjem nevarnih predmetov. Njen
soprog (Austin Stowell) in njegova družina vzamejo njeno življenje v
svoje roke, zato se mora Hunter soočiti s temačno skrivnostjo, ki se
skriva za nebrzdano obsedenostjo. Ta zgodba spominja na deformirano
pravljico, ki spodbudi provokativna vprašanja o pričakovanjih obvladanih
žensk, ženskem nadzoru nad svojim telesom in psihološko škodljivimi
učinki patriarhata. Bennettova je odlično odigrala v logo v drznem filmu,
ki je režijski prvenec Carla Mirabella-Davisa.

Smersh 2019 SrbSubs S01 1080p WEB DL x264 AC3 ExKinoRay

Klikni za povečavo!
03-07-2020 11:20 naložil ViHaR
Sejalci: 1 / Odjemalci: 0 / Velikost: 20.06 GB / Dokončani: 1
Prenesi torrent Magnet Link Poročaj torrent Opis torrenta NFO
Zvrst: Drama | Vojni
Kategorija: FILMI > WEBRip



Smersh 2019 S01 1080p WEB DL x264 AC3 ExKinoRay
Vojna mini serija
Language(s): Russian
Size: 20.0 GB | Duration: 12 x 45mn | Container: MKV
Audio: AC-3 | 192 Kbps | 2 Channels
Video: AVC | 5100 Kbps | 1920 x 1080
Genre: Drama | War
Podnapisi: srbski
https://www.imdb.com/title/tt8629418/


Aleksey Makarov, Oleg Fomin, Leonid Gromov


1941. Kapetan Službe državne varnosti Georgy Volkov dostavlja Sovjetski zvezi pošiljko smaragdov v skladu s trgovinskim sporazumom med ZSSR in Nemčijo. V pošiljko je vključenih več strogo tajnih dokumentov, katerih vrednost je veliko večja kot kateri koli dragi kamni. Začne se vojna. Vlak, na katerem potuje Volkov, napade odred nacistov, on pa mora zbežati. Ta mora priti do sovjetske strani in čim prej dostaviti pomemben tovor nepoškodovan. Vendar mu je za petami vroč sovražnik - Abwerhin agent Konrad von Bützow. Dva moža se bosta sestala večkrat in kmalu. Soočenje teh dveh močnih, zelo inteligentnih in vrednih nasprotnikov je osnova za zaplet trilogije "Vohuni morajo umreti!"




Earthquake.Bird.2019.SLOSubs.WEBRip.XviD-metalcamp

Klikni za povečavo!
03-07-2020 11:01 naložil ViHaR
Sejalci: 4 / Odjemalci: 0 / Velikost: 2.32 GB / Dokončani: 6
Prenesi torrent Magnet Link Poročaj torrent Opis torrenta NFO
Kategorija: FILMI > WEBRip



Earthquake.Bird.2019.SLOSubs.WEBRip.XviD-metalcamp
Source: Earthquake.Bird.2019.1080p.NF.WEB-DL.DDP5.1.x264-NTG
Leto izida .........: 2019
Velikost ...........: 2,30 GB
Dolžina ............: 106 Minut
Video ...............: 2646 Kbps | 720x304 | 24 fps
Zvok .................: Dolby Digital AC3 5.1 @ 448 kbps
Kodek.................: XviD
Zvrst………….: Kriminalka | Drama | Misterij| Triler
Država………..: VB | Japonska | ZDA
Jezik ................: Angleški, Japonski
Podnapisi .........: Slovenski (custom)
Tehnična obdelava: metalcamp

IMDb Ocena ...: 5,9/10 (11.277 glasov)
IMDb Info .......: https://www.imdb.com/title/tt8178486/
Režija.........: Wash Westmoreland
Scenarij.......: Susanna Jones (roman), Wash Westmoreland


Alicia Vikander ... Lucy Fly
Kiki Sukezane ... Natsuko
Kenichi Masuda ... Mr. Yamada
Chiaki Kawamo ... Policewoman
Ken Yamamura ... Det. Oguchi
Kazuhiro Muroyama ... Det. Kameyama
Naoki Kobayashi ... Teiji Matsuda
Akiko Iwase ... Ms. Katoh


Lucy je sramežljiva prevajalka, ki že več kot pet let živi na Japonskem,
vendar se nikakor ne more vklopiti v družbo. Njene navade skrivajo
stare brazgotine, med drugim nosi v sebi krivdo za smrt ljudi okoli sebe
- nekateri so umrli slučajno, drugi ne. Ko se sreča s fotografom Teijem,
hitro podleže njegovim čarom, kljub vsem znakom, ki temu nasprotujejo.
Zveza se še bolj zaplete, ko se pojavi medicinska sestra Lily, ki v njun odnos
zaseje ljubosumje, ki pa se lahko konča tragično.


Lection 2019 SrbSubs 720p WEBRip XviD AC3 Unknown

Klikni za povečavo!
03-07-2020 10:36 naložil System
Sejalci: 4 / Odjemalci: 0 / Velikost: 3.34 GB / Dokončani: 5
Prenesi torrent Magnet Link Poročaj torrent Opis torrenta NFO
Zvrst: Triler
Kategorija: FILMI > WEBRip
Anonimen nalagalec



Lection 2019 720p WEBRip XviD AC3 Unknown
Language(s): English
Size: 3.34 GB | Duration: 1hr 38mn | Container: AVI
Audio: AC-3 | 448 Kbps | 6 Channels
Video: XviD | 4398 Kbps | 1280 x 528
Genre: Thriller
Podnapisi : srbski
https://www.imdb.com/title/tt11290698/


Mike Amason, Jennifer Hill, Bradley J. Petit


LECTION je triler o lokalnih volitvah v postapokaliptični družbi.



Outback 2019 SrbSubs 720p WEBRip XviD AC3 Unknown

Klikni za povečavo!
03-07-2020 10:22 naložil ViHaR
Sejalci: 2 / Odjemalci: 0 / Velikost: 2.43 GB / Dokončani: 5
Prenesi torrent Magnet Link Poročaj torrent Opis torrenta NFO
Zvrst: Triler
Kategorija: FILMI > WEBRip



Outback 2019 720p WEBRip XviD AC3 Unknown
Language(s): English
Size: 2.43 GB | Duration: 1hr 25mn | Container: AVI
Audio: AC-3 | 448 Kbps | 6 Channels
Video: XviD | 3594 Kbps | 1280 x 720
Genre: Thriller
Podnapisi: srbski
https://www.imdb.com/title/tt7336182/


Kym Cramp, Brendan Donoghue, Lauren Lofberg


Pustolovske počitnice mladega para v zaledju nepremagljive Avstralije ...



Playmobil.The.Movie.2019.SLOSubs.720p.HDTV.H264.AAC-GENOX.mkv

Klikni za povečavo!
03-07-2020 09:47 naložil ViHaR
Sejalci: 3 / Odjemalci: 0 / Velikost: 2.74 GB / Dokončani: 7
Prenesi torrent Poročaj torrent Opis torrenta NFO
Kategorija: FILMI > HDTV



Playmobil.The.Movie.2019.SLOSubs.720p.HDTV.H264.AAC-GENOX
Leto izida .........: 2019
Velikost ...........: 2.74 GiB
Dolžina ............: 1 h 34 min
Video ...............: 4000 kb/s | 1280x720 | 25 fps
Zvok .................: AAC @ 128 Kbps
Jezik ................: Angleški
Kodek.................: H264
Zvrst...............: Animirani | Pustolovski | Komedija | Družinski | Fantazijski | Muzikal
Država .............: Francija | VB | Nemčija | Kitajska | Kanada
Podnapisi .........: SLOVENSKI (RETAiL- VGRAJENI)
Prevod: MEDIATRANSLATIONS

IMDB:
iMDB info: https://www.imdb.com/title/tt4199898/
iMDB ocena: 4.8/10 (2.699 glasov)


Anya Taylor-Joy ... Marla Brenner
Jim Gaffigan ... Del (voice)
Gabriel Bateman ... Charlie Brenner
Adam Lambert ... Emperor Maximus (voice)
Kenan Thompson ... Bloodbones (voice)
Meghan Trainor ... Fairy Godmother (voice)
Daniel Radcliffe ... Rex Dasher (voice)
Paloma Rodriguez ... Valera (voice)


Ko njen mlajši brat Charlie nepričakovano izgine v čarobno animirano
vesolje Playmobil, se nepripravljena Marla odpravi na pot, da bi ga
pripeljala nazaj domov. Medtem ko se odpravlja na fantastično potovanje
po osupljivih novih svetovih, se Marla pridruži novim junaškim prijateljem –
vozniku živil Delu, drznemu in karizmatičnemu tajnemu agentu Rexu
Dasherju, ljubečemu robotu in ekstravagantni pravljični vili ter mnogim
drugim junakom, ki ji razkrijejo nove svetove. Marla in Charlie med
neverjetno pustolovščino ugotovita, da lahko dosežeš vse, le če verjameš
vase – ne glede na to, kako se življenje odvija

The Clearing 2020 BosSubs 720p WEBRip XviD AC3 Unknown

Klikni za povečavo!
03-07-2020 09:36 naložil ViHaR
Sejalci: 2 / Odjemalci: 0 / Velikost: 1.97 GB / Dokončani: 4
Prenesi torrent Magnet Link Poročaj torrent Opis torrenta NFO
Zvrst: Grozljivka
Kategorija: FILMI > WEBRip



The Clearing 2020 720p WEBRip XviD AC3 Unknown
Language(s): English
Size: 1.96 GB | Duration: 1hr 25mn | Container: AVI
Audio: AC-3 | 448 Kbps | 6 Channels
Video: XviD | 2849 Kbps | 1280 x 532
Genre: Horror
Podnapisi: bosanski
https://www.imdb.com/title/tt7411112/


Liam McIntyre, Aundrea Smith, Steven Swadling


Oče se mora boriti skozi apokalipso zombijev, da reši svojo hčer.



Driven.2018.SLOSubs.BRRip.XviD-DrSi(1)

Klikni za povečavo!
03-07-2020 09:23 naložil ViHaR
Sejalci: 0 / Odjemalci: 0 / Velikost: 2.51 GB / Dokončani: 0
Prenesi torrent Magnet Link Poročaj torrent Opis torrenta NFO
Zvrst: Biografija | Drama | Triler
Kategorija: FILMI > BRRip



Naziv: Driven.2018.SLOSubs.BRRip.XviD-DrSi
Source: Driven.2018.720p.BluRay.DD5.1.x264-KASHMiR
Leto izida ........: 2018
Velikost ...........: 2,50 GB
Dolžina ............: 114 Minut
Video ...............: 2695 Kbps | 720x304 | 23,976 fps
Zvok ................: Dolby Digital AC3 5.1 @ 448 Kbps
Kodek...............: XviD
Zvrst………….: Biografski | Triler | Drama
Država .............: ZDA
Jezik ................: Angleški
Podnapisi ........: Slovenski (RETAiL)
Prevod: Blitz Film
TVRip: Toyan –Hvala!!
Za HD priredil: metalcamp
Tehnična obdelava: DVD Rippers Slovenija

IMDb Ocena ...: 6.3/10 (4,235 glasov)
IMDb Info .......: https://www.imdb.com/title/tt5592796/
Režija..........: Nick Hamm
Scenarij.......: Colin Bateman, Alejandro Carpio


Jason Sudeikis ... Jim Hoffman
Lee Pace ... John DeLorean
Judy Greer ... Ellen Hoffman
Isabel Arraiza ... Cristina DeLorean
Michael Cudlitz ... Morgan Hetrick
Erin Moriarty ... Katy Connors
Jamey Sheridan ... Bill
Iddo Goldberg ... Roy
Tara Summers ... Molly Gibson
JJustin Bartha ... Howard Weitzman


Navdihnjeno z resničnimi dogodki je film Prekleta vožnja postavljen v Kalifornijo
v 80-ih in spremlja vrtoglavi vzpon Johna DeLoreana in njegovega kultnega podjetja
DeLorean Motor Company skozi njegovo prijateljstvo s šarmantnim nekdanjim zapornikom,
ki je postal ovaduh FBI-ja, Jimom Hoffmanom.

Leto 1974 in Jim Hoffman (Jason Sudeikis) je povprečni družinski človek – oče dveh otrok,
odličen pilot, nežen soprog ženi Ellen (Judy Greer). Občasno tihotapi mamila, ko pa ga
dobijo, kako na družinskem dopustu tihotapi kokain v ZDA, vidi ambiciozni agent FBI-ja
Benedict J. Tisa (Corey Stoll) to kot priložnost, da prinese zmago FBI-ju, če izkoristi
Jima za aretacijo njegovega neulovljivega dobavitelja. Jim ima priložnost za novi začetek
v bogati četrti San Diega z državno plačo, toda nova služba ovaduha ne gre v najboljši
smeri, ko se spoprijatelji s svojim sosedom, inženirjem in oblikovalcem avtomobilov
Johnom DeLoreanom (Lee Pace).
70 Binladens 2018 SrbSubs 720p BRRip XviD AC3 Unknown

Klikni za povečavo!
03-07-2020 09:09 naložil ViHaR
Sejalci: 4 / Odjemalci: 0 / Velikost: 3.53 GB / Dokončani: 9
Prenesi torrent Magnet Link Poročaj torrent Opis torrenta NFO
Zvrst: Akcija | Kriminalka
Kategorija: FILMI > BRRip



70 Binladens 2018 720p BRRip XviD AC3 Unknown
Language(s): Spanish
Size: 3.52 GB | Duration: 1hr 45mn | Container: AVI
Audio: AC-3 | 448 Kbps | 6 Channels
Video: XviD | 4333 Kbps | 1280 x 536
Genre: ThrillerPodnapisi: srbski
https://www.imdb.com/title/tt7972178/


Emma Suárez, Nathalie Poza, Hugo Silva


Raquel (Emma Suarez) je obupana. Vrsta nesrečnih dogodkov v njenem zasebnem življenju jo prisili v dolg in zdaj mora v 24 urah pričarati 35 000 evrov. Njeno zadnje upanje je bančno posojilo. Toda ravno, ko bi morala dobiti denar, vstopijo v banko roparji in še bolj zapletejo njeno že tako zapleteno situacijo. Čas se ji izteka in najti mora način, kako priti do denarja – za vsako ceno.

JNA.večna.armada.ki.je.ni.več.2020.SLOVENiAN.720p.WEB-DL.H264.AAC-GENOX.mp4

Klikni za povečavo!
03-07-2020 09:01 naložil Spartakus
Sejalci: 4 / Odjemalci: 0 / Velikost: 341.61 MB / Dokončani: 10
Prenesi torrent Magnet Link Poročaj torrent Opis torrenta NFO
Zvrst: Dokumentarni
Kategorija: FILMI > WEBRip


Naziv: JNA.večna.armada.ki.je.ni.več.2020.SLOVENiAN.720p.WEB-DL.H264.AAC-GENOX
Leto izida .........: 2020
Velikost ...........: 342 MiB
Dolžina ............: 25 min
Video ...............: 1800 kb/s | 1280x720 | 25 fps
Zvok .................: AAC @ 128 Kbps
Kodek.................: H264
Zvrst...............: Dokumentarec
Država .............: Slovenija
Jezik ................: Slovenski

VSEBINA:
"Če nisi pripravljen pomagati pri obrambi domovine, tudi te domovine
ne moreš imeti", so besede upokojenega generalmajorja slovenske vojske
dr. Alojza Šteinerja. Besede, ki najizraziteje poudarijo vlogo slovenskih
vojakov in poveljujočih častnikov bivše jugoslovake armade, ki so leta
1990 in 1991 vedeli, da Jugoslavija ni njihova domovina. A v vojake so
jih vzgajali in to so ostali. Kakor so ostali spomini na nekdanjo armado.
V Sledeh smo jih skušali zajeti - neobremenjeno in z vedenjem, da so
del preteklosti, ki je skupna mnogim generacijam.



Starting Up Love 2019 SLoSub WebRip MiXy.mp4

Klikni za povečavo!
01-07-2020 09:36 naložil ViHaR
Sejalci: 4 / Odjemalci: 0 / Velikost: 1.24 GB / Dokončani: 6
Prenesi torrent Magnet Link Poročaj torrent Opis torrenta NFO
Zvrst: Drama | Romantični
Kategorija: FILMI > WEBRip



Complete name : Starting Up Love 2019 SLoSub WebRip MiXy
Format : MPEG-4
Format profile : Base Media
Codec ID : isom (isom/iso2/avc1/mp41)
File size : 1.24 GiB
Duration : 1 h 16 min
Overall bit rate : 2 326 kb/s
Writing application : Lavf54.63.104

Video
ID : 1
Format : AVC
Format/Info : Advanced Video Codec
Format profile : High@L3.1
Format settings : CABAC / 5 Ref Frames
Format settings, CABAC : Yes
Format settings, RefFrames : 5 frames
Format settings, GOP : M=4, N=13
Codec ID : avc1
Codec ID/Info : Advanced Video Coding
Duration : 1 h 16 min
Bit rate : 2 153 kb/s
Width : 1 276 pixels
Height : 720 pixels
Display aspect ratio : 16:9
Frame rate mode : Constant
Frame rate : 30.000 FPS
Color space : YUV
Chroma subsampling : 4:2:0
Bit depth : 8 bits
Scan type : Progressive
Bits/(Pixel*Frame) : 0.078
Stream size : 1.15 GiB (93%)
https://www.imdb.com/title/tt9543238/

Režiser: Ashley Gething


Rocky Myers, Charlene Tilton, Anna Hutchison


Jillian je povsem osredotočena na delo, toda ko jo obvestijo, da je umrl bogati sorodnik, za katerega še nikoli ni slišala, odkrije, da ima tudi družino. Podedovala je čudovito hišo v gorah. Čeprav jo sprva hoče prodati, jo čedni upravitelj prepriča, da hišo spremenita v penzion. Kmalu med njima preskočijo iskrice, toda ko gre vse narobe, se mora Jillian odločiti, ali bo izgubila novo družino in srečo ali pa bo vse tvegala zaradi nepričakovane ljubezni.